osu file format v14

[General]
AudioFilename: audio.mp3
AudioLeadIn: 0
PreviewTime: 71056
Countdown: 0
SampleSet: Soft
StackLeniency: 0.7
Mode: 0
LetterboxInBreaks: 0
WidescreenStoryboard: 0

[Editor]
DistanceSpacing: 0.8
BeatDivisor: 4
GridSize: 4
TimelineZoom: 1

[Metadata]
Title:Daydream cafe ~Gochuumon wa Chino desu ka? ver.~ (Cut Ver.)
TitleUnicode:Daydream café ~ご注文はチノですか?ver.~ (Cut Ver.)
Artist:Chino (CV: Minase Inori)
ArtistUnicode:チノ (CV: 水瀬いのり)
Creator:Moa
Version:Normal
Source:ご注文はうさぎですか?
Tags:manga time kirara MAX Gochuumon wa Usagi desuka? Gochiusa opening Is the order a rabbit? kafuu chino minase inori ごちうさ Japanese Pop JPop
BeatmapID:1826030
BeatmapSetID:872159

[Difficulty]
HPDrainRate:4
CircleSize:3.5
OverallDifficulty:5
ApproachRate:5
SliderMultiplier:1.2
SliderTickRate:1

[Events]
//Background and Video events
0,0,"4eec48d4a0392cde0063f7bf1d7c99f686539a75_s2_n1.jpg",0,0
//Break Periods
//Storyboard Layer 0 (Background)
//Storyboard Layer 1 (Fail)
//Storyboard Layer 2 (Pass)
//Storyboard Layer 3 (Foreground)
//Storyboard Layer 4 (Overlay)
//Storyboard Sound Samples

[TimingPoints]
-1844,400,4,2,2,50,1,0
7756,-100,4,2,2,60,0,0
14156,-100,4,2,2,70,0,0
26556,-100,4,2,2,60,0,0
52356,-100,4,2,2,65,0,0
58556,-100,4,2,1,65,0,0
58756,-100,4,2,2,65,0,0
58956,-100,4,2,2,70,0,1
71156,-100,4,2,2,70,0,0
71356,-100,4,2,1,70,0,0
71556,-100,4,2,2,70,0,0
71756,-100,4,2,2,70,0,1
89356,-100,4,2,2,70,0,0
100556,-100,4,2,2,60,0,0
101556,-100,4,2,2,50,0,0
105356,-100,4,2,2,60,0,0

[Colours]
Combo1 : 255,128,255
Combo2 : 128,255,255
Combo3 : 255,128,192
Combo4 : 0,128,255

[HitObjects]
35,121,756,6,0,L|30:62,2,60
42,170,1356,6,0,P|107:182|155:154,1,120,6|2,0:0|0:0,0:0:0:0:
215,84,2156,2,0,L|402:81,2,180,2|2|2,0:0|0:0|0:0,0:0:0:0:
250,173,3756,2,0,L|374:170,1,120,2|0,0:0|0:0,0:0:0:0:
439,236,4556,5,2,0:0:0:0:
371,303,4956,2,0,P|315:320|248:301,1,120,2|2,0:0|0:0,0:0:0:0:
181,246,5756,1,2,0:0:0:0:
181,246,5956,2,0,P|144:191|179:89,1,180,2|2,0:0|0:0,0:0:0:0:
257,36,6956,2,0,P|279:88|248:151,1,120
177,90,7756,6,0,P|111:74|46:109,1,120,6|8,0:0|0:0,0:0:0:0:
6,168,8556,2,0,P|72:184|137:149,1,120,2|8,0:0|0:0,0:0:0:0:
153,132,9156,2,0,P|233:116|329:145,1,180,2|8,0:0|0:0,0:0:0:0:
400,82,10156,1,2,0:0:0:0:
471,145,10556,2,0,L|473:210,1,60,8|0,0:0|0:0,0:0:0:0:
475,252,10956,6,0,P|443:272|350:255,1,120,6|8,0:0|0:0,0:0:0:0:
319,245,11556,1,0,0:0:0:0:
319,245,11756,2,0,L|192:251,1,120,6|8,0:0|0:0,0:0:0:0:
151,254,12356,2,0,P|125:184|138:127,1,120,4|4,0:0|0:0,0:0:0:0:
150,96,12956,1,4,0:0:0:0:
150,96,13156,2,0,L|283:93,2,120,2|0|8,0:0|1:0|0:0,0:0:0:0:
131,140,14156,6,0,P|82:148|16:121,1,120,6|8,0:0|0:0,0:0:0:0:
18,218,14956,2,0,L|20:344,1,120,2|8,0:0|0:0,0:0:0:0:
97,281,15756,2,0,P|154:266|210:284,1,120,2|8,0:0|0:0,0:0:0:0:
222,330,16356,2,0,P|295:347|345:327,1,120,2|2,0:0|0:0,0:0:0:0:
373,303,16956,1,8,0:0:0:0:
448,243,17356,6,0,P|394:205|319:225,1,120,2|8,0:0|0:0,0:0:0:0:
249,231,18156,2,0,L|109:233,1,120,2|8,0:0|0:0,0:0:0:0:
62,302,18956,2,0,P|34:250|50:177,1,120,2|8,0:0|0:0,0:0:0:0:
24,146,19556,2,0,L|143:144,1,120,2|2,0:0|0:0,0:0:0:0:
191,139,20156,1,8,0:0:0:0:
285,134,20556,6,0,P|291:51|280:11,1,120,6|8,0:0|0:0,0:0:0:0:
377,13,21356,2,0,P|388:71|380:130,1,120,2|8,0:0|0:0,0:0:0:0:
333,215,22156,2,0,L|321:355,1,120,2|8,0:0|0:0,0:0:0:0:
274,339,22756,2,0,P|222:329|163:274,1,120,2|2,0:0|0:0,0:0:0:0:
153,242,23356,1,8,0:0:0:0:
168,147,23756,6,0,P|221:115|295:140,1,120,2|8,0:0|0:0,0:0:0:0:
354,179,24556,2,0,L|488:176,1,120,2|8,0:0|0:0,0:0:0:0:
482,80,25356,2,0,L|362:82,1,120,4|0,0:0|0:0,0:0:0:0:
321,57,25956,2,0,P|258:45|199:68,1,120,4|0,0:0|0:0,0:0:0:0:
163,84,26556,2,0,L|96:83,1,60,8|8,0:0|0:0,0:0:0:0:
62,108,26956,6,0,P|46:164|69:230,1,120,6|8,0:0|0:0,0:0:0:0:
141,277,27756,2,0,L|270:274,1,120,2|8,0:0|0:0,0:0:0:0:
307,284,28356,2,0,P|366:289|436:275,1,120,2|2,0:0|0:0,0:0:0:0:
469,259,28956,1,8,0:0:0:0:
416,178,29356,2,0,P|409:120|416:57,1,120,2|8,0:0|0:0,0:0:0:0:
323,32,30156,6,0,P|241:37|185:22,1,120,2|8,0:0|0:0,0:0:0:0:
156,28,30756,1,0,0:0:0:0:
156,28,30956,2,0,L|158:172,1,120,2|8,0:0|0:0,0:0:0:0:
159,195,31556,2,0,P|243:192|299:209,1,120,2|2,0:0|0:0,0:0:0:0:
319,222,32156,1,8,0:0:0:0:
413,203,32556,1,2,0:0:0:0:
413,107,32956,2,0,L|344:109,1,60,8|8,0:0|0:0,0:0:0:0:
307,96,33356,6,0,L|171:94,1,120,6|8,0:0|0:0,0:0:0:0:
237,12,34156,2,0,L|356:13,1,120,2|8,0:0|0:0,0:0:0:0:
401,32,34756,2,0,P|432:92|410:160,1,120,2|2,0:0|0:0,0:0:0:0:
394,180,35356,1,8,0:0:0:0:
452,255,35756,2,0,P|386:276|326:246,1,120,2|8,0:0|0:0,0:0:0:0:
258,208,36556,6,0,L|120:208,1,120,2|8,0:0|0:0,0:0:0:0:
57,260,37356,2,0,P|40:200|66:145,1,120,2|8,0:0|0:0,0:0:0:0:
97,116,37956,2,0,L|217:116,1,120,2|2,0:0|0:0,0:0:0:0:
293,58,38756,1,2,0:0:0:0:
293,58,38956,2,0,L|430:60,1,120,2|8,0:0|0:0,0:0:0:0:
454,83,39556,1,8,0:0:0:0:
454,83,39756,6,0,P|458:156|453:215,1,120,6|8,0:0|0:0,0:0:0:0:
406,285,40556,2,0,P|349:300|283:284,1,120,2|8,0:0|0:0,0:0:0:0:
213,229,41356,2,0,L|70:213,1,120,2|8,0:0|0:0,0:0:0:0:
68,174,41956,1,0,0:0:0:0:
96,135,42156,2,0,L|215:121,1,120,2|8,0:0|0:0,0:0:0:0:
287,58,42956,6,0,P|316:112|293:175,1,120,2|8,0:0|0:0,0:0:0:0:
238,238,43756,2,0,P|284:264|363:229,1,120,2|8,0:0|0:0,0:0:0:0:
390,229,44356,2,0,L|405:347,1,120,2|2,0:0|0:0,0:0:0:0:
453,348,44956,2,0,L|468:229,1,120,2|2,0:0|0:0,0:0:0:0:
439,133,45756,1,8,0:0:0:0:
483,47,46156,6,0,P|422:31|365:78,1,120,6|8,0:0|0:0,0:0:0:0:
343,149,46956,2,0,L|211:143,1,120,2|8,0:0|0:0,0:0:0:0:
174,142,47556,2,0,P|157:210|176:270,1,120,2|2,0:0|0:0,0:0:0:0:
216,263,48156,2,0,L|335:268,1,120,8|2,0:0|0:0,0:0:0:0:
415,213,48956,1,8,0:0:0:0:
343,149,49356,6,0,P|348:97|338:25,1,120,6|8,0:0|0:0,0:0:0:0:
247,58,50156,2,0,L|60:60,1,180,2|2,0:0|0:0,0:0:0:0:
67,155,51156,2,0,L|3:155,2,60,2|8|0,0:0|0:0|0:0,0:0:0:0:
106,182,51756,2,0,P|169:196|234:169,1,120,2|8,0:0|0:0,0:0:0:0:
258,149,52356,6,0,P|314:131|372:146,1,120,6|2,0:0|0:0,0:0:0:0:
414,168,52956,1,8,0:0:0:0:
414,168,53156,2,0,L|418:304,1,120,2|2,0:0|0:0,0:0:0:0:
328,324,53956,6,0,P|258:334|194:314,1,120,6|2,0:0|0:0,0:0:0:0:
172,293,54556,1,8,0:0:0:0:
172,293,54756,2,0,L|31:295,1,120,2|2,0:0|0:0,0:0:0:0:
36,199,55556,6,0,P|37:137|48:74,1,120,6|2,0:0|0:0,0:0:0:0:
85,52,56156,1,8,0:0:0:0:
85,52,56356,2,0,L|229:56,1,120,2|2,0:0|0:0,0:0:0:0:
295,92,57156,6,0,L|428:89,1,120,6|6,0:0|0:0,0:0:0:0:
462,87,57756,2,0,P|468:128|460:169,1,60,4|4,0:0|0:0,0:0:0:0:
403,219,58356,1,0,0:0:0:0:
403,219,58556,2,0,L|412:296,1,60,8|2,0:0|0:0,0:0:0:0:
389,322,58956,6,0,P|326:336|257:314,1,120,6|8,0:0|0:0,0:0:0:0:
199,261,59756,2,0,P|140:248|83:262,1,120,2|8,0:0|0:0,0:0:0:0:
39,287,60356,2,0,L|35:160,1,120,2|2,0:0|0:0,0:0:0:0:
34,119,60956,1,8,0:0:0:0:
98,47,61356,2,0,P|172:34|225:52,1,120,2|8,0:0|0:0,0:0:0:0:
296,94,62156,6,0,L|422:88,2,120,2|8|2,0:0|0:0|0:0,0:0:0:0:
262,128,63156,2,0,P|256:157|265:201,1,60,2|8,0:0|0:0,0:0:0:0:
271,233,63556,2,0,P|219:267|148:243,1,120,2|2,0:0|0:0,0:0:0:0:
122,235,64156,2,0,L|113:103,1,120,8|2,0:0|0:0,0:0:0:0:
159,30,64956,1,2,0:0:0:0:
242,77,65356,6,0,L|374:76,1,120,6|8,0:0|0:0,0:0:0:0:
448,32,66156,2,0,P|465:90|439:140,1,120,2|8,0:0|0:0,0:0:0:0:
398,166,66756,2,0,P|371:218|388:274,1,120,2|2,0:0|0:0,0:0:0:0:
415,314,67356,1,8,0:0:0:0:
399,359,67556,2,0,L|328:354,1,60,2|0,0:0|0:0,0:0:0:0:
247,329,68156,2,0,L|178:326,1,60,8|0,0:0|0:0,0:0:0:0:
139,324,68556,6,0,L|132:200,1,120,2|8,0:0|0:0,0:0:0:0:
129,156,69156,2,0,P|195:131|260:161,1,120,0|2,0:0|0:0,0:0:0:0:
284,162,69756,1,8,0:0:0:0:
284,162,69956,2,0,L|283:24,2,120,6|6|6,0:0|0:0|0:0,0:0:0:0:
289,257,71156,1,0,0:0:0:0:
289,257,71356,2,0,L|362:256,1,60,8|2,0:0|0:0,0:0:0:0:
396,255,71756,6,0,P|406:178|394:121,1,120,6|8,0:0|0:0,0:0:0:0:
331,69,72556,2,0,P|261:55|192:82,1,120,2|8,0:0|0:0,0:0:0:0:
176,95,73156,2,0,P|118:109|60:96,1,120,2|2,0:0|0:0,0:0:0:0:
18,72,73756,1,8,0:0:0:0:
10,167,74156,2,0,L|18:295,1,120,2|8,0:0|0:0,0:0:0:0:
52,320,74756,1,2,0:0:0:0:
93,345,74956,6,0,P|166:355|225:337,1,120,2|8,0:0|0:0,0:0:0:0:
295,301,75756,2,0,L|424:306,1,120,2|8,0:0|0:0,0:0:0:0:
462,305,76356,2,0,P|470:251|457:185,1,120,2|2,0:0|0:0,0:0:0:0:
416,162,76956,2,0,L|410:38,1,120,8|2,0:0|0:0,0:0:0:0:
315,27,77756,1,2,0:0:0:0:
261,106,78156,6,0,P|191:119|120:96,1,120,6|8,0:0|0:0,0:0:0:0:
83,34,78956,2,0,P|80:67|55:108,1,60,2|0,0:0|0:0,0:0:0:0:
14,169,79556,2,0,P|6:243|22:292,1,120,2|2,0:0|0:0,0:0:0:0:
56,315,80156,1,8,0:0:0:0:
56,315,80356,2,0,L|190:317,1,120,2|8,0:0|0:0,0:0:0:0:
223,318,80956,2,0,P|232:274|219:236,1,60,2|8,0:0|0:0,0:0:0:0:
198,223,81356,6,0,P|183:148|209:96,1,120,6|8,0:0|0:0,0:0:0:0:
258,34,82156,2,0,L|394:36,1,120,2|8,0:0|0:0,0:0:0:0:
425,41,82756,6,0,P|431:102|420:178,1,120,6|2,0:0|0:0,0:0:0:0:
396,198,83356,1,8,0:0:0:0:
396,198,83556,2,0,L|400:332,1,120,2|2,0:0|0:0,0:0:0:0:
313,275,84356,2,0,P|241:262|173:290,1,120,6|2,0:0|0:0,0:0:0:0:
155,298,84956,1,8,0:0:0:0:
155,298,85156,2,0,L|13:292,1,120,2|2,0:0|0:0,0:0:0:0:
17,198,85956,6,0,P|13:131|23:64,1,120,6|2,0:0|0:0,0:0:0:0:
46,38,86556,2,0,L|190:39,1,120,8|0,0:0|0:0,0:0:0:0:
255,73,87356,1,8,0:0:0:0:
255,73,87556,2,0,P|262:142|255:206,1,120,6|6,0:0|0:0,0:0:0:0:
240,237,88156,1,4,0:0:0:0:
240,237,88356,2,0,L|384:237,1,120,2|2,0:0|0:0,0:0:0:0:
407,235,88956,1,8,0:0:0:0:
361,319,89356,6,0,L|241:319,1,120,6|8,0:0|0:0,0:0:0:0:
148,293,90156,2,0,P|130:236|152:182,1,120,2|8,0:0|0:0,0:0:0:0:
213,108,90956,2,0,L|83:95,1,120,2|8,0:0|0:0,0:0:0:0:
93,48,91556,2,0,L|223:35,1,120,2|2,0:0|0:0,0:0:0:0:
260,32,92156,1,8,0:0:0:0:
350,69,92556,6,0,P|405:80|477:60,1,120,2|8,0:0|0:0,0:0:0:0:
494,156,93356,2,0,P|497:221|494:281,1,120,2|8,0:0|0:0,0:0:0:0:
411,324,94156,2,0,P|334:328|280:317,1,120,2|8,0:0|0:0,0:0:0:0:
249,297,94756,2,0,P|189:288|130:293,1,120,2|2,0:0|0:0,0:0:0:0:
85,310,95356,1,8,0:0:0:0:
36,227,95756,6,0,P|31:167|40:100,1,120,6|8,0:0|0:0,0:0:0:0:
104,38,96556,2,0,L|239:39,1,120,2|8,0:0|0:0,0:0:0:0:
225,135,97356,2,0,L|344:135,1,120,2|8,0:0|0:0,0:0:0:0:
392,141,97956,2,0,P|380:207|396:269,1,120,2|2,0:0|0:0,0:0:0:0:
410,301,98556,1,8,0:0:0:0:
315,318,98956,6,0,P|267:326|179:306,1,120,2|8,0:0|0:0,0:0:0:0:
211,218,99756,2,0,P|223:155|208:74,1,120,2|8,0:0|0:0,0:0:0:0:
128,138,100556,2,0,L|105:325,2,180,4|4|0,0:0|0:0|0:0,0:0:0:0:
138,43,102156,6,0,P|201:27|312:58,1,180,6|0,0:0|0:0,0:0:0:0:
349,84,102956,2,0,L|435:83,2,60,2|0|2,0:0|0:0|0:0,0:0:0:0:
267,135,103756,2,0,P|252:213|266:312,1,180,6|0,0:0|0:0,0:0:0:0:
282,357,104556,2,0,L|363:355,2,60,2|0|2,0:0|0:0|0:0,0:0:0:0:
189,330,105356,6,0,P|109:313|54:326,1,120,4|0,0:0|0:0,0:0:0:0:
27,336,105956,2,0,L|29:200,1,120,4|0,0:0|0:0,0:0:0:0:
30,168,106556,2,0,P|79:154|152:183,1,120,4|0,0:0|0:0,0:0:0:0:
175,210,107156,2,0,L|244:213,1,60,4|4,0:0|0:0,0:0:0:0:
282,215,107556,1,4,0:0:0:0:
