osu file format v14

[General]
AudioFilename: audio.mp3
AudioLeadIn: 0
PreviewTime: 71056
Countdown: 0
SampleSet: Soft
StackLeniency: 0.7
Mode: 0
LetterboxInBreaks: 0
WidescreenStoryboard: 0

[Editor]
DistanceSpacing: 1.2
BeatDivisor: 4
GridSize: 4
TimelineZoom: 1

[Metadata]
Title:Daydream cafe ~Gochuumon wa Chino desu ka? ver.~ (Cut Ver.)
TitleUnicode:Daydream café ~ご注文はチノですか?ver.~ (Cut Ver.)
Artist:Chino (CV: Minase Inori)
ArtistUnicode:チノ (CV: 水瀬いのり)
Creator:Moa
Version:Hard
Source:ご注文はうさぎですか?
Tags:manga time kirara MAX Gochuumon wa Usagi desuka? Gochiusa opening Is the order a rabbit? kafuu chino minase inori ごちうさ Japanese Pop JPop
BeatmapID:1825764
BeatmapSetID:872159

[Difficulty]
HPDrainRate:5.5
CircleSize:4
OverallDifficulty:6
ApproachRate:8
SliderMultiplier:1.5
SliderTickRate:1

[Events]
//Background and Video events
0,0,"4eec48d4a0392cde0063f7bf1d7c99f686539a75_s2_n1.jpg",0,0
//Break Periods
//Storyboard Layer 0 (Background)
//Storyboard Layer 1 (Fail)
//Storyboard Layer 2 (Pass)
//Storyboard Layer 3 (Foreground)
//Storyboard Layer 4 (Overlay)
//Storyboard Sound Samples

[TimingPoints]
-1844,400,4,2,2,50,1,0
756,-125,4,2,2,50,0,0
1356,-100,4,2,2,50,0,0
7750,-100,4,2,2,60,0,0
14156,-100,4,2,2,70,0,0
26356,-100,4,2,2,60,0,0
52356,-100,4,2,2,65,0,0
58556,-100,4,2,1,65,0,0
58756,-100,4,2,2,65,0,0
58956,-100,4,2,2,70,0,1
71156,-100,4,2,2,70,0,0
71356,-100,4,2,1,70,0,0
71556,-100,4,2,2,70,0,0
71756,-100,4,2,2,70,0,1
89356,-100,4,2,2,70,0,0
100556,-100,4,2,2,60,0,0
101556,-100,4,2,2,50,0,0
105356,-100,4,2,2,60,0,0

[Colours]
Combo1 : 255,128,255
Combo2 : 128,255,255
Combo3 : 255,128,192
Combo4 : 0,128,255

[HitObjects]
174,180,756,6,0,L|262:172,2,60
143,94,1356,6,0,P|91:71|46:94,1,75,6|0,0:0|0:0,0:0:0:0:
86,164,1756,2,0,L|88:256,1,75,2|0,0:0|0:0,0:0:0:0:
137,313,2156,1,2,0:0:0:0:
226,300,2356,2,0,P|269:287|300:247,1,75,2|0,0:0|0:0,0:0:0:0:
409,185,2756,6,0,P|372:178|336:188,1,75,2|0,0:0|0:0,0:0:0:0:
379,268,3156,2,0,P|415:274|451:264,1,75,2|2,0:0|0:0,0:0:0:0:
497,187,3556,1,0,0:0:0:0:
454,107,3756,2,0,L|445:9,1,75,2|2,0:0|0:0,0:0:0:0:
357,24,4156,2,0,L|350:98,1,75,0|2,0:0|0:0,0:0:0:0:
286,208,4556,6,0,L|268:60,2,150,2|2|2,0:0|0:0|0:0,0:0:0:0:
286,208,5756,1,2,0:0:0:0:
355,265,5956,6,0,P|303:301|224:263,1,150,2|2,0:0|0:0,0:0:0:0:
164,207,6556,2,0,L|58:207,1,75,2|0,0:0|0:0,0:0:0:0:
87,117,6956,2,0,L|162:117,1,75,2|2,0:0|0:0,0:0:0:0:
202,36,7356,2,0,L|162:36,3,37.5
205,55,7756,6,0,L|309:57,1,75,6|0,0:0|0:0,0:0:0:0:
368,78,8156,2,0,P|354:124|364:169,1,75,8|0,0:0|0:0,0:0:0:0:
431,200,8556,2,0,P|445:154|435:109,1,75,2|2,0:0|0:0,0:0:0:0:
368,78,8956,1,8,0:0:0:0:
283,183,9156,6,0,P|230:193|127:144,1,150,2|2,0:0|0:0,0:0:0:0:
84,90,9756,1,8,0:0:0:0:
21,154,9956,2,0,L|28:330,1,150,2|2,0:0|0:0,0:0:0:0:
105,348,10556,2,0,P|118:291|98:251,1,75,8|0,0:0|0:0,0:0:0:0:
189,174,10956,6,0,P|185:211|199:246,1,75,6|0,0:0|0:0,0:0:0:0:
277,290,11356,2,0,L|379:287,1,75,8|0,0:0|0:0,0:0:0:0:
424,234,11756,1,6,0:0:0:0:
359,168,11956,2,0,P|397:143|443:149,1,75,0|12,0:0|0:0,0:0:0:0:
275,67,12356,6,0,B|245:125|266:184|266:184|229:148,1,150,4|4,0:0|0:0,0:0:0:0:
165,121,12956,1,4,0:0:0:0:
39,176,13156,2,0,P|72:192|110:192,1,75,2|0,0:0|0:0,0:0:0:0:
177,251,13556,2,0,P|180:292|210:343,1,75,0|8,1:0|0:0,0:0:0:0:
271,366,13956,1,8,0:0:0:0:
271,366,14056,1,8,0:0:0:0:
271,366,14156,6,0,L|368:358,1,75,6|0,0:0|0:0,0:0:0:0:
379,276,14556,2,0,L|304:282,1,75,8|0,0:0|0:0,0:0:0:0:
244,214,14956,1,2,0:0:0:0:
244,214,15156,1,2,0:0:0:0:
306,148,15356,2,0,P|244:123|214:135,1,75,8|0,0:0|0:0,0:0:0:0:
87,173,15756,6,0,L|162:171,1,75,2|0,0:0|0:0,0:0:0:0:
239,123,16156,1,8,0:0:0:0:
187,49,16356,2,0,P|242:31|286:50,1,75,2|0,0:0|0:0,0:0:0:0:
328,88,16756,2,0,L|418:86,1,75,2|8,0:0|0:0,0:0:0:0:
466,22,17156,6,0,P|495:86|448:163,1,150,2|2,0:0|0:0,0:0:0:0:
388,205,17756,2,0,L|313:206,1,75,8|0,0:0|0:0,0:0:0:0:
223,208,18156,1,2,0:0:0:0:
223,208,18356,1,2,0:0:0:0:
167,278,18556,2,0,P|225:299|254:283,1,75,8|0,0:0|0:0,0:0:0:0:
313,206,18956,6,0,L|306:56,1,150,2|8,0:0|0:0,0:0:0:0:
396,50,19556,2,0,P|344:142|282:140,1,150,2|2,0:0|0:0,0:0:0:0:
228,111,20156,2,0,L|173:109,1,37.5,8|0,0:0|0:0,0:0:0:0:
149,128,20356,2,0,L|95:134,1,37.5,8|8,0:0|0:0,0:0:0:0:
68,144,20556,6,0,P|64:200|81:232,1,75,6|0,0:0|0:0,0:0:0:0:
138,275,20956,2,0,L|225:274,1,75,8|0,0:0|0:0,0:0:0:0:
282,217,21356,1,2,0:0:0:0:
282,217,21556,1,2,0:0:0:0:
344,152,21756,2,0,P|316:129|279:124,1,75,8|0,0:0|0:0,0:0:0:0:
371,239,22156,6,0,P|427:191|424:119,1,150,2|8,0:0|0:0,0:0:0:0:
383,38,22756,2,0,L|288:39,1,75,2|0,0:0|0:0,0:0:0:0:
221,64,23156,2,0,L|146:63,1,75,2|8,0:0|0:0,0:0:0:0:
68,109,23556,6,0,P|52:169|76:271,1,150,2|2,0:0|0:0,0:0:0:0:
147,295,24156,2,0,P|159:238|143:208,1,75,8|0,0:0|0:0,0:0:0:0:
200,146,24556,1,2,0:0:0:0:
200,146,24756,1,2,0:0:0:0:
255,217,24956,2,0,P|307:227|337:206,1,75,8|0,0:0|0:0,0:0:0:0:
398,166,25356,5,4,0:0:0:0:
398,166,25956,5,4,0:0:0:0:
398,166,26356,2,0,L|401:69,2,75,0|8|8,0:0|0:0|0:0,0:0:0:0:
395,210,26856,1,8,0:0:0:0:
391,254,26956,6,0,P|365:264|309:240,1,75,6|0,0:0|0:0,0:0:0:0:
246,200,27356,2,0,L|166:209,1,75,8|0,0:0|0:0,0:0:0:0:
101,265,27756,2,0,P|80:216|84:190,1,75,2|2,0:0|0:0,0:0:0:0:
50,111,28156,1,8,0:0:0:0:
50,111,28356,6,0,P|117:81|183:112,1,150,2|2,0:0|0:0,0:0:0:0:
273,121,28956,2,0,L|361:113,1,75,8|0,0:0|0:0,0:0:0:0:
429,153,29356,1,2,0:0:0:0:
429,153,29556,1,2,0:0:0:0:
377,227,29756,2,0,P|373:279|384:321,1,75,8|0,0:0|0:0,0:0:0:0:
295,338,30156,6,0,P|280:268|302:175,1,150,2|8,0:0|0:0,0:0:0:0:
207,217,30756,1,0,0:0:0:0:
149,147,30956,2,0,P|189:124|240:148,2,75,2|2|8,0:0|0:0|0:0,0:0:0:0:
101,223,31556,6,0,P|60:169|80:87,1,150,2|2,0:0|0:0,0:0:0:0:
133,24,32156,1,8,0:0:0:0:
133,24,32356,1,2,0:0:0:0:
221,38,32556,2,0,L|270:34,2,37.5,2|8|2,0:0|0:0|0:0,0:0:0:0:
214,126,32956,2,0,L|314:136,1,75,8|8,0:0|0:0,0:0:0:0:
333,140,33256,1,8,0:0:0:0:
377,146,33356,6,0,P|385:216|367:239,1,75,6|0,0:0|0:0,0:0:0:0:
319,279,33756,2,0,L|220:279,1,75,8|0,0:0|0:0,0:0:0:0:
167,229,34156,2,0,P|151:262|153:299,1,75,2|2,0:0|0:0,0:0:0:0:
244,279,34556,1,8,0:0:0:0:
250,192,34756,6,0,P|203:140|116:159,1,150,2|2,0:0|0:0,0:0:0:0:
61,207,35356,2,0,L|56:303,1,75,8|0,0:0|0:0,0:0:0:0:
106,357,35756,1,2,0:0:0:0:
106,357,35956,1,2,0:0:0:0:
176,300,36156,2,0,L|275:295,1,75,8|0,0:0|0:0,0:0:0:0:
317,356,36556,6,0,P|342:285|302:224,1,150,2|8,0:0|0:0,0:0:0:0:
226,181,37156,1,0,0:0:0:0:
175,106,37356,2,0,P|218:86|253:98,1,75,2|2,0:0|0:0,0:0:0:0:
226,181,37756,1,8,0:0:0:0:
160,242,37956,6,0,P|231:274|306:211,1,150,2|2,0:0|0:0,0:0:0:0:
351,176,38556,1,8,0:0:0:0:
432,215,38756,2,0,P|442:162|423:127,1,75,2|2,0:0|0:0,0:0:0:0:
366,84,39156,1,0,0:0:0:0:
366,84,39256,1,0,0:0:0:0:
366,84,39356,2,0,L|294:88,1,37.5,8|0,0:0|0:0,0:0:0:0:
283,91,39556,2,0,L|211:95,1,37.5,8|8,0:0|0:0,0:0:0:0:
200,97,39756,6,0,L|106:89,1,75,6|0,0:0|0:0,0:0:0:0:
64,156,40156,2,0,P|121:183|155:169,1,75,8|0,0:0|0:0,0:0:0:0:
195,243,40556,2,0,L|196:331,1,75,2|2,0:0|0:0,0:0:0:0:
286,317,40956,2,0,L|286:242,1,75,8|0,0:0|0:0,0:0:0:0:
351,181,41356,6,0,P|357:144|349:107,1,75,2|0,0:0|0:0,0:0:0:0:
295,35,41756,2,0,P|344:13|387:38,1,75,8|0,0:0|0:0,0:0:0:0:
433,72,42156,1,2,0:0:0:0:
421,161,42356,1,2,0:0:0:0:
349,107,42556,1,8,0:0:0:0:
349,107,42956,6,0,L|254:107,1,75,2|2,0:0|0:0,0:0:0:0:
191,72,43356,2,0,P|185:128|200:154,1,75,8|0,0:0|0:0,0:0:0:0:
263,197,43756,2,0,L|264:304,1,75,2|2,0:0|0:0,0:0:0:0:
264,361,44156,1,8,0:0:0:0:
404,272,44356,6,0,P|333:249|263:271,1,150,2|2,0:0|0:0,0:0:0:0:
189,324,44956,2,0,L|99:316,1,75,8|2,0:0|0:0,0:0:0:0:
44,260,45356,2,0,P|39:209|56:175,1,75,0|2,0:0|0:0,0:0:0:0:
94,110,45756,1,8,0:0:0:0:
94,110,45956,1,8,0:0:0:0:
238,153,46156,6,0,P|203:163|168:152,1,75,6|0,0:0|0:0,0:0:0:0:
205,69,46556,2,0,P|240:59|275:70,1,75,8|0,0:0|0:0,0:0:0:0:
326,145,46956,2,0,L|339:240,2,75,2|2|8,0:0|0:0|0:0,0:0:0:0:
401,95,47556,6,0,L|425:266,1,150,2|2,0:0|0:0,0:0:0:0:
355,304,48156,2,0,P|306:312|270:292,1,75,8|0,0:0|0:0,0:0:0:0:
215,243,48556,2,0,L|124:247,1,75,2|2,0:0|0:0,0:0:0:0:
69,302,48956,2,0,P|48:246|61:211,1,75,8|0,0:0|0:0,0:0:0:0:
111,91,49356,6,0,P|118:127|109:164,1,75,6|0,0:0|0:0,0:0:0:0:
27,125,49756,2,0,P|17:88|24:52,1,75,8|0,0:0|0:0,0:0:0:0:
100,2,50156,1,2,0:0:0:0:
100,2,50356,1,2,0:0:0:0:
111,91,50556,1,8,0:0:0:0:
242,20,50756,1,2,0:0:0:0:
242,20,50956,6,0,P|275:79|235:162,1,150,0|8,0:0|0:0,0:0:0:0:
173,202,51556,1,0,0:0:0:0:
124,277,51756,2,0,P|177:295|202:282,1,75,2|2,0:0|0:0,0:0:0:0:
278,262,52156,1,8,0:0:0:0:
346,320,52356,6,0,P|368:257|323:182,1,150,6|2,0:0|0:0,0:0:0:0:
364,103,52956,1,8,0:0:0:0:
431,43,53156,2,0,P|371:11|286:65,1,150,2|2,0:0|0:0,0:0:0:0:
236,105,53756,1,8,0:0:0:0:
161,55,53956,6,0,P|146:118|195:187,1,150,6|2,0:0|0:0,0:0:0:0:
263,238,54556,1,8,0:0:0:0:
336,289,54756,2,0,P|300:326|209:311,1,150,2|2,0:0|0:0,0:0:0:0:
137,258,55356,1,8,0:0:0:0:
191,184,55556,6,0,P|227:147|318:162,1,150,6|2,0:0|0:0,0:0:0:0:
382,223,56156,1,8,0:0:0:0:
449,282,56356,2,0,P|474:220|429:146,1,150,2|2,0:0|0:0,0:0:0:0:
372,87,56956,1,8,0:0:0:0:
222,92,57156,6,0,L|371:86,1,150,6|6,0:0|0:0,0:0:0:0:
245,178,57756,2,0,P|199:181|160:150,1,75,4|4,0:0|0:0,0:0:0:0:
48,38,58356,5,0,0:0:0:0:
22,124,58556,1,8,0:0:0:0:
109,101,58756,1,2,0:0:0:0:
48,38,58956,6,0,P|121:11|189:74,1,150,6|8,0:0|0:0,0:0:0:0:
230,120,59556,1,0,0:0:0:0:
184,197,59756,2,0,P|233:212|271:194,1,75,2|2,0:0|0:0,0:0:0:0:
230,120,60156,1,8,0:0:0:0:
100,159,60356,6,0,P|90:221|157:285,1,150,2|2,0:0|0:0,0:0:0:0:
232,302,60956,2,0,L|338:298,1,75,8|0,0:0|0:0,0:0:0:0:
385,343,61356,2,0,P|400:297|388:262,1,75,2|2,0:0|0:0,0:0:0:0:
328,209,61756,1,8,0:0:0:0:
328,209,61956,1,0,0:0:0:0:
271,135,62156,6,0,P|340:113|400:155,2,150,2|8|2,0:0|0:0|0:0,0:0:0:0:
205,197,63156,2,0,L|150:199,2,37.5,2|0|8,0:0|0:0|0:0,0:0:0:0:
242,278,63556,6,0,L|83:283,1,150,2|2,0:0|0:0,0:0:0:0:
25,222,64156,2,0,P|20:169|33:138,1,75,8|0,0:0|0:0,0:0:0:0:
87,82,64556,1,2,0:0:0:0:
87,82,64756,1,8,0:0:0:0:
166,40,64956,2,0,P|178:85|158:131,1,75,2|8,0:0|0:0,0:0:0:0:
243,165,65356,6,0,P|309:154|398:172,1,150,6|8,0:0|0:0,0:0:0:0:
452,234,65956,1,0,0:0:0:0:
510,302,66156,2,0,P|477:324|438:323,1,75,2|2,0:0|0:0,0:0:0:0:
452,234,66556,1,8,0:0:0:0:
354,330,66756,6,0,L|192:319,1,150,2|2,0:0|0:0,0:0:0:0:
137,259,67356,1,8,0:0:0:0:
206,202,67556,2,0,P|214:153|193:109,2,75,2|0|2,0:0|0:0|0:0,0:0:0:0:
137,259,68156,2,0,L|53:259,1,75,8|0,0:0|0:0,0:0:0:0:
48,170,68556,6,0,L|123:170,1,75,2|0,0:0|0:0,0:0:0:0:
206,202,68956,1,8,0:0:0:0:
282,249,69156,2,0,P|299:205|283:163,1,75,0|2,0:0|0:0,0:0:0:0:
232,113,69556,1,2,0:0:0:0:
206,202,69756,1,8,0:0:0:0:
164,52,69956,6,0,P|223:17|300:55,1,150,6|6,0:0|0:0,0:0:0:0:
363,102,70556,2,0,L|454:92,1,75,4|6,0:0|0:0,0:0:0:0:
375,263,71156,5,0,0:0:0:0:
322,189,71356,1,8,0:0:0:0:
411,180,71556,1,2,0:0:0:0:
375,263,71756,6,0,P|306:284|244:229,1,150,6|8,0:0|0:0,0:0:0:0:
186,174,72356,1,0,0:0:0:0:
126,106,72556,2,0,P|176:80|214:93,1,75,2|2,0:0|0:0,0:0:0:0:
186,174,72956,1,8,0:0:0:0:
97,190,73156,6,0,P|47:150|47:65,1,150,2|2,0:0|0:0,0:0:0:0:
126,106,73756,2,0,P|176:80|214:93,1,75,8|0,0:0|0:0,0:0:0:0:
268,130,74156,2,0,L|371:130,1,75,2|2,0:0|0:0,0:0:0:0:
404,195,74556,1,8,0:0:0:0:
404,195,74756,1,0,0:0:0:0:
354,270,74956,6,0,P|416:289|487:224,2,150,2|8|2,0:0|0:0|0:0,0:0:0:0:
279,219,75956,2,0,L|216:223,2,37.5,2|0|8,0:0|0:0|0:0,0:0:0:0:
271,309,76356,6,0,L|106:319,1,150,2|2,0:0|0:0,0:0:0:0:
54,257,76956,2,0,P|47:201|60:174,1,75,8|0,0:0|0:0,0:0:0:0:
126,133,77356,2,0,L|129:50,1,75,2|8,0:0|0:0,0:0:0:0:
205,11,77756,1,2,0:0:0:0:
205,11,77956,1,8,0:0:0:0:
346,59,78156,6,0,P|312:72|276:65,1,75,6|0,0:0|0:0,0:0:0:0:
220,136,78556,2,0,L|224:239,1,75,8|0,0:0|0:0,0:0:0:0:
184,292,78956,2,0,P|243:302|270:281,1,75,2|2,0:0|0:0,0:0:0:0:
314,228,79356,1,8,0:0:0:0:
388,278,79556,6,0,P|403:223|341:143,1,150,2|2,0:0|0:0,0:0:0:0:
276,105,80156,1,8,0:0:0:0:
218,36,80356,2,0,P|267:13|312:30,1,75,2|0,0:0|0:0,0:0:0:0:
276,105,80756,1,8,0:0:0:0:
187,121,80956,2,0,L|86:117,1,75,2|8,0:0|0:0,0:0:0:0:
144,202,81356,6,0,L|218:204,1,75,6|0,0:0|0:0,0:0:0:0:
288,262,81756,2,0,P|338:259|366:235,1,75,8|0,0:0|0:0,0:0:0:0:
399,165,82156,1,2,0:0:0:0:
446,88,82356,2,0,P|403:71|361:87,1,75,2|8,0:0|0:0,0:0:0:0:
249,151,82756,6,0,L|420:167,1,150,6|2,0:0|0:0,0:0:0:0:
455,235,83356,1,8,0:0:0:0:
484,320,83556,2,0,P|442:329|408:310,1,75,2|0,0:0|0:0,0:0:0:0:
336,269,83956,2,0,P|301:255|266:265,1,75,2|8,0:0|0:0,0:0:0:0:
156,343,84356,6,0,L|150:187,1,150,6|2,0:0|0:0,0:0:0:0:
145,103,84956,1,8,0:0:0:0:
115,17,85156,2,0,P|159:7|193:29,1,75,2|0,0:0|0:0,0:0:0:0:
234,94,85556,2,0,L|316:95,1,75,2|8,0:0|0:0,0:0:0:0:
388,50,85956,6,0,P|403:100|391:132,1,75,6|0,0:0|0:0,0:0:0:0:
331,182,86356,1,2,0:0:0:0:
331,182,86456,1,0,0:0:0:0:
331,182,86556,2,0,L|333:269,1,75,8|2,0:0|0:0,0:0:0:0:
290,336,86956,2,0,P|334:353|369:336,2,75,0|2|8,0:0|0:0|0:0,0:0:0:0:
182,262,87556,6,0,L|347:256,1,150,6|6,0:0|0:0,0:0:0:0:
421,252,88156,1,4,0:0:0:0:
467,175,88356,2,0,P|430:157|386:174,1,75,2|0,0:0|0:0,0:0:0:0:
317,175,88756,2,0,L|307:81,1,75,2|8,0:0|0:0,0:0:0:0:
242,39,89156,1,8,0:0:0:0:
176,100,89356,6,0,P|105:104|85:88,1,75,6|0,0:0|0:0,0:0:0:0:
21,68,89756,2,0,L|27:171,1,75,8|0,0:0|0:0,0:0:0:0:
35,232,90156,1,2,0:0:0:0:
35,232,90356,1,2,0:0:0:0:
118,198,90556,2,0,P|148:219|184:215,1,75,8|0,0:0|0:0,0:0:0:0:
269,183,90956,6,0,L|356:182,1,75,2|0,0:0|0:0,0:0:0:0:
418,131,91356,1,8,0:0:0:0:
468,56,91556,2,0,P|423:38|387:48,1,75,2|0,0:0|0:0,0:0:0:0:
311,65,91956,2,0,P|274:68|241:51,1,75,2|8,0:0|0:0,0:0:0:0:
150,44,92356,6,0,P|159:112|154:216,1,150,2|2,0:0|0:0,0:0:0:0:
107,269,92956,2,0,P|164:286|191:270,1,75,8|0,0:0|0:0,0:0:0:0:
242,220,93356,2,0,L|336:219,1,75,2|2,0:0|0:0,0:0:0:0:
395,263,93756,1,8,0:0:0:0:
395,263,93956,1,0,0:0:0:0:
477,298,94156,6,0,P|486:252|470:217,1,75,2|0,0:0|0:0,0:0:0:0:
407,169,94556,1,8,0:0:0:0:
464,100,94756,2,0,P|410:76|330:128,1,150,2|2,0:0|0:0,0:0:0:0:
263,170,95356,2,0,L|195:165,1,37.5,8|0,0:0|0:0,0:0:0:0:
180,164,95556,2,0,L|112:159,1,37.5,8|8,0:0|0:0,0:0:0:0:
97,160,95756,6,0,P|87:110|100:77,1,75,6|0,0:0|0:0,0:0:0:0:
164,31,96156,2,0,L|248:33,1,75,8|0,0:0|0:0,0:0:0:0:
306,91,96556,1,2,0:0:0:0:
306,91,96756,1,2,0:0:0:0:
366,156,96956,2,0,P|338:179|301:182,1,75,8|0,0:0|0:0,0:0:0:0:
418,82,97356,6,0,P|456:138|413:231,1,150,2|8,0:0|0:0,0:0:0:0:
376,280,97956,2,0,L|272:282,1,75,2|0,0:0|0:0,0:0:0:0:
224,234,98356,2,0,L|131:231,1,75,2|8,0:0|0:0,0:0:0:0:
84,295,98756,6,0,P|58:227|94:160,1,150,2|2,0:0|0:0,0:0:0:0:
166,113,99356,2,0,L|159:28,1,75,8|0,0:0|0:0,0:0:0:0:
249,35,99756,2,0,L|255:109,1,75,2|2,0:0|0:0,0:0:0:0:
328,162,100156,2,0,P|379:165|428:144,1,75,8|0,0:0|0:0,0:0:0:0:
471,102,100556,5,4,0:0:0:0:
471,102,101156,5,4,0:0:0:0:
471,102,102156,6,0,P|475:233|463:264,1,150,6|2,0:0|0:0,0:0:0:0:
395,300,102756,1,0,0:0:0:0:
395,300,102956,2,0,L|290:294,1,75,2|0,0:0|0:0,0:0:0:0:
236,329,103356,2,0,P|230:274|244:245,1,75,2|0,0:0|0:0,0:0:0:0:
314,210,103756,6,0,P|270:168|168:207,1,150,6|2,0:0|0:0,0:0:0:0:
108,225,104356,1,0,0:0:0:0:
108,225,104556,2,0,L|90:126,1,75,2|0,0:0|0:0,0:0:0:0:
164,93,104956,2,0,L|182:-6,1,75,2|0,0:0|0:0,0:0:0:0:
258,60,105356,6,0,P|325:88|404:52,1,150,4|0,0:0|0:0,0:0:0:0:
476,24,105956,2,0,L|479:189,1,150,4|0,0:0|0:0,0:0:0:0:
444,257,106556,2,0,P|412:286|407:216,1,150,4|0,0:0|0:0,0:0:0:0:
478,173,107156,5,4,0:0:0:0:
352,143,107356,1,4,0:0:0:0:
228,110,107556,1,4,0:0:0:0:
