osu file format v14

[General]
AudioFilename: audio.mp3
AudioLeadIn: 0
PreviewTime: 71056
Countdown: 0
SampleSet: Soft
StackLeniency: 0.2
Mode: 0
LetterboxInBreaks: 0
WidescreenStoryboard: 0

[Editor]
DistanceSpacing: 0.9
BeatDivisor: 4
GridSize: 4
TimelineZoom: 1

[Metadata]
Title:Daydream cafe ~Gochuumon wa Chino desu ka? ver.~ (Cut Ver.)
TitleUnicode:Daydream café ~ご注文はチノですか?ver.~ (Cut Ver.)
Artist:Chino (CV: Minase Inori)
ArtistUnicode:チノ (CV: 水瀬いのり)
Creator:Moa
Version:Cappuccino
Source:ご注文はうさぎですか?
Tags:manga time kirara MAX Gochuumon wa Usagi desuka? Gochiusa opening Is the order a rabbit? kafuu chino minase inori ごちうさ Japanese Pop JPop
BeatmapID:1822516
BeatmapSetID:872159

[Difficulty]
HPDrainRate:7
CircleSize:4
OverallDifficulty:8
ApproachRate:8.7
SliderMultiplier:1.7
SliderTickRate:1

[Events]
//Background and Video events
0,0,"4eec48d4a0392cde0063f7bf1d7c99f686539a75_s2_n1.jpg",0,0
//Break Periods
//Storyboard Layer 0 (Background)
//Storyboard Layer 1 (Fail)
//Storyboard Layer 2 (Pass)
//Storyboard Layer 3 (Foreground)
//Storyboard Layer 4 (Overlay)
//Storyboard Sound Samples

[TimingPoints]
-1844,400,4,2,2,50,1,0
7756,-100,4,2,2,60,0,0
14156,-100,4,2,2,70,0,0
25356,-200,4,2,2,70,0,0
26356,-100,4,2,2,60,0,0
52356,-100,4,2,2,65,0,0
58556,-100,4,2,1,65,0,0
58756,-100,4,2,2,65,0,0
58956,-90.9090909090909,4,2,2,70,0,1
71156,-90.9090909090909,4,2,2,70,0,0
71356,-90.9090909090909,4,2,1,70,0,0
71556,-90.9090909090909,4,2,2,70,0,0
71756,-90.9090909090909,4,2,2,70,0,1
89356,-90.9090909090909,4,2,2,70,0,0
100556,-200,4,2,2,60,0,0
101556,-90.9090909090909,4,2,2,50,0,0
102156,-133.333333333333,4,2,2,50,0,0
105356,-100,4,2,2,60,0,0

[Colours]
Combo1 : 255,128,255
Combo2 : 128,255,255
Combo3 : 255,128,192
Combo4 : 0,128,255

[HitObjects]
154,151,756,5,0,0:0:0:0:
111,82,956,2,0,P|143:67|196:82,1,85
407,132,1356,6,0,L|237:145,2,170,6|2|2,0:0|0:0|0:0,0:0:0:0:
278,223,2356,2,0,P|239:237|199:226,1,85,2|0,0:0|0:0,0:0:0:0:
370,234,2756,6,0,B|400:261|400:261|409:97,1,170,2|2,0:0|0:0,0:0:0:0:
446,326,3356,2,0,P|394:346|359:329,1,85,2|0,0:0|0:0,0:0:0:0:
227,299,3756,2,0,P|279:279|314:296,1,85,2|2,0:0|0:0,0:0:0:0:
146,349,4156,1,0,0:0:0:0:
108,264,4356,1,2,0:0:0:0:
163,190,4556,6,0,P|252:177|333:211,2,170,2|2|2,0:0|0:0|0:0,0:0:0:0:
16,272,5556,1,0,0:0:0:0:
108,264,5756,1,2,0:0:0:0:
163,190,5956,6,0,P|177:115|159:16,1,170,2|2,0:0|0:0,0:0:0:0:
40,69,6556,2,0,P|31:122|53:177,1,85,2|0,0:0|0:0,0:0:0:0:
108,264,6956,1,2,0:0:0:0:
163,190,7156,1,2,0:0:0:0:
16,272,7356,1,0,0:0:0:0:
24,309,7456,1,0,0:0:0:0:
47,339,7556,1,0,0:0:0:0:
79,359,7656,1,0,0:0:0:0:
117,360,7756,6,0,P|174:349|224:363,1,85,6|0,0:0|0:0,0:0:0:0:
369,267,8156,2,0,P|312:278|262:264,1,85,8|0,0:0|0:0,0:0:0:0:
163,190,8556,1,2,0:0:0:0:
297,71,8756,2,0,L|294:183,1,85,2|8,0:0|0:0,0:0:0:0:
137,47,9156,6,0,P|182:35|313:88,1,170,2|2,0:0|0:0,0:0:0:0:
382,181,9756,1,8,0:0:0:0:
163,190,9956,2,0,P|227:168|278:175,1,85,2|0,0:0|0:0,0:0:0:0:
382,181,10356,1,2,0:0:0:0:
303,352,10556,2,0,L|300:245,1,85,8|0,0:0|0:0,0:0:0:0:
296,70,10956,5,6,0:0:0:0:
382,181,11156,1,0,0:0:0:0:
296,56,11356,1,8,0:0:0:0:
221,248,11556,1,0,0:0:0:0:
295,40,11756,1,6,0:0:0:0:
323,269,11956,1,0,0:0:0:0:
158,118,12156,1,12,0:0:0:0:
388,54,12356,6,0,P|393:114|376:197,1,127.5,4|0,0:0|0:0,0:0:0:0:
322,268,12756,1,4,0:0:0:0:
268,82,12956,1,4,0:0:0:0:
238,264,13156,2,0,L|343:270,1,85,2|0,0:0|0:0,0:0:0:0:
159,187,13556,2,0,L|121:192,4,21.25,0|0|0|0|8,1:0|0:0|0:0|0:0|0:0,0:0:0:0:
268,82,13956,1,8,0:0:0:0:
268,82,14056,1,8,0:0:0:0:
268,82,14156,6,0,P|277:131|267:174,1,85,6|0,0:0|0:0,0:0:0:0:
74,198,14556,2,0,L|158:186,1,85,8|0,0:0|0:0,0:0:0:0:
270,165,14956,1,2,0:0:0:0:
125,287,15156,1,2,0:0:0:0:
198,100,15356,1,8,0:0:0:0:
292,280,15556,1,0,0:0:0:0:
455,201,15756,6,0,P|388:196|344:222,1,85,2|0,0:0|0:0,0:0:0:0:
292,280,16156,1,8,0:0:0:0:
460,366,16356,2,0,L|457:264,1,85,2|0,0:0|0:0,0:0:0:0:
370,116,16756,2,0,L|372:200,1,85,2|8,0:0|0:0,0:0:0:0:
262,31,17156,6,0,P|210:19|78:54,1,170,2|2,0:0|0:0,0:0:0:0:
0,189,17756,2,0,L|112:185,1,85,8|0,0:0|0:0,0:0:0:0:
256,177,18156,1,2,0:0:0:0:
102,269,18356,1,2,0:0:0:0:
171,94,18556,2,0,L|172:202,1,85,8|0,0:0|0:0,0:0:0:0:
296,334,18956,6,0,P|307:288|284:239,1,85,2|0,0:0|0:0,0:0:0:0:
256,177,19356,1,8,0:0:0:0:
447,209,19556,2,0,P|393:195|355:219,1,85,2|0,0:0|0:0,0:0:0:0:
223,296,19956,1,2,0:0:0:0:
192,319,20056,1,0,0:0:0:0:
154,325,20156,1,8,0:0:0:0:
116,318,20256,1,0,0:0:0:0:
88,291,20356,1,8,0:0:0:0:
49,288,20456,1,8,0:0:0:0:
16,308,20556,6,0,L|14:201,1,85,6|0,0:0|0:0,0:0:0:0:
165,129,20956,2,0,P|107:117|60:145,1,85,8|0,0:0|0:0,0:0:0:0:
245,222,21356,1,2,0:0:0:0:
274,35,21556,1,2,0:0:0:0:
165,129,21756,1,8,0:0:0:0:
388,129,21956,1,0,0:0:0:0:
193,286,22156,6,0,P|241:308|289:282,1,85,2|0,0:0|0:0,0:0:0:0:
374,242,22556,1,8,0:0:0:0:
248,137,22756,2,0,L|244:248,1,85,2|0,0:0|0:0,0:0:0:0:
377,326,23156,2,0,L|373:241,1,85,2|8,0:0|0:0,0:0:0:0:
302,58,23556,6,0,P|244:38|163:98,1,170,2|2,0:0|0:0,0:0:0:0:
244,221,24156,2,0,L|248:137,1,85,8|0,0:0|0:0,0:0:0:0:
238,306,24556,5,2,0:0:0:0:
244,221,24756,1,2,0:0:0:0:
254,51,24956,5,8,0:0:0:0:
248,136,25156,1,2,0:0:0:0:
91,264,25356,6,0,P|125:275|180:253,1,85,4|0,0:0|0:0,0:0:0:0:
358,177,25956,2,0,P|337:174|317:180,1,42.5,4|0,0:0|0:0,0:0:0:0:
356,297,26356,6,0,P|341:295|330:302,4,21.25,0|0|0|0|8,0:0|0:0|0:0|0:0|0:0,0:0:0:0:
458,218,26756,1,8,0:0:0:0:
458,218,26856,1,8,0:0:0:0:
458,218,26956,6,0,P|461:159|431:120,1,85,6|0,0:0|0:0,0:0:0:0:
280,78,27356,2,0,L|379:69,1,85,8|0,0:0|0:0,0:0:0:0:
204,124,27756,2,0,P|191:65|215:19,1,85,2|2,0:0|0:0,0:0:0:0:
281,165,28156,1,8,0:0:0:0:
70,212,28356,6,0,P|146:192|223:240,1,170,2|2,0:0|0:0,0:0:0:0:
362,295,28956,2,0,P|366:243|349:208,1,85,8|0,0:0|0:0,0:0:0:0:
290,84,29356,2,0,P|275:123|281:165,1,85,2|2,0:0|0:0,0:0:0:0:
361,294,29756,2,0,L|446:288,1,85,8|0,0:0|0:0,0:0:0:0:
299,358,30156,5,2,0:0:0:0:
354,206,30356,1,0,0:0:0:0:
361,294,30556,1,8,0:0:0:0:
280,164,30756,1,0,0:0:0:0:
164,245,30956,2,0,P|220:257|251:242,1,85,2|2,0:0|0:0,0:0:0:0:
354,206,31356,1,8,0:0:0:0:
291,80,31556,6,0,P|209:57|121:86,1,170,2|2,0:0|0:0,0:0:0:0:
41,151,32156,1,8,0:0:0:0:
164,245,32356,2,0,L|162:143,1,85,2|0,0:0|0:0,0:0:0:0:
104,302,32656,1,8,0:0:0:0:
104,302,32756,2,0,P|151:332|202:315,1,85,2|8,0:0|0:0,0:0:0:0:
331,265,33156,1,8,0:0:0:0:
331,265,33256,1,8,0:0:0:0:
331,265,33356,6,0,L|215:275,1,85,6|0,0:0|0:0,0:0:0:0:
409,305,33756,2,0,P|419:252|384:196,1,85,8|0,0:0|0:0,0:0:0:0:
339,90,34156,2,0,P|328:130|338:171,1,85,2|2,0:0|0:0,0:0:0:0:
409,223,34556,1,8,0:0:0:0:
380,17,34756,6,0,P|325:3|213:55,1,170,2|2,0:0|0:0,0:0:0:0:
79,106,35356,2,0,L|169:115,1,85,8|0,0:0|0:0,0:0:0:0:
287,191,35756,1,2,0:0:0:0:
288,107,35956,1,2,0:0:0:0:
218,240,36156,2,0,P|247:270|288:278,1,85,8|0,0:0|0:0,0:0:0:0:
449,228,36556,6,0,L|360:233,1,85,2|0,0:0|0:0,0:0:0:0:
288,107,36956,2,0,L|287:204,1,85,8|0,0:0|0:0,0:0:0:0:
354,44,37356,1,2,0:0:0:0:
197,97,37556,1,2,0:0:0:0:
364,152,37756,1,8,0:0:0:0:
141,23,37956,6,0,P|103:101|148:174,1,170,2|2,0:0|0:0,0:0:0:0:
262,235,38556,1,8,0:0:0:0:
281,93,38756,2,0,L|169:97,1,85,2|2,0:0|0:0,0:0:0:0:
354,24,39156,1,0,0:0:0:0:
376,55,39256,1,0,0:0:0:0:
383,92,39356,1,8,0:0:0:0:
378,129,39456,1,0,0:0:0:0:
355,159,39556,1,8,0:0:0:0:
348,196,39656,1,8,0:0:0:0:
359,232,39756,6,0,L|364:352,1,85,6|0,0:0|0:0,0:0:0:0:
512,195,40156,2,0,P|459:181|419:204,1,85,8|0,0:0|0:0,0:0:0:0:
249,276,40556,2,0,P|195:284|161:264,1,85,2|2,0:0|0:0,0:0:0:0:
56,180,40956,2,0,L|152:176,1,85,8|0,0:0|0:0,0:0:0:0:
355,159,41356,5,2,0:0:0:0:
258,193,41556,1,0,0:0:0:0:
408,249,41756,5,8,0:0:0:0:
505,283,41956,1,0,0:0:0:0:
355,159,42156,5,2,0:0:0:0:
258,193,42356,1,2,0:0:0:0:
162,230,42556,1,8,0:0:0:0:
162,230,42956,5,2,0:0:0:0:
166,148,43156,2,0,P|154:189|162:230,1,85,2|8,0:0|0:0,0:0:0:0:
264,88,43556,5,0,0:0:0:0:
261,6,43756,2,0,P|272:46|264:87,1,85,2|2,0:0|0:0,0:0:0:0:
161,229,44156,1,8,0:0:0:0:
42,147,44356,6,0,P|105:133|194:165,1,127.5,2|0,0:0|0:0,0:0:0:0:
239,189,44756,2,0,P|296:205|332:189,1,85,2|8,0:0|0:0,0:0:0:0:
470,135,45156,2,0,L|371:142,1,85,2|0,0:0|0:0,0:0:0:0:
318,197,45456,1,8,0:0:0:0:
318,197,45556,2,0,L|313:298,1,85,2|8,0:0|0:0,0:0:0:0:
323,86,45956,1,8,0:0:0:0:
140,60,46156,6,0,P|178:42|219:45,1,85,6|0,0:0|0:0,0:0:0:0:
91,138,46556,2,0,L|-14:134,1,85,8|0,0:0|0:0,0:0:0:0:
180,144,46956,5,2,0:0:0:0:
91,138,47156,1,2,0:0:0:0:
6,134,47356,1,8,0:0:0:0:
126,225,47556,6,0,P|174:248|266:174,1,170,2|2,0:0|0:0,0:0:0:0:
374,94,48156,2,0,L|375:220,1,85,8|0,0:0|0:0,0:0:0:0:
373,9,48556,5,2,0:0:0:0:
374,94,48756,1,2,0:0:0:0:
374,178,48956,1,8,0:0:0:0:
451,50,49156,1,0,0:0:0:0:
264,106,49356,6,0,P|256:156|271:207,1,85,6|0,0:0|0:0,0:0:0:0:
363,367,49756,2,0,P|371:317|356:266,1,85,8|0,0:0|0:0,0:0:0:0:
264,106,50156,1,2,0:0:0:0:
192,146,50356,1,2,0:0:0:0:
262,189,50556,1,8,0:0:0:0:
327,27,50756,6,0,P|270:6|214:22,1,85,2|0,0:0|0:0,0:0:0:0:
82,50,51156,2,0,L|184:41,1,85,2|8,0:0|0:0,0:0:0:0:
327,27,51556,1,0,0:0:0:0:
262,189,51756,1,2,0:0:0:0:
192,146,51956,1,2,0:0:0:0:
264,106,52156,1,8,0:0:0:0:
316,281,52356,6,0,P|251:300|209:278,1,85,6|0,0:0|0:0,0:0:0:0:
73,236,52756,1,2,0:0:0:0:
73,236,52856,1,0,0:0:0:0:
73,236,52956,1,8,0:0:0:0:
192,146,53156,1,2,0:0:0:0:
167,238,53356,1,0,0:0:0:0:
113,97,53556,1,2,0:0:0:0:
113,97,53656,1,0,0:0:0:0:
113,97,53756,1,8,0:0:0:0:
273,132,53956,6,0,P|206:148|168:135,1,85,6|0,0:0|0:0,0:0:0:0:
332,35,54356,1,2,0:0:0:0:
332,35,54456,1,0,0:0:0:0:
332,35,54556,1,8,0:0:0:0:
373,197,54756,1,2,0:0:0:0:
435,87,54956,1,0,0:0:0:0:
273,132,55156,1,2,0:0:0:0:
273,132,55256,1,0,0:0:0:0:
273,132,55356,1,8,0:0:0:0:
445,252,55556,6,0,P|464:214|462:173,1,85,6|0,0:0|0:0,0:0:0:0:
332,35,55956,1,2,0:0:0:0:
332,35,56056,1,0,0:0:0:0:
332,35,56156,1,8,0:0:0:0:
298,246,56356,1,2,0:0:0:0:
390,143,56556,1,0,0:0:0:0:
191,202,56756,1,2,0:0:0:0:
202,238,56856,1,2,0:0:0:0:
231,262,56956,1,8,0:0:0:0:
268,268,57056,1,8,0:0:0:0:
298,246,57156,6,0,P|261:326|320:365,1,170,6|6,0:0|0:0,0:0:0:0:
407,285,57756,1,4,0:0:0:0:
178,330,57956,1,4,0:0:0:0:
298,246,58356,5,0,0:0:0:0:
316,364,58556,1,8,0:0:0:0:
407,285,58756,1,2,0:0:0:0:
178,330,58956,6,0,L|56:319,1,93.5000028533936,6|0,0:0|0:0,0:0:0:0:
298,246,59356,2,0,L|420:235,1,93.5000028533936,8|0,0:0|0:0,0:0:0:0:
215,132,59756,1,2,0:0:0:0:
265,319,59956,1,2,0:0:0:0:
341,162,60156,1,8,0:0:0:0:
90,214,60356,6,0,P|162:210|226:268,1,140.25000428009,2|0,0:0|0:0,0:0:0:0:
265,319,60756,1,2,0:0:0:0:
81,320,60956,1,8,0:0:0:0:
265,319,61156,1,0,0:0:0:0:
90,214,61356,2,0,P|146:207|190:224,1,93.5000028533936,2|2,0:0|0:0,0:0:0:0:
355,323,61756,2,0,P|299:330|255:313,1,93.5000028533936,8|0,0:0|0:0,0:0:0:0:
429,165,62156,6,0,L|433:286,1,93.5000028533936,2|0,0:0|0:0,0:0:0:0:
486,94,62456,1,0,0:0:0:0:
486,94,62556,2,0,P|428:72|376:101,1,93.5000028533936,8|0,0:0|0:0,0:0:0:0:
216,143,62956,1,2,0:0:0:0:
341,227,63156,1,2,0:0:0:0:
341,227,63256,1,0,0:0:0:0:
341,227,63356,1,8,0:0:0:0:
270,62,63556,6,0,P|202:44|121:133,1,187.000005706787,2|2,0:0|0:0,0:0:0:0:
181,332,64156,2,0,L|187:224,1,93.5000028533936,8|0,0:0|0:0,0:0:0:0:
270,62,64556,1,2,0:0:0:0:
429,222,64756,1,8,0:0:0:0:
429,222,64856,1,8,0:0:0:0:
429,222,64956,2,0,P|368:236|326:217,1,93.5000028533936,2|8,0:0|0:0,0:0:0:0:
116,153,65356,6,0,L|280:159,1,140.25000428009,6|0,0:0|0:0,0:0:0:0:
228,246,65756,2,0,P|166:269|119:241,1,93.5000028533936,8|0,0:0|0:0,0:0:0:0:
256,158,66156,1,2,0:0:0:0:
207,351,66356,1,2,0:0:0:0:
142,261,66556,1,8,0:0:0:0:
256,158,66756,6,0,L|455:165,1,187.000005706787,2|2,0:0|0:0,0:0:0:0:
228,246,67356,1,8,0:0:0:0:
283,69,67556,2,0,L|402:74,1,93.5000028533936,2|0,0:0|0:0,0:0:0:0:
173,124,67956,1,2,0:0:0:0:
350,251,68156,2,0,P|362:196|349:158,1,93.5000028533936,8|0,0:0|0:0,0:0:0:0:
228,246,68556,5,2,0:0:0:0:
284,355,68756,1,0,0:0:0:0:
350,251,68956,1,8,0:0:0:0:
162,348,69156,5,0,0:0:0:0:
407,358,69356,1,2,0:0:0:0:
293,143,69556,1,2,0:0:0:0:
284,355,69756,1,8,0:0:0:0:
477,233,69956,6,0,P|406:219|329:286,1,140.25000428009,6|0,0:0|0:0,0:0:0:0:
293,143,70356,1,6,0:0:0:0:
422,307,70556,1,4,0:0:0:0:
508,110,70756,1,6,0:0:0:0:
439,0,71156,5,0,0:0:0:0:
377,114,71356,1,8,0:0:0:0:
508,110,71556,1,2,0:0:0:0:
290,26,71756,6,0,L|153:34,1,93.5000028533936,6|0,0:0|0:0,0:0:0:0:
7,122,72156,2,0,L|144:130,1,93.5000028533936,8|0,0:0|0:0,0:0:0:0:
324,185,72556,1,2,0:0:0:0:
100,127,72756,1,2,0:0:0:0:
290,26,72956,1,8,0:0:0:0:
246,233,73156,6,0,P|309:275|386:256,1,140.25000428009,2|0,0:0|0:0,0:0:0:0:
432,201,73556,1,2,0:0:0:0:
246,233,73756,1,8,0:0:0:0:
432,201,73956,1,0,0:0:0:0:
367,356,74156,2,0,P|359:293|375:256,1,93.5000028533936,2|2,0:0|0:0,0:0:0:0:
433,111,74556,2,0,P|441:174|425:211,1,93.5000028533936,8|0,0:0|0:0,0:0:0:0:
319,34,74956,6,0,L|208:39,1,93.5000028533936,2|0,0:0|0:0,0:0:0:0:
76,93,75256,1,0,0:0:0:0:
76,93,75356,2,0,P|124:119|174:104,1,93.5000028533936,8|0,0:0|0:0,0:0:0:0:
319,34,75756,1,2,0:0:0:0:
135,28,75956,1,2,0:0:0:0:
135,28,76056,1,0,0:0:0:0:
135,28,76156,1,8,0:0:0:0:
400,73,76356,6,0,P|356:126|247:93,1,187.000005706787,2|2,0:0|0:0,0:0:0:0:
472,125,76956,2,0,L|465:235,1,93.5000028533936,8|0,0:0|0:0,0:0:0:0:
354,335,77356,1,2,0:0:0:0:
199,230,77556,1,8,0:0:0:0:
199,230,77656,1,8,0:0:0:0:
199,230,77756,2,0,P|253:211|304:239,1,93.5000028533936,2|8,0:0|0:0,0:0:0:0:
85,335,78156,6,0,L|79:192,1,140.25000428009,6|0,0:0|0:0,0:0:0:0:
22,121,78556,2,0,P|67:98|131:124,1,93.5000028533936,8|0,0:0|0:0,0:0:0:0:
265,171,78956,2,0,L|160:173,1,93.5000028533936,2|2,0:0|0:0,0:0:0:0:
366,168,79356,1,8,0:0:0:0:
263,306,79556,6,0,P|249:234|274:154,1,140.25000428009,2|0,0:0|0:0,0:0:0:0:
314,87,79956,1,2,0:0:0:0:
425,253,80156,1,8,0:0:0:0:
215,284,80356,2,0,P|207:217|226:173,1,93.5000028533936,2|0,0:0|0:0,0:0:0:0:
407,87,80756,1,8,0:0:0:0:
407,87,80856,1,8,0:0:0:0:
407,87,80956,2,0,L|278:87,1,93.5000028533936,2|8,0:0|0:0,0:0:0:0:
75,138,81356,5,6,0:0:0:0:
197,143,81556,1,0,0:0:0:0:
131,247,81756,1,8,0:0:0:0:
140,35,81956,5,0,0:0:0:0:
254,250,82156,1,2,0:0:0:0:
9,240,82356,1,2,0:0:0:0:
197,143,82556,1,8,0:0:0:0:
171,331,82756,6,0,P|109:345|85:331,1,93.5000028533936,6|0,0:0|0:0,0:0:0:0:
254,250,83156,1,2,0:0:0:0:
254,250,83256,1,0,0:0:0:0:
254,250,83356,1,8,0:0:0:0:
131,247,83556,1,2,0:0:0:0:
347,252,83756,1,0,0:0:0:0:
197,143,83956,1,2,0:0:0:0:
197,143,84056,1,0,0:0:0:0:
197,143,84156,1,8,0:0:0:0:
299,334,84356,6,0,P|372:346|406:318,1,93.5000028533936,6|0,0:0|0:0,0:0:0:0:
512,212,84756,1,2,0:0:0:0:
512,212,84856,1,0,0:0:0:0:
512,212,84956,1,8,0:0:0:0:
347,252,85156,1,2,0:0:0:0:
512,347,85356,1,0,0:0:0:0:
460,128,85556,1,2,0:0:0:0:
460,128,85656,1,0,0:0:0:0:
460,128,85756,1,8,0:0:0:0:
253,252,85956,6,0,L|352:252,1,93.5000028533936,6|0,0:0|0:0,0:0:0:0:
185,138,86356,1,2,0:0:0:0:
185,138,86456,1,0,0:0:0:0:
185,138,86556,1,8,0:0:0:0:
149,265,86756,1,2,0:0:0:0:
314,119,86956,1,0,0:0:0:0:
54,84,87156,1,2,0:0:0:0:
54,84,87256,1,0,0:0:0:0:
54,84,87356,1,8,0:0:0:0:
210,330,87556,6,0,P|239:282|210:194,1,140.25000428009,6|0,0:0|0:0,0:0:0:0:
185,138,87956,1,6,0:0:0:0:
210,330,88156,1,4,0:0:0:0:
410,271,88356,2,0,L|288:270,1,93.5000028533936,2|0,0:0|0:0,0:0:0:0:
477,183,88756,2,0,L|510:185,4,23.3750007133484,2|0|0|0|8,0:0|0:0|0:0|0:0|0:0,0:0:0:0:
373,43,89156,1,8,0:0:0:0:
373,43,89256,1,8,0:0:0:0:
373,43,89356,6,0,P|362:105|387:156,1,93.5000028533936,6|0,0:0|0:0,0:0:0:0:
247,270,89756,2,0,P|258:208|233:157,1,93.5000028533936,8|0,0:0|0:0,0:0:0:0:
202,55,90156,1,2,0:0:0:0:
173,225,90356,1,2,0:0:0:0:
277,98,90556,1,8,0:0:0:0:
98,182,90756,1,0,0:0:0:0:
246,270,90956,6,0,P|259:225|249:180,1,93.5000028533936,2|0,0:0|0:0,0:0:0:0:
202,55,91356,1,8,0:0:0:0:
334,162,91556,2,0,P|390:175|437:146,1,93.5000028533936,2|0,0:0|0:0,0:0:0:0:
373,0,91956,2,0,L|377:95,1,93.5000028533936,2|8,0:0|0:0,0:0:0:0:
470,241,92356,6,0,P|382:274|284:243,1,187.000005706787,2|2,0:0|0:0,0:0:0:0:
120,172,92956,2,0,L|246:170,1,93.5000028533936,8|0,0:0|0:0,0:0:0:0:
381,171,93356,1,2,0:0:0:0:
295,250,93556,1,2,0:0:0:0:
211,77,93756,2,0,L|213:183,1,93.5000028533936,8|0,0:0|0:0,0:0:0:0:
387,24,94156,6,0,P|326:16|289:45,1,93.5000028533936,2|0,0:0|0:0,0:0:0:0:
211,77,94556,1,8,0:0:0:0:
291,223,94756,2,0,L|293:108,1,93.5000028533936,2|0,0:0|0:0,0:0:0:0:
366,284,95156,1,2,0:0:0:0:
336,314,95256,1,0,0:0:0:0:
295,325,95356,1,8,0:0:0:0:
253,320,95456,1,0,0:0:0:0:
221,292,95556,1,8,0:0:0:0:
181,278,95656,1,8,0:0:0:0:
140,290,95756,6,0,L|143:388,1,93.5000028533936,6|0,0:0|0:0,0:0:0:0:
54,241,96156,2,0,P|57:168|80:137,1,93.5000028533936,8|0,0:0|0:0,0:0:0:0:
181,54,96556,1,2,0:0:0:0:
144,194,96756,1,2,0:0:0:0:
81,37,96956,1,8,0:0:0:0:
144,194,97156,1,0,0:0:0:0:
284,42,97356,6,0,P|336:29|393:49,1,93.5000028533936,2|0,0:0|0:0,0:0:0:0:
479,110,97756,1,8,0:0:0:0:
335,216,97956,2,0,L|331:118,1,93.5000028533936,2|0,0:0|0:0,0:0:0:0:
312,303,98356,2,0,P|358:306|404:273,1,93.5000028533936,2|8,0:0|0:0,0:0:0:0:
63,237,98756,6,0,L|262:243,1,187.000005706787,2|2,0:0|0:0,0:0:0:0:
14,168,99356,2,0,P|61:147|113:172,1,93.5000028533936,8|0,0:0|0:0,0:0:0:0:
249,242,99756,1,2,0:0:0:0:
193,157,99956,1,2,0:0:0:0:
193,327,100156,1,8,0:0:0:0:
137,242,100356,1,0,0:0:0:0:
297,147,100556,6,0,P|349:142|386:163,1,85,4|0,0:0|0:0,0:0:0:0:
347,330,101156,2,0,L|304:327,1,42.5,4|0,0:0|0:0,0:0:0:0:
416,251,101556,6,0,L|439:250,4,23.3750007133484,0|0|0|0|8,0:0|0:0|0:0|0:0|0:0,0:0:0:0:
297,147,101956,1,8,0:0:0:0:
297,147,102056,1,8,0:0:0:0:
297,147,102156,6,0,B|298:50|298:50|316:84,1,127.500004863739,6|2,0:0|0:0,0:0:0:0:
345,217,102756,1,0,0:0:0:0:
345,217,102956,2,0,P|298:236|264:223,1,63.7500024318696,2|0,0:0|0:0,0:0:0:0:
157,183,103356,2,0,L|232:184,1,63.7500024318696,2|0,0:0|0:0,0:0:0:0:
80,235,103756,6,0,P|61:175|89:119,1,127.500004863739,6|2,0:0|0:0,0:0:0:0:
217,48,104356,1,0,0:0:0:0:
217,48,104556,2,0,L|125:51,1,63.7500024318696,2|0,0:0|0:0,0:0:0:0:
282,107,104956,2,0,L|374:110,1,63.7500024318696,2|0,0:0|0:0,0:0:0:0:
220,182,105356,6,0,P|194:261|228:337,1,170,4|0,0:0|0:0,0:0:0:0:
322,217,105956,2,0,P|276:259|351:261,1,170,4|0,0:0|0:0,0:0:0:0:
409,209,106556,1,4,0:0:0:0:
220,183,106756,1,0,0:0:0:0:
220,183,106856,1,0,0:0:0:0:
220,183,106956,1,0,0:0:0:0:
409,209,107156,5,4,0:0:0:0:
228,337,107356,1,4,0:0:0:0:
134,136,107556,1,4,0:0:0:0:
