osu file format v14

[General]
AudioFilename: audio.mp3
AudioLeadIn: 0
PreviewTime: 47559
Countdown: 0
SampleSet: Normal
StackLeniency: 0
Mode: 1
LetterboxInBreaks: 0
WidescreenStoryboard: 1

[Editor]
Bookmarks: 14118,25412,33883,48000,53648,59295,64942,72000,77648,83295
DistanceSpacing: 0.7
BeatDivisor: 4
GridSize: 32
TimelineZoom: 0.5

[Metadata]
Title:Ashita Genki ni Naare! (Cut Ver.)
TitleUnicode:あした元気になぁれ! (Cut Ver.)
Artist:Chino (CV: Minase Inori)
ArtistUnicode:チノ (CV: 水瀬いのり)
Creator:D0UG
Version:SWAKE's Kantan
Source:ご注文はうさぎですか??
Tags:gochiusa gochuumon wa usagi desu ka? kafuu chino is the order a rabbit? japanese anime pop jpop j-pop chimame march ごちうさ swake scarlet remilia version
BeatmapID:3261101
BeatmapSetID:1359997

[Difficulty]
HPDrainRate:8
CircleSize:2
OverallDifficulty:3
ApproachRate:9.2
SliderMultiplier:1.4
SliderTickRate:1

[Events]
//Background and Video events
0,0,"bg 1.jpg",0,50
//Break Periods
//Storyboard Layer 0 (Background)
//Storyboard Layer 1 (Fail)
//Storyboard Layer 2 (Pass)
//Storyboard Layer 3 (Foreground)
//Storyboard Layer 4 (Overlay)
//Storyboard Sound Samples

[TimingPoints]
-4236,352.941176470588,4,1,0,60,1,0
14116,352.941176470588,4,1,0,60,1,0
22587,352.941176470588,4,1,0,60,1,0
47998,352.941176470588,4,1,0,60,1,1
47998,-100,4,1,0,60,0,1
67762,-100,4,1,0,60,0,0
71997,352.941176470588,4,1,0,60,1,1
71997,-100,4,1,0,60,0,1
83291,-100,4,1,0,60,0,0

[HitObjects]
265,66,1411,5,0,0:0:0:0:
266,53,2646,1,0,0:0:0:0:
189,97,3175,1,8,0:0:0:0:
203,95,3528,1,8,0:0:0:0:
225,82,4234,1,8,0:0:0:0:
201,70,5469,1,8,0:0:0:0:
195,61,5999,1,0,0:0:0:0:
213,79,6352,1,8,0:0:0:0:
183,99,7058,1,0,0:0:0:0:
186,121,8293,1,8,0:0:0:0:
203,81,8822,1,8,0:0:0:0:
221,137,9175,1,0,0:0:0:0:
181,99,9528,1,8,0:0:0:0:
201,64,9881,1,4,0:0:0:0:
228,44,10411,1,12,0:0:0:0:
150,102,11116,1,12,0:0:0:0:
164,105,11999,1,8,0:0:0:0:
240,65,12528,1,4,0:0:0:0:
171,97,13058,1,0,0:0:0:0:
231,60,13411,1,0,0:0:0:0:
244,110,14116,1,12,0:0:0:0:
235,84,15174,1,0,0:0:0:0:
191,106,15527,1,12,0:0:0:0:
247,97,16057,1,12,0:0:0:0:
191,91,16586,1,0,0:0:0:0:
269,110,16939,1,8,0:0:0:0:
243,104,17998,1,0,0:0:0:0:
182,82,18351,1,12,0:0:0:0:
265,98,18880,1,4,0:0:0:0:
243,185,19763,1,12,0:0:0:0:
201,169,20821,1,0,0:0:0:0:
206,181,21174,1,8,0:0:0:0:
247,89,21704,1,8,0:0:0:0:
269,65,22233,1,8,0:0:0:0:
259,67,22586,1,4,0:0:0:0:
235,110,23822,1,8,0:0:0:0:
293,84,24351,1,0,0:0:0:0:
206,110,24704,1,8,0:0:0:0:
206,110,25057,1,8,0:0:0:0:
238,98,25410,1,4,0:0:0:0:
243,106,26645,1,8,0:0:0:0:
182,101,27175,1,8,0:0:0:0:
253,106,27528,1,0,0:0:0:0:
191,101,27881,1,0,0:0:0:0:
216,75,28234,1,8,0:0:0:0:
240,109,29292,1,8,0:0:0:0:
235,57,29645,1,0,0:0:0:0:
250,109,30704,1,0,0:0:0:0:
240,110,31057,1,8,0:0:0:0:
190,87,31763,1,8,0:0:0:0:
228,94,32469,1,8,0:0:0:0:
212,53,32822,1,0,0:0:0:0:
209,69,33175,1,8,0:0:0:0:
238,123,33881,1,4,0:0:0:0:
187,140,34586,1,0,0:0:0:0:
225,120,35645,1,0,0:0:0:0:
234,104,35998,1,8,0:0:0:0:
213,135,36704,1,8,0:0:0:0:
228,113,37057,1,0,0:0:0:0:
234,109,37410,1,8,0:0:0:0:
216,104,38116,1,0,0:0:0:0:
170,46,38469,1,0,0:0:0:0:
184,115,38822,1,8,0:0:0:0:
182,145,39528,1,12,0:0:0:0:
257,86,40586,1,0,0:0:0:0:
157,121,40939,1,8,0:0:0:0:
198,100,41998,1,0,0:0:0:0:
238,80,42351,1,12,0:0:0:0:
249,90,43410,1,8,0:0:0:0:
153,102,43939,1,8,0:0:0:0:
143,129,44469,1,0,0:0:0:0:
145,155,44822,1,8,0:0:0:0:
239,224,45175,1,8,0:0:0:0:
247,30,45704,1,0,0:0:0:0:
222,110,46234,1,8,0:0:0:0:
243,97,46586,1,0,0:0:0:0:
234,153,47998,1,12,0:0:0:0:
157,116,48527,1,0,0:0:0:0:
238,87,48880,1,0,0:0:0:0:
234,153,49233,1,8,0:0:0:0:
190,128,49762,1,0,0:0:0:0:
287,106,50115,1,8,0:0:0:0:
175,104,50821,1,8,0:0:0:0:
266,106,51350,1,8,0:0:0:0:
179,113,51703,1,0,0:0:0:0:
278,104,52056,1,8,0:0:0:0:
165,116,52586,1,0,0:0:0:0:
216,75,52939,1,8,0:0:0:0:
281,87,53645,1,12,0:0:0:0:
185,113,54880,1,0,0:0:0:0:
257,94,55409,1,8,0:0:0:0:
178,101,55762,1,0,0:0:0:0:
168,65,56468,1,8,0:0:0:0:
216,67,57174,1,0,0:0:0:0:
235,82,57703,1,8,0:0:0:0:
165,106,58233,1,8,0:0:0:0:
120,309,58586,1,0,0:0:0:0:
250,110,59292,1,12,0:0:0:0:
191,101,59821,1,0,0:0:0:0:
216,89,60174,1,8,0:0:0:0:
243,120,60527,1,0,0:0:0:0:
253,97,61056,1,0,0:0:0:0:
163,106,61409,1,8,0:0:0:0:
247,75,62115,1,0,0:0:0:0:
247,91,62645,1,8,0:0:0:0:
235,94,62997,1,0,0:0:0:0:
187,94,63350,1,8,0:0:0:0:
204,82,63880,1,8,0:0:0:0:
221,97,64233,1,8,0:0:0:0:
253,101,64939,1,12,0:0:0:0:
197,109,66174,1,0,0:0:0:0:
262,110,66703,1,8,0:0:0:0:
157,98,67056,1,8,0:0:0:0:
259,109,67762,1,12,0:0:0:0:
144,101,68292,1,4,0:0:0:0:
250,97,68997,1,12,0:0:0:0:
219,60,69527,1,8,0:0:0:0:
165,79,69880,1,0,0:0:0:0:
231,55,70409,1,8,0:0:0:0:
253,84,70939,1,0,0:0:0:0:
259,91,71292,1,8,0:0:0:0:
170,101,71997,1,12,0:0:0:0:
235,94,73055,1,0,0:0:0:0:
240,109,73408,1,12,0:0:0:0:
199,101,73938,1,12,0:0:0:0:
185,91,74467,1,0,0:0:0:0:
272,89,74820,1,12,0:0:0:0:
178,125,75879,1,0,0:0:0:0:
225,87,76232,1,12,0:0:0:0:
191,72,76761,1,0,0:0:0:0:
243,110,77114,1,8,0:0:0:0:
182,123,77644,1,12,0:0:0:0:
259,97,78702,1,8,0:0:0:0:
234,104,79055,1,0,0:0:0:0:
216,104,79408,1,0,0:0:0:0:
199,57,79761,1,8,0:0:0:0:
168,110,80467,1,8,0:0:0:0:
175,125,80820,1,8,0:0:0:0:
257,104,81173,1,0,0:0:0:0:
247,69,81526,1,0,0:0:0:0:
231,79,81879,1,8,0:0:0:0:
187,82,82585,1,8,0:0:0:0:
225,110,83291,1,0,0:0:0:0:
165,101,83997,1,0,0:0:0:0:
272,120,84879,1,8,0:0:0:0:
231,79,85055,1,8,0:0:0:0:
