osu file format v14

[General]
AudioFilename: audio.mp3
AudioLeadIn: 0
PreviewTime: 47559
Countdown: 0
SampleSet: Normal
StackLeniency: 0
Mode: 1
LetterboxInBreaks: 0
WidescreenStoryboard: 0

[Editor]
Bookmarks: 1415,7062,12709,18355,24002,29649,35296
DistanceSpacing: 1
BeatDivisor: 4
GridSize: 32
TimelineZoom: 1

[Metadata]
Title:Ashita Genki ni Naare! (Cut Ver.)
TitleUnicode:あした元気になぁれ! (Cut Ver.)
Artist:Chino (CV: Minase Inori)
ArtistUnicode:チノ (CV: 水瀬いのり)
Creator:D0UG
Version:Oni
Source:ご注文はうさぎですか??
Tags:gochiusa gochuumon wa usagi desu ka? kafuu chino is the order a rabbit? japanese anime pop jpop j-pop chimame march ごちうさ swake scarlet remilia version
BeatmapID:2814265
BeatmapSetID:1359997

[Difficulty]
HPDrainRate:5.5
CircleSize:2
OverallDifficulty:6
ApproachRate:9.2
SliderMultiplier:1.4
SliderTickRate:1

[Events]
//Background and Video events
0,0,"bg 2.jpg",0,85
//Break Periods
//Storyboard Layer 0 (Background)
//Storyboard Layer 1 (Fail)
//Storyboard Layer 2 (Pass)
//Storyboard Layer 3 (Foreground)
//Storyboard Layer 4 (Overlay)
//Storyboard Sound Samples

[TimingPoints]
-4236,352.941176470588,4,1,0,60,1,0
1058,-125,4,1,0,60,0,0
9881,-111.111111111111,4,1,0,60,0,0
13411,-111.111111111111,4,1,0,60,0,0
13499,-109.58904109589,4,1,0,60,0,0
13587,-108.108108108108,4,1,0,60,0,0
13675,-106.666666666667,4,1,0,60,0,0
13763,-105.263157894737,4,1,0,60,0,0
13940,-102.564102564103,4,1,0,60,0,0
14028,-101.26582278481,4,1,0,60,0,0
14116,352.941176470588,4,1,0,60,1,0
22587,352.941176470588,4,1,0,60,1,0
23822,-111.111111111111,4,1,0,60,0,0
33881,-125,4,1,0,60,0,0
38822,-117.647058823529,4,1,0,60,0,0
38998,-111.111111111111,4,1,0,60,0,0
39086,-108.695652173913,4,1,0,60,0,0
39175,-106.382978723404,4,1,0,60,0,0
39528,-100,4,1,0,60,0,0
45704,-105.263157894737,4,1,0,60,0,0
46234,-111.111111111111,4,1,0,60,0,0
46586,-114.942528735632,4,1,0,60,0,0
47645,-109.489091054413,4,1,0,60,0,0
47734,-106.951871657754,4,1,0,60,0,0
47822,-104.529580303282,4,1,0,60,0,0
47910,-102.214685592738,4,1,0,60,0,0
47998,352.941176470588,4,1,0,60,1,1
47998,-100,4,1,0,60,0,1
67762,-105.263157894737,4,1,0,60,0,0
71821,-104.166666666667,4,1,0,60,0,0
71909,-102.040816326531,4,1,0,60,0,0
71997,352.941176470588,4,1,0,60,1,1
71997,-100,4,1,0,60,0,1
83291,-103.448989303375,4,1,0,60,0,0
83467,-106.382978723404,4,1,0,60,0,0
83820,-111.111111111111,4,1,0,60,0,0

[HitObjects]
256,192,1058,5,0,0:0:0:0:
256,192,1234,1,0,0:0:0:0:
256,192,1411,1,8,0:0:0:0:
256,192,1763,1,0,0:0:0:0:
256,192,1940,1,8,0:0:0:0:
256,192,2293,1,0,0:0:0:0:
256,192,2646,1,0,0:0:0:0:
256,192,2999,1,0,0:0:0:0:
256,192,3175,1,8,0:0:0:0:
256,192,3528,1,8,0:0:0:0:
256,192,4058,1,0,0:0:0:0:
256,192,4234,1,8,0:0:0:0:
256,192,4587,1,8,0:0:0:0:
256,192,4763,1,0,0:0:0:0:
256,192,5116,1,0,0:0:0:0:
256,192,5469,1,0,0:0:0:0:
256,192,5822,1,8,0:0:0:0:
256,192,5999,1,0,0:0:0:0:
256,192,6352,1,8,0:0:0:0:
256,192,6881,1,0,0:0:0:0:
256,192,7058,1,0,0:0:0:0:
256,192,7411,1,0,0:0:0:0:
256,192,7587,1,8,0:0:0:0:
256,192,7940,1,0,0:0:0:0:
256,192,8293,1,8,0:0:0:0:
256,192,8646,1,8,0:0:0:0:
256,192,8822,1,8,0:0:0:0:
256,192,8999,1,0,0:0:0:0:
256,192,9175,1,0,0:0:0:0:
256,192,9528,1,8,0:0:0:0:
256,192,9881,1,4,0:0:0:0:
256,192,10058,1,4,0:0:0:0:
256,192,10411,1,12,0:0:0:0:
256,192,10763,1,0,0:0:0:0:
256,192,11116,1,12,0:0:0:0:
256,192,11469,1,8,0:0:0:0:
256,192,11646,1,8,0:0:0:0:
256,192,11822,1,0,0:0:0:0:
256,192,11999,1,8,0:0:0:0:
256,192,12352,1,0,0:0:0:0:
256,192,12528,1,12,0:0:0:0:
256,192,12881,1,0,0:0:0:0:
256,192,13058,1,0,0:0:0:0:
256,192,13411,1,8,0:0:0:0:
256,192,13499,1,8,0:0:0:0:
256,192,13587,1,0,0:0:0:0:
256,192,13675,1,0,0:0:0:0:
256,192,13763,1,8,0:0:0:0:
256,192,13940,1,0,0:0:0:0:
256,192,14028,1,0,0:0:0:0:
256,192,14116,1,12,0:0:0:0:
256,192,14292,1,0,0:0:0:0:
256,192,14468,1,8,0:0:0:0:
256,192,14645,1,8,0:0:0:0:
256,192,14733,1,0,0:0:0:0:
256,192,14821,1,8,0:0:0:0:
256,192,14998,1,0,0:0:0:0:
256,192,15174,1,8,0:0:0:0:
256,192,15351,1,0,0:0:0:0:
256,192,15527,1,12,0:0:0:0:
256,192,15704,1,0,0:0:0:0:
256,192,15792,1,8,0:0:0:0:
256,192,15880,1,0,0:0:0:0:
256,192,16057,1,12,0:0:0:0:
256,192,16410,1,0,0:0:0:0:
256,192,16586,1,0,0:0:0:0:
256,192,16939,1,12,0:0:0:0:
256,192,17116,1,0,0:0:0:0:
256,192,17292,1,8,0:0:0:0:
256,192,17468,1,0,0:0:0:0:
256,192,17557,1,0,0:0:0:0:
256,192,17645,1,8,0:0:0:0:
256,192,17821,1,0,0:0:0:0:
256,192,17998,1,8,0:0:0:0:
256,192,18174,1,0,0:0:0:0:
256,192,18351,1,12,0:0:0:0:
256,192,18704,1,8,0:0:0:0:
256,192,18880,1,4,0:0:0:0:
256,192,19233,1,8,0:0:0:0:
256,192,19410,1,8,0:0:0:0:
256,192,19586,1,0,0:0:0:0:
256,192,19763,1,12,0:0:0:0:
256,192,20115,1,8,0:0:0:0:
256,192,20292,1,0,0:0:0:0:
256,192,20468,1,8,0:0:0:0:
256,192,20557,1,8,0:0:0:0:
256,192,20645,1,0,0:0:0:0:
256,192,20821,1,8,0:0:0:0:
256,192,20998,1,0,0:0:0:0:
256,192,21174,1,8,0:0:0:0:
256,192,21351,1,0,0:0:0:0:
256,192,21704,1,8,0:0:0:0:
256,192,22057,1,0,0:0:0:0:
256,192,22233,1,8,0:0:0:0:
256,192,22410,1,8,0:0:0:0:
256,192,22586,1,4,0:0:0:0:
256,192,22763,1,4,0:0:0:0:
256,192,23822,1,8,0:0:0:0:
256,192,24175,1,0,0:0:0:0:
256,192,24351,1,8,0:0:0:0:
256,192,24528,1,0,0:0:0:0:
256,192,24616,1,0,0:0:0:0:
256,192,24704,1,8,0:0:0:0:
256,192,25057,1,8,0:0:0:0:
256,192,25410,1,4,0:0:0:0:
256,192,25587,1,4,0:0:0:0:
256,192,26645,1,8,0:0:0:0:
256,192,26998,1,0,0:0:0:0:
256,192,27175,1,8,0:0:0:0:
256,192,27528,1,8,0:0:0:0:
256,192,27881,1,8,0:0:0:0:
256,192,28057,1,8,0:0:0:0:
256,192,28234,1,0,0:0:0:0:
256,192,28410,1,0,0:0:0:0:
256,192,28586,1,8,0:0:0:0:
256,192,28763,1,8,0:0:0:0:
256,192,28851,1,0,0:0:0:0:
256,192,28939,1,8,0:0:0:0:
256,192,29116,1,8,0:0:0:0:
256,192,29292,1,0,0:0:0:0:
256,192,29645,1,8,0:0:0:0:
256,192,29822,1,0,0:0:0:0:
256,192,29998,1,8,0:0:0:0:
256,192,30175,1,8,0:0:0:0:
256,192,30263,1,0,0:0:0:0:
256,192,30351,1,8,0:0:0:0:
256,192,30528,1,8,0:0:0:0:
256,192,30704,1,0,0:0:0:0:
256,192,31057,1,8,0:0:0:0:
256,192,31322,1,0,0:0:0:0:
256,192,31586,1,0,0:0:0:0:
256,192,31763,1,8,0:0:0:0:
256,192,32028,1,0,0:0:0:0:
256,192,32292,1,0,0:0:0:0:
256,192,32469,1,8,0:0:0:0:
256,192,32822,1,0,0:0:0:0:
256,192,33175,1,8,0:0:0:0:
256,192,33881,1,4,0:0:0:0:
256,192,34586,1,8,0:0:0:0:
256,192,35116,1,0,0:0:0:0:
256,192,35292,1,8,0:0:0:0:
256,192,35645,1,0,0:0:0:0:
256,192,35998,1,8,0:0:0:0:
256,192,36175,1,8,0:0:0:0:
256,192,36351,1,0,0:0:0:0:
256,192,36528,1,0,0:0:0:0:
256,192,36704,1,8,0:0:0:0:
256,192,37057,1,0,0:0:0:0:
256,192,37410,1,8,0:0:0:0:
256,192,37763,1,0,0:0:0:0:
256,192,37939,1,8,0:0:0:0:
256,192,38028,1,0,0:0:0:0:
256,192,38116,1,8,0:0:0:0:
256,192,38292,1,8,0:0:0:0:
256,192,38469,1,0,0:0:0:0:
256,192,38822,1,8,0:0:0:0:
256,192,38998,1,0,0:0:0:0:
256,192,39086,1,0,0:0:0:0:
256,192,39175,1,8,0:0:0:0:
256,192,39528,1,12,0:0:0:0:
256,192,39704,1,0,0:0:0:0:
256,192,39792,1,0,0:0:0:0:
256,192,39881,1,8,0:0:0:0:
256,192,40057,1,0,0:0:0:0:
256,192,40234,1,8,0:0:0:0:
256,192,40410,1,0,0:0:0:0:
256,192,40586,1,0,0:0:0:0:
256,192,40763,1,8,0:0:0:0:
256,192,40851,1,8,0:0:0:0:
256,192,40939,1,0,0:0:0:0:
256,192,41116,1,0,0:0:0:0:
256,192,41204,1,0,0:0:0:0:
256,192,41292,1,8,0:0:0:0:
256,192,41469,1,0,0:0:0:0:
256,192,41645,1,8,0:0:0:0:
256,192,41998,1,0,0:0:0:0:
256,192,42175,1,0,0:0:0:0:
256,192,42351,1,12,0:0:0:0:
256,192,42528,1,0,0:0:0:0:
256,192,42616,1,0,0:0:0:0:
256,192,42704,1,0,0:0:0:0:
256,192,42881,1,8,0:0:0:0:
256,192,43057,1,8,0:0:0:0:
256,192,43145,1,8,0:0:0:0:
256,192,43234,1,0,0:0:0:0:
256,192,43410,1,12,0:0:0:0:
256,192,43586,1,0,0:0:0:0:
256,192,43675,1,8,0:0:0:0:
256,192,43763,1,8,0:0:0:0:
256,192,43939,1,8,0:0:0:0:
256,192,44116,1,0,0:0:0:0:
256,192,44204,1,0,0:0:0:0:
256,192,44292,1,0,0:0:0:0:
256,192,44469,1,0,0:0:0:0:
256,192,44645,1,8,0:0:0:0:
256,192,44822,1,8,0:0:0:0:
256,192,44998,1,0,0:0:0:0:
256,192,45175,1,12,0:0:0:0:
256,192,45704,1,0,0:0:0:0:
256,192,46234,1,8,0:0:0:0:
256,192,46586,1,8,0:0:0:0:
256,192,46763,1,8,0:0:0:0:
256,192,46939,1,8,0:0:0:0:
256,192,47116,1,8,0:0:0:0:
256,192,47292,1,0,0:0:0:0:
256,192,47469,1,8,0:0:0:0:
256,192,47645,1,8,0:0:0:0:
256,192,47734,1,8,0:0:0:0:
256,192,47822,1,0,0:0:0:0:
256,192,47910,1,0,0:0:0:0:
256,192,47998,1,12,0:0:0:0:
256,192,48350,1,0,0:0:0:0:
256,192,48527,1,8,0:0:0:0:
256,192,48615,1,8,0:0:0:0:
256,192,48703,1,0,0:0:0:0:
256,192,48880,1,8,0:0:0:0:
256,192,49056,1,0,0:0:0:0:
256,192,49233,1,8,0:0:0:0:
256,192,49321,1,0,0:0:0:0:
256,192,49409,1,0,0:0:0:0:
256,192,49586,1,0,0:0:0:0:
256,192,49762,1,8,0:0:0:0:
256,192,49850,1,8,0:0:0:0:
256,192,49939,1,0,0:0:0:0:
256,192,50027,1,0,0:0:0:0:
256,192,50115,1,8,0:0:0:0:
256,192,50292,1,0,0:0:0:0:
256,192,50468,1,8,0:0:0:0:
256,192,50645,1,0,0:0:0:0:
256,192,50821,1,8,0:0:0:0:
256,192,51174,1,8,0:0:0:0:
256,192,51350,1,0,0:0:0:0:
256,192,51439,1,0,0:0:0:0:
256,192,51527,1,8,0:0:0:0:
256,192,51703,1,0,0:0:0:0:
256,192,51880,1,8,0:0:0:0:
256,192,52056,1,8,0:0:0:0:
256,192,52145,1,8,0:0:0:0:
256,192,52233,1,0,0:0:0:0:
256,192,52409,1,8,0:0:0:0:
256,192,52586,1,8,0:0:0:0:
256,192,52674,1,0,0:0:0:0:
256,192,52762,1,0,0:0:0:0:
256,192,52850,1,0,0:0:0:0:
256,192,52939,1,8,0:0:0:0:
256,192,53115,1,8,0:0:0:0:
256,192,53292,1,8,0:0:0:0:
256,192,53468,1,0,0:0:0:0:
256,192,53645,1,12,0:0:0:0:
256,192,53998,1,8,0:0:0:0:
256,192,54174,1,0,0:0:0:0:
256,192,54262,1,8,0:0:0:0:
256,192,54350,1,8,0:0:0:0:
256,192,54527,1,8,0:0:0:0:
256,192,54703,1,0,0:0:0:0:
256,192,54880,1,8,0:0:0:0:
256,192,55233,1,0,0:0:0:0:
256,192,55409,1,8,0:0:0:0:
256,192,55586,1,8,0:0:0:0:
256,192,55674,1,0,0:0:0:0:
256,192,55762,1,8,0:0:0:0:
256,192,55939,1,0,0:0:0:0:
256,192,56115,1,8,0:0:0:0:
256,192,56292,1,8,0:0:0:0:
256,192,56380,1,8,0:0:0:0:
256,192,56468,1,4,0:0:0:0:
256,192,56645,1,0,0:0:0:0:
256,192,56821,1,0,0:0:0:0:
256,192,56997,1,8,0:0:0:0:
256,192,57086,1,0,0:0:0:0:
256,192,57174,1,0,0:0:0:0:
256,192,57350,1,8,0:0:0:0:
256,192,57527,1,0,0:0:0:0:
256,192,57703,1,12,0:0:0:0:
256,192,58056,1,0,0:0:0:0:
256,192,58233,1,8,0:0:0:0:
256,192,58409,1,0,0:0:0:0:
256,192,58497,1,8,0:0:0:0:
256,192,58586,1,0,0:0:0:0:
256,192,58762,1,8,0:0:0:0:
256,192,58939,1,4,0:0:0:0:
256,192,59115,1,0,0:0:0:0:
256,192,59292,1,12,0:0:0:0:
256,192,59645,1,0,0:0:0:0:
256,192,59821,1,8,0:0:0:0:
256,192,59909,1,8,0:0:0:0:
256,192,59997,1,0,0:0:0:0:
256,192,60174,1,8,0:0:0:0:
256,192,60350,1,0,0:0:0:0:
256,192,60527,1,8,0:0:0:0:
256,192,60615,1,0,0:0:0:0:
256,192,60703,1,0,0:0:0:0:
256,192,60880,1,8,0:0:0:0:
256,192,61056,1,8,0:0:0:0:
256,192,61145,1,8,0:0:0:0:
256,192,61233,1,0,0:0:0:0:
256,192,61321,1,0,0:0:0:0:
256,192,61409,1,8,0:0:0:0:
256,192,61586,1,0,0:0:0:0:
256,192,61762,1,8,0:0:0:0:
256,192,61939,1,0,0:0:0:0:
256,192,62115,1,8,0:0:0:0:
256,192,62468,1,8,0:0:0:0:
256,192,62645,1,8,0:0:0:0:
256,192,62733,1,0,0:0:0:0:
256,192,62821,1,0,0:0:0:0:
256,192,62997,1,8,0:0:0:0:
256,192,63174,1,0,0:0:0:0:
256,192,63350,1,8,0:0:0:0:
256,192,63439,1,8,0:0:0:0:
256,192,63527,1,0,0:0:0:0:
256,192,63703,1,8,0:0:0:0:
256,192,63880,1,8,0:0:0:0:
256,192,63968,1,0,0:0:0:0:
256,192,64056,1,0,0:0:0:0:
256,192,64145,1,0,0:0:0:0:
256,192,64233,1,8,0:0:0:0:
256,192,64409,1,0,0:0:0:0:
256,192,64497,1,0,0:0:0:0:
256,192,64586,1,8,0:0:0:0:
256,192,64762,1,0,0:0:0:0:
256,192,64939,1,12,0:0:0:0:
256,192,65292,1,8,0:0:0:0:
256,192,65468,1,8,0:0:0:0:
256,192,65556,1,0,0:0:0:0:
256,192,65645,1,0,0:0:0:0:
256,192,65821,1,8,0:0:0:0:
256,192,65997,1,0,0:0:0:0:
256,192,66174,1,8,0:0:0:0:
256,192,66262,1,8,0:0:0:0:
256,192,66350,1,0,0:0:0:0:
256,192,66527,1,0,0:0:0:0:
256,192,66703,1,8,0:0:0:0:
256,192,66880,1,0,0:0:0:0:
256,192,66968,1,0,0:0:0:0:
256,192,67056,1,8,0:0:0:0:
256,192,67145,1,8,0:0:0:0:
256,192,67233,1,0,0:0:0:0:
256,192,67409,1,8,0:0:0:0:
256,192,67762,1,12,0:0:0:0:
256,192,67939,1,0,0:0:0:0:
256,192,68115,1,8,0:0:0:0:
256,192,68292,1,4,0:0:0:0:
256,192,68645,1,0,0:0:0:0:
256,192,68997,1,12,0:0:0:0:
256,192,69350,1,0,0:0:0:0:
256,192,69527,1,0,0:0:0:0:
256,192,69703,1,8,0:0:0:0:
256,192,69792,1,0,0:0:0:0:
256,192,69880,1,8,0:0:0:0:
256,192,70056,1,0,0:0:0:0:
256,192,70233,1,8,0:0:0:0:
256,192,70409,1,8,0:0:0:0:
256,192,70497,1,0,0:0:0:0:
256,192,70586,1,0,0:0:0:0:
256,192,70762,1,8,0:0:0:0:
256,192,70939,1,8,0:0:0:0:
256,192,71115,1,0,0:0:0:0:
256,192,71292,1,8,0:0:0:0:
256,192,71380,1,8,0:0:0:0:
256,192,71468,1,0,0:0:0:0:
256,192,71556,1,0,0:0:0:0:
256,192,71645,1,8,0:0:0:0:
256,192,71821,1,0,0:0:0:0:
256,192,71909,1,0,0:0:0:0:
256,192,71997,1,12,0:0:0:0:
256,192,72173,1,0,0:0:0:0:
256,192,72349,1,8,0:0:0:0:
256,192,72526,1,0,0:0:0:0:
256,192,72614,1,8,0:0:0:0:
256,192,72702,1,0,0:0:0:0:
256,192,72879,1,8,0:0:0:0:
256,192,73055,1,8,0:0:0:0:
256,192,73232,1,0,0:0:0:0:
256,192,73408,1,12,0:0:0:0:
256,192,73585,1,0,0:0:0:0:
256,192,73673,1,0,0:0:0:0:
256,192,73761,1,8,0:0:0:0:
256,192,73938,1,12,0:0:0:0:
256,192,74291,1,0,0:0:0:0:
256,192,74467,1,0,0:0:0:0:
256,192,74820,1,12,0:0:0:0:
256,192,74997,1,0,0:0:0:0:
256,192,75173,1,8,0:0:0:0:
256,192,75349,1,0,0:0:0:0:
256,192,75438,1,8,0:0:0:0:
256,192,75526,1,0,0:0:0:0:
256,192,75702,1,8,0:0:0:0:
256,192,75879,1,8,0:0:0:0:
256,192,76055,1,0,0:0:0:0:
256,192,76232,1,12,0:0:0:0:
256,192,76585,1,0,0:0:0:0:
256,192,76761,1,12,0:0:0:0:
256,192,77114,1,8,0:0:0:0:
256,192,77291,1,8,0:0:0:0:
256,192,77467,1,0,0:0:0:0:
256,192,77644,1,8,0:0:0:0:
256,192,77732,1,8,0:0:0:0:
256,192,77820,1,0,0:0:0:0:
256,192,77997,1,8,0:0:0:0:
256,192,78173,1,0,0:0:0:0:
256,192,78349,1,8,0:0:0:0:
256,192,78438,1,0,0:0:0:0:
256,192,78526,1,0,0:0:0:0:
256,192,78702,1,8,0:0:0:0:
256,192,78879,1,0,0:0:0:0:
256,192,79055,1,8,0:0:0:0:
256,192,79144,1,8,0:0:0:0:
256,192,79232,1,0,0:0:0:0:
256,192,79408,1,8,0:0:0:0:
256,192,79585,1,0,0:0:0:0:
256,192,79761,1,8,0:0:0:0:
256,192,79849,1,0,0:0:0:0:
256,192,79938,1,0,0:0:0:0:
256,192,80114,1,8,0:0:0:0:
256,192,80467,1,8,0:0:0:0:
256,192,80555,1,8,0:0:0:0:
256,192,80644,1,0,0:0:0:0:
256,192,80820,1,8,0:0:0:0:
256,192,80997,1,0,0:0:0:0:
256,192,81173,1,8,0:0:0:0:
256,192,81261,1,8,0:0:0:0:
256,192,81349,1,8,0:0:0:0:
256,192,81526,1,8,0:0:0:0:
256,192,81702,1,0,0:0:0:0:
256,192,81879,1,8,0:0:0:0:
256,192,81967,1,8,0:0:0:0:
256,192,82055,1,8,0:0:0:0:
256,192,82144,1,8,0:0:0:0:
256,192,82232,1,0,0:0:0:0:
256,192,82408,1,0,0:0:0:0:
256,192,82585,1,8,0:0:0:0:
256,192,82673,1,8,0:0:0:0:
256,192,82761,1,8,0:0:0:0:
256,192,82849,1,8,0:0:0:0:
256,192,82938,1,8,0:0:0:0:
256,192,83026,1,8,0:0:0:0:
256,192,83114,1,0,0:0:0:0:
256,192,83291,1,0,0:0:0:0:
256,192,83467,1,8,0:0:0:0:
256,192,83820,1,8,0:0:0:0:
256,192,83997,1,8,0:0:0:0:
256,192,84173,1,8,0:0:0:0:
256,192,84349,1,0,0:0:0:0:
256,192,84526,1,0,0:0:0:0:
256,192,84879,1,8,0:0:0:0:
256,192,85055,1,8,0:0:0:0:
