osu file format v14

[General]
AudioFilename: audio.mp3
AudioLeadIn: 0
PreviewTime: 155793
Countdown: 0
SampleSet: Soft
StackLeniency: 0.7
Mode: 0
LetterboxInBreaks: 0
WidescreenStoryboard: 0

[Editor]
Bookmarks: 14269,36212,58155,80097,102040,113012,123983,134955,178840,213126,225469,236440,261126
DistanceSpacing: 0.9
BeatDivisor: 4
GridSize: 32
TimelineZoom: 1.6

[Metadata]
Title:Shinsaku no Shiawase wa Kochira!
TitleUnicode:新作のしあわせはこちら!
Artist:Chino (CV: Inori Minase)
ArtistUnicode:チノ (CV: 水瀬いのり)
Creator:Kyuuchie
Version:Cappuccino
Source:ご注文はうさぎですか??
Tags:gochuumon wa usagi desu ka?? is the order a rabbit season 2 second gochiusa ごちうさ anime japanese pop jpop j-pop kafuu cup of chino lolis Amateurre Nagaraia Flake newton- Tsukinyuni midorijeon _xyliac Keqing iljaaz Fuju Yogurtt
BeatmapID:3427312
BeatmapSetID:1677520

[Difficulty]
HPDrainRate:5
CircleSize:4.2
OverallDifficulty:9
ApproachRate:9.3
SliderMultiplier:1.74
SliderTickRate:1

[Events]
//Background and Video events
0,0,"bg.jpg",0,0
//Break Periods
//Storyboard Layer 0 (Background)
//Storyboard Layer 1 (Fail)
//Storyboard Layer 2 (Pass)
//Storyboard Layer 3 (Foreground)
//Storyboard Layer 4 (Overlay)
//Storyboard Sound Samples

[TimingPoints]
555,342.857142857143,4,2,1,50,1,0
1240,-100,4,2,2,60,0,0
1326,-100,4,2,2,45,0,0
1583,-100,4,2,2,60,0,0
1926,-142.857142857143,4,2,2,60,0,0
10155,-142.857142857143,4,2,2,44,0,0
10326,-142.857142857143,4,2,2,46,0,0
10497,-142.857142857143,4,2,2,48,0,0
10669,-142.857142857143,4,2,2,50,0,0
10840,-142.857142857143,4,2,2,52,0,0
11012,-142.857142857143,4,2,2,54,0,0
11183,-142.857142857143,4,2,2,56,0,0
11355,-142.857142857143,4,2,2,58,0,0
11526,-142.857142857143,4,2,2,60,0,0
12040,-200,4,2,2,60,0,0
13583,-142.857142857143,4,2,2,60,0,0
13926,-83.3333333333333,4,2,2,60,0,0
14269,-90.9090909090909,4,2,1,75,0,0
34669,-166.666666666667,4,2,1,75,0,0
36212,-100,4,2,2,70,0,0
46497,-166.666666666667,4,2,2,70,0,0
47183,-100,4,2,2,70,0,0
58155,-100,4,2,2,65,0,0
69126,-100,4,2,2,65,0,0
77355,-100,4,2,2,52,0,0
77526,-100,4,2,2,55,0,0
77697,-100,4,2,2,58,0,0
77869,-100,4,2,2,61,0,0
78040,-100,4,2,2,63,0,0
78212,-100,4,2,2,66,0,0
78383,-100,4,2,2,69,0,0
78555,-100,4,2,2,72,0,0
78726,-100,4,2,2,75,0,0
79412,-166.666666666667,4,2,2,75,0,0
79755,-83.3333333333333,4,2,2,75,0,0
80097,-90.9090909090909,4,2,1,80,0,1
90383,-90.9090909090909,4,2,2,80,0,1
91069,-90.9090909090909,4,2,1,80,0,1
99297,-90.9090909090909,4,2,1,56,0,1
99469,-90.9090909090909,4,2,1,59,0,1
99640,-90.9090909090909,4,2,1,62,0,1
99812,-90.9090909090909,4,2,1,65,0,1
99983,-90.9090909090909,4,2,1,68,0,1
100155,-90.9090909090909,4,2,1,71,0,1
100326,-90.9090909090909,4,2,1,74,0,1
100497,-90.9090909090909,4,2,1,77,0,1
100669,-90.9090909090909,4,2,1,80,0,0
101697,-83.3333333333333,4,2,1,80,0,0
102040,-90.9090909090909,4,2,1,75,0,1
111469,-166.666666666667,4,2,1,75,0,0
113012,-142.857142857143,4,2,3,65,0,0
121240,-200,4,2,3,65,0,0
121926,-200,4,2,2,65,0,0
123640,-90.909090909091,4,2,2,65,0,0
123983,-100,4,2,2,70,0,0
133412,-166.666666666667,4,2,2,70,0,0
134955,-100,4,2,2,65,0,0
145926,-100,4,2,2,65,0,0
154155,-100,4,2,2,52,0,0
154326,-100,4,2,2,55,0,0
154497,-100,4,2,2,58,0,0
154669,-100,4,2,2,61,0,0
154840,-100,4,2,2,63,0,0
155012,-100,4,2,2,66,0,0
155183,-100,4,2,2,69,0,0
155355,-100,4,2,2,72,0,0
155526,-100,4,2,2,75,0,0
156555,-83.3333333333333,4,2,2,75,0,0
156897,-90.9090909090909,4,2,1,80,0,1
167183,-90.9090909090909,4,2,2,80,0,1
167869,-90.9090909090909,4,2,1,80,0,1
176097,-90.9090909090909,4,2,1,56,0,1
176269,-90.9090909090909,4,2,1,59,0,1
176440,-90.9090909090909,4,2,1,62,0,1
176612,-90.9090909090909,4,2,1,65,0,1
176783,-90.9090909090909,4,2,1,68,0,1
176955,-90.9090909090909,4,2,1,71,0,1
177126,-90.9090909090909,4,2,1,74,0,1
177297,-90.9090909090909,4,2,1,77,0,1
177469,-90.9090909090909,4,2,1,70,0,0
178497,-83.3333333333333,4,2,1,70,0,0
178840,-100,4,2,2,70,0,0
189469,-83.3333333333333,4,2,2,70,0,0
189812,-90.9090909090909,4,2,1,75,0,1
199583,-90.9090909090909,4,2,1,75,0,0
200097,-90.9090909090909,4,2,2,75,0,0
200783,-90.9090909090909,4,2,1,75,0,1
209012,-90.9090909090909,4,2,2,52,0,1
209183,-90.9090909090909,4,2,2,55,0,1
209354,-90.9090909090909,4,2,2,58,0,1
209526,-90.9090909090909,4,2,2,61,0,1
209697,-90.9090909090909,4,2,2,63,0,1
209869,-90.9090909090909,4,2,2,66,0,1
210040,-90.9090909090909,4,2,2,69,0,1
210212,-250,4,2,2,72,0,0
210383,-250,4,2,2,75,0,0
212440,-250,4,2,2,60,0,0
212526,-250,4,2,2,45,0,0
212783,-250,4,2,2,60,0,0
213126,-166.666666666667,4,2,2,65,0,0
218612,-111.111111111111,4,2,2,65,0,0
221355,-111.111111111111,4,2,2,44,0,0
221526,-111.111111111111,4,2,2,46,0,0
221697,-111.111111111111,4,2,2,48,0,0
221869,-111.111111111111,4,2,2,50,0,0
222040,-111.111111111111,4,2,2,52,0,0
222212,-111.111111111111,4,2,2,54,0,0
222383,-111.111111111111,4,2,2,56,0,0
222555,-111.111111111111,4,2,2,58,0,0
222726,-111.111111111111,4,2,2,60,0,0
225126,-83.3333333333333,4,2,2,60,0,0
225469,-90.9090909090909,4,2,1,80,0,1
233697,-90.9090909090909,4,2,1,56,0,1
233869,-90.9090909090909,4,2,1,59,0,1
234040,-90.9090909090909,4,2,1,62,0,1
234212,-90.9090909090909,4,2,1,65,0,1
234383,-90.9090909090909,4,2,1,68,0,1
234555,-90.9090909090909,4,2,1,71,0,1
234726,-90.9090909090909,4,2,1,74,0,1
234897,-90.9090909090909,4,2,1,77,0,1
235069,-90.9090909090909,4,2,1,80,0,0
236097,-83.3333333333333,4,2,1,80,0,0
236440,-90.9090909090909,4,2,1,75,0,1
245869,-90.9090909090909,4,2,1,75,0,0
247412,-166.666666666667,4,2,1,70,0,0
257012,-142.857142857143,4,2,1,70,0,0

[Colours]
Combo1 : 209,179,227
Combo2 : 175,175,216

[HitObjects]
60,121,555,5,0,0:0:0:0:
60,121,897,1,0,0:0:0:0:
266,292,1240,1,8,0:0:0:0:
237,281,1326,1,8,0:0:0:0:
206,278,1412,1,8,0:0:0:0:
176,282,1497,1,8,0:0:0:0:
149,297,1583,1,8,0:0:0:0:
149,297,1926,6,0,P|100:280|24:263,1,121.799996282959,4|2,3:2|0:2,0:0:0:0:
238,179,2612,1,2,0:2:0:0:
238,179,2783,2,0,P|278:165|304:165,1,60.8999981414796,2|2,0:2|0:2,0:0:0:0:
352,110,3126,1,2,0:2:0:0:
158,23,3297,6,0,P|125:70|139:156,1,121.799996282959,0|0,3:2|0:0,0:0:0:0:
248,263,3812,2,0,P|228:327|216:395,1,121.799996282959,2|2,0:2|0:2,0:0:0:0:
173,211,4326,1,2,0:2:0:0:
173,211,4497,1,2,0:2:0:0:
328,283,4669,6,0,P|368:269|396:260,1,60.8999981414796,2|0,3:2|0:0,0:0:0:0:
173,211,5012,2,0,P|133:197|105:188,1,60.8999981414796,2|0,0:2|0:0,0:0:0:0:
268,109,5355,1,2,0:2:0:0:
268,109,5526,2,0,P|259:53|248:24,1,60.8999981414796,2|0,0:2|0:0,0:0:0:0:
365,166,5869,1,2,0:2:0:0:
248,263,6040,5,0,3:2:0:0:
248,263,6212,1,0,0:0:0:0:
420,344,6383,1,0,0:0:0:0:
365,263,6555,1,0,0:0:0:0:
204,328,6726,6,0,P|184:246|162:185,2,121.799996282959,2|2|2,0:2|0:2|3:2,0:0:0:0:
439,76,7755,6,0,P|423:116|418:148,1,60.8999981414796,2|0,0:2|0:0,0:0:0:0:
459,214,8097,2,0,P|425:183|342:180,1,121.799996282959,2|2,3:2|0:2,0:0:0:0:
142,320,8783,6,0,P|100:292|40:283,1,91.3499972122193,2|0,3:2|0:0,0:0:0:0:
42,282,9126,1,2,0:2:0:0:
267,330,9297,2,0,P|315:312|348:310,1,60.8999981414796,2|0,0:2|3:2,0:0:0:0:
167,178,9640,2,0,P|137:171|109:158,1,60.8999981414796,2|0,0:2|0:0,0:0:0:0:
262,75,9983,1,2,0:2:0:0:
413,355,10155,5,8,3:2:0:0:
267,167,10326,1,8,3:2:0:0:
156,372,10497,1,8,3:2:0:0:
368,221,10669,1,10,3:2:0:0:
169,104,10840,1,10,3:2:0:0:
317,308,11012,1,8,3:2:0:0:
447,112,11183,5,8,3:2:0:0:
452,91,11269,1,8,0:0:0:0:
458,70,11355,1,8,3:2:0:0:
464,49,11440,1,8,0:0:0:0:
469,28,11526,1,2,3:2:0:0:
471,27,12040,6,0,P|493:34|519:42,2,43.5,2|2|2,0:2|0:2|0:2,0:0:0:0:
393,74,12555,2,0,P|408:136|413:168,1,87,2|2,0:2|0:2,0:0:0:0:
102,293,13583,6,0,P|92:276|73:250,3,30.4499990707398,8|8|0|0,0:0|0:0|3:0|3:0,0:0:0:0:
93,368,13926,2,0,P|120:309|194:339,1,156.599995220947,10|0,0:1|0:0,0:0:0:0:
192,335,14269,6,0,P|254:319|310:316,1,95.7000029205323,6|0,3:2|0:0,0:0:0:0:
444,143,14612,2,0,P|396:137|350:123,1,95.7000029205323,10|0,3:2|0:0,0:0:0:0:
454,339,14955,1,2,3:2:0:0:
297,235,15126,1,0,0:0:0:0:
506,85,15297,6,0,P|490:158|479:260,1,143.550004380798,10|0,3:2|0:0,0:0:0:0:
488,239,15640,1,2,3:2:0:0:
285,315,15812,1,2,0:0:0:0:
404,190,15983,1,10,3:2:0:0:
262,82,16155,5,2,0:0:0:0:
382,300,16326,1,0,3:2:0:0:
382,300,16412,1,8,0:0:0:0:
382,300,16497,1,8,0:0:0:0:
235,161,16669,1,8,3:2:0:0:
67,354,16840,5,8,0:0:0:0:
67,354,16926,1,8,0:0:0:0:
67,354,17012,2,0,P|92:302|144:296,1,95.7000029205323,6|0,3:2|0:0,0:0:0:0:
325,185,17355,2,0,P|253:171|223:152,1,95.7000029205323,10|0,3:2|0:0,0:0:0:0:
65,62,17697,2,0,P|137:48|167:29,1,95.7000029205323,2|0,3:2|0:0,0:0:0:0:
242,249,18040,6,0,P|216:318|209:363,1,95.7000029205323,10|0,3:2|0:0,0:0:0:0:
217,353,18297,1,0,0:0:0:0:
217,353,18383,1,2,3:2:0:0:
108,183,18555,1,2,0:0:0:0:
335,301,18726,1,10,3:2:0:0:
216,97,18897,1,2,0:0:0:0:
118,343,19069,1,0,3:2:0:0:
118,343,19155,1,8,0:0:0:0:
118,343,19240,1,8,0:0:0:0:
307,147,19412,5,8,3:2:0:0:
340,147,19497,1,8,0:0:0:0:
371,159,19583,1,8,0:0:0:0:
389,187,19669,1,8,0:0:0:0:
393,220,19755,6,0,P|458:199|517:199,1,95.7000029205323,6|0,3:2|0:0,0:0:0:0:
237,283,20097,2,0,P|172:262|113:262,1,95.7000029205323,10|0,3:2|0:0,0:0:0:0:
388,85,20440,1,2,3:2:0:0:
224,193,20612,1,0,0:0:0:0:
347,371,20783,2,0,P|339:310|319:265,1,95.7000029205323,10|0,3:2|0:0,0:0:0:0:
388,85,21126,5,2,3:2:0:0:
182,42,21297,1,2,0:0:0:0:
398,201,21469,1,10,3:2:0:0:
282,48,21640,1,2,0:0:0:0:
111,241,21812,1,0,3:2:0:0:
111,241,21897,1,8,0:0:0:0:
111,241,21983,1,8,0:0:0:0:
313,146,22155,1,8,3:2:0:0:
105,18,22326,5,8,0:0:0:0:
105,18,22412,1,8,0:0:0:0:
105,18,22497,2,0,P|125:87|142:176,1,143.550004380798,6|0,3:2|0:0,0:0:0:0:
139,157,22840,2,0,P|190:139|232:136,1,95.7000029205323,10|0,3:2|0:0,0:0:0:0:
475,191,23183,2,0,P|473:237|434:262,1,95.7000029205323,2|0,3:2|0:0,0:0:0:0:
312,145,23526,2,0,P|303:98|288:53,1,95.7000029205323,10|0,3:2|0:0,0:0:0:0:
280,290,23869,5,14,3:2:0:0:
437,124,24040,1,2,0:0:0:0:
347,355,24212,1,10,0:0:0:0:
231,135,24383,1,2,0:0:0:0:
433,262,24555,1,8,0:0:0:0:
433,262,24640,1,8,0:0:0:0:
433,262,24726,1,8,0:0:0:0:
187,335,24897,5,8,0:0:0:0:
154,326,24983,1,8,0:0:0:0:
120,320,25069,1,0,3:0:0:0:
86,315,25155,1,0,0:0:0:0:
52,313,25240,6,0,P|98:281|73:186,1,143.550004380798,6|0,3:2|0:0,0:0:0:0:
91,200,25583,2,0,P|153:212|200:212,1,95.7000029205323,10|0,3:2|0:0,0:0:0:0:
333,355,25926,2,0,P|329:282|303:232,1,95.7000029205323,2|0,3:2|0:0,0:0:0:0:
453,39,26269,2,0,P|439:84|441:132,1,95.7000029205323,10|0,3:2|0:0,0:0:0:0:
453,143,26526,1,0,0:0:0:0:
453,143,26612,1,2,3:2:0:0:
270,48,26783,1,2,0:0:0:0:
378,173,26955,1,10,3:2:0:0:
194,290,27126,1,2,0:0:0:0:
284,134,27297,5,0,3:2:0:0:
284,134,27383,1,8,0:0:0:0:
284,134,27469,1,8,0:0:0:0:
402,330,27640,1,8,3:2:0:0:
171,197,27812,5,8,0:0:0:0:
171,197,27897,1,8,0:0:0:0:
171,197,27983,2,0,P|188:252|194:300,1,95.7000029205323,6|0,3:2|0:0,0:0:0:0:
357,97,28326,2,0,P|364:49|379:4,1,95.7000029205323,10|0,3:2|0:0,0:0:0:0:
204,112,28669,1,2,3:2:0:0:
389,201,28840,1,0,0:0:0:0:
193,289,29012,2,0,P|128:272|86:266,1,95.7000029205323,10|0,3:2|0:0,0:0:0:0:
85,274,29269,1,0,0:0:0:0:
85,274,29355,5,2,3:2:0:0:
263,162,29526,1,2,0:0:0:0:
22,172,29697,1,10,3:2:0:0:
202,28,29869,1,2,0:0:0:0:
274,256,30040,1,0,3:2:0:0:
274,256,30126,1,8,0:0:0:0:
274,256,30212,1,8,0:0:0:0:
102,64,30383,5,8,3:2:0:0:
83,92,30469,1,8,0:0:0:0:
81,125,30555,1,8,0:0:0:0:
94,155,30640,1,8,0:0:0:0:
122,173,30726,6,0,P|176:152|249:141,1,95.7000029205323,6|0,3:2|0:0,0:0:0:0:
439,351,31069,2,0,P|385:330|312:319,1,95.7000029205323,10|0,3:2|0:0,0:0:0:0:
361,62,31412,2,0,P|416:74|425:163,1,143.550004380798,2|0,3:2|0:0,0:0:0:0:
432,151,31755,2,0,P|369:168|329:201,1,95.7000029205323,10|0,3:2|0:0,0:0:0:0:
340,203,32012,1,0,0:0:0:0:
340,203,32097,1,2,3:2:0:0:
164,73,32269,1,2,0:0:0:0:
108,302,32440,1,10,3:2:0:0:
273,102,32612,1,2,0:0:0:0:
56,185,32783,5,0,3:2:0:0:
56,185,32869,1,8,0:0:0:0:
56,185,32955,1,8,0:0:0:0:
277,336,33126,1,8,3:2:0:0:
81,93,33297,5,8,0:0:0:0:
81,93,33383,1,8,0:0:0:0:
81,93,33469,1,6,3:2:0:0:
189,352,33640,1,0,3:2:0:0:
301,129,33812,1,2,3:2:0:0:
115,267,33983,1,0,3:2:0:0:
259,53,34155,5,2,3:2:0:0:
421,293,34326,1,0,3:2:0:0:
189,192,34497,1,2,3:2:0:0:
475,122,34669,6,0,B|358:93|394:212|293:209,1,208.79999362793,4|2,3:2|0:0,0:0:0:0:
74,361,35697,5,0,3:0:0:0:
98,291,35869,1,8,0:0:0:0:
122,221,36040,1,0,3:0:0:0:
348,341,36212,6,0,P|406:330|444:329,1,87,4|0,3:2|0:0,0:0:0:0:
512,206,36555,2,0,P|468:203|426:193,1,87,10|0,3:2|0:0,0:0:0:0:
208,43,36897,2,0,P|254:103|332:81,1,130.5,2|0,3:2|0:0,0:0:0:0:
321,79,37240,1,10,3:2:0:0:
366,257,37412,2,0,P|349:307|348:347,1,87,2|0,2:0|3:2,0:0:0:0:
277,191,37755,1,2,2:0:0:0:
432,358,37926,1,10,3:2:0:0:
262,181,38097,1,2,2:0:0:0:
453,54,38269,6,0,P|486:106|460:143,1,87,2|2,3:2|2:0,0:0:0:0:
262,281,38612,1,10,3:2:0:0:
383,129,38783,1,2,2:0:0:0:
489,288,38955,6,0,P|422:265|337:254,1,130.5,2|0,3:2|0:0,0:0:0:0:
349,266,39297,1,10,3:2:0:0:
204,126,39469,1,0,0:0:0:0:
250,355,39640,5,2,3:2:0:0:
262,281,39812,1,2,2:0:0:0:
274,207,39983,1,10,3:2:0:0:
62,158,40155,6,0,P|85:216|89:271,1,87,2|0,2:0|3:2,0:0:0:0:
278,96,40497,2,0,P|286:53|304:13,1,87,2|8,2:0|3:2,0:0:0:0:
148,87,40840,1,2,2:0:0:0:
262,281,41012,1,0,3:2:0:0:
262,281,41097,1,8,0:2:0:0:
262,281,41183,1,0,0:0:0:0:
28,158,41355,1,8,3:2:0:0:
144,178,41526,1,0,0:0:0:0:
30,353,41697,6,0,P|102:296|165:313,1,130.5,4|0,3:2|0:0,0:0:0:0:
147,310,42040,1,10,3:2:0:0:
240,169,42212,1,2,2:0:0:0:
416,296,42383,6,0,P|488:265|498:210,1,130.5,2|0,3:2|0:0,0:0:0:0:
489,201,42726,1,10,3:2:0:0:
311,352,42897,2,0,P|265:326|139:311,1,174,2|2,2:0|2:0,0:0:0:0:
330,170,43412,1,10,3:2:0:0:
157,95,43583,1,2,2:0:0:0:
305,258,43755,5,2,3:2:0:0:
213,28,43926,1,2,2:0:0:0:
43,209,44097,1,10,3:2:0:0:
241,108,44269,1,2,2:0:0:0:
37,35,44440,2,0,P|56:85|68:130,1,87,2|0,3:2|0:0,0:0:0:0:
64,130,44697,1,8,0:2:0:0:
64,130,44783,1,10,3:2:0:0:
232,229,44955,1,8,0:2:0:0:
232,229,45040,1,8,0:2:0:0:
232,229,45126,1,0,3:2:0:0:
157,136,45297,5,0,3:2:0:0:
142,213,45469,1,8,3:2:0:0:
127,289,45640,1,6,3:2:0:0:
437,364,45983,5,2,0:0:0:0:
433,355,46155,1,2,0:0:0:0:
429,346,46326,1,2,0:0:0:0:
423,335,46497,2,0,P|390:323|352:321,1,52.1999984069825,2|0,0:0|0:0,0:0:0:0:
463,249,46840,2,0,P|496:237|534:235,1,52.1999984069825,2|0,0:0|0:0,0:0:0:0:
280,373,47183,6,0,P|221:365|191:281,1,130.5,4|0,3:2|0:0,0:0:0:0:
201,291,47526,1,10,3:2:0:0:
352,128,47697,1,2,0:0:0:0:
247,83,47869,2,0,P|276:173|283:229,1,130.5,2|0,3:2|0:0,0:0:0:0:
277,221,48212,1,10,3:2:0:0:
85,359,48383,2,0,P|93:298|92:263,1,87,2|0,2:0|3:2,0:0:0:0:
176,141,48726,1,2,2:0:0:0:
31,82,48897,5,10,3:2:0:0:
189,223,49069,1,2,2:0:0:0:
96,19,49240,1,2,3:2:0:0:
96,19,49326,1,8,0:2:0:0:
96,19,49412,1,2,2:0:0:0:
15,216,49583,1,10,3:2:0:0:
99,153,49755,1,2,2:0:0:0:
316,299,49926,6,0,B|372:311|410:269|384:269|416:222|489:238,1,174,2|10,3:2|3:2,0:0:0:0:
255,140,50440,1,0,0:0:0:0:
362,58,50612,1,2,3:2:0:0:
350,135,50783,1,2,2:0:0:0:
335,212,50955,1,10,3:2:0:0:
117,78,51126,6,0,P|89:123|114:166,1,87,2|0,2:0|3:2,0:0:0:0:
251,233,51469,2,0,P|295:217|340:211,1,87,2|8,2:0|3:2,0:0:0:0:
67,328,51812,1,2,2:0:0:0:
188,162,51983,1,0,3:2:0:0:
188,162,52069,1,8,0:2:0:0:
188,162,52155,1,0,0:0:0:0:
258,352,52326,1,8,3:2:0:0:
122,251,52497,1,0,0:0:0:0:
380,108,52669,6,0,P|413:146|414:239,1,130.5,4|0,3:2|0:0,0:0:0:0:
420,223,53012,2,0,P|360:211|319:211,1,87,10|2,3:2|2:0,0:0:0:0:
172,339,53355,2,0,P|215:341|257:351,1,87,2|0,3:2|0:0,0:0:0:0:
351,293,53697,1,10,3:2:0:0:
122,251,53869,6,0,P|80:219|111:106,1,174,2|2,2:0|2:0,0:0:0:0:
260,48,54383,2,0,P|240:108|233:160,1,87,10|2,3:2|2:0,0:0:0:0:
29,302,54726,1,2,3:2:0:0:
29,302,54812,1,8,0:2:0:0:
29,302,54897,1,2,2:0:0:0:
184,203,55069,1,10,3:2:0:0:
5,134,55240,1,2,2:0:0:0:
145,332,55412,5,10,3:2:0:0:
172,318,55497,1,8,0:2:0:0:
201,310,55583,1,8,0:2:0:0:
231,309,55669,1,8,0:2:0:0:
261,309,55755,2,0,P|306:287|352:280,1,87,14|0,3:2|0:0,0:0:0:0:
469,174,56097,1,0,3:2:0:0:
295,111,56269,1,2,0:2:0:0:
459,320,56440,1,8,3:2:0:0:
413,37,56612,5,6,3:2:0:0:
396,122,56955,1,6,3:2:0:0:
380,207,57297,1,6,3:2:0:0:
112,256,57983,5,2,0:0:0:0:
166,364,58155,2,0,P|105:335|-4:319,1,174,6|8,3:2|0:2,0:0:0:0:
270,268,58669,1,10,3:2:0:0:
270,268,58840,2,0,P|319:283|406:209,1,174,2|8,0:2|0:2,0:0:0:0:
405,211,59355,1,2,0:2:0:0:
290,17,59526,6,0,P|307:86|319:195,1,174,2|8,3:2|0:2,0:0:0:0:
480,272,60040,1,10,3:2:0:0:
480,272,60212,2,0,B|432:256|389:297|427:298|376:343|318:332,1,174,2|8,0:2|0:2,0:0:0:0:
164,209,60897,6,0,P|115:165|-1:192,2,174,2|10|2,3:2|0:2|0:2,0:0:0:0:
234,272,61755,1,2,3:2:0:0:
360,173,61926,1,10,0:2:0:0:
213,41,62097,2,0,P|231:94|247:156,1,87,2|0,0:2|3:2,0:0:0:0:
413,294,62440,5,2,3:2:0:0:
278,202,62612,1,10,0:2:0:0:
439,108,62783,1,10,3:2:0:0:
334,360,62955,5,2,0:2:0:0:
402,313,63126,1,2,3:2:0:0:
483,348,63297,2,0,P|524:307|504:233,1,130.5,10|0,0:2|0:0,0:0:0:0:
496,234,63640,6,0,B|395:205|467:174|335:143,1,174,4|10,3:2|0:2,0:0:0:0:
234,100,64155,2,0,P|247:43|247:-5,1,87,8|2,3:2|0:2,0:0:0:0:
274,173,64497,1,0,3:2:0:0:
208,216,64669,2,0,P|151:203|113:204,1,87,10|0,0:2|0:0,0:0:0:0:
301,332,65012,6,0,P|356:331|411:227,1,174,2|8,3:2|0:2,0:0:0:0:
187,377,65526,2,0,P|132:357|60:335,1,130.5,10|0,3:2|0:0,0:0:0:0:
64,336,65869,1,2,3:2:0:0:
160,273,66040,1,10,0:2:0:0:
51,110,66212,1,2,0:2:0:0:
14,197,66383,6,0,P|79:157|179:143,1,174,6|8,3:2|0:2,0:0:0:0:
299,182,66897,2,0,P|356:169|370:62,1,174,10|2,3:2|3:2,0:0:0:0:
284,39,67412,1,10,0:2:0:0:
284,39,67583,1,2,0:2:0:0:
218,186,67755,5,6,3:2:0:0:
236,256,67926,1,0,0:0:0:0:
255,326,68097,1,8,0:2:0:0:
512,164,68269,6,0,P|500:226|399:244,1,174,10|0,3:2|3:2,0:0:0:0:
333,209,68783,1,8,0:2:0:0:
333,209,68955,1,0,0:0:0:0:
254,325,69126,6,0,P|296:334|336:353,1,87,4|0,3:2|0:0,0:0:0:0:
145,230,69469,2,0,P|105:248|63:257,1,87,10|10,0:2|3:2,0:0:0:0:
218,170,69812,1,2,0:2:0:0:
218,170,69983,1,0,3:2:0:0:
107,66,70155,2,0,P|74:118|103:158,1,87,10|0,0:2|0:0,0:0:0:0:
236,256,70497,6,0,P|302:233|369:232,1,130.5,2|0,3:2|0:0,0:0:0:0:
376,244,70840,1,10,0:2:0:0:
492,127,71012,2,0,P|444:132|408:98,1,87,10|0,3:2|0:0,0:0:0:0:
283,16,71355,2,0,P|311:55|299:103,1,87,2|8,3:2|0:2,0:0:0:0:
221,159,71697,1,2,0:2:0:0:
80,137,71869,6,0,P|100:186|123:310,1,174,2|8,3:2|0:2,0:0:0:0:
306,360,72383,2,0,P|362:338|404:331,1,87,8|2,3:2|0:2,0:0:0:0:
248,241,72726,1,0,3:2:0:0:
248,241,72897,2,0,P|226:185|219:143,1,87,8|0,0:2|0:0,0:0:0:0:
417,77,73240,5,2,3:2:0:0:
337,192,73412,1,0,3:2:0:0:
247,30,73583,1,8,0:2:0:0:
444,193,73755,6,0,P|380:183|331:293,1,174,8|0,3:2|3:2,0:0:0:0:
410,354,74269,2,0,P|471:332|502:327,1,87,8|0,0:2|0:0,0:0:0:0:
323,264,74612,6,0,P|262:242|231:237,1,87,4|0,3:2|0:0,0:0:0:0:
388,52,74955,2,0,P|439:93|444:196,1,174,2|0,3:2|3:2,0:0:0:0:
402,262,75469,1,0,0:0:0:0:
240,238,75640,2,0,P|179:260|148:265,1,87,2|0,3:2|0:0,0:0:0:0:
14,95,75983,6,0,P|29:144|118:166,1,130.5,6|0,3:2|0:0,0:0:0:0:
111,152,76326,1,0,3:2:0:0:
304,33,76497,1,8,0:2:0:0:
199,18,76669,2,0,P|227:89|236:136,1,87,2|0,3:2|0:0,0:0:0:0:
351,285,77012,2,0,P|363:243|381:203,1,87,0|0,3:2|0:0,0:0:0:0:
393,192,77269,1,0,0:0:0:0:
393,192,77355,5,14,3:2:0:0:
202,308,77526,1,8,3:2:0:0:
336,101,77697,1,8,3:2:0:0:
438,350,77869,1,8,3:2:0:0:
229,99,78040,5,8,3:2:0:0:
435,267,78212,1,8,3:2:0:0:
122,363,78383,1,8,3:2:0:0:
283,199,78555,1,8,3:2:0:0:
283,199,78641,1,8,0:2:0:0:
283,199,78726,1,10,3:2:0:0:
283,199,79069,5,2,0:2:0:0:
277,214,79240,1,2,0:2:0:0:
270,227,79412,2,0,P|227:215|198:210,1,52.1999984069825,2|0,0:2|0:0,0:0:0:0:
318,351,79755,6,0,P|379:324|492:308,1,156.599995220947,10|0,0:1|0:0,0:0:0:0:
467,308,80097,6,0,P|404:285|392:233,1,95.7000029205323,6|0,3:2|0:0,0:0:0:0:
512,82,80440,2,0,P|493:145|486:194,1,95.7000029205323,10|0,3:2|0:0,0:0:0:0:
491,188,80697,1,0,0:0:0:0:
491,188,80783,1,2,3:2:0:0:
362,118,80955,1,2,0:2:0:0:
238,303,81126,1,10,3:2:0:0:
393,262,81297,6,0,P|349:215|252:215,1,143.550004380798,2|0,0:2|0:0,0:0:0:0:
260,216,81640,1,0,0:0:0:0:
65,122,81812,1,8,3:2:0:0:
190,65,81983,1,2,0:2:0:0:
0,276,82155,1,0,3:2:0:0:
0,276,82240,1,8,0:0:0:0:
0,276,82326,1,2,0:2:0:0:
0,58,82497,5,10,3:2:0:0:
172,169,82669,1,2,0:2:0:0:
0,276,82840,6,0,P|9:213|8:160,1,95.7000029205323,2|0,3:2|0:0,0:0:0:0:
250,121,83183,2,0,P|251:168|259:215,1,95.7000029205323,10|0,3:2|0:0,0:0:0:0:
93,118,83526,1,2,3:2:0:0:
53,334,83697,2,0,P|114:312|159:310,1,95.7000029205323,2|8,0:2|3:2,0:0:0:0:
322,359,84040,6,0,P|393:359|444:243,1,191.400005841065,2|2,0:2|0:2,0:0:0:0:
298,165,84555,1,10,3:2:0:0:
463,65,84726,1,2,0:2:0:0:
361,256,84897,1,2,3:2:0:0:
361,256,84983,1,8,0:0:0:0:
361,256,85069,1,2,0:2:0:0:
259,56,85240,1,10,3:2:0:0:
449,164,85412,1,0,0:0:0:0:
261,280,85583,6,0,P|191:261|99:255,1,143.550004380798,4|0,3:2|0:0,0:0:0:0:
107,265,85926,1,10,3:2:0:0:
236,163,86097,1,2,0:2:0:0:
17,53,86269,2,0,P|-14:98|23:147,1,95.7000029205323,2|0,3:2|0:0,0:0:0:0:
120,254,86612,2,0,P|114:196|94:148,1,95.7000029205323,10|0,3:2|0:0,0:0:0:0:
303,64,86955,6,0,P|301:126|222:161,1,143.550004380798,2|0,3:2|0:0,0:0:0:0:
213,147,87297,1,10,3:2:0:0:
52,302,87469,2,0,P|100:304|149:322,1,95.7000029205323,2|0,0:2|3:2,0:0:0:0:
156,339,87726,1,8,0:0:0:0:
156,339,87812,1,2,0:2:0:0:
312,228,87983,1,8,3:2:0:0:
140,96,88155,1,2,0:2:0:0:
235,287,88326,6,0,P|327:255|450:244,1,191.400005841065,4|8,3:2|3:2,0:0:0:0:
297,151,88840,1,2,0:2:0:0:
156,339,89012,6,0,P|62:322|40:219,1,191.400005841065,6|8,3:2|3:2,0:0:0:0:
162,79,89526,1,0,0:0:0:0:
43,37,89697,5,10,0:3:0:0:
20,68,89783,1,8,0:3:0:0:
16,106,89869,1,8,0:3:0:0:
38,136,89955,1,8,0:3:0:0:
75,141,90040,1,6,0:3:0:0:
102,150,90126,1,4,0:3:0:0:
121,171,90212,1,4,0:3:0:0:
130,197,90297,1,4,0:3:0:0:
120,223,90383,6,0,P|85:211|60:212,1,47.8500014602662,10|8,0:3|0:3,0:0:0:0:
281,283,90555,2,0,P|316:271|341:272,1,47.8500014602662,8|8,0:3|0:3,0:0:0:0:
209,78,90726,2,0,P|206:101|196:123,1,47.8500014602662,6|4,0:3|0:3,0:0:0:0:
396,340,90897,5,4,0:3:0:0:
396,340,90983,1,4,0:3:0:0:
396,340,91069,2,0,P|427:270|380:207,1,143.550004380798,6|0,3:2|0:0,0:0:0:0:
383,207,91412,2,0,P|399:152|406:102,1,95.7000029205323,10|0,3:2|0:0,0:0:0:0:
503,267,91755,1,2,3:2:0:0:
295,187,91926,1,2,0:2:0:0:
487,66,92097,1,10,3:2:0:0:
326,270,92269,6,0,B|261:259|233:307|252:307|224:361|135:350,1,191.400005841065,2|0,0:2|0:0,0:0:0:0:
0,262,92783,1,8,3:2:0:0:
188,105,92955,2,0,P|168:167|164:217,1,95.7000029205323,2|0,0:2|3:2,0:0:0:0:
177,212,93212,1,8,0:0:0:0:
177,212,93297,1,2,0:2:0:0:
11,341,93469,1,10,3:2:0:0:
86,148,93641,1,2,0:2:0:0:
224,308,93812,6,0,P|149:284|106:281,1,95.7000029205323,2|0,3:2|0:0,0:0:0:0:
318,169,94155,2,0,P|364:160|409:142,1,95.7000029205323,10|0,3:2|0:0,0:0:0:0:
308,292,94497,1,2,3:2:0:0:
455,344,94669,2,0,P|467:299|438:263,1,95.7000029205323,2|8,0:2|3:2,0:0:0:0:
239,213,95012,6,0,P|181:166|198:47,1,191.400005841065,2|2,0:2|0:2,0:0:0:0:
318,169,95526,1,10,3:2:0:0:
113,318,95697,1,2,0:2:0:0:
162,169,95869,1,2,3:2:0:0:
162,169,95955,1,8,0:0:0:0:
162,169,96040,1,2,0:2:0:0:
307,321,96212,2,0,P|249:303|207:302,1,95.7000029205323,10|0,3:2|0:0,0:0:0:0:
67,53,96555,6,0,P|62:120|170:165,1,191.400005841065,4|10,3:2|3:2,0:0:0:0:
342,90,97069,1,2,0:2:0:0:
229,36,97240,2,0,P|250:101|252:157,1,95.7000029205323,2|0,3:2|0:0,0:0:0:0:
445,271,97583,2,0,P|476:243|447:171,1,95.7000029205323,10|0,3:2|0:0,0:0:0:0:
334,296,97926,6,0,P|264:275|175:268,1,143.550004380798,6|0,3:2|0:0,0:0:0:0:
176,274,98269,1,10,3:2:0:0:
27,361,98440,2,0,P|38:302|36:264,1,95.7000029205323,2|0,0:2|3:2,0:0:0:0:
31,254,98697,1,8,0:0:0:0:
31,254,98783,1,2,0:2:0:0:
144,87,98955,2,0,P|173:124|152:176,1,95.7000029205323,8|2,3:2|0:2,0:0:0:0:
43,67,99297,5,4,3:2:0:0:
249,176,99469,1,8,3:2:0:0:
11,267,99640,1,8,3:2:0:0:
210,62,99812,1,10,3:2:0:0:
334,331,99983,1,10,3:2:0:0:
134,226,100155,1,8,3:2:0:0:
383,82,100326,1,8,3:2:0:0:
376,110,100412,1,8,2:2:0:0:
369,137,100497,1,8,3:2:0:0:
363,165,100583,1,8,2:2:0:0:
357,193,100669,1,10,3:2:0:0:
168,366,101183,5,2,0:2:0:0:
150,296,101355,1,2,0:2:0:0:
134,226,101526,1,2,3:2:0:0:
294,30,101697,6,0,P|272:102|192:110,1,156.599995220947,10|0,0:1|0:0,0:0:0:0:
199,113,102040,6,0,P|256:130|293:149,1,95.7000029205323,6|0,3:2|0:0,0:0:0:0:
427,285,102383,2,0,P|370:301|333:320,1,95.7000029205323,10|0,3:2|0:0,0:0:0:0:
193,294,102726,1,2,3:2:0:0:
371,119,102897,1,0,0:0:0:0:
258,357,103069,6,0,P|247:285|216:190,1,143.550004380798,10|0,3:2|0:0,0:0:0:0:
210,207,103412,1,2,3:2:0:0:
427,223,103583,1,2,0:0:0:0:
254,34,103755,1,10,3:2:0:0:
338,209,103926,1,2,0:0:0:0:
473,35,104097,5,0,3:2:0:0:
260,127,104269,1,8,0:0:0:0:
496,272,104440,1,8,3:2:0:0:
388,91,104612,5,8,0:0:0:0:
388,91,104697,1,8,0:0:0:0:
388,91,104783,2,0,P|340:133|344:222,1,143.550004380798,6|0,3:2|0:0,0:0:0:0:
337,208,105126,2,0,P|400:193|457:185,1,95.7000029205323,10|0,3:2|0:0,0:0:0:0:
258,356,105469,2,0,P|195:340|138:332,1,95.7000029205323,2|0,3:2|0:0,0:0:0:0:
6,154,105812,2,0,P|53:145|99:133,1,95.7000029205323,10|0,3:2|0:0,0:0:0:0:
113,121,106069,1,0,0:0:0:0:
113,121,106155,1,2,3:2:0:0:
20,305,106326,1,2,0:0:0:0:
204,198,106497,1,10,3:2:0:0:
21,51,106669,5,2,0:0:0:0:
129,233,106840,1,0,3:2:0:0:
232,56,107012,1,8,0:0:0:0:
322,235,107183,1,8,3:2:0:0:
309,268,107269,1,8,0:0:0:0:
300,302,107355,1,8,0:0:0:0:
292,336,107440,1,8,0:0:0:0:
287,371,107526,6,0,P|338:342|413:334,1,95.7000029205323,6|0,3:2|0:0,0:0:0:0:
512,179,107869,2,0,P|465:166|425:141,1,95.7000029205323,10|0,3:2|0:0,0:0:0:0:
218,242,108212,1,2,3:2:0:0:
352,107,108383,1,0,0:0:0:0:
198,16,108555,6,0,P|134:50|144:136,1,143.550004380798,10|0,3:2|0:0,0:0:0:0:
151,127,108897,1,2,3:2:0:0:
318,203,109069,1,2,0:0:0:0:
101,283,109240,1,10,3:2:0:0:
268,121,109412,1,2,0:0:0:0:
128,363,109583,5,0,3:2:0:0:
29,152,109755,1,8,0:0:0:0:
212,305,109926,2,0,P|229:246|245:204,1,95.7000029205323,8|8,3:2|0:0,0:0:0:0:
251,207,110183,1,8,0:0:0:0:
251,207,110269,5,6,3:2:0:0:
333,330,110440,1,0,3:2:0:0:
144,207,110612,1,2,3:2:0:0:
391,97,110783,1,0,3:2:0:0:
212,305,110955,5,2,3:2:0:0:
143,81,111126,1,0,3:2:0:0:
358,232,111297,1,2,3:2:0:0:
466,37,111469,1,4,3:2:0:0:
256,192,111555,12,0,112669,0:0:0:0:
40,299,113012,6,0,P|6:253|25:205,1,91.3499972122193,4|0,3:2|0:0,0:0:0:0:
24,218,113355,2,0,P|78:228|103:223,1,60.8999981414796,10|0,3:2|0:0,0:0:0:0:
259,347,113697,6,0,P|318:325|384:319,1,121.799996282959,2|10,3:2|3:2,0:0:0:0:
487,172,114212,2,0,B|424:158|431:227|373:222,1,121.799996282959,2|2,0:2|0:2,0:0:0:0:
250,117,114726,2,0,P|258:80|259:44,1,60.8999981414796,10|2,3:2|0:2,0:0:0:0:
347,46,115069,2,0,P|339:83|338:119,1,60.8999981414796,2|10,3:2|0:2,0:0:0:0:
308,175,115412,1,10,3:2:0:0:
308,175,115583,1,2,0:2:0:0:
71,102,115755,6,0,P|51:137|80:198,1,91.3499972122193,2|0,3:2|0:0,0:0:0:0:
80,190,116097,1,10,3:2:0:0:
149,152,116269,1,0,0:0:0:0:
247,346,116440,5,2,3:2:0:0:
179,317,116612,1,2,0:2:0:0:
111,288,116783,1,10,3:2:0:0:
250,195,116955,6,0,P|302:177|325:165,1,60.8999981414796,2|0,0:2|3:2,0:0:0:0:
438,90,117297,2,0,P|386:72|363:60,1,60.8999981414796,2|8,0:2|3:2,0:0:0:0:
316,25,117640,1,2,0:2:0:0:
414,183,117812,5,0,3:2:0:0:
414,183,117983,1,8,0:2:0:0:
299,264,118155,1,8,3:2:0:0:
250,195,118326,1,0,0:0:0:0:
398,273,118497,6,0,P|376:341|371:376,1,91.3499972122193,4|0,3:2|0:0,0:0:0:0:
372,360,118840,2,0,P|331:348|291:346,1,60.8999981414796,10|0,3:2|0:0,0:0:0:0:
58,243,119183,2,0,P|70:301|123:306,1,91.3499972122193,2|0,3:2|0:0,0:0:0:0:
106,303,119526,1,10,3:2:0:0:
212,375,119697,2,0,P|206:301|194:254,1,121.799996282959,2|2,0:2|0:2,0:0:0:0:
138,112,120212,6,0,P|97:93|67:92,1,60.8999981414796,10|0,3:2|0:0,0:0:0:0:
244,185,120555,2,0,P|274:175|309:172,1,60.8999981414796,2|10,3:2|0:2,0:0:0:0:
364,119,120897,1,10,3:2:0:0:
364,119,121069,1,2,0:2:0:0:
182,306,121240,6,0,P|131:289|83:278,2,87,6|2|10,3:2|0:2|0:0,0:0:0:0:
309,361,122097,1,10,0:3:0:0:
375,317,122269,1,6,0:3:0:0:
221,140,122440,5,10,3:2:0:0:
241,215,122783,1,2,0:0:0:0:
261,290,123126,1,2,0:0:0:0:
438,45,123469,5,0,3:0:0:0:
438,45,123555,1,0,0:0:0:0:
438,45,123640,2,0,P|472:90|419:170,1,143.550004380798,10|0,0:2|0:0,0:0:0:0:
439,162,123983,6,0,P|390:145|349:139,1,87,4|0,3:2|0:0,0:0:0:0:
215,269,124326,1,10,3:2:0:0:
125,142,124497,1,2,0:0:0:0:
291,220,124669,2,0,P|271:285|259:365,1,130.5,2|0,3:2|0:0,0:0:0:0:
269,362,125012,1,10,3:2:0:0:
70,239,125183,2,0,P|123:229|166:214,1,87,2|0,2:0|3:2,0:0:0:0:
328,115,125526,5,2,2:0:0:0:
118,32,125697,1,10,3:2:0:0:
222,163,125869,1,2,2:0:0:0:
302,8,126040,1,2,3:2:0:0:
302,8,126126,1,8,0:2:0:0:
302,8,126212,1,2,2:0:0:0:
129,139,126383,1,10,3:2:0:0:
335,227,126555,1,2,2:0:0:0:
196,80,126726,6,0,P|220:149|220:198,1,87,2|0,3:2|0:0,0:0:0:0:
423,294,127069,1,10,3:2:0:0:
302,136,127240,1,0,0:0:0:0:
203,359,127412,1,2,3:2:0:0:
262,307,127583,1,2,2:0:0:0:
338,323,127755,1,10,3:2:0:0:
471,143,127926,6,0,P|420:135|387:119,1,87,2|0,2:0|3:2,0:0:0:0:
338,323,128269,2,0,P|377:305|420:299,1,87,2|8,2:0|3:2,0:0:0:0:
256,197,128612,1,2,2:0:0:0:
441,61,128783,1,0,3:2:0:0:
441,61,128869,1,8,0:2:0:0:
441,61,128955,1,0,0:0:0:0:
368,220,129126,1,8,3:2:0:0:
229,118,129297,1,0,0:0:0:0:
165,354,129469,6,0,P|85:339|61:269,1,130.5,4|0,3:2|0:0,0:0:0:0:
62,301,129812,2,0,P|81:232|76:192,1,87,10|2,3:2|2:0,0:0:0:0:
278,54,130155,2,0,P|339:86|317:166,1,130.5,2|0,3:2|0:0,0:0:0:0:
328,151,130497,1,10,3:2:0:0:
159,274,130669,2,0,P|221:278|272:294,1,87,2|0,2:0|3:2,0:0:0:0:
359,231,131012,1,2,2:0:0:0:
151,133,131183,5,10,3:2:0:0:
306,338,131355,1,2,2:0:0:0:
238,156,131526,1,2,3:2:0:0:
238,156,131612,1,8,0:2:0:0:
238,156,131697,1,2,2:0:0:0:
31,355,131869,1,10,3:2:0:0:
233,249,132040,1,2,2:0:0:0:
0,79,132212,5,10,3:2:0:0:
12,115,132297,1,8,0:2:0:0:
23,152,132383,1,8,0:2:0:0:
32,190,132469,1,8,0:2:0:0:
38,228,132555,6,0,P|99:194|177:195,1,130.5,14|0,3:2|0:0,0:0:0:0:
168,199,132897,1,0,3:2:0:0:
376,101,133069,2,0,P|327:96|294:70,1,87,2|8,0:2|3:2,0:0:0:0:
140,288,133412,6,0,B|206:272|245:319|211:327|267:378|340:353,1,208.79999362793,6|0,3:2|0:0,0:0:0:0:
451,247,134269,2,0,P|442:207|441:177,1,52.1999984069825,2|0,0:0|0:0,0:0:0:0:
410,322,134612,1,8,0:3:0:0:
410,322,134783,1,6,0:3:0:0:
239,192,134955,6,0,P|251:117|264:4,1,174,6|8,3:2|0:2,0:0:0:0:
489,101,135469,1,10,3:2:0:0:
487,100,135640,2,0,P|420:152|337:131,1,174,2|8,0:2|0:2,0:0:0:0:
501,313,136155,5,2,0:2:0:0:
428,356,136326,2,0,P|368:336|257:316,1,174,2|8,3:2|0:2,0:0:0:0:
119,209,136840,1,10,3:2:0:0:
119,209,137012,2,0,P|23:226|2:290,1,174,2|8,0:2|0:2,0:0:0:0:
276,194,137697,6,0,P|333:178|453:162,2,174,2|10|2,3:2|0:2|0:2,0:0:0:0:
130,270,138555,1,2,3:2:0:0:
262,184,138726,1,10,0:2:0:0:
117,68,138897,2,0,P|137:121|151:169,1,87,2|0,0:2|3:2,0:0:0:0:
237,326,139240,5,2,3:2:0:0:
63,211,139412,1,10,0:2:0:0:
130,370,139583,1,10,3:2:0:0:
236,232,139755,5,2,0:2:0:0:
225,160,139926,1,2,3:2:0:0:
212,85,140097,2,0,P|266:46|330:71,1,130.5,10|0,0:2|0:0,0:0:0:0:
322,63,140440,6,0,P|251:54|147:29,1,174,4|10,3:2|0:2,0:0:0:0:
3,187,140955,2,0,P|53:165|96:157,1,87,8|2,3:2|0:2,0:0:0:0:
146,107,141297,1,0,3:2:0:0:
324,227,141469,2,0,P|327:283|257:308,1,130.5,10|0,0:2|0:0,0:0:0:0:
266,310,141812,6,0,P|332:284|448:264,1,174,2|8,3:2|0:2,0:0:0:0:
220,380,142326,2,0,P|178:360|115:352,1,87,10|0,3:2|0:0,0:0:0:0:
31,153,142669,1,2,3:2:0:0:
187,221,142840,1,10,0:2:0:0:
28,330,143012,1,2,0:2:0:0:
103,260,143183,6,0,P|152:261|275:317,1,174,6|8,3:2|0:2,0:0:0:0:
373,178,143697,2,0,P|364:111|353:66,1,87,10|0,3:2|0:0,0:0:0:0:
292,19,144040,1,2,3:2:0:0:
459,130,144212,1,10,0:2:0:0:
459,130,144383,1,2,0:2:0:0:
287,199,144555,5,6,3:2:0:0:
361,214,144726,1,0,0:0:0:0:
430,244,144897,1,8,0:2:0:0:
179,380,145069,6,0,P|124:341|141:215,1,174,10|0,3:2|3:2,0:0:0:0:
189,206,145583,1,8,0:2:0:0:
189,206,145755,1,0,0:0:0:0:
380,316,145926,6,0,P|430:300|498:292,1,87,4|0,3:2|0:0,0:0:0:0:
272,227,146269,2,0,P|222:211|154:203,1,87,10|10,0:2|3:2,0:0:0:0:
368,134,146612,1,2,0:2:0:0:
368,134,146783,1,0,3:2:0:0:
251,13,146955,2,0,P|242:55|229:96,1,87,10|0,0:2|0:0,0:0:0:0:
420,215,147297,6,0,P|463:187|452:65,1,174,2|10,3:2|0:2,0:0:0:0:
283,184,147812,2,0,P|296:225|304:267,1,87,10|0,3:2|0:0,0:0:0:0:
368,312,148155,1,2,3:2:0:0:
146,374,148326,2,0,P|159:332|167:290,1,87,8|2,0:2|0:2,0:0:0:0:
37,99,148669,6,0,B|84:79|125:117|111:128|138:163|209:139,1,174,2|8,3:2|0:2,0:0:0:0:
351,45,149183,2,0,P|365:111|378:150,1,87,8|2,3:2|0:2,0:0:0:0:
498,209,149526,1,0,3:2:0:0:
498,209,149697,2,0,P|456:220|413:228,1,87,8|0,0:2|0:0,0:0:0:0:
231,363,150040,5,2,3:2:0:0:
142,196,150212,1,0,3:2:0:0:
296,281,150383,1,8,0:2:0:0:
51,371,150555,6,0,P|57:307|58:185,1,174,8|0,3:2|3:2,0:0:0:0:
183,76,151069,2,0,P|222:111|219:147,1,87,8|0,0:2|0:0,0:0:0:0:
27,285,151412,2,0,P|81:285|125:298,1,87,4|0,3:2|0:0,0:0:0:0:
287,369,151755,6,0,B|349:379|377:330|353:331|382:292|453:301,1,174,2|0,3:2|3:2,0:0:0:0:
510,161,152269,1,0,0:0:0:0:
510,161,152440,2,0,P|453:150|420:131,1,87,2|0,3:2|0:0,0:0:0:0:
248,281,152783,1,6,3:2:0:0:
386,206,152955,1,0,0:0:0:0:
228,81,153126,2,0,P|253:145|259:185,1,87,0|8,3:2|0:2,0:0:0:0:
435,299,153469,6,0,P|385:284|345:296,1,87,2|0,3:2|0:0,0:0:0:0:
127,376,153812,2,0,P|140:312|139:280,1,87,0|0,3:2|0:0,0:0:0:0:
316,80,154155,5,14,3:2:0:0:
116,192,154326,1,8,3:2:0:0:
352,292,154497,1,8,3:2:0:0:
210,153,154669,1,8,3:2:0:0:
51,350,154840,1,8,3:2:0:0:
271,224,155012,1,8,3:2:0:0:
22,95,155183,1,8,3:2:0:0:
259,320,155355,5,8,3:2:0:0:
259,320,155440,1,8,0:2:0:0:
259,320,155526,1,10,3:2:0:0:
259,320,155869,5,2,0:2:0:0:
332,279,156212,1,2,0:2:0:0:
419,251,156555,2,0,P|485:275|477:360,1,156.599995220947,10|0,0:1|0:0,0:0:0:0:
484,351,156897,6,0,P|420:335|380:333,1,95.7000029205323,6|0,3:2|0:0,0:0:0:0:
210,153,157240,2,0,P|257:148|303:135,1,95.7000029205323,10|0,3:2|0:0,0:0:0:0:
129,293,157583,1,2,3:2:0:0:
301,370,157755,2,0,P|288:323|283:276,1,95.7000029205323,2|10,0:2|3:2,0:0:0:0:
112,70,158097,6,0,P|58:96|56:183,1,143.550004380798,2|0,0:2|0:0,0:0:0:0:
63,187,158440,1,0,0:0:0:0:
221,40,158612,1,8,3:2:0:0:
283,276,158783,2,0,P|211:246|164:243,1,95.7000029205323,2|0,0:2|3:2,0:0:0:0:
178,252,159040,1,8,0:0:0:0:
178,252,159126,1,2,0:2:0:0:
382,168,159297,1,10,3:2:0:0:
270,113,159469,1,2,0:2:0:0:
372,334,159640,6,0,P|396:262|374:236,1,95.7000029205323,2|0,3:2|0:0,0:0:0:0:
170,75,159983,2,0,P|191:154|196:198,1,95.7000029205323,10|0,3:2|0:0,0:0:0:0:
326,16,160326,1,2,3:2:0:0:
472,140,160497,2,0,P|405:154|372:174,1,95.7000029205323,2|8,0:2|3:2,0:0:0:0:
223,311,160840,6,0,P|151:283|42:268,1,143.550004380798,2|0,0:2|0:0,0:0:0:0:
69,279,161183,1,2,0:2:0:0:
239,199,161355,1,10,3:2:0:0:
33,51,161526,1,2,0:2:0:0:
140,185,161697,5,2,3:2:0:0:
140,185,161783,1,8,0:0:0:0:
140,185,161869,1,2,0:2:0:0:
214,63,162040,1,10,3:2:0:0:
20,186,162212,1,0,0:0:0:0:
223,311,162383,6,0,P|291:290|368:283,1,143.550004380798,4|0,3:2|0:0,0:0:0:0:
376,292,162726,1,10,3:2:0:0:
497,167,162897,1,2,0:2:0:0:
307,79,163069,2,0,P|328:128|336:179,1,95.7000029205323,2|0,3:2|0:0,0:0:0:0:
461,332,163412,2,0,P|476:272|436:225,1,95.7000029205323,10|0,3:2|0:0,0:0:0:0:
307,79,163755,6,0,P|347:109|447:72,1,143.550004380798,2|0,3:2|0:0,0:0:0:0:
444,70,164097,1,10,3:2:0:0:
251,190,164269,2,0,P|182:168|138:164,1,95.7000029205323,2|0,0:2|3:2,0:0:0:0:
144,174,164526,1,8,0:0:0:0:
144,174,164612,1,2,0:2:0:0:
286,367,164783,2,0,P|294:319|310:275,1,95.7000029205323,8|2,3:2|0:2,0:0:0:0:
137,78,165126,6,0,P|72:99|66:223,1,191.400005841065,4|8,3:2|3:2,0:0:0:0:
231,95,165640,1,2,0:2:0:0:
453,285,165812,6,0,B|388:274|360:322|379:322|351:376|262:365,1,191.400005841065,6|8,3:2|3:2,0:0:0:0:
144,174,166326,1,0,0:0:0:0:
12,364,166497,5,10,0:3:0:0:
41,332,166583,1,8,0:3:0:0:
78,311,166669,1,8,0:3:0:0:
121,314,166755,1,8,0:3:0:0:
161,327,166840,1,6,0:3:0:0:
182,338,166926,1,4,0:3:0:0:
205,340,167012,1,4,0:3:0:0:
227,333,167097,1,4,0:3:0:0:
247,319,167183,6,0,P|256:283|257:241,1,47.8500014602662,10|8,0:3|0:3,0:0:0:0:
332,72,167355,2,0,P|338:94|342:118,1,47.8500014602662,8|8,0:3|0:3,0:0:0:0:
447,243,167526,2,0,P|469:236|493:232,1,47.8500014602662,6|4,0:3|0:3,0:0:0:0:
294,187,167697,5,4,0:3:0:0:
294,187,167783,1,4,0:3:0:0:
294,187,167869,2,0,P|196:170|138:172,1,143.550004380798,6|0,3:2|0:0,0:0:0:0:
134,180,168212,2,0,P|98:126|112:83,1,95.7000029205323,10|0,3:2|0:0,0:0:0:0:
204,32,168555,1,2,3:2:0:0:
310,216,168726,2,0,P|258:200|174:203,1,95.7000029205323,2|10,0:2|3:2,0:0:0:0:
376,360,169069,6,0,P|428:354|466:220,1,191.400005841065,2|0,0:2|0:0,0:0:0:0:
338,143,169583,1,8,3:2:0:0:
484,50,169755,2,0,P|466:108|463:156,1,95.7000029205323,2|0,0:2|3:2,0:0:0:0:
469,158,170012,1,8,0:0:0:0:
469,158,170097,1,2,0:2:0:0:
252,91,170269,1,10,3:2:0:0:
386,25,170440,1,2,0:2:0:0:
310,216,170612,6,0,P|258:200|174:203,1,95.7000029205323,2|0,3:2|0:0,0:0:0:0:
64,362,170955,2,0,P|80:310|77:226,1,95.7000029205323,10|0,3:2|0:0,0:0:0:0:
153,57,171297,1,2,3:2:0:0:
12,190,171469,2,0,P|64:174|148:177,1,95.7000029205323,2|8,0:2|3:2,0:0:0:0:
310,216,171812,6,0,B|369:226|397:172|378:172|406:124|471:135,1,191.400005841065,2|2,0:2|0:2,0:0:0:0:
287,52,172326,1,10,3:2:0:0:
463,208,172497,1,2,0:2:0:0:
192,323,172669,1,2,3:2:0:0:
192,323,172755,1,8,0:0:0:0:
192,323,172840,1,2,0:2:0:0:
320,139,173012,2,0,P|354:204|364:246,1,95.7000029205323,10|0,3:2|0:0,0:0:0:0:
116,372,173355,6,0,P|71:352|71:247,1,143.550004380798,4|0,3:2|0:0,0:0:0:0:
56,266,173697,2,0,P|121:247|154:227,1,95.7000029205323,10|2,3:2|0:2,0:0:0:0:
361,365,174040,2,0,P|318:343|271:333,1,95.7000029205323,2|0,3:2|0:0,0:0:0:0:
185,58,174383,2,0,P|241:77|228:169,1,143.550004380798,10|0,3:2|0:0,0:0:0:0:
246,153,174726,6,0,P|189:137|146:135,1,95.7000029205323,6|0,3:2|0:0,0:0:0:0:
360,225,175069,1,10,3:2:0:0:
360,225,175240,2,0,P|417:209|460:207,1,95.7000029205323,2|0,0:2|3:2,0:0:0:0:
472,217,175497,1,8,0:0:0:0:
472,217,175583,1,2,0:2:0:0:
327,105,175755,1,8,3:2:0:0:
442,39,175926,1,2,0:2:0:0:
258,272,176097,5,4,3:2:0:0:
185,58,176269,1,8,3:2:0:0:
367,255,176440,1,8,3:2:0:0:
106,190,176612,1,10,3:2:0:0:
342,33,176783,5,10,3:2:0:0:
167,299,176955,1,8,3:2:0:0:
394,133,177126,1,8,3:2:0:0:
86,39,177297,5,8,3:2:0:0:
86,39,177383,1,8,2:2:0:0:
86,39,177469,1,10,3:2:0:0:
86,39,177983,5,2,0:2:0:0:
105,113,178155,1,2,0:2:0:0:
124,186,178326,1,2,3:2:0:0:
15,321,178497,6,0,P|89:305|104:372,1,156.599995220947,10|0,0:1|0:0,0:0:0:0:
105,368,178840,6,0,P|169:349|223:340,1,87,4|0,3:2|0:0,0:0:0:0:
353,166,179183,2,0,P|310:156|268:143,1,87,10|0,3:2|0:0,0:0:0:0:
154,259,179526,1,0,3:2:0:0:
299,347,179697,2,0,P|324:286|292:244,1,87,2|8,0:2|3:2,0:0:0:0:
152,64,180040,6,0,P|176:132|276:138,1,174,2|0,0:2|0:0,0:0:0:0:
403,284,180555,2,0,P|349:273|304:269,1,87,8|2,3:2|0:2,0:0:0:0:
476,161,180897,1,2,3:2:0:0:
476,161,180983,1,8,0:2:0:0:
476,161,181069,1,2,0:2:0:0:
332,82,181240,2,0,P|350:137|359:188,1,87,10|0,3:2|0:0,0:0:0:0:
498,313,181583,6,0,P|434:306|397:382,1,130.5,6|0,3:2|0:0,0:0:0:0:
379,364,181926,2,0,P|321:346|278:342,1,87,10|0,3:2|0:0,0:0:0:0:
165,154,182269,1,0,3:2:0:0:
80,271,182440,2,0,P|138:253|181:249,1,87,2|8,0:2|3:2,0:0:0:0:
332,82,182783,6,0,B|389:64|419:105|403:112|441:152|504:125,1,174,2|0,0:2|0:0,0:0:0:0:
340,232,183297,2,0,P|284:220|247:216,1,87,8|2,3:2|0:2,0:0:0:0:
48,139,183640,1,2,3:2:0:0:
48,139,183726,1,8,0:2:0:0:
48,139,183812,1,2,0:2:0:0:
211,43,183983,2,0,P|239:87|226:130,1,87,10|0,3:2|0:0,0:0:0:0:
108,352,184326,6,0,P|100:291|78:202,1,130.5,6|0,3:2|0:0,0:0:0:0:
84,223,184669,2,0,P|127:259|169:248,1,87,10|0,3:2|0:0,0:0:0:0:
318,103,185012,1,0,3:2:0:0:
378,227,185183,2,0,P|313:210|285:209,1,87,2|8,0:2|3:2,0:0:0:0:
95,65,185526,6,0,P|167:133|246:107,1,174,2|0,0:2|0:0,0:0:0:0:
326,289,186040,2,0,P|316:336|307:388,1,87,8|2,3:2|0:2,0:0:0:0:
216,261,186383,1,2,3:2:0:0:
216,261,186469,1,8,0:2:0:0:
216,261,186555,1,2,0:2:0:0:
419,314,186726,2,0,P|469:297|514:292,1,87,10|0,3:2|0:0,0:0:0:0:
331,174,187069,6,0,P|279:145|282:68,1,130.5,6|0,3:2|0:0,0:0:0:0:
274,79,187412,2,0,P|231:72|190:57,1,87,10|0,3:2|0:0,0:0:0:0:
38,241,187755,1,4,3:2:0:0:
210,168,187926,1,2,0:2:0:0:
4,87,188097,1,8,3:2:0:0:
134,330,188269,5,6,3:2:0:0:
430,165,189126,5,8,0:0:0:0:
316,59,189297,1,0,3:2:0:0:
316,59,189383,1,0,3:2:0:0:
316,59,189469,2,0,P|258:79|263:170,1,156.599995220947,10|0,0:1|0:0,0:0:0:0:
256,163,189812,6,0,P|308:148|352:145,1,95.7000029205323,4|0,3:2|0:0,0:0:0:0:
463,360,190155,2,0,P|411:344|367:341,1,95.7000029205323,10|0,3:2|0:0,0:0:0:0:
231,252,190497,1,2,3:2:0:0:
231,252,190583,1,8,0:2:0:0:
231,252,190669,1,0,0:0:0:0:
411,81,190840,6,0,P|397:143|388:226,1,143.550004380798,10|0,3:2|0:0,0:0:0:0:
392,236,191183,1,2,3:2:0:0:
155,159,191355,1,2,0:2:0:0:
306,61,191526,1,10,3:2:0:0:
324,270,191697,2,0,P|258:254|211:251,1,95.7000029205323,2|0,0:2|3:2,0:0:0:0:
218,260,191955,1,8,0:2:0:0:
218,260,192040,1,2,0:2:0:0:
27,165,192212,1,10,3:2:0:0:
163,67,192383,1,2,0:2:0:0:
131,338,192555,6,0,P|76:299|-12:298,1,143.550004380798,4|0,3:2|0:0,0:0:0:0:
1,294,192897,2,0,P|61:276|94:246,1,95.7000029205323,10|0,3:2|0:0,0:0:0:0:
250,104,193240,1,2,3:2:0:0:
140,73,193412,2,0,P|163:147|170:201,1,95.7000029205323,2|8,0:2|3:2,0:0:0:0:
307,354,193755,6,0,P|363:305|350:227,1,143.550004380798,6|0,0:2|0:0,0:0:0:0:
349,234,194097,1,2,0:2:0:0:
209,299,194269,1,10,3:2:0:0:
343,105,194440,1,2,0:2:0:0:
454,299,194612,1,2,3:2:0:0:
454,299,194697,1,8,0:2:0:0:
454,299,194783,1,2,0:2:0:0:
260,179,194955,2,0,P|199:165|155:165,1,95.7000029205323,10|0,3:2|0:0,0:0:0:0:
307,354,195297,6,0,P|382:327|469:319,1,143.550004380798,6|0,3:2|0:0,0:0:0:0:
471,305,195640,2,0,P|491:247|462:210,1,95.7000029205323,10|0,3:2|0:0,0:0:0:0:
326,104,195983,1,2,3:2:0:0:
326,104,196069,1,8,0:2:0:0:
326,104,196155,1,0,0:0:0:0:
439,61,196326,2,0,P|424:112|418:174,1,95.7000029205323,10|0,3:2|0:0,0:0:0:0:
203,312,196669,5,2,3:2:0:0:
392,229,196840,1,2,0:2:0:0:
191,109,197012,1,10,3:2:0:0:
328,360,197183,2,0,P|321:312|307:266,1,95.7000029205323,2|0,0:2|3:2,0:0:0:0:
295,253,197440,1,8,0:2:0:0:
295,253,197526,1,2,0:2:0:0:
113,172,197697,1,10,3:2:0:0:
270,52,197869,1,2,0:2:0:0:
171,282,198040,6,0,P|121:262|25:254,1,143.550004380798,4|0,3:2|0:0,0:0:0:0:
13,239,198383,2,0,P|-9:189|13:143,1,95.7000029205323,10|0,3:2|0:0,0:0:0:0:
142,43,198726,1,2,3:2:0:0:
204,192,198897,2,0,P|152:172|106:172,1,95.7000029205323,2|8,0:2|3:2,0:0:0:0:
282,301,199240,6,0,P|351:281|450:276,1,143.550004380798,2|8,0:2|0:3,0:0:0:0:
443,287,199583,2,0,P|456:249|471:213,1,47.8500014602662,10|8,0:3|0:3,0:0:0:0:
314,74,199755,2,0,P|322:96|329:119,1,47.8500014602662,6|4,0:3|0:3,0:0:0:0:
499,156,199926,2,0,P|476:147|453:140,1,47.8500014602662,6|4,0:3|0:3,0:0:0:0:
282,301,200097,5,10,0:3:0:0:
244,271,200183,1,8,0:3:0:0:
196,269,200269,1,10,0:3:0:0:
156,296,200355,1,8,0:3:0:0:
143,341,200440,1,6,0:3:0:0:
160,317,200526,1,4,0:3:0:0:
164,288,200612,1,4,0:3:0:0:
161,259,200697,1,4,0:3:0:0:
154,231,200783,6,0,P|136:143|121:115,1,95.7000029205323,4|0,3:2|0:0,0:0:0:0:
221,27,201126,2,0,P|265:49|262:107,1,95.7000029205323,10|0,3:2|0:0,0:0:0:0:
77,272,201469,1,2,3:2:0:0:
235,172,201640,1,0,0:0:0:0:
35,61,201812,2,0,P|50:106|55:153,1,95.7000029205323,10|0,3:2|0:0,0:0:0:0:
300,300,202155,5,2,3:2:0:0:
154,231,202326,1,2,0:2:0:0:
338,154,202497,1,10,3:2:0:0:
221,362,202669,2,0,P|160:343|121:342,1,95.7000029205323,2|0,0:2|3:2,0:0:0:0:
111,348,202926,1,8,0:2:0:0:
111,348,203012,1,2,0:2:0:0:
261,228,203183,1,10,3:2:0:0:
133,138,203355,1,2,0:2:0:0:
300,300,203526,6,0,B|350:289|377:313|367:337|402:359|450:332,1,143.550004380798,4|0,3:2|0:0,0:0:0:0:
458,327,203869,2,0,P|447:266|443:221,1,95.7000029205323,10|0,3:2|0:0,0:0:0:0:
297,130,204212,1,2,3:2:0:0:
297,130,204297,1,8,0:2:0:0:
297,130,204383,1,2,0:2:0:0:
447,77,204555,1,8,3:2:0:0:
355,213,204726,2,0,P|307:218|260:227,1,95.7000029205323,6|0,0:2|3:2,0:0:0:0:
123,359,205069,5,2,0:2:0:0:
58,143,205240,1,10,3:2:0:0:
243,307,205412,1,2,0:2:0:0:
12,247,205583,1,2,3:2:0:0:
12,247,205669,1,8,0:2:0:0:
12,247,205755,1,2,0:2:0:0:
160,73,205926,2,0,P|188:122|195:171,1,95.7000029205323,10|0,3:2|0:0,0:0:0:0:
46,380,206269,6,0,P|68:327|157:349,1,143.550004380798,6|0,3:2|0:0,0:0:0:0:
144,331,206612,2,0,P|206:321|249:320,1,95.7000029205323,10|0,3:2|0:0,0:0:0:0:
411,208,206955,1,2,3:2:0:0:
411,208,207040,1,8,0:2:0:0:
411,208,207126,1,0,0:0:0:0:
326,339,207297,2,0,P|323:291|315:244,1,95.7000029205323,10|0,3:2|0:0,0:0:0:0:
431,55,207640,6,0,P|490:81|492:176,1,143.550004380798,2|0,3:2|0:0,0:0:0:0:
493,162,207983,1,10,3:2:0:0:
405,344,208155,2,0,P|455:327|517:319,1,95.7000029205323,2|0,0:2|3:2,0:0:0:0:
511,323,208412,1,8,0:2:0:0:
511,323,208497,1,2,0:2:0:0:
358,174,208669,1,10,3:2:0:0:
497,239,208840,1,2,0:2:0:0:
289,356,209012,5,4,3:2:0:0:
450,170,209183,1,8,3:2:0:0:
450,170,209269,1,8,0:2:0:0:
450,170,209355,1,10,3:2:0:0:
206,52,209526,1,8,3:2:0:0:
167,56,209612,1,8,0:2:0:0:
137,80,209697,1,10,3:2:0:0:
129,117,209783,1,8,0:2:0:0:
141,153,209869,1,10,3:2:0:0:
173,173,209955,1,8,0:2:0:0:
229,180,210040,1,8,3:2:0:0:
261,227,210126,1,8,0:2:0:0:
250,283,210212,6,0,B|176:269|108:321|175:313|111:379|24:362,1,243.6,14|0,3:2|0:0,0:0:0:0:
427,140,211755,5,0,0:0:0:0:
427,140,212097,1,0,0:0:0:0:
345,253,212440,1,8,0:0:0:0:
350,271,212526,1,8,0:0:0:0:
354,289,212612,1,8,0:0:0:0:
359,307,212697,1,8,0:0:0:0:
363,325,212783,1,8,0:0:0:0:
363,325,213126,6,0,P|415:327|476:353,1,104.399996813965,6|2,3:2|0:2,0:0:0:0:
292,282,213640,1,0,3:2:0:0:
292,282,213812,2,0,P|269:323|156:332,1,156.599995220947,2|2,3:2|0:2,0:0:0:0:
6,182,214497,6,0,P|27:236|36:298,1,104.399996813965,0|0,3:2|0:0,0:0:0:0:
168,339,215012,1,2,3:2:0:0:
168,339,215183,2,0,P|177:287|197:239,1,104.399996813965,0|2,3:2|0:2,0:0:0:0:
262,199,215697,1,2,0:2:0:0:
136,50,215869,6,0,P|100:43|81:41,1,52.1999984069825,2|0,3:2|0:0,0:0:0:0:
215,103,216212,2,0,P|251:96|270:94,1,52.1999984069825,2|0,0:2|3:2,0:0:0:0:
143,158,216555,1,2,3:2:0:0:
143,158,216726,2,0,P|107:151|88:149,1,52.1999984069825,2|0,0:2|0:0,0:0:0:0:
197,239,217069,1,2,0:2:0:0:
197,239,217240,1,0,3:2:0:0:
53,350,217412,5,2,0:2:0:0:
140,299,217583,1,2,0:2:0:0:
18,235,217755,1,2,3:2:0:0:
255,368,217926,5,2,3:2:0:0:
269,294,218097,1,2,0:2:0:0:
283,220,218269,1,2,0:2:0:0:
141,32,218612,6,0,P|157:71|164:111,1,78.2999976104737,4|0,3:2|0:0,0:0:0:0:
231,150,218955,1,2,3:2:0:0:
231,150,219126,1,2,0:2:0:0:
376,63,219297,2,0,P|430:82|438:189,1,156.599995220947,2|2,3:2|3:2,0:0:0:0:
304,315,219983,6,0,P|358:301|431:293,1,117.449996415711,6|0,3:2|0:0,0:0:0:0:
432,281,220326,1,2,3:2:0:0:
238,376,220497,2,0,P|198:348|189:306,1,78.2999976104737,2|0,0:2|3:2,0:0:0:0:
300,144,220840,2,0,P|289:188|284:227,1,78.2999976104737,2|0,0:2|3:2,0:0:0:0:
106,334,221183,1,2,0:2:0:0:
200,201,221355,5,12,3:2:0:0:
23,101,221526,1,8,3:2:0:0:
138,256,221697,1,8,3:2:0:0:
255,41,221869,1,10,3:2:0:0:
65,192,222040,1,14,3:2:0:0:
267,305,222212,5,8,3:2:0:0:
306,289,222297,1,8,0:0:0:0:
348,278,222383,1,8,3:2:0:0:
390,273,222469,1,8,0:0:0:0:
433,275,222555,2,0,P|473:260|506:260,1,39.1499988052369,8|8,3:2|0:0,0:0:0:0:
283,173,222726,5,2,3:2:0:0:
476,38,223583,5,0,3:2:0:0:
458,112,224097,1,2,3:2:0:0:
331,52,224955,5,0,3:2:0:0:
512,176,225126,2,0,P|446:167|406:255,1,156.599995220947,10|0,0:1|0:0,0:0:0:0:
402,235,225469,6,0,P|344:221|301:214,1,95.7000029205323,6|0,3:2|0:0,0:0:0:0:
144,98,225812,2,0,P|191:89|237:77,1,95.7000029205323,10|0,3:2|0:0,0:0:0:0:
251,61,226069,1,0,0:0:0:0:
251,61,226155,1,2,3:2:0:0:
121,218,226326,1,2,0:2:0:0:
35,32,226497,1,10,3:2:0:0:
241,188,226669,6,0,P|218:259|209:335,1,143.550004380798,2|0,0:2|0:0,0:0:0:0:
220,338,227012,1,0,0:0:0:0:
65,149,227183,1,8,3:2:0:0:
2,368,227355,2,0,P|59:347|105:334,1,95.7000029205323,2|0,0:2|3:2,0:0:0:0:
99,328,227612,1,8,0:0:0:0:
99,328,227697,1,2,0:2:0:0:
233,111,227869,1,10,3:2:0:0:
92,231,228040,1,2,0:2:0:0:
295,321,228212,6,0,P|357:303|404:299,1,95.7000029205323,2|0,3:2|0:0,0:0:0:0:
502,122,228555,2,0,P|454:115|409:100,1,95.7000029205323,10|0,3:2|0:0,0:0:0:0:
279,197,228897,1,2,3:2:0:0:
473,345,229069,2,0,P|490:288|457:249,1,95.7000029205323,2|8,0:2|3:2,0:0:0:0:
402,29,229412,6,0,B|356:21|336:55|349:55|330:93|267:85,1,143.550004380798,2|0,0:2|0:0,0:0:0:0:
261,76,229755,1,2,0:2:0:0:
60,211,229926,1,10,3:2:0:0:
184,26,230097,1,2,0:2:0:0:
297,229,230269,5,2,3:2:0:0:
297,229,230355,1,8,0:0:0:0:
297,229,230440,1,2,0:2:0:0:
104,113,230612,2,0,P|46:100|0:94,1,95.7000029205323,10|0,3:2|0:0,0:0:0:0:
160,270,230955,6,0,P|227:241|311:228,1,143.550004380798,4|0,3:2|0:0,0:0:0:0:
315,245,231297,2,0,P|362:211|346:149,1,95.7000029205323,10|2,3:2|0:2,0:0:0:0:
184,26,231640,2,0,P|205:77|213:125,1,95.7000029205323,2|0,3:2|0:0,0:0:0:0:
434,247,231983,2,0,P|415:191|398:99,1,143.550004380798,10|0,3:2|0:0,0:0:0:0:
398,108,232326,6,0,P|450:121|502:105,1,95.7000029205323,6|0,3:2|0:0,0:0:0:0:
296,228,232669,1,10,3:2:0:0:
296,228,232840,2,0,P|233:211|201:210,1,95.7000029205323,2|0,0:2|3:2,0:0:0:0:
193,201,233097,1,8,0:0:0:0:
193,201,233183,1,2,0:2:0:0:
342,378,233355,2,0,P|345:330|360:284,1,95.7000029205323,8|2,3:2|0:2,0:0:0:0:
313,65,233697,5,4,3:2:0:0:
462,290,233869,1,8,3:2:0:0:
234,139,234040,1,8,3:2:0:0:
470,65,234212,1,10,3:2:0:0:
242,301,234383,1,10,3:2:0:0:
115,68,234555,1,8,3:2:0:0:
356,178,234726,1,8,3:2:0:0:
58,340,234897,5,8,3:2:0:0:
58,340,234983,1,8,2:2:0:0:
58,340,235069,1,10,3:2:0:0:
58,340,235583,5,2,0:2:0:0:
79,269,235754,1,2,0:2:0:0:
100,198,235926,1,2,3:2:0:0:
6,24,236097,6,0,P|0:93|90:104,1,156.599995220947,10|0,0:1|0:0,0:0:0:0:
87,101,236440,6,0,P|139:86|188:84,1,95.7000029205323,6|0,3:2|0:0,0:0:0:0:
341,256,236783,2,0,P|289:241|240:239,1,95.7000029205323,10|0,3:2|0:0,0:0:0:0:
333,105,237126,1,2,3:2:0:0:
160,247,237297,1,0,0:0:0:0:
357,347,237469,6,0,P|409:327|416:218,1,143.550004380798,10|0,3:2|0:0,0:0:0:0:
420,234,237812,1,2,3:2:0:0:
223,125,237983,1,2,0:0:0:0:
415,101,238155,1,10,3:2:0:0:
247,238,238326,1,2,0:0:0:0:
380,22,238497,5,0,3:2:0:0:
512,209,238669,1,8,0:0:0:0:
345,146,238840,1,8,3:2:0:0:
285,341,239012,5,8,0:0:0:0:
285,341,239097,1,8,0:0:0:0:
285,341,239183,2,0,P|208:317|132:310,1,143.550004380798,6|0,3:2|0:0,0:0:0:0:
126,323,239526,2,0,P|91:279|102:234,1,95.7000029205323,10|0,3:2|0:0,0:0:0:0:
242,51,239869,6,0,P|226:117|222:171,1,95.7000029205323,2|0,3:2|0:0,0:0:0:0:
0,240,240212,2,0,P|16:174|20:120,1,95.7000029205323,10|0,3:2|0:0,0:0:0:0:
19,134,240469,1,0,0:0:0:0:
19,134,240555,1,2,3:2:0:0:
249,255,240726,1,2,0:0:0:0:
132,57,240897,1,10,3:2:0:0:
30,310,241069,5,2,0:0:0:0:
246,160,241240,1,0,3:2:0:0:
39,46,241412,1,8,0:0:0:0:
115,268,241583,5,8,3:2:0:0:
142,252,241669,1,8,0:0:0:0:
173,242,241755,1,8,0:0:0:0:
204,238,241840,1,8,0:0:0:0:
236,239,241926,6,0,P|308:250|348:266,1,95.7000029205323,6|0,3:2|0:0,0:0:0:0:
496,92,242269,2,0,P|450:105|402:110,1,95.7000029205323,10|0,3:2|0:0,0:0:0:0:
264,336,242612,1,2,3:2:0:0:
432,197,242783,1,0,0:0:0:0:
494,372,242955,6,0,P|434:336|356:330,1,143.550004380798,10|0,3:2|0:0,0:0:0:0:
344,339,243297,1,2,3:2:0:0:
186,136,243469,1,2,0:0:0:0:
67,334,243640,1,10,3:2:0:0:
261,207,243812,1,2,0:0:0:0:
21,92,243983,2,0,P|43:162|53:205,1,95.7000029205323,0|8,3:2|0:0,0:0:0:0:
171,255,244326,1,8,3:2:0:0:
240,70,244497,5,8,0:0:0:0:
240,70,244583,1,8,0:0:0:0:
240,70,244669,1,6,3:2:0:0:
357,307,244840,1,0,3:2:0:0:
161,127,245012,1,2,3:2:0:0:
44,353,245183,1,0,3:2:0:0:
319,197,245355,5,2,3:2:0:0:
110,40,245526,1,0,3:2:0:0:
238,292,245697,1,2,3:2:0:0:
411,48,245869,1,4,3:2:0:0:
256,192,245955,12,0,247069,0:0:0:0:
34,101,247412,6,0,P|72:83|156:76,1,104.399996813965,6|2,3:2|0:2,0:0:0:0:
240,147,247926,1,0,3:2:0:0:
240,147,248097,2,0,P|283:120|287:56,1,104.399996813965,2|2,3:2|0:2,0:0:0:0:
124,194,248783,6,0,P|142:239|154:308,1,104.399996813965,2|2,3:2|0:2,0:0:0:0:
288,349,249297,1,2,3:2:0:0:
288,349,249469,2,0,P|339:325|403:324,1,104.399996813965,0|2,3:2|0:2,0:0:0:0:
152,293,250155,6,0,B|87:285|132:248|42:243,1,104.399996813965,2|2,3:2|0:2,0:0:0:0:
220,234,250669,1,0,3:2:0:0:
220,234,250840,2,0,P|256:217|282:214,1,52.1999984069825,2|0,3:2|0:0,0:0:0:0:
347,153,251183,2,0,P|321:146|299:133,1,52.1999984069825,2|0,0:2|0:0,0:0:0:0:
216,52,251526,6,0,P|171:83|168:142,1,104.399996813965,2|2,3:2|0:2,0:0:0:0:
227,236,252040,1,2,3:2:0:0:
227,236,252212,2,0,P|240:272|258:352,1,104.399996813965,0|2,3:2|0:2,0:0:0:0:
450,229,252897,6,0,P|461:178|478:128,1,104.399996813965,6|2,3:2|0:2,0:0:0:0:
378,39,253412,1,0,3:2:0:0:
378,39,253583,2,0,P|388:75|392:98,1,52.1999984069825,2|0,3:2|0:0,0:0:0:0:
297,172,253926,2,0,P|307:136|311:113,1,52.1999984069825,2|0,0:2|0:0,0:0:0:0:
450,229,254269,6,0,P|408:225|365:279,1,104.399996813965,2|2,3:2|0:2,0:0:0:0:
262,349,254783,1,2,3:2:0:0:
262,349,254955,2,0,P|224:330|151:317,2,104.399996813965,0|2|2,3:2|0:2|3:2,0:0:0:0:
400,340,255983,5,2,0:2:0:0:
400,340,256155,1,0,3:2:0:0:
275,245,256326,1,2,3:2:0:0:
458,131,256669,1,2,0:2:0:0:
213,44,257012,6,0,P|171:35|149:34,2,60.8999981414796,6|2|2,3:2|0:2|0:2,0:0:0:0:
295,92,257526,2,0,P|349:77|425:63,1,121.799996282959,6|0,3:2|0:0,0:0:0:0:
212,245,258040,1,2,3:2:0:0:
256,192,258126,12,0,261126,0:0:0:0:
