osu file format v14

[General]
AudioFilename: audio.mp3
AudioLeadIn: 0
PreviewTime: 89167
Countdown: 0
SampleSet: Normal
StackLeniency: 0.7
Mode: 3
LetterboxInBreaks: 0
EpilepsyWarning: 1
SpecialStyle: 0
WidescreenStoryboard: 1

[Editor]
DistanceSpacing: 0.8
BeatDivisor: 6
GridSize: 16
TimelineZoom: 1.9

[Metadata]
Title:Mahou Shoujo Chino (nenpulse bootleg remix)
TitleUnicode:魔法少女チノ (nenpulse bootleg remix)
Artist:Chino (CV: Inori Minase)
ArtistUnicode:チノ (CV: 水瀬いのり)
Creator:[Crz]Alleyne
Version:Mahou Coffee
Source:ご注文はうさぎですか??
Tags:gochuumon wa usagi desuka?? gochiusa is the order a rabbit?? cup of chino 香風智乃 kafuu kafū japanese anime magical girl hardcore character song electronic
BeatmapID:2645268
BeatmapSetID:1273005

[Difficulty]
HPDrainRate:8
CircleSize:4
OverallDifficulty:8
ApproachRate:5
SliderMultiplier:1.4
SliderTickRate:1

[Events]
//Background and Video events
0,0,"BG.jpg",0,0
//Break Periods
//Storyboard Layer 0 (Background)
//Storyboard Layer 1 (Fail)
//Storyboard Layer 2 (Pass)
//Storyboard Layer 3 (Foreground)
//Storyboard Layer 4 (Overlay)
//Storyboard Sound Samples
Sample,21667,0,"4.wav",100
Sample,43997,0,"4.wav",100
Sample,61809,0,"4.wav",100
Sample,65815,0,"4.wav",100
Sample,75190,0,"5.wav",70
Sample,105446,0,"4.wav",100
Sample,109622,0,"4.wav",100
Sample,109963,0,"4.wav",100
Sample,110474,0,"4.wav",100
Sample,110645,0,"4.wav",100
Sample,110730,0,"4.wav",100
Sample,110815,0,"4.wav",100
Sample,110900,0,"4.wav",100
Sample,127264,0,"4.wav",100
Sample,131440,0,"4.wav",100
Sample,131781,0,"4.wav",100
Sample,132292,0,"4.wav",100
Sample,132463,0,"4.wav",100
Sample,132548,0,"4.wav",100
Sample,132633,0,"4.wav",100
Sample,132718,0,"4.wav",100
Sample,149082,0,"4.wav",100
Sample,152917,0,"4.wav",100
Sample,153088,0,"4.wav",100
Sample,192718,0,"4.wav",100
Sample,196895,0,"4.wav",100
Sample,197235,0,"4.wav",100
Sample,197747,0,"4.wav",100
Sample,197917,0,"4.wav",100
Sample,198002,0,"4.wav",100
Sample,198088,0,"4.wav",100
Sample,198173,0,"4.wav",100
Sample,214622,0,"4.wav",100
Sample,215304,0,"4.wav",100
Sample,215985,0,"4.wav",100
Sample,216667,0,"4.wav",100
Sample,217349,0,"4.wav",100
Sample,218372,0,"4.wav",100
Sample,236355,0,"4.wav",100
Sample,240531,0,"4.wav",100
Sample,240872,0,"4.wav",100
Sample,241383,0,"4.wav",100
Sample,241554,0,"4.wav",100
Sample,241639,0,"4.wav",100
Sample,241724,0,"4.wav",100
Sample,241809,0,"4.wav",100
Sample,273173,0,"4.wav",100
Sample,277349,0,"4.wav",100
Sample,277690,0,"4.wav",100
Sample,278201,0,"4.wav",100
Sample,278372,0,"4.wav",100
Sample,278457,0,"4.wav",100
Sample,278542,0,"4.wav",100
Sample,278627,0,"4.wav",100
Sample,296355,0,"4.wav",100
Sample,300531,0,"4.wav",100
Sample,300872,0,"4.wav",100
Sample,301383,0,"4.wav",100
Sample,301554,0,"4.wav",100
Sample,301639,0,"4.wav",100
Sample,301724,0,"4.wav",100
Sample,301809,0,"4.wav",100

[TimingPoints]
1895,340.909090909091,4,1,1,50,1,0
44849,-40,4,1,1,50,0,0
44870,-200,4,1,1,50,0,0
44934,-40,4,1,1,50,0,0
44956,-200,4,1,1,50,0,0
45020,-40,4,1,1,50,0,0
45041,-200,4,1,1,50,0,0
45105,-40,4,1,1,50,0,0
45126,-200,4,1,1,50,0,0
45190,-50,4,1,1,50,0,0
45275,-133.333333333333,4,1,1,50,0,0
45360,-200,4,1,1,50,0,0
45446,-400,4,1,1,50,0,0
45531,-100,4,1,1,50,0,0
72803,-40,4,1,1,50,0,0
72804,-40,4,1,1,50,0,0
72846,-200,4,1,1,50,0,0
72974,-40,4,1,1,50,0,0
73017,-200,4,1,1,50,0,0
73059,-133.333333333333,4,1,1,50,0,0
73145,-200,4,1,1,50,0,0
73230,-400,4,1,1,50,0,0
73315,-40,4,1,1,50,0,0
73358,-200,4,1,1,50,0,0
73485,-40,4,1,1,50,0,0
73528,-200,4,1,1,50,0,0
73571,-133.333333333333,4,1,1,50,0,0
73656,-200,4,1,1,50,0,0
73741,-400,4,1,1,50,0,0
73826,-40,4,1,1,50,0,0
73869,-200,4,1,1,50,0,0
73997,-40,4,1,1,50,0,0
74039,-200,4,1,1,50,0,0
74082,-133.333333333333,4,1,1,50,0,0
74167,-200,4,1,1,50,0,0
74252,-400,4,1,1,50,0,0
74338,-40,4,1,1,50,0,0
74380,-200,4,1,1,50,0,0
74508,-40,4,1,1,50,0,0
74551,-200,4,1,1,50,0,0
74593,-133.333333333333,4,1,1,50,0,0
74679,-200,4,1,1,50,0,0
74764,-400,4,1,1,50,0,0
74849,-100,4,1,1,50,0,0
75020,-100,4,1,1,50,0,0
75190,-50,4,1,1,50,0,0
75275,-133.333333333333,4,1,1,50,0,0
75360,-200,4,1,1,50,0,0
75445,-400,4,1,1,50,0,0
75446,-400,4,1,1,50,0,0
75531,-100,4,1,1,50,0,0
83712,-50,4,1,1,50,0,0
83798,-133.333333333333,4,1,1,50,0,0
83883,-200,4,1,1,50,0,0
83968,-400,4,1,1,50,0,0
84053,-50,4,1,1,50,0,0
84139,-133.333333333333,4,1,1,50,0,0
84224,-200,4,1,1,50,0,0
84309,-400,4,1,1,50,0,0
84394,-50,4,1,1,50,0,0
84480,-133.333333333333,4,1,1,50,0,0
84565,-200,4,1,1,50,0,0
84650,-400,4,1,1,50,0,0
84735,-50,4,1,1,50,0,0
84820,-133.333333333333,4,1,1,50,0,0
84906,-200,4,1,1,50,0,0
84991,-400,4,1,1,50,0,0
85076,-100,4,1,1,50,0,0
86440,-50,4,1,1,50,0,0
86525,-133.333333333333,4,1,1,50,0,0
86610,-200,4,1,1,50,0,0
86695,-400,4,1,1,50,0,0
86781,-100,4,1,1,50,0,0
86951,-50,4,1,1,50,0,0
87036,-133.333333333333,4,1,1,50,0,0
87122,-200,4,1,1,50,0,0
87207,-400,4,1,1,50,0,0
87292,-100,4,1,1,50,0,0
87462,-66.6666666666667,4,1,1,50,0,0
87548,-200,4,1,1,50,0,0
87633,-66.6666666666667,4,1,1,50,0,0
87718,-200,4,1,1,50,0,0
87803,-100,4,1,1,50,0,0
88826,-33.3333333333333,4,1,1,50,0,0
88911,-133.333333333333,4,1,1,50,0,0
88997,-200,4,1,1,50,0,0
89082,-400,4,1,1,50,0,0
89167,-100,4,1,1,50,0,1
110985,-100,4,1,1,50,0,0
132803,-111.111111111111,4,1,1,50,0,0
135190,-50,4,1,1,50,0,0
135275,-133.333333333333,4,1,1,50,0,0
135360,-200,4,1,1,50,0,0
135445,-400,4,1,1,50,0,0
135531,-100,4,1,1,50,0,0
170985,-40,4,1,1,50,0,0
171028,-400,4,1,1,50,0,0
171113,-100,4,1,1,50,0,0
171667,-40,4,1,1,50,0,0
171710,-400,4,1,1,50,0,0
171795,-100,4,1,1,50,0,0
172349,-40,4,1,1,50,0,0
172391,-400,4,1,1,50,0,0
172477,-100,4,1,1,50,0,0
173031,-40,4,1,1,50,0,0
173073,-400,4,1,1,50,0,0
173158,-100,4,1,1,50,0,0
173712,-40,4,1,1,50,0,0
173755,-400,4,1,1,50,0,0
173840,-100,4,1,1,50,0,0
174224,-40,4,1,1,50,0,0
174266,-400,4,1,1,50,0,0
174352,-100,4,1,1,50,0,0
174735,-40,4,1,1,50,0,0
174778,-400,4,1,1,50,0,0
174863,-100,4,1,1,50,0,0
176099,-50,4,1,1,50,0,0
176184,-133.333333333333,4,1,1,50,0,0
176269,-200,4,1,1,50,0,0
176355,-400,4,1,1,50,0,0
176440,-100,4,1,1,50,0,1
198258,-100,4,1,1,50,0,0
209167,-40,4,1,1,50,0,0
209210,-400,4,1,1,50,0,0
209295,-100,4,1,1,50,0,0
210531,-40,4,1,1,50,0,0
210573,-400,4,1,1,50,0,0
210658,-100,4,1,1,50,0,0
211894,-40,4,1,1,50,0,0
211937,-400,4,1,1,50,0,0
212022,-100,4,1,1,50,0,0
213258,-40,4,1,1,50,0,0
213301,-400,4,1,1,50,0,0
213386,-100,4,1,1,50,0,0
214622,-40,4,1,1,50,0,0
214664,-400,4,1,1,50,0,0
214749,-100,4,1,1,50,0,0
215303,-40,4,1,1,50,0,0
215346,-400,4,1,1,50,0,0
215431,-100,4,1,1,50,0,0
215985,-40,4,1,1,50,0,0
216028,-400,4,1,1,50,0,0
216113,-100,4,1,1,50,0,0
216667,-40,4,1,1,50,0,0
216710,-400,4,1,1,50,0,0
216795,-100,4,1,1,50,0,0
217349,-40,4,1,1,50,0,0
217377,-400,4,1,1,50,0,0
217434,-100,4,1,1,50,0,0
217690,-40,4,1,1,50,0,0
217718,-400,4,1,1,50,0,0
217775,-100,4,1,1,50,0,0
218031,-40,4,1,1,50,0,0
218059,-400,4,1,1,50,0,0
218116,-100,4,1,1,50,0,0
218776,-66.6666666666667,4,1,1,50,0,0
218819,-200,4,1,1,50,0,0
218862,-66.6666666666667,4,1,1,50,0,0
218904,-200,4,1,1,50,0,0
218947,-66.6666666666667,4,1,1,50,0,0
218989,-200,4,1,1,50,0,0
219032,-100,4,1,1,50,0,0
219394,-40,4,1,1,50,0,0
219416,-200,4,1,1,50,0,0
219480,-40,4,1,1,50,0,0
219501,-200,4,1,1,50,0,0
219565,-40,4,1,1,50,0,0
219586,-200,4,1,1,50,0,0
219650,-40,4,1,1,50,0,0
219671,-200,4,1,1,50,0,0
219735,-33.3333333333333,4,1,1,50,0,0
219820,-133.333333333333,4,1,1,50,0,0
219906,-200,4,1,1,50,0,0
219991,-400,4,1,1,50,0,0
220076,-100,4,1,1,50,0,0
241894,-111.111111111111,4,1,1,50,0,0
251440,-40,4,1,1,50,0,0
251482,-200,4,1,1,50,0,0
251610,-66.6666666666667,4,1,1,50,0,0
251695,-200,4,1,1,50,0,0
251781,-40,4,1,1,50,0,0
251823,-200,4,1,1,50,0,0
251951,-33.3333333333333,4,1,1,50,0,0
252036,-133.333333333333,4,1,1,50,0,0
252122,-200,4,1,1,50,0,0
252207,-400,4,1,1,50,0,0
252462,-40,4,1,1,50,0,0
252505,-200,4,1,1,50,0,0
252633,-66.6666666666667,4,1,1,50,0,0
252718,-200,4,1,1,50,0,0
252803,-40,4,1,1,50,0,0
252846,-200,4,1,1,50,0,0
252974,-33.3333333333333,4,1,1,50,0,0
253059,-133.333333333333,4,1,1,50,0,0
253144,-200,4,1,1,50,0,0
253230,-400,4,1,1,50,0,0
253485,-40,4,1,1,50,0,0
253528,-200,4,1,1,50,0,0
253656,-40,4,1,1,50,0,0
253698,-200,4,1,1,50,0,0
253826,-40,4,1,1,50,0,0
253869,-200,4,1,1,50,0,0
253997,-400,4,1,1,50,0,0
254082,-200,4,1,1,50,0,0
254167,-133.333333333333,4,1,1,50,0,0
254252,-100,4,1,1,50,0,0
256895,-100,4,1,1,50,0,1
279735,-166.666666666667,4,1,1,50,0,1
279991,-45.4545454545455,4,1,1,50,0,1
280076,-100,4,1,1,50,0,0

[HitObjects]
64,192,531,128,0,701:0:0:0:0:
320,192,701,1,0,0:0:0:0:
192,192,787,1,0,0:0:0:0:
448,192,872,128,0,1042:0:0:0:0:
192,192,1042,1,0,0:0:0:0:
320,192,1127,1,0,0:0:0:0:
64,192,1213,1,0,0:0:0:0:
192,192,1298,1,0,0:0:0:0:
320,192,1383,128,0,1554:0:0:0:0:
64,192,1554,1,0,0:0:0:70:5.wav
448,192,1554,1,0,0:0:0:0:
64,192,1895,1,0,0:0:0:33:1.wav
192,192,1895,1,0,0:0:0:33:3.wav
320,192,1895,1,0,0:0:0:0:
448,192,1980,1,0,0:0:0:0:
64,192,2065,1,0,0:0:0:0:
192,192,2150,1,0,0:0:0:0:
64,192,2235,1,0,0:0:0:33:1.wav
320,192,2235,1,0,0:0:0:50:2.wav
448,192,2235,1,0,0:0:0:0:
192,192,2321,1,0,0:0:0:0:
448,192,2406,1,0,0:0:0:0:
64,192,2491,1,0,0:0:0:0:
192,192,2576,1,0,0:0:0:66:1.wav
320,192,2576,1,0,0:0:0:0:
448,192,2662,1,0,0:0:0:0:
64,192,2747,1,0,0:0:0:0:
192,192,2832,1,0,0:0:0:0:
64,192,2917,1,0,0:0:0:33:1.wav
320,192,2917,1,0,0:0:0:50:2.wav
448,192,2917,1,0,0:0:0:0:
192,192,3002,1,0,0:0:0:0:
320,192,3088,1,0,0:0:0:0:
448,192,3173,1,0,0:0:0:0:
64,192,3258,1,0,0:0:0:66:1.wav
192,192,3258,1,0,0:0:0:0:
448,192,3343,1,0,0:0:0:0:
320,192,3429,1,0,0:0:0:0:
192,192,3514,1,0,0:0:0:0:
64,192,3599,1,0,0:0:0:33:1.wav
320,192,3599,1,0,0:0:0:50:2.wav
448,192,3599,1,0,0:0:0:0:
192,192,3684,1,0,0:0:0:0:
448,192,3770,1,0,0:0:0:0:
64,192,3855,1,0,0:0:0:0:
192,192,3940,1,0,0:0:0:66:1.wav
320,192,3940,1,0,0:0:0:0:
448,192,4025,1,0,0:0:0:0:
64,192,4110,1,0,0:0:0:0:
192,192,4196,1,0,0:0:0:0:
64,192,4281,1,0,0:0:0:33:1.wav
320,192,4281,1,0,0:0:0:50:2.wav
448,192,4281,1,0,0:0:0:0:
192,192,4366,1,0,0:0:0:0:
448,192,4451,1,0,0:0:0:0:
64,192,4537,1,0,0:0:0:0:
192,192,4622,1,0,0:0:0:66:1.wav
320,192,4622,1,0,0:0:0:0:
448,192,4707,1,0,0:0:0:0:
64,192,4792,1,0,0:0:0:0:
192,192,4877,1,0,0:0:0:0:
64,192,4963,1,0,0:0:0:33:1.wav
320,192,4963,1,0,0:0:0:50:2.wav
448,192,4963,1,0,0:0:0:0:
192,192,5048,1,0,0:0:0:0:
320,192,5133,1,0,0:0:0:0:
448,192,5218,1,0,0:0:0:0:
64,192,5304,1,0,0:0:0:66:1.wav
192,192,5304,1,0,0:0:0:0:
320,192,5389,1,0,0:0:0:0:
448,192,5474,1,0,0:0:0:0:
192,192,5559,1,0,0:0:0:0:
64,192,5645,1,0,0:0:0:33:1.wav
320,192,5645,1,0,0:0:0:50:2.wav
448,192,5645,1,0,0:0:0:0:
192,192,5730,1,0,0:0:0:0:
64,192,5815,1,0,0:0:0:0:
448,192,5900,1,0,0:0:0:0:
192,192,5985,1,0,0:0:0:66:1.wav
320,192,5985,1,0,0:0:0:0:
64,192,6071,1,0,0:0:0:0:
448,192,6156,1,0,0:0:0:0:
192,192,6241,1,0,0:0:0:0:
64,192,6326,1,0,0:0:0:33:1.wav
320,192,6326,1,0,0:0:0:50:2.wav
448,192,6326,1,0,0:0:0:0:
192,192,6412,1,0,0:0:0:0:
320,192,6497,1,0,0:0:0:0:
448,192,6582,1,0,0:0:0:0:
64,192,6667,1,0,0:0:0:66:1.wav
192,192,6667,1,0,0:0:0:0:
320,192,6752,1,0,0:0:0:0:
448,192,6838,1,0,0:0:0:0:
64,192,6923,1,0,0:0:0:0:
192,192,7008,1,0,0:0:0:33:1.wav
320,192,7008,1,0,0:0:0:50:2.wav
448,192,7008,1,0,0:0:0:0:
64,192,7093,1,0,0:0:0:0:
192,192,7179,1,0,0:0:0:66:1.wav
448,192,7179,1,0,0:0:0:0:
320,192,7264,1,0,0:0:0:0:
64,192,7349,1,0,0:0:0:66:1.wav
192,192,7349,1,0,0:0:0:0:
448,192,7434,1,0,0:0:0:0:
320,192,7520,1,0,0:0:0:0:
64,192,7605,1,0,0:0:0:0:
192,192,7690,1,0,0:0:0:33:1.wav
320,192,7690,1,0,0:0:0:50:2.wav
448,192,7690,1,0,0:0:0:0:
64,192,7775,1,0,0:0:0:0:
448,192,7860,1,0,0:0:0:0:
320,192,7946,1,0,0:0:0:0:
64,192,8031,1,0,0:0:0:66:1.wav
192,192,8031,1,0,0:0:0:0:
320,192,8116,1,0,0:0:0:0:
448,192,8201,1,0,0:0:0:0:
192,192,8287,1,0,0:0:0:0:
64,192,8372,1,0,0:0:0:33:1.wav
320,192,8372,1,0,0:0:0:50:2.wav
448,192,8372,1,0,0:0:0:0:
192,192,8457,1,0,0:0:0:0:
320,192,8542,1,0,0:0:0:0:
64,192,8627,1,0,0:0:0:0:
192,192,8713,1,0,0:0:0:66:1.wav
448,192,8713,1,0,0:0:0:0:
320,192,8798,1,0,0:0:0:0:
64,192,8883,1,0,0:0:0:0:
192,192,8968,1,0,0:0:0:0:
64,192,9054,1,0,0:0:0:33:1.wav
320,192,9054,1,0,0:0:0:50:2.wav
448,192,9054,1,0,0:0:0:0:
192,192,9139,1,0,0:0:0:0:
448,192,9224,1,0,0:0:0:0:
320,192,9309,1,0,0:0:0:0:
64,192,9395,1,0,0:0:0:66:1.wav
192,192,9395,1,0,0:0:0:0:
448,192,9480,1,0,0:0:0:0:
320,192,9565,1,0,0:0:0:0:
192,192,9650,1,0,0:0:0:0:
64,192,9735,1,0,0:0:0:33:1.wav
320,192,9735,1,0,0:0:0:50:2.wav
448,192,9735,1,0,0:0:0:0:
192,192,9821,1,0,0:0:0:0:
448,192,9906,1,0,0:0:0:0:
320,192,9991,1,0,0:0:0:0:
64,192,10076,1,0,0:0:0:66:1.wav
192,192,10076,1,0,0:0:0:0:
320,192,10162,1,0,0:0:0:0:
448,192,10247,1,0,0:0:0:0:
192,192,10332,1,0,0:0:0:0:
64,192,10417,1,0,0:0:0:33:1.wav
320,192,10417,1,0,0:0:0:50:2.wav
448,192,10417,1,0,0:0:0:0:
192,192,10502,1,0,0:0:0:0:
320,192,10588,1,0,0:0:0:0:
64,192,10673,1,0,0:0:0:0:
192,192,10758,1,0,0:0:0:66:1.wav
448,192,10758,1,0,0:0:0:0:
320,192,10843,1,0,0:0:0:0:
64,192,10929,1,0,0:0:0:0:
192,192,11014,1,0,0:0:0:0:
64,192,11099,1,0,0:0:0:33:1.wav
320,192,11099,1,0,0:0:0:50:2.wav
448,192,11099,1,0,0:0:0:0:
192,192,11184,1,0,0:0:0:0:
448,192,11270,1,0,0:0:0:0:
320,192,11355,1,0,0:0:0:0:
64,192,11440,1,0,0:0:0:66:1.wav
192,192,11440,1,0,0:0:0:0:
448,192,11525,1,0,0:0:0:0:
320,192,11610,1,0,0:0:0:0:
192,192,11696,1,0,0:0:0:0:
64,192,11781,1,0,0:0:0:33:1.wav
320,192,11781,1,0,0:0:0:50:2.wav
448,192,11781,1,0,0:0:0:0:
192,192,11866,1,0,0:0:0:0:
64,192,11951,1,0,0:0:0:66:1.wav
448,192,11951,1,0,0:0:0:0:
320,192,12037,1,0,0:0:0:0:
64,192,12122,1,0,0:0:0:66:1.wav
192,192,12122,1,0,0:0:0:0:
320,192,12207,1,0,0:0:0:66:1.wav
448,192,12207,1,0,0:0:0:0:
192,192,12292,1,0,0:0:0:0:
64,192,12377,1,0,0:0:0:66:1.wav
448,192,12377,1,0,0:0:0:0:
192,192,12463,128,0,12633:0:0:0:33:1.wav
320,192,12463,128,0,12633:0:0:0:50:2.wav
64,192,12633,1,0,0:0:0:66:1.wav
448,192,12633,1,0,0:0:0:0:
64,192,12804,1,0,0:0:0:33:1.wav
192,192,12804,1,0,0:0:0:33:3.wav
448,192,12804,1,0,0:0:0:0:
320,192,12889,1,0,0:0:0:0:
192,192,12974,128,0,13059:0:0:0:0:
448,192,13059,1,0,0:0:0:0:
64,192,13145,1,0,0:0:0:33:1.wav
192,192,13145,1,0,0:0:0:50:2.wav
320,192,13145,1,0,0:0:0:0:
448,192,13230,1,0,0:0:0:0:
320,192,13315,128,0,13400:0:0:0:0:
192,192,13400,1,0,0:0:0:0:
64,192,13485,1,0,0:0:0:66:1.wav
448,192,13485,1,0,0:0:0:0:
320,192,13571,1,0,0:0:0:0:
64,192,13656,128,0,13741:0:0:0:0:
192,192,13741,1,0,0:0:0:0:
64,192,13826,1,0,0:0:0:33:1.wav
320,192,13826,1,0,0:0:0:50:2.wav
448,192,13826,1,0,0:0:0:0:
192,192,13912,1,0,0:0:0:0:
448,192,13997,128,0,14082:0:0:0:0:
320,192,14082,1,0,0:0:0:0:
64,192,14167,1,0,0:0:0:66:1.wav
192,192,14167,1,0,0:0:0:0:
320,192,14252,1,0,0:0:0:0:
448,192,14338,128,0,14423:0:0:0:0:
192,192,14423,1,0,0:0:0:0:
64,192,14508,1,0,0:0:0:33:1.wav
320,192,14508,1,0,0:0:0:50:2.wav
448,192,14508,1,0,0:0:0:0:
192,192,14593,1,0,0:0:0:0:
320,192,14679,128,0,14764:0:0:0:0:
64,192,14764,1,0,0:0:0:0:
192,192,14849,1,0,0:0:0:66:1.wav
448,192,14849,1,0,0:0:0:0:
320,192,14934,1,0,0:0:0:0:
64,192,15020,128,0,15105:0:0:0:0:
448,192,15105,1,0,0:0:0:0:
64,192,15190,1,0,0:0:0:33:1.wav
192,192,15190,1,0,0:0:0:50:2.wav
320,192,15190,1,0,0:0:0:0:
448,192,15275,1,0,0:0:0:0:
192,192,15360,128,0,15446:0:0:0:0:
320,192,15446,1,0,0:0:0:0:
64,192,15531,1,0,0:0:0:66:1.wav
448,192,15531,1,0,0:0:0:0:
192,192,15616,1,0,0:0:0:0:
320,192,15701,128,0,15787:0:0:0:0:
448,192,15787,1,0,0:0:0:0:
64,192,15872,1,0,0:0:0:33:1.wav
192,192,15872,1,0,0:0:0:50:2.wav
320,192,15872,1,0,0:0:0:0:
448,192,15957,1,0,0:0:0:0:
64,192,16042,128,0,16127:0:0:0:0:
192,192,16127,1,0,0:0:0:0:
320,192,16213,1,0,0:0:0:66:1.wav
448,192,16213,1,0,0:0:0:0:
64,192,16298,1,0,0:0:0:0:
192,192,16383,128,0,16468:0:0:0:0:
320,192,16468,1,0,0:0:0:0:
64,192,16554,1,0,0:0:0:33:1.wav
192,192,16554,1,0,0:0:0:50:2.wav
448,192,16554,1,0,0:0:0:0:
320,192,16639,1,0,0:0:0:0:
448,192,16724,128,0,16809:0:0:0:0:
192,192,16809,1,0,0:0:0:0:
64,192,16895,1,0,0:0:0:66:1.wav
320,192,16895,1,0,0:0:0:0:
448,192,16980,1,0,0:0:0:0:
192,192,17065,128,0,17150:0:0:0:0:
64,192,17150,1,0,0:0:0:0:
192,192,17235,1,0,0:0:0:33:1.wav
320,192,17235,1,0,0:0:0:50:2.wav
448,192,17235,1,0,0:0:0:0:
64,192,17321,1,0,0:0:0:0:
448,192,17406,128,0,17491:0:0:0:0:
320,192,17491,1,0,0:0:0:0:
64,192,17576,1,0,0:0:0:66:1.wav
192,192,17576,1,0,0:0:0:0:
448,192,17662,1,0,0:0:0:0:
64,192,17747,128,0,17832:0:0:0:0:
192,192,17832,1,0,0:0:0:0:
64,192,17917,1,0,0:0:0:22:1.wav
320,192,17917,1,0,0:0:0:50:2.wav
448,192,17917,1,0,0:0:0:100:4.wav
192,192,18002,1,0,0:0:0:0:
320,192,18088,128,0,18173:0:0:0:100:4.wav
448,192,18088,1,0,0:0:0:0:
64,192,18173,1,0,0:0:0:100:4.wav
192,192,18258,1,0,0:0:0:33:1.wav
320,192,18258,1,0,0:0:0:33:3.wav
448,192,18258,1,0,0:0:0:0:
64,192,18343,1,0,0:0:0:0:
192,192,18429,128,0,18514:0:0:0:0:
320,192,18514,1,0,0:0:0:0:
64,192,18599,1,0,0:0:0:22:1.wav
192,192,18599,1,0,0:0:0:50:2.wav
448,192,18599,1,0,0:0:0:100:4.wav
320,192,18684,1,0,0:0:0:0:
64,192,18770,128,0,18855:0:0:0:0:
448,192,18855,1,0,0:0:0:0:
192,192,18940,1,0,0:0:0:33:1.wav
320,192,18940,1,0,0:0:0:100:4.wav
64,192,19025,1,0,0:0:0:0:
448,192,19110,128,0,19196:0:0:0:0:
320,192,19196,1,0,0:0:0:0:
64,192,19281,1,0,0:0:0:22:1.wav
192,192,19281,1,0,0:0:0:50:2.wav
448,192,19281,1,0,0:0:0:100:4.wav
320,192,19366,1,0,0:0:0:0:
192,192,19451,128,0,19537:0:0:0:0:
448,192,19537,1,0,0:0:0:0:
64,192,19622,1,0,0:0:0:22:1.wav
192,192,19622,1,0,0:0:0:22:3.wav
320,192,19622,1,0,0:0:0:100:4.wav
448,192,19707,1,0,0:0:0:0:
64,192,19792,128,0,19877:0:0:0:0:
192,192,19877,1,0,0:0:0:0:
64,192,19963,1,0,0:0:0:22:1.wav
320,192,19963,1,0,0:0:0:50:2.wav
448,192,19963,1,0,0:0:0:100:4.wav
192,192,20048,1,0,0:0:0:0:
320,192,20133,128,0,20218:0:0:0:0:
448,192,20218,1,0,0:0:0:0:
64,192,20304,1,0,0:0:0:33:1.wav
192,192,20304,1,0,0:0:0:100:4.wav
320,192,20389,1,0,0:0:0:0:
448,192,20474,128,0,20559:0:0:0:0:
64,192,20559,1,0,0:0:0:0:
192,192,20645,1,0,0:0:0:22:1.wav
320,192,20645,1,0,0:0:0:50:2.wav
448,192,20645,1,0,0:0:0:100:4.wav
64,192,20730,1,0,0:0:0:0:
192,192,20815,128,0,20900:0:0:0:33:1.wav
320,192,20815,1,0,0:0:0:100:4.wav
448,192,20900,1,0,0:0:0:0:
64,192,20985,1,0,0:0:0:22:1.wav
192,192,20985,1,0,0:0:0:22:3.wav
320,192,20985,1,0,0:0:0:100:4.wav
448,192,21071,1,0,0:0:0:0:
64,192,21156,1,0,0:0:0:33:1.wav
192,192,21156,1,0,0:0:0:100:4.wav
320,192,21241,1,0,0:0:0:0:
64,192,21326,1,0,0:0:0:22:1.wav
192,192,21326,1,0,0:0:0:50:2.wav
448,192,21326,1,0,0:0:0:100:4.wav
320,192,21412,1,0,0:0:0:0:
192,192,21497,1,0,0:0:0:33:1.wav
448,192,21497,1,0,0:0:0:100:4.wav
64,192,21582,1,0,0:0:0:0:
320,192,21667,1,0,0:0:0:22:1.wav
448,192,21667,1,0,0:0:0:22:3.wav
64,192,21752,1,0,0:0:0:33:1.wav
192,192,21752,1,0,0:0:0:100:4.wav
320,192,21838,1,0,0:0:0:33:1.wav
448,192,21838,1,0,0:0:0:100:4.wav
192,192,21880,1,0,0:0:0:100:4.wav
64,192,21923,1,0,0:0:0:100:4.wav
192,192,22008,1,0,0:0:0:22:1.wav
320,192,22008,1,0,0:0:0:50:2.wav
448,192,22008,1,0,0:0:0:100:4.wav
64,192,22093,1,0,0:0:0:100:4.wav
320,192,22179,1,0,0:0:0:33:1.wav
448,192,22179,1,0,0:0:0:100:4.wav
64,192,23713,128,0,25417:0:0:0:33:1.wav
192,192,23713,1,0,0:0:0:33:3.wav
320,192,23713,1,0,0:0:0:0:
448,192,23883,1,0,0:0:0:0:
192,192,24054,1,0,0:0:0:33:1.wav
320,192,24054,1,0,0:0:0:50:2.wav
448,192,24054,1,0,0:0:0:0:
320,192,24224,1,0,0:0:0:0:
192,192,24395,1,0,0:0:0:66:1.wav
448,192,24395,1,0,0:0:0:0:
320,192,24565,1,0,0:0:0:0:
192,192,24735,1,0,0:0:0:33:1.wav
320,192,24735,1,0,0:0:0:50:2.wav
448,192,24735,1,0,0:0:0:0:
192,192,24906,1,0,0:0:0:0:
320,192,25076,1,0,0:0:0:66:1.wav
448,192,25076,1,0,0:0:0:0:
192,192,25247,1,0,0:0:0:0:
192,192,25417,1,0,0:0:0:33:1.wav
320,192,25417,1,0,0:0:0:50:2.wav
448,192,25417,128,0,25758:0:0:0:0:
320,192,25588,1,0,0:0:0:0:
64,192,25758,1,0,0:0:0:66:1.wav
192,192,25758,128,0,26099:0:0:0:0:
320,192,25929,1,0,0:0:0:0:
64,192,26099,1,0,0:0:0:33:1.wav
320,192,26099,128,0,26440:0:0:0:50:2.wav
448,192,26099,1,0,0:0:0:0:
448,192,26270,1,0,0:0:0:0:
64,192,26440,128,0,27122:0:0:0:66:1.wav
192,192,26440,1,0,0:0:0:0:
320,192,26610,1,0,0:0:0:0:
192,192,26781,1,0,0:0:0:33:1.wav
320,192,26781,1,0,0:0:0:50:2.wav
448,192,26781,1,0,0:0:0:0:
448,192,26951,1,0,0:0:0:0:
192,192,27122,128,0,27804:0:0:0:66:1.wav
320,192,27122,1,0,0:0:0:0:
64,192,27292,1,0,0:0:0:0:
64,192,27463,1,0,0:0:0:33:1.wav
320,192,27463,1,0,0:0:0:50:2.wav
448,192,27463,1,0,0:0:0:0:
448,192,27633,1,0,0:0:0:0:
64,192,27804,1,0,0:0:0:66:1.wav
320,192,27804,128,0,28145:0:0:0:0:
192,192,27974,1,0,0:0:0:0:
64,192,28145,1,0,0:0:0:33:1.wav
192,192,28145,1,0,0:0:0:50:2.wav
448,192,28145,128,0,28485:0:0:0:0:
64,192,28315,1,0,0:0:0:0:
192,192,28485,128,0,28826:0:0:0:66:1.wav
320,192,28485,1,0,0:0:0:0:
448,192,28656,1,0,0:0:0:0:
64,192,28826,128,0,29167:0:0:0:33:1.wav
320,192,28826,1,0,0:0:0:50:2.wav
448,192,28826,1,0,0:0:0:0:
320,192,28997,1,0,0:0:0:0:
192,192,29167,1,0,0:0:0:66:1.wav
448,192,29167,128,0,30020:0:0:0:0:
320,192,29338,1,0,0:0:0:0:
64,192,29508,1,0,0:0:0:33:1.wav
192,192,29508,1,0,0:0:0:50:2.wav
320,192,29508,1,0,0:0:0:0:
192,192,29679,1,0,0:0:0:0:
64,192,29849,1,0,0:0:0:66:1.wav
320,192,29849,1,0,0:0:0:0:
192,192,30020,128,0,30190:0:0:0:0:
64,192,30190,128,0,30531:0:0:0:33:1.wav
320,192,30190,1,0,0:0:0:50:2.wav
448,192,30190,1,0,0:0:0:0:
192,192,30360,1,0,0:0:0:0:
192,192,30531,1,0,0:0:0:66:1.wav
320,192,30531,128,0,31554:0:0:0:0:
448,192,30531,1,0,0:0:0:0:
64,192,30701,1,0,0:0:0:0:
64,192,30872,1,0,0:0:0:33:1.wav
192,192,30872,1,0,0:0:0:50:2.wav
448,192,30872,1,0,0:0:0:0:
192,192,31042,1,0,0:0:0:0:
64,192,31213,1,0,0:0:0:66:1.wav
448,192,31213,1,0,0:0:0:0:
192,192,31383,1,0,0:0:0:0:
64,192,31554,1,0,0:0:0:33:1.wav
192,192,31554,1,0,0:0:0:50:2.wav
448,192,31554,1,0,0:0:0:0:
448,192,31724,1,0,0:0:0:0:
64,192,31895,128,0,32235:0:0:0:66:1.wav
320,192,31895,1,0,0:0:0:0:
192,192,32065,1,0,0:0:0:0:
192,192,32235,128,0,32406:0:0:0:33:1.wav
320,192,32235,1,0,0:0:0:50:2.wav
448,192,32235,1,0,0:0:0:0:
320,192,32406,128,0,32917:0:0:0:0:
64,192,32576,1,0,0:0:0:66:1.wav
192,192,32576,1,0,0:0:0:0:
448,192,32747,1,0,0:0:0:0:
64,192,32917,1,0,0:0:0:33:1.wav
192,192,32917,1,0,0:0:0:50:2.wav
448,192,32917,128,0,33258:0:0:0:0:
192,192,33088,1,0,0:0:0:0:
64,192,33258,128,0,33599:0:0:0:66:1.wav
320,192,33258,1,0,0:0:0:0:
192,192,33429,1,0,0:0:0:0:
192,192,33599,128,0,33770:0:0:0:33:1.wav
320,192,33599,1,0,0:0:0:50:2.wav
448,192,33599,1,0,0:0:0:0:
320,192,33770,128,0,33940:0:0:0:0:
64,192,33940,1,0,0:0:0:66:1.wav
192,192,33940,1,0,0:0:0:0:
320,192,34025,1,0,0:0:0:66:1.wav
448,192,34025,1,0,0:0:0:0:
192,192,34110,1,0,0:0:0:0:
64,192,34196,1,0,0:0:0:66:1.wav
448,192,34196,1,0,0:0:0:0:
192,192,34281,128,0,34451:0:0:0:33:1.wav
320,192,34281,128,0,34451:0:0:0:50:2.wav
64,192,34451,1,0,0:0:0:66:1.wav
448,192,34451,1,0,0:0:0:0:
64,192,34622,1,0,0:0:0:33:1.wav
192,192,34622,128,0,36326:0:0:0:33:3.wav
320,192,34622,1,0,0:0:0:0:
448,192,34792,128,0,34877:0:0:0:0:
64,192,34963,1,0,0:0:0:33:1.wav
320,192,34963,1,0,0:0:0:50:2.wav
448,192,34963,1,0,0:0:0:0:
64,192,35133,128,0,35218:0:0:0:0:
320,192,35304,1,0,0:0:0:66:1.wav
448,192,35304,1,0,0:0:0:0:
64,192,35474,128,0,35559:0:0:0:0:
64,192,35645,1,0,0:0:0:33:1.wav
320,192,35645,1,0,0:0:0:50:2.wav
448,192,35645,1,0,0:0:0:0:
448,192,35815,128,0,35900:0:0:0:0:
64,192,35985,1,0,0:0:0:66:1.wav
320,192,35985,1,0,0:0:0:0:
448,192,36156,128,0,36241:0:0:0:0:
64,192,36326,1,0,0:0:0:33:1.wav
320,192,36326,128,0,36667:0:0:0:50:2.wav
448,192,36326,1,0,0:0:0:0:
192,192,36497,128,0,36582:0:0:0:0:
64,192,36667,1,0,0:0:0:66:1.wav
448,192,36667,128,0,37008:0:0:0:0:
192,192,36838,128,0,36923:0:0:0:0:
64,192,37008,128,0,37349:0:0:0:33:1.wav
192,192,37008,1,0,0:0:0:50:2.wav
320,192,37008,1,0,0:0:0:0:
448,192,37179,128,0,37264:0:0:0:0:
192,192,37349,128,0,38031:0:0:0:66:1.wav
448,192,37349,1,0,0:0:0:0:
320,192,37520,128,0,37605:0:0:0:0:
64,192,37690,1,0,0:0:0:33:1.wav
320,192,37690,1,0,0:0:0:50:2.wav
448,192,37690,1,0,0:0:0:0:
64,192,37860,128,0,37946:0:0:0:0:
320,192,38031,1,0,0:0:0:66:1.wav
448,192,38031,128,0,38713:0:0:0:0:
64,192,38201,128,0,38287:0:0:0:0:
64,192,38372,1,0,0:0:0:33:1.wav
192,192,38372,1,0,0:0:0:50:2.wav
320,192,38372,1,0,0:0:0:0:
320,192,38542,128,0,38627:0:0:0:0:
64,192,38713,128,0,39054:0:0:0:66:1.wav
192,192,38713,1,0,0:0:0:0:
320,192,38883,128,0,38968:0:0:0:0:
192,192,39054,1,0,0:0:0:33:1.wav
320,192,39054,128,0,39395:0:0:0:50:2.wav
448,192,39054,1,0,0:0:0:0:
448,192,39224,128,0,39309:0:0:0:0:
64,192,39395,1,0,0:0:0:66:1.wav
192,192,39395,128,0,39735:0:0:0:0:
448,192,39565,128,0,39650:0:0:0:0:
64,192,39735,1,0,0:0:0:33:1.wav
320,192,39735,1,0,0:0:0:50:2.wav
448,192,39735,128,0,39906:0:0:0:0:
64,192,39906,1,0,0:0:0:66:1.wav
192,192,39906,1,0,0:0:0:0:
320,192,39991,1,0,0:0:0:66:1.wav
64,192,40076,1,0,0:0:0:22:1.wav
192,192,40076,1,0,0:0:0:22:3.wav
448,192,40076,1,0,0:0:0:100:4.wav
320,192,40162,1,0,0:0:0:0:
192,192,40247,1,0,0:0:0:0:
64,192,40332,1,0,0:0:0:0:
192,192,40417,1,0,0:0:0:22:1.wav
320,192,40417,1,0,0:0:0:50:2.wav
448,192,40417,1,0,0:0:0:100:4.wav
64,192,40502,1,0,0:0:0:0:
320,192,40588,1,0,0:0:0:0:
448,192,40673,1,0,0:0:0:0:
64,192,40758,1,0,0:0:0:33:1.wav
192,192,40758,1,0,0:0:0:100:4.wav
320,192,40843,1,0,0:0:0:0:
448,192,40929,1,0,0:0:0:0:
192,192,41014,1,0,0:0:0:0:
64,192,41099,1,0,0:0:0:22:1.wav
320,192,41099,1,0,0:0:0:50:2.wav
448,192,41099,1,0,0:0:0:100:4.wav
192,192,41184,1,0,0:0:0:0:
64,192,41270,1,0,0:0:0:0:
320,192,41355,1,0,0:0:0:0:
64,192,41440,1,0,0:0:0:22:1.wav
192,192,41440,1,0,0:0:0:22:3.wav
448,192,41440,1,0,0:0:0:100:4.wav
320,192,41525,1,0,0:0:0:0:
448,192,41610,1,0,0:0:0:0:
192,192,41696,1,0,0:0:0:0:
64,192,41781,1,0,0:0:0:22:1.wav
320,192,41781,1,0,0:0:0:50:2.wav
448,192,41781,1,0,0:0:0:100:4.wav
192,192,41866,1,0,0:0:0:0:
64,192,41951,1,0,0:0:0:0:
448,192,42037,1,0,0:0:0:0:
192,192,42122,1,0,0:0:0:33:1.wav
320,192,42122,1,0,0:0:0:100:4.wav
64,192,42207,1,0,0:0:0:0:
448,192,42292,1,0,0:0:0:0:
320,192,42377,1,0,0:0:0:0:
64,192,42463,1,0,0:0:0:22:1.wav
192,192,42463,1,0,0:0:0:50:2.wav
448,192,42463,1,0,0:0:0:100:4.wav
320,192,42548,1,0,0:0:0:0:
64,192,42633,1,0,0:0:0:0:
192,192,42718,1,0,0:0:0:0:
64,192,42804,1,0,0:0:0:22:1.wav
320,192,42804,1,0,0:0:0:22:3.wav
448,192,42804,1,0,0:0:0:100:4.wav
192,192,42974,1,0,0:0:0:100:4.wav
320,192,42974,1,0,0:0:0:0:
64,192,43145,1,0,0:0:0:33:1.wav
192,192,43145,1,0,0:0:0:50:2.wav
448,192,43145,1,0,0:0:0:0:
64,192,43315,1,0,0:0:0:22:1.wav
320,192,43315,1,0,0:0:0:22:3.wav
448,192,43315,1,0,0:0:0:100:4.wav
64,192,43656,1,0,0:0:0:33:1.wav
192,192,43656,1,0,0:0:0:100:4.wav
320,192,43741,1,0,0:0:0:66:1.wav
64,192,43826,1,0,0:0:0:22:1.wav
192,192,43826,1,0,0:0:0:50:2.wav
448,192,43826,1,0,0:0:0:100:4.wav
320,192,43912,1,0,0:0:0:100:4.wav
64,192,43997,1,0,0:0:0:33:1.wav
192,192,44039,1,0,0:0:0:100:4.wav
320,192,44082,1,0,0:0:0:100:4.wav
64,192,44167,1,0,0:0:0:33:1.wav
192,192,44167,1,0,0:0:0:33:3.wav
448,192,44167,1,0,0:0:0:0:
320,192,44338,1,0,0:0:0:0:
192,192,44423,1,0,0:0:0:0:
64,192,44508,1,0,0:0:0:50:2.wav
320,192,44508,1,0,0:0:0:0:
448,192,44508,128,0,44849:0:0:0:0:
320,192,44849,1,0,0:0:0:0:
192,192,44934,1,0,0:0:0:0:
320,192,45020,1,0,0:0:0:0:
192,192,45105,1,0,0:0:0:0:
64,192,45190,1,0,0:0:0:50:2.wav
320,192,45190,1,0,0:0:0:100:4.wav
448,192,45190,1,0,0:0:0:0:
64,192,45531,1,0,0:0:0:33:1.wav
192,192,45531,1,0,0:0:0:33:3.wav
448,192,45531,1,0,0:0:0:0:
64,192,45701,128,0,45872:0:0:0:0:
320,192,45872,1,0,0:0:0:66:1.wav
448,192,45872,1,0,0:0:0:0:
192,192,46042,128,0,46213:0:0:0:0:
64,192,46213,1,0,0:0:0:66:1.wav
320,192,46213,1,0,0:0:0:0:
448,192,46383,128,0,46554:0:0:0:0:
64,192,46554,1,0,0:0:0:66:1.wav
192,192,46554,1,0,0:0:0:0:
320,192,46724,128,0,46895:0:0:0:0:
64,192,46895,1,0,0:0:0:66:1.wav
448,192,46895,1,0,0:0:0:0:
192,192,47065,128,0,47235:0:0:0:0:
320,192,47235,1,0,0:0:0:66:1.wav
448,192,47235,1,0,0:0:0:0:
64,192,47406,128,0,47576:0:0:0:0:
192,192,47576,1,0,0:0:0:66:1.wav
448,192,47576,1,0,0:0:0:0:
320,192,47747,128,0,47917:0:0:0:0:
64,192,47917,1,0,0:0:0:66:1.wav
192,192,47917,1,0,0:0:0:0:
448,192,48088,128,0,48258:0:0:0:0:
192,192,48258,1,0,0:0:0:66:1.wav
320,192,48258,1,0,0:0:0:0:
64,192,48429,128,0,48599:0:0:0:0:
320,192,48599,1,0,0:0:0:66:1.wav
448,192,48599,1,0,0:0:0:0:
192,192,48770,128,0,48940:0:0:0:0:
64,192,48940,1,0,0:0:0:66:1.wav
448,192,48940,1,0,0:0:0:0:
320,192,49110,128,0,49281:0:0:0:0:
64,192,49281,1,0,0:0:0:66:1.wav
192,192,49281,1,0,0:0:0:0:
448,192,49451,128,0,49622:0:0:0:0:
192,192,49622,1,0,0:0:0:66:1.wav
320,192,49622,1,0,0:0:0:0:
64,192,49792,128,0,49963:0:0:0:0:
320,192,49963,1,0,0:0:0:66:1.wav
448,192,49963,1,0,0:0:0:0:
192,192,50133,128,0,50304:0:0:0:0:
64,192,50304,1,0,0:0:0:66:1.wav
320,192,50304,1,0,0:0:0:0:
448,192,50474,128,0,50645:0:0:0:0:
64,192,50645,1,0,0:0:0:66:1.wav
192,192,50645,1,0,0:0:0:0:
192,192,50815,1,0,0:0:0:66:1.wav
320,192,50815,128,0,50985:0:0:0:0:
64,192,50985,1,0,0:0:0:66:1.wav
448,192,50985,1,0,0:0:0:0:
448,192,51156,128,0,51326:0:0:0:0:
64,192,51326,1,0,0:0:0:33:1.wav
192,192,51326,1,0,0:0:0:50:2.wav
320,192,51326,1,0,0:0:0:0:
320,192,51497,128,0,51667:0:0:0:0:
192,192,51667,1,0,0:0:0:66:1.wav
448,192,51667,1,0,0:0:0:0:
64,192,51838,128,0,52008:0:0:0:0:
192,192,52008,1,0,0:0:0:33:1.wav
320,192,52008,1,0,0:0:0:50:2.wav
448,192,52008,1,0,0:0:0:0:
192,192,52179,128,0,52349:0:0:0:0:
64,192,52349,1,0,0:0:0:66:1.wav
448,192,52349,1,0,0:0:0:0:
320,192,52520,128,0,52690:0:0:0:0:
64,192,52690,1,0,0:0:0:33:1.wav
192,192,52690,1,0,0:0:0:50:2.wav
448,192,52690,1,0,0:0:0:0:
448,192,52860,128,0,53031:0:0:0:0:
64,192,53031,1,0,0:0:0:66:1.wav
320,192,53031,1,0,0:0:0:0:
192,192,53201,128,0,53372:0:0:0:0:
64,192,53372,1,0,0:0:0:33:1.wav
320,192,53372,1,0,0:0:0:50:2.wav
448,192,53372,1,0,0:0:0:0:
64,192,53542,128,0,53713:0:0:0:0:
320,192,53713,1,0,0:0:0:66:1.wav
448,192,53713,1,0,0:0:0:0:
192,192,53883,128,0,54054:0:0:0:0:
64,192,54054,1,0,0:0:0:33:1.wav
320,192,54054,1,0,0:0:0:50:2.wav
448,192,54054,1,0,0:0:0:0:
320,192,54224,128,0,54395:0:0:0:0:
192,192,54395,1,0,0:0:0:66:1.wav
448,192,54395,1,0,0:0:0:0:
64,192,54565,128,0,54735:0:0:0:0:
192,192,54735,1,0,0:0:0:33:1.wav
320,192,54735,1,0,0:0:0:50:2.wav
448,192,54735,1,0,0:0:0:0:
448,192,54906,128,0,55076:0:0:0:0:
64,192,55076,1,0,0:0:0:66:1.wav
192,192,55076,1,0,0:0:0:0:
320,192,55247,128,0,55417:0:0:0:0:
64,192,55417,1,0,0:0:0:33:1.wav
192,192,55417,1,0,0:0:0:50:2.wav
448,192,55417,1,0,0:0:0:0:
192,192,55588,128,0,55758:0:0:0:0:
320,192,55758,1,0,0:0:0:66:1.wav
448,192,55758,1,0,0:0:0:0:
64,192,55843,1,0,0:0:0:66:1.wav
192,192,55843,1,0,0:0:0:0:
192,192,56014,1,0,0:0:0:66:1.wav
320,192,56014,1,0,0:0:0:0:
64,192,56099,128,0,56270:0:0:0:33:1.wav
448,192,56099,128,0,56270:0:0:0:50:2.wav
192,192,56270,1,0,0:0:0:66:1.wav
320,192,56270,1,0,0:0:0:0:
64,192,56440,1,0,0:0:0:33:1.wav
192,192,56440,1,0,0:0:0:33:3.wav
448,192,56440,1,0,0:0:0:0:
320,192,56525,1,0,0:0:0:0:
448,192,56610,1,0,0:0:0:0:
192,192,56696,1,0,0:0:0:0:
64,192,56781,1,0,0:0:0:33:1.wav
320,192,56781,1,0,0:0:0:50:2.wav
448,192,56781,1,0,0:0:0:0:
192,192,56866,1,0,0:0:0:0:
320,192,56951,1,0,0:0:0:0:
64,192,57037,1,0,0:0:0:0:
192,192,57122,1,0,0:0:0:66:1.wav
448,192,57122,1,0,0:0:0:0:
64,192,57207,1,0,0:0:0:0:
320,192,57292,1,0,0:0:0:0:
448,192,57377,1,0,0:0:0:0:
64,192,57463,1,0,0:0:0:33:1.wav
192,192,57463,1,0,0:0:0:50:2.wav
320,192,57463,1,0,0:0:0:0:
448,192,57548,1,0,0:0:0:0:
192,192,57633,1,0,0:0:0:0:
64,192,57718,1,0,0:0:0:0:
320,192,57804,1,0,0:0:0:66:1.wav
448,192,57804,1,0,0:0:0:0:
192,192,57889,1,0,0:0:0:0:
64,192,57974,1,0,0:0:0:0:
448,192,58059,1,0,0:0:0:0:
64,192,58145,1,0,0:0:0:33:1.wav
192,192,58145,1,0,0:0:0:50:2.wav
320,192,58145,1,0,0:0:0:0:
448,192,58230,1,0,0:0:0:0:
192,192,58315,1,0,0:0:0:0:
64,192,58400,1,0,0:0:0:0:
320,192,58485,1,0,0:0:0:66:1.wav
448,192,58485,1,0,0:0:0:0:
192,192,58571,1,0,0:0:0:0:
64,192,58656,1,0,0:0:0:0:
320,192,58741,1,0,0:0:0:0:
64,192,58826,1,0,0:0:0:33:1.wav
192,192,58826,1,0,0:0:0:50:2.wav
448,192,58826,1,0,0:0:0:0:
320,192,58912,1,0,0:0:0:0:
448,192,58997,1,0,0:0:0:0:
192,192,59082,1,0,0:0:0:0:
64,192,59167,1,0,0:0:0:66:1.wav
320,192,59167,1,0,0:0:0:0:
448,192,59252,1,0,0:0:0:0:
192,192,59338,1,0,0:0:0:0:
64,192,59423,1,0,0:0:0:0:
192,192,59508,1,0,0:0:0:33:1.wav
320,192,59508,1,0,0:0:0:50:2.wav
448,192,59508,1,0,0:0:0:0:
64,192,59593,1,0,0:0:0:0:
448,192,59679,1,0,0:0:0:0:
320,192,59764,1,0,0:0:0:0:
64,192,59849,1,0,0:0:0:66:1.wav
192,192,59849,1,0,0:0:0:0:
320,192,59934,1,0,0:0:0:0:
448,192,60020,1,0,0:0:0:0:
192,192,60105,1,0,0:0:0:0:
64,192,60190,1,0,0:0:0:33:1.wav
320,192,60190,1,0,0:0:0:50:2.wav
448,192,60190,1,0,0:0:0:0:
192,192,60275,1,0,0:0:0:0:
64,192,60360,1,0,0:0:0:0:
448,192,60446,1,0,0:0:0:0:
192,192,60531,1,0,0:0:0:66:1.wav
320,192,60531,1,0,0:0:0:0:
64,192,60616,1,0,0:0:0:0:
448,192,60701,1,0,0:0:0:0:
192,192,60787,1,0,0:0:0:0:
64,192,60872,1,0,0:0:0:33:1.wav
320,192,60872,1,0,0:0:0:50:2.wav
448,192,60872,1,0,0:0:0:0:
192,192,60957,1,0,0:0:0:0:
64,192,61042,1,0,0:0:0:0:
320,192,61127,1,0,0:0:0:0:
192,192,61213,1,0,0:0:0:66:1.wav
448,192,61213,1,0,0:0:0:0:
64,192,61298,1,0,0:0:0:0:
320,192,61383,1,0,0:0:0:0:
448,192,61468,1,0,0:0:0:0:
64,192,61554,1,0,0:0:0:22:1.wav
192,192,61554,1,0,0:0:0:50:2.wav
320,192,61554,1,0,0:0:0:100:4.wav
448,192,61639,1,0,0:0:0:0:
64,192,61724,1,0,0:0:0:33:1.wav
192,192,61724,1,0,0:0:0:100:4.wav
320,192,61809,1,0,0:0:0:33:1.wav
64,192,61895,1,0,0:0:0:22:1.wav
192,192,61895,1,0,0:0:0:22:3.wav
448,192,61895,1,0,0:0:0:100:4.wav
320,192,61980,1,0,0:0:0:0:
448,192,62065,1,0,0:0:0:0:
192,192,62150,1,0,0:0:0:0:
64,192,62235,1,0,0:0:0:22:1.wav
320,192,62235,1,0,0:0:0:50:2.wav
448,192,62235,1,0,0:0:0:100:4.wav
192,192,62321,1,0,0:0:0:0:
320,192,62406,1,0,0:0:0:0:
448,192,62491,1,0,0:0:0:0:
64,192,62576,1,0,0:0:0:22:1.wav
192,192,62576,1,0,0:0:0:22:3.wav
320,192,62576,1,0,0:0:0:100:4.wav
448,192,62662,1,0,0:0:0:0:
192,192,62747,1,0,0:0:0:0:
64,192,62832,1,0,0:0:0:0:
192,192,62917,1,0,0:0:0:22:1.wav
320,192,62917,1,0,0:0:0:50:2.wav
448,192,62917,1,0,0:0:0:100:4.wav
64,192,63002,1,0,0:0:0:0:
448,192,63088,1,0,0:0:0:0:
320,192,63173,1,0,0:0:0:0:
64,192,63258,1,0,0:0:0:22:1.wav
192,192,63258,1,0,0:0:0:22:3.wav
448,192,63258,1,0,0:0:0:100:4.wav
320,192,63343,1,0,0:0:0:0:
192,192,63429,1,0,0:0:0:0:
64,192,63514,1,0,0:0:0:0:
192,192,63599,1,0,0:0:0:22:1.wav
320,192,63599,1,0,0:0:0:50:2.wav
448,192,63599,1,0,0:0:0:100:4.wav
64,192,63684,1,0,0:0:0:0:
320,192,63770,1,0,0:0:0:0:
192,192,63855,1,0,0:0:0:0:
64,192,63940,1,0,0:0:0:22:1.wav
320,192,63940,1,0,0:0:0:22:3.wav
448,192,63940,1,0,0:0:0:100:4.wav
192,192,64025,1,0,0:0:0:0:
64,192,64110,1,0,0:0:0:0:
448,192,64196,1,0,0:0:0:0:
64,192,64281,1,0,0:0:0:22:1.wav
192,192,64281,1,0,0:0:0:50:2.wav
320,192,64281,1,0,0:0:0:100:4.wav
448,192,64366,1,0,0:0:0:0:
320,192,64451,1,0,0:0:0:100:4.wav
192,192,64537,1,0,0:0:0:0:
64,192,64622,1,0,0:0:0:22:1.wav
320,192,64622,1,0,0:0:0:22:3.wav
448,192,64622,1,0,0:0:0:100:4.wav
192,192,64707,1,0,0:0:0:0:
448,192,64792,1,0,0:0:0:0:
320,192,64877,1,0,0:0:0:0:
64,192,64963,1,0,0:0:0:22:1.wav
192,192,64963,1,0,0:0:0:50:2.wav
448,192,64963,1,0,0:0:0:100:4.wav
64,192,65133,1,0,0:0:0:33:1.wav
320,192,65133,1,0,0:0:0:100:4.wav
192,192,65304,1,0,0:0:0:66:1.wav
320,192,65304,1,0,0:0:0:0:
64,192,65389,1,0,0:0:0:66:1.wav
448,192,65389,1,0,0:0:0:0:
192,192,65474,1,0,0:0:0:0:
448,192,65559,1,0,0:0:0:66:1.wav
64,192,65645,1,0,0:0:0:22:1.wav
192,192,65645,1,0,0:0:0:50:2.wav
320,192,65645,1,0,0:0:0:100:4.wav
448,192,65730,1,0,0:0:0:100:4.wav
64,192,65815,1,0,0:0:0:33:1.wav
192,192,65858,1,0,0:0:0:100:4.wav
320,192,65900,1,0,0:0:0:100:4.wav
64,192,65985,1,0,0:0:0:22:1.wav
192,192,65985,1,0,0:0:0:22:3.wav
448,192,65985,1,0,0:0:0:100:4.wav
320,192,66156,1,0,0:0:0:0:
448,192,66198,1,0,0:0:0:0:
192,192,66326,1,0,0:0:0:0:
320,192,66369,1,0,0:0:0:0:
64,192,66497,1,0,0:0:0:0:
448,192,66497,1,0,0:0:0:0:
192,192,66539,1,0,0:0:0:0:
320,192,66667,1,0,0:0:0:70:5.wav
448,192,66667,1,0,0:0:0:0:
192,192,66710,1,0,0:0:0:0:
64,192,66838,1,0,0:0:0:0:
192,192,66880,1,0,0:0:0:0:
64,192,67008,1,0,0:0:0:0:
320,192,67008,1,0,0:0:0:0:
448,192,67051,1,0,0:0:0:0:
192,192,67179,1,0,0:0:0:0:
64,192,67221,128,0,67349:0:0:0:0:
192,192,67349,1,0,0:0:0:33:1.wav
320,192,67349,1,0,0:0:0:33:3.wav
448,192,67349,128,0,67690:0:0:0:0:
320,192,67520,128,0,67690:0:0:0:0:
64,192,67690,128,0,67860:0:0:0:33:1.wav
192,192,67690,128,0,67860:0:0:0:50:2.wav
320,192,67860,128,0,68031:0:0:0:0:
448,192,67860,128,0,68031:0:0:0:0:
64,192,68031,128,0,68372:0:0:0:66:1.wav
192,192,68031,1,0,0:0:0:0:
192,192,68201,128,0,68372:0:0:0:0:
320,192,68372,128,0,68542:0:0:0:33:1.wav
448,192,68372,128,0,68542:0:0:0:50:2.wav
64,192,68542,128,0,68713:0:0:0:0:
192,192,68542,128,0,68713:0:0:0:0:
320,192,68713,1,0,0:0:0:66:1.wav
448,192,68713,128,0,69054:0:0:0:0:
320,192,68883,128,0,69054:0:0:0:0:
64,192,69054,128,0,69224:0:0:0:33:1.wav
192,192,69054,128,0,69224:0:0:0:50:2.wav
448,192,69224,128,0,69395:0:0:0:0:
64,192,69395,128,0,69565:0:0:0:66:1.wav
192,192,69395,128,0,69565:0:0:0:0:
320,192,69565,128,0,69735:0:0:0:0:
448,192,69565,128,0,69735:0:0:0:0:
64,192,69735,128,0,69906:0:0:0:33:1.wav
192,192,69735,128,0,69906:0:0:0:50:2.wav
320,192,69906,128,0,70076:0:0:0:0:
448,192,69906,128,0,70076:0:0:0:0:
64,192,70076,128,0,70417:0:0:0:66:1.wav
192,192,70076,1,0,0:0:0:0:
192,192,70247,128,0,70417:0:0:0:0:
320,192,70417,128,0,70588:0:0:0:33:1.wav
448,192,70417,128,0,70588:0:0:0:50:2.wav
64,192,70588,128,0,70758:0:0:0:0:
192,192,70588,128,0,70758:0:0:0:0:
320,192,70758,1,0,0:0:0:66:1.wav
448,192,70758,128,0,71099:0:0:0:0:
192,192,70929,128,0,71099:0:0:0:0:
64,192,71099,128,0,71270:0:0:0:33:1.wav
320,192,71099,128,0,71270:0:0:0:50:2.wav
192,192,71270,128,0,71440:0:0:0:0:
448,192,71270,128,0,71440:0:0:0:0:
64,192,71440,128,0,71781:0:0:0:66:1.wav
320,192,71440,1,0,0:0:0:0:
192,192,71610,128,0,71781:0:0:0:0:
320,192,71781,128,0,71951:0:0:0:33:1.wav
448,192,71781,128,0,71951:0:0:0:50:2.wav
192,192,71951,128,0,72122:0:0:0:0:
64,192,72122,128,0,72292:0:0:0:66:1.wav
448,192,72122,128,0,72292:0:0:0:0:
192,192,72292,128,0,72463:0:0:0:0:
320,192,72292,128,0,72463:0:0:0:0:
64,192,72463,128,0,72633:0:0:0:33:1.wav
448,192,72463,128,0,72633:0:0:0:50:2.wav
192,192,72633,128,0,72804:0:0:0:66:1.wav
320,192,72633,128,0,72718:0:0:0:0:
64,192,72804,1,0,0:0:0:33:1.wav
320,192,72804,1,0,0:0:0:33:3.wav
448,192,72804,1,0,0:0:0:0:
64,192,72974,1,0,0:0:0:33:1.wav
320,192,72974,1,0,0:0:0:33:3.wav
448,192,72974,1,0,0:0:0:0:
64,192,73315,1,0,0:0:0:33:1.wav
192,192,73315,1,0,0:0:0:33:3.wav
448,192,73315,1,0,0:0:0:0:
64,192,73485,1,0,0:0:0:33:1.wav
192,192,73485,1,0,0:0:0:33:3.wav
448,192,73485,1,0,0:0:0:0:
192,192,73826,1,0,0:0:0:33:1.wav
320,192,73826,1,0,0:0:0:33:3.wav
448,192,73826,1,0,0:0:0:0:
192,192,73997,1,0,0:0:0:33:1.wav
320,192,73997,1,0,0:0:0:33:3.wav
448,192,73997,1,0,0:0:0:0:
64,192,74338,1,0,0:0:0:33:1.wav
192,192,74338,1,0,0:0:0:33:3.wav
320,192,74338,1,0,0:0:0:0:
64,192,74508,1,0,0:0:0:33:1.wav
192,192,74508,1,0,0:0:0:33:3.wav
320,192,74508,1,0,0:0:0:0:
64,192,75020,1,0,0:0:0:66:1.wav
192,192,75020,1,0,0:0:0:0:
320,192,75105,1,0,0:0:0:66:1.wav
64,192,75190,128,0,75531:0:0:0:16:1.wav
192,192,75190,1,0,0:0:0:50:2.wav
448,192,75190,1,0,0:0:0:16:3.wav
192,192,75531,1,0,0:0:0:33:1.wav
320,192,75531,1,0,0:0:0:33:3.wav
448,192,75531,1,0,0:0:0:0:
320,192,75701,128,0,75872:0:0:0:0:
64,192,75872,1,0,0:0:0:33:1.wav
192,192,75872,1,0,0:0:0:50:2.wav
448,192,75872,1,0,0:0:0:0:
448,192,76042,128,0,76213:0:0:0:0:
64,192,76213,1,0,0:0:0:66:1.wav
320,192,76213,1,0,0:0:0:0:
192,192,76383,128,0,76554:0:0:0:0:
64,192,76554,1,0,0:0:0:33:1.wav
320,192,76554,1,0,0:0:0:50:2.wav
448,192,76554,1,0,0:0:0:0:
64,192,76724,128,0,76895:0:0:0:0:
192,192,76895,1,0,0:0:0:66:1.wav
320,192,76895,1,0,0:0:0:0:
448,192,77065,128,0,77235:0:0:0:0:
64,192,77235,1,0,0:0:0:33:1.wav
192,192,77235,1,0,0:0:0:50:2.wav
320,192,77235,1,0,0:0:0:0:
64,192,77406,1,0,0:0:0:66:1.wav
448,192,77406,1,0,0:0:0:0:
320,192,77576,1,0,0:0:0:66:1.wav
448,192,77576,1,0,0:0:0:0:
64,192,77662,1,0,0:0:0:66:1.wav
192,192,77662,1,0,0:0:0:0:
320,192,77747,1,0,0:0:0:0:
64,192,77832,1,0,0:0:0:66:1.wav
448,192,77832,1,0,0:0:0:0:
192,192,77917,128,0,78088:0:0:0:33:1.wav
320,192,77917,128,0,78088:0:0:0:50:2.wav
64,192,78088,1,0,0:0:0:66:1.wav
448,192,78088,1,0,0:0:0:0:
192,192,78258,128,0,78429:0:0:0:33:1.wav
320,192,78258,1,0,0:0:0:33:3.wav
448,192,78258,128,0,78599:0:0:0:0:
320,192,78429,128,0,78599:0:0:0:0:
64,192,78599,128,0,78770:0:0:0:33:1.wav
192,192,78599,128,0,78770:0:0:0:50:2.wav
320,192,78770,128,0,78940:0:0:0:0:
448,192,78770,128,0,78940:0:0:0:0:
64,192,78940,1,0,0:0:0:66:1.wav
192,192,78940,128,0,79281:0:0:0:0:
320,192,79110,128,0,79281:0:0:0:0:
64,192,79281,128,0,79451:0:0:0:33:1.wav
448,192,79281,128,0,79451:0:0:0:50:2.wav
192,192,79451,128,0,79622:0:0:0:0:
320,192,79451,128,0,79622:0:0:0:0:
64,192,79622,128,0,79963:0:0:0:66:1.wav
448,192,79622,1,0,0:0:0:0:
320,192,79792,128,0,79963:0:0:0:0:
192,192,79963,128,0,80133:0:0:0:33:1.wav
448,192,79963,128,0,80133:0:0:0:50:2.wav
320,192,80133,128,0,80304:0:0:0:0:
64,192,80304,128,0,80474:0:0:0:66:1.wav
192,192,80304,128,0,80474:0:0:0:0:
320,192,80474,128,0,80645:0:0:0:0:
448,192,80474,128,0,80645:0:0:0:0:
64,192,80645,128,0,80815:0:0:0:33:1.wav
192,192,80645,128,0,80815:0:0:0:50:2.wav
320,192,80815,128,0,80985:0:0:0:0:
448,192,80815,128,0,80985:0:0:0:0:
64,192,80985,128,0,81326:0:0:0:66:1.wav
192,192,80985,1,0,0:0:0:0:
320,192,81156,128,0,81326:0:0:0:0:
192,192,81326,128,0,81497:0:0:0:33:1.wav
448,192,81326,128,0,81497:0:0:0:50:2.wav
64,192,81497,128,0,81667:0:0:0:0:
320,192,81497,128,0,81667:0:0:0:0:
192,192,81667,128,0,81838:0:0:0:66:1.wav
448,192,81667,128,0,82008:0:0:0:0:
64,192,81838,128,0,82008:0:0:0:0:
192,192,82008,128,0,82179:0:0:0:33:1.wav
320,192,82008,128,0,82179:0:0:0:50:2.wav
64,192,82179,128,0,82349:0:0:0:0:
448,192,82179,128,0,82349:0:0:0:0:
192,192,82349,1,0,0:0:0:66:1.wav
320,192,82349,128,0,82690:0:0:0:0:
64,192,82520,128,0,82690:0:0:0:0:
192,192,82690,128,0,82860:0:0:0:33:1.wav
448,192,82690,128,0,82860:0:0:0:50:2.wav
320,192,82860,128,0,83031:0:0:0:0:
64,192,83031,128,0,83201:0:0:0:66:1.wav
192,192,83031,128,0,83201:0:0:0:0:
320,192,83201,128,0,83372:0:0:0:0:
448,192,83201,128,0,83372:0:0:0:0:
64,192,83372,128,0,83542:0:0:0:33:1.wav
192,192,83372,128,0,83542:0:0:0:50:2.wav
320,192,83542,1,0,0:0:0:66:1.wav
448,192,83542,1,0,0:0:0:0:
192,192,83627,1,0,0:0:0:66:1.wav
64,192,83713,128,0,83940:0:0:0:22:1.wav
320,192,83713,128,0,83940:0:0:0:22:3.wav
448,192,83713,128,0,83940:0:0:0:70:5.wav
64,192,84054,128,0,84281:0:0:0:22:1.wav
192,192,84054,128,0,84281:0:0:0:22:3.wav
320,192,84054,128,0,84281:0:0:0:70:5.wav
64,192,84395,128,0,84622:0:0:0:22:1.wav
192,192,84395,128,0,84622:0:0:0:22:3.wav
448,192,84395,128,0,84622:0:0:0:70:5.wav
192,192,84735,128,0,85076:0:0:0:22:1.wav
320,192,84735,128,0,85076:0:0:0:22:3.wav
448,192,84735,128,0,85076:0:0:0:70:5.wav
64,192,85247,1,0,0:0:0:66:1.wav
192,192,85247,1,0,0:0:0:0:
64,192,85417,1,0,0:0:0:22:1.wav
320,192,85417,1,0,0:0:0:50:2.wav
448,192,85417,1,0,0:0:0:70:5.wav
448,192,85588,128,0,85758:0:0:0:0:
192,192,85758,1,0,0:0:0:66:1.wav
320,192,85758,1,0,0:0:0:0:
64,192,85929,128,0,86099:0:0:0:0:
192,192,86099,1,0,0:0:0:33:1.wav
320,192,86099,1,0,0:0:0:50:2.wav
448,192,86099,1,0,0:0:0:0:
320,192,86270,128,0,86440:0:0:0:0:
64,192,86440,128,0,86781:0:0:0:33:1.wav
192,192,86440,128,0,86781:0:0:0:33:3.wav
448,192,86440,128,0,86781:0:0:0:0:
320,192,86781,1,0,0:0:0:70:5.wav
192,192,86951,128,0,87292:0:0:0:33:1.wav
320,192,86951,128,0,87292:0:0:0:33:3.wav
448,192,86951,128,0,87292:0:0:0:0:
64,192,87292,1,0,0:0:0:70:5.wav
64,192,87463,128,0,87718:0:0:0:33:1.wav
192,192,87463,128,0,87718:0:0:0:33:3.wav
320,192,87463,128,0,87548:0:0:0:0:
320,192,87633,1,0,0:0:0:33:1.wav
448,192,87633,1,0,0:0:0:50:2.wav
64,192,87804,128,0,87974:0:0:0:33:1.wav
320,192,87804,128,0,87974:0:0:0:33:3.wav
448,192,87804,128,0,87974:0:0:0:0:
192,192,88145,128,0,88485:0:0:0:0:
320,192,88315,1,0,0:0:0:100:4.wav
64,192,88485,128,0,88826:0:0:0:70:5.wav
448,192,88485,1,0,0:0:0:0:
320,192,88826,128,0,89167:0:0:0:0:
64,192,89167,1,0,0:0:0:33:1.wav
192,192,89167,1,0,0:0:0:33:3.wav
448,192,89167,1,0,0:0:0:0:
192,192,89338,1,0,0:0:0:0:
320,192,89338,1,0,0:0:0:0:
64,192,89508,1,0,0:0:0:33:1.wav
320,192,89508,1,0,0:0:0:50:2.wav
448,192,89508,1,0,0:0:0:0:
64,192,89679,1,0,0:0:0:0:
192,192,89679,1,0,0:0:0:0:
320,192,89764,1,0,0:0:0:0:
448,192,89764,1,0,0:0:0:0:
64,192,89849,1,0,0:0:0:66:1.wav
192,192,89849,1,0,0:0:0:0:
320,192,90020,1,0,0:0:0:0:
448,192,90020,1,0,0:0:0:0:
64,192,90105,1,0,0:0:0:0:
192,192,90190,1,0,0:0:0:33:1.wav
320,192,90190,1,0,0:0:0:50:2.wav
448,192,90190,1,0,0:0:0:0:
64,192,90275,1,0,0:0:0:0:
192,192,90360,1,0,0:0:0:0:
448,192,90360,1,0,0:0:0:0:
320,192,90446,1,0,0:0:0:0:
64,192,90531,1,0,0:0:0:66:1.wav
192,192,90531,1,0,0:0:0:0:
64,192,90701,1,0,0:0:0:0:
320,192,90701,1,0,0:0:0:0:
192,192,90872,1,0,0:0:0:33:1.wav
320,192,90872,1,0,0:0:0:50:2.wav
448,192,90872,1,0,0:0:0:0:
64,192,91042,1,0,0:0:0:0:
448,192,91042,1,0,0:0:0:0:
192,192,91127,1,0,0:0:0:0:
320,192,91127,1,0,0:0:0:0:
64,192,91213,1,0,0:0:0:66:1.wav
448,192,91213,1,0,0:0:0:0:
192,192,91383,1,0,0:0:0:0:
320,192,91383,1,0,0:0:0:0:
448,192,91468,1,0,0:0:0:0:
64,192,91554,1,0,0:0:0:33:1.wav
192,192,91554,1,0,0:0:0:50:2.wav
320,192,91554,1,0,0:0:0:0:
448,192,91639,1,0,0:0:0:0:
64,192,91724,1,0,0:0:0:0:
192,192,91724,1,0,0:0:0:0:
320,192,91809,1,0,0:0:0:0:
64,192,91895,1,0,0:0:0:66:1.wav
448,192,91895,1,0,0:0:0:0:
192,192,92065,1,0,0:0:0:0:
448,192,92065,1,0,0:0:0:0:
64,192,92235,1,0,0:0:0:33:1.wav
192,192,92235,1,0,0:0:0:50:2.wav
320,192,92235,1,0,0:0:0:0:
320,192,92406,1,0,0:0:0:0:
448,192,92406,1,0,0:0:0:0:
64,192,92491,1,0,0:0:0:0:
192,192,92491,1,0,0:0:0:0:
320,192,92576,1,0,0:0:0:66:1.wav
448,192,92576,1,0,0:0:0:0:
64,192,92747,1,0,0:0:0:0:
192,192,92747,1,0,0:0:0:0:
320,192,92832,1,0,0:0:0:0:
64,192,92917,1,0,0:0:0:33:1.wav
192,192,92917,1,0,0:0:0:50:2.wav
448,192,92917,1,0,0:0:0:0:
320,192,93002,1,0,0:0:0:0:
64,192,93088,1,0,0:0:0:0:
448,192,93088,1,0,0:0:0:0:
192,192,93173,1,0,0:0:0:0:
320,192,93258,1,0,0:0:0:66:1.wav
448,192,93258,1,0,0:0:0:0:
64,192,93429,1,0,0:0:0:0:
320,192,93429,1,0,0:0:0:0:
64,192,93599,1,0,0:0:0:33:1.wav
192,192,93599,1,0,0:0:0:50:2.wav
448,192,93599,1,0,0:0:0:0:
192,192,93770,1,0,0:0:0:0:
320,192,93770,1,0,0:0:0:0:
64,192,93855,1,0,0:0:0:0:
448,192,93855,1,0,0:0:0:0:
192,192,93940,1,0,0:0:0:66:1.wav
320,192,93940,1,0,0:0:0:0:
64,192,94110,1,0,0:0:0:0:
448,192,94110,1,0,0:0:0:0:
320,192,94196,1,0,0:0:0:0:
64,192,94281,1,0,0:0:0:33:1.wav
192,192,94281,1,0,0:0:0:50:2.wav
448,192,94281,1,0,0:0:0:0:
320,192,94451,1,0,0:0:0:66:1.wav
448,192,94451,1,0,0:0:0:0:
320,192,94622,1,0,0:0:0:66:1.wav
448,192,94622,1,0,0:0:0:0:
64,192,94792,1,0,0:0:0:0:
192,192,94792,1,0,0:0:0:0:
64,192,94963,1,0,0:0:0:33:1.wav
320,192,94963,1,0,0:0:0:50:2.wav
448,192,94963,1,0,0:0:0:0:
192,192,95133,1,0,0:0:0:0:
320,192,95133,1,0,0:0:0:0:
64,192,95218,1,0,0:0:0:0:
448,192,95218,1,0,0:0:0:0:
192,192,95304,1,0,0:0:0:66:1.wav
320,192,95304,1,0,0:0:0:0:
64,192,95474,1,0,0:0:0:0:
448,192,95474,1,0,0:0:0:0:
192,192,95559,1,0,0:0:0:0:
64,192,95645,1,0,0:0:0:33:1.wav
320,192,95645,1,0,0:0:0:50:2.wav
448,192,95645,1,0,0:0:0:0:
192,192,95730,1,0,0:0:0:0:
64,192,95815,1,0,0:0:0:0:
320,192,95815,1,0,0:0:0:0:
448,192,95900,1,0,0:0:0:0:
192,192,95985,1,0,0:0:0:66:1.wav
320,192,95985,1,0,0:0:0:0:
192,192,96156,1,0,0:0:0:0:
448,192,96156,1,0,0:0:0:0:
64,192,96326,1,0,0:0:0:33:1.wav
320,192,96326,1,0,0:0:0:50:2.wav
448,192,96326,1,0,0:0:0:0:
64,192,96497,1,0,0:0:0:0:
192,192,96497,1,0,0:0:0:0:
320,192,96582,1,0,0:0:0:0:
448,192,96582,1,0,0:0:0:0:
64,192,96667,1,0,0:0:0:66:1.wav
192,192,96667,1,0,0:0:0:0:
320,192,96838,1,0,0:0:0:0:
448,192,96838,1,0,0:0:0:0:
64,192,96923,1,0,0:0:0:0:
192,192,97008,1,0,0:0:0:33:1.wav
320,192,97008,1,0,0:0:0:50:2.wav
448,192,97008,1,0,0:0:0:0:
64,192,97093,1,0,0:0:0:0:
192,192,97179,1,0,0:0:0:0:
448,192,97179,1,0,0:0:0:0:
320,192,97264,1,0,0:0:0:0:
64,192,97349,1,0,0:0:0:66:1.wav
192,192,97349,1,0,0:0:0:0:
64,192,97520,1,0,0:0:0:0:
320,192,97520,1,0,0:0:0:0:
192,192,97690,1,0,0:0:0:33:1.wav
320,192,97690,1,0,0:0:0:50:2.wav
448,192,97690,1,0,0:0:0:0:
64,192,97860,1,0,0:0:0:0:
448,192,97860,1,0,0:0:0:0:
192,192,97946,1,0,0:0:0:0:
320,192,97946,1,0,0:0:0:0:
64,192,98031,1,0,0:0:0:66:1.wav
448,192,98031,1,0,0:0:0:0:
192,192,98201,1,0,0:0:0:0:
320,192,98201,1,0,0:0:0:0:
448,192,98287,1,0,0:0:0:0:
64,192,98372,1,0,0:0:0:33:1.wav
192,192,98372,1,0,0:0:0:50:2.wav
320,192,98372,1,0,0:0:0:0:
448,192,98457,1,0,0:0:0:0:
64,192,98542,1,0,0:0:0:0:
320,192,98542,1,0,0:0:0:0:
192,192,98627,1,0,0:0:0:0:
64,192,98713,1,0,0:0:0:66:1.wav
448,192,98713,1,0,0:0:0:0:
320,192,98883,1,0,0:0:0:0:
448,192,98883,1,0,0:0:0:0:
64,192,99054,1,0,0:0:0:33:1.wav
192,192,99054,1,0,0:0:0:50:2.wav
320,192,99054,1,0,0:0:0:0:
64,192,99224,1,0,0:0:0:66:1.wav
192,192,99224,1,0,0:0:0:0:
320,192,99395,1,0,0:0:0:66:1.wav
448,192,99395,1,0,0:0:0:0:
64,192,99480,1,0,0:0:0:66:1.wav
192,192,99480,1,0,0:0:0:0:
448,192,99565,1,0,0:0:0:0:
192,192,99650,1,0,0:0:0:66:1.wav
320,192,99650,1,0,0:0:0:0:
64,192,99735,128,0,99906:0:0:0:33:1.wav
448,192,99735,128,0,99906:0:0:0:50:2.wav
192,192,99906,1,0,0:0:0:66:1.wav
320,192,99906,1,0,0:0:0:0:
64,192,100076,1,0,0:0:0:33:1.wav
192,192,100076,1,0,0:0:0:33:3.wav
448,192,100076,1,0,0:0:0:0:
64,192,100247,1,0,0:0:0:0:
320,192,100247,1,0,0:0:0:0:
192,192,100417,1,0,0:0:0:33:1.wav
320,192,100417,1,0,0:0:0:50:2.wav
448,192,100417,1,0,0:0:0:0:
64,192,100588,1,0,0:0:0:0:
192,192,100588,1,0,0:0:0:0:
320,192,100673,1,0,0:0:0:0:
448,192,100673,1,0,0:0:0:0:
64,192,100758,1,0,0:0:0:66:1.wav
192,192,100758,1,0,0:0:0:0:
320,192,100929,1,0,0:0:0:0:
448,192,100929,1,0,0:0:0:0:
192,192,101014,1,0,0:0:0:0:
64,192,101099,1,0,0:0:0:33:1.wav
320,192,101099,1,0,0:0:0:50:2.wav
448,192,101099,1,0,0:0:0:0:
192,192,101184,1,0,0:0:0:0:
64,192,101270,1,0,0:0:0:0:
448,192,101270,1,0,0:0:0:0:
320,192,101355,1,0,0:0:0:0:
64,192,101440,1,0,0:0:0:66:1.wav
192,192,101440,1,0,0:0:0:0:
192,192,101610,1,0,0:0:0:0:
448,192,101610,1,0,0:0:0:0:
64,192,101781,1,0,0:0:0:33:1.wav
320,192,101781,1,0,0:0:0:50:2.wav
448,192,101781,1,0,0:0:0:0:
192,192,101951,1,0,0:0:0:0:
320,192,101951,1,0,0:0:0:0:
64,192,102037,1,0,0:0:0:0:
448,192,102037,1,0,0:0:0:0:
192,192,102122,1,0,0:0:0:66:1.wav
320,192,102122,1,0,0:0:0:0:
64,192,102292,1,0,0:0:0:0:
448,192,102292,1,0,0:0:0:0:
320,192,102377,1,0,0:0:0:0:
64,192,102463,1,0,0:0:0:33:1.wav
192,192,102463,1,0,0:0:0:50:2.wav
448,192,102463,1,0,0:0:0:0:
320,192,102548,1,0,0:0:0:0:
64,192,102633,1,0,0:0:0:0:
192,192,102633,1,0,0:0:0:0:
320,192,102718,1,0,0:0:0:0:
192,192,102804,1,0,0:0:0:66:1.wav
448,192,102804,1,0,0:0:0:0:
320,192,102974,1,0,0:0:0:0:
448,192,102974,1,0,0:0:0:0:
64,192,103145,1,0,0:0:0:33:1.wav
192,192,103145,1,0,0:0:0:50:2.wav
320,192,103145,1,0,0:0:0:0:
64,192,103315,1,0,0:0:0:0:
448,192,103315,1,0,0:0:0:0:
192,192,103400,1,0,0:0:0:0:
320,192,103400,1,0,0:0:0:0:
64,192,103485,1,0,0:0:0:66:1.wav
448,192,103485,1,0,0:0:0:0:
192,192,103656,1,0,0:0:0:0:
320,192,103656,1,0,0:0:0:0:
448,192,103741,1,0,0:0:0:0:
64,192,103826,1,0,0:0:0:33:1.wav
192,192,103826,1,0,0:0:0:50:2.wav
320,192,103826,1,0,0:0:0:0:
448,192,103912,1,0,0:0:0:0:
64,192,103997,1,0,0:0:0:0:
192,192,103997,1,0,0:0:0:0:
320,192,104082,1,0,0:0:0:0:
64,192,104167,1,0,0:0:0:66:1.wav
448,192,104167,1,0,0:0:0:0:
192,192,104338,1,0,0:0:0:0:
448,192,104338,1,0,0:0:0:0:
64,192,104508,1,0,0:0:0:33:1.wav
192,192,104508,1,0,0:0:0:50:2.wav
320,192,104508,1,0,0:0:0:0:
320,192,104679,1,0,0:0:0:0:
448,192,104679,1,0,0:0:0:0:
64,192,104764,1,0,0:0:0:0:
192,192,104764,1,0,0:0:0:0:
320,192,104849,1,0,0:0:0:66:1.wav
448,192,104849,1,0,0:0:0:0:
64,192,105020,1,0,0:0:0:0:
192,192,105020,1,0,0:0:0:0:
320,192,105105,1,0,0:0:0:0:
64,192,105190,1,0,0:0:0:22:1.wav
192,192,105190,1,0,0:0:0:50:2.wav
448,192,105190,1,0,0:0:0:100:4.wav
320,192,105360,1,0,0:0:0:33:1.wav
448,192,105360,1,0,0:0:0:100:4.wav
192,192,105446,1,0,0:0:0:33:1.wav
64,192,105531,1,0,0:0:0:22:1.wav
320,192,105531,1,0,0:0:0:22:3.wav
448,192,105531,1,0,0:0:0:100:4.wav
192,192,105701,1,0,0:0:0:0:
320,192,105701,1,0,0:0:0:0:
64,192,105872,1,0,0:0:0:22:1.wav
192,192,105872,1,0,0:0:0:50:2.wav
448,192,105872,1,0,0:0:0:100:4.wav
320,192,106042,1,0,0:0:0:0:
448,192,106042,1,0,0:0:0:0:
192,192,106127,1,0,0:0:0:0:
64,192,106213,1,0,0:0:0:33:1.wav
320,192,106213,1,0,0:0:0:100:4.wav
448,192,106213,1,0,0:0:0:0:
64,192,106383,1,0,0:0:0:0:
192,192,106383,1,0,0:0:0:0:
192,192,106554,1,0,0:0:0:22:1.wav
320,192,106554,1,0,0:0:0:50:2.wav
448,192,106554,1,0,0:0:0:100:4.wav
64,192,106724,1,0,0:0:0:0:
448,192,106724,1,0,0:0:0:0:
320,192,106809,1,0,0:0:0:0:
64,192,106895,1,0,0:0:0:22:1.wav
192,192,106895,1,0,0:0:0:22:3.wav
448,192,106895,1,0,0:0:0:100:4.wav
192,192,107065,1,0,0:0:0:0:
320,192,107065,1,0,0:0:0:0:
64,192,107235,1,0,0:0:0:22:1.wav
320,192,107235,1,0,0:0:0:50:2.wav
448,192,107235,1,0,0:0:0:100:4.wav
192,192,107406,1,0,0:0:0:0:
448,192,107406,1,0,0:0:0:0:
64,192,107491,1,0,0:0:0:0:
192,192,107576,1,0,0:0:0:33:1.wav
320,192,107576,1,0,0:0:0:100:4.wav
448,192,107576,1,0,0:0:0:0:
64,192,107747,1,0,0:0:0:0:
320,192,107747,1,0,0:0:0:0:
64,192,107917,1,0,0:0:0:22:1.wav
192,192,107917,1,0,0:0:0:50:2.wav
448,192,107917,1,0,0:0:0:100:4.wav
320,192,108002,1,0,0:0:0:0:
192,192,108088,1,0,0:0:0:0:
448,192,108088,1,0,0:0:0:0:
64,192,108258,1,0,0:0:0:22:1.wav
320,192,108258,1,0,0:0:0:22:3.wav
448,192,108258,1,0,0:0:0:100:4.wav
64,192,108429,1,0,0:0:0:33:1.wav
192,192,108429,1,0,0:0:0:100:4.wav
320,192,108429,1,0,0:0:0:0:
192,192,108599,1,0,0:0:0:22:1.wav
320,192,108599,1,0,0:0:0:50:2.wav
448,192,108599,1,0,0:0:0:100:4.wav
64,192,108770,1,0,0:0:0:33:1.wav
448,192,108770,1,0,0:0:0:100:4.wav
320,192,108855,1,0,0:0:0:0:
64,192,108940,1,0,0:0:0:22:1.wav
192,192,108940,1,0,0:0:0:22:3.wav
448,192,108940,1,0,0:0:0:100:4.wav
64,192,109110,1,0,0:0:0:33:1.wav
192,192,109110,1,0,0:0:0:100:4.wav
320,192,109110,1,0,0:0:0:0:
192,192,109281,1,0,0:0:0:22:1.wav
320,192,109281,1,0,0:0:0:50:2.wav
448,192,109281,1,0,0:0:0:100:4.wav
64,192,109451,1,0,0:0:0:33:1.wav
448,192,109451,1,0,0:0:0:100:4.wav
320,192,109537,1,0,0:0:0:0:
64,192,109622,1,0,0:0:0:22:1.wav
192,192,109622,1,0,0:0:0:22:3.wav
320,192,109707,1,0,0:0:0:33:1.wav
448,192,109707,1,0,0:0:0:100:4.wav
64,192,109792,1,0,0:0:0:33:1.wav
192,192,109792,1,0,0:0:0:100:4.wav
320,192,109877,1,0,0:0:0:33:1.wav
448,192,109877,1,0,0:0:0:100:4.wav
64,192,109963,1,0,0:0:0:22:1.wav
192,192,109963,1,0,0:0:0:50:2.wav
320,192,110048,1,0,0:0:0:33:1.wav
448,192,110048,1,0,0:0:0:100:4.wav
64,192,110133,1,0,0:0:0:33:1.wav
192,192,110133,1,0,0:0:0:100:4.wav
320,192,110218,1,0,0:0:0:33:1.wav
448,192,110218,1,0,0:0:0:100:4.wav
64,192,110304,1,0,0:0:0:33:1.wav
192,192,110304,1,0,0:0:0:100:4.wav
320,192,110389,1,0,0:0:0:33:1.wav
448,192,110389,1,0,0:0:0:100:4.wav
64,192,110474,1,0,0:0:0:33:1.wav
192,192,110517,1,0,0:0:0:100:4.wav
320,192,110559,1,0,0:0:0:33:1.wav
448,192,110559,1,0,0:0:0:100:4.wav
64,192,110645,1,0,0:0:0:22:1.wav
192,192,110645,1,0,0:0:0:50:2.wav
448,192,110687,1,0,0:0:0:100:4.wav
320,192,110730,1,0,0:0:0:33:1.wav
192,192,110772,1,0,0:0:0:100:4.wav
64,192,110815,1,0,0:0:0:33:1.wav
448,192,110858,1,0,0:0:0:100:4.wav
320,192,110900,1,0,0:0:0:33:1.wav
192,192,110943,1,0,0:0:0:100:4.wav
64,192,110985,1,0,0:0:0:22:1.wav
320,192,110985,1,0,0:0:0:22:3.wav
448,192,110985,1,0,0:0:0:100:4.wav
192,192,111156,1,0,0:0:0:0:
64,192,111326,1,0,0:0:0:33:1.wav
192,192,111326,1,0,0:0:0:50:2.wav
320,192,111326,1,0,0:0:0:0:
448,192,111497,1,0,0:0:0:0:
64,192,111582,1,0,0:0:0:0:
192,192,111582,1,0,0:0:0:0:
320,192,111667,1,0,0:0:0:66:1.wav
448,192,111667,1,0,0:0:0:0:
64,192,111838,1,0,0:0:0:0:
320,192,111838,1,0,0:0:0:0:
64,192,112008,1,0,0:0:0:33:1.wav
192,192,112008,1,0,0:0:0:50:2.wav
448,192,112008,1,0,0:0:0:0:
320,192,112179,1,0,0:0:0:0:
448,192,112179,1,0,0:0:0:0:
64,192,112349,1,0,0:0:0:66:1.wav
192,192,112349,1,0,0:0:0:0:
320,192,112349,1,0,0:0:0:0:
192,192,112520,1,0,0:0:0:0:
448,192,112520,1,0,0:0:0:0:
64,192,112690,1,0,0:0:0:33:1.wav
320,192,112690,1,0,0:0:0:50:2.wav
448,192,112690,1,0,0:0:0:0:
192,192,112860,1,0,0:0:0:0:
320,192,112946,1,0,0:0:0:0:
448,192,112946,1,0,0:0:0:0:
64,192,113031,1,0,0:0:0:66:1.wav
192,192,113031,1,0,0:0:0:0:
64,192,113201,1,0,0:0:0:0:
320,192,113201,1,0,0:0:0:0:
192,192,113372,1,0,0:0:0:33:1.wav
320,192,113372,1,0,0:0:0:50:2.wav
448,192,113372,1,0,0:0:0:0:
64,192,113542,1,0,0:0:0:0:
448,192,113542,1,0,0:0:0:0:
64,192,113713,1,0,0:0:0:66:1.wav
192,192,113713,1,0,0:0:0:0:
320,192,113713,1,0,0:0:0:0:
320,192,113883,1,0,0:0:0:0:
448,192,113883,1,0,0:0:0:0:
64,192,114054,1,0,0:0:0:33:1.wav
192,192,114054,1,0,0:0:0:50:2.wav
448,192,114054,1,0,0:0:0:0:
320,192,114224,1,0,0:0:0:0:
64,192,114309,1,0,0:0:0:0:
448,192,114309,1,0,0:0:0:0:
192,192,114395,1,0,0:0:0:66:1.wav
320,192,114395,1,0,0:0:0:0:
64,192,114565,1,0,0:0:0:0:
192,192,114565,1,0,0:0:0:0:
64,192,114735,1,0,0:0:0:33:1.wav
320,192,114735,1,0,0:0:0:50:2.wav
448,192,114735,1,0,0:0:0:0:
192,192,114906,1,0,0:0:0:0:
448,192,114906,1,0,0:0:0:0:
64,192,115076,1,0,0:0:0:66:1.wav
192,192,115076,1,0,0:0:0:0:
320,192,115076,1,0,0:0:0:0:
448,192,115247,1,0,0:0:0:0:
192,192,115417,1,0,0:0:0:33:1.wav
320,192,115417,1,0,0:0:0:50:2.wav
448,192,115417,1,0,0:0:0:0:
64,192,115588,1,0,0:0:0:0:
192,192,115673,1,0,0:0:0:0:
320,192,115673,1,0,0:0:0:0:
64,192,115758,1,0,0:0:0:66:1.wav
448,192,115758,1,0,0:0:0:0:
320,192,115929,1,0,0:0:0:0:
448,192,115929,1,0,0:0:0:0:
64,192,116099,1,0,0:0:0:33:1.wav
192,192,116099,1,0,0:0:0:50:2.wav
320,192,116099,1,0,0:0:0:0:
64,192,116270,1,0,0:0:0:66:1.wav
192,192,116270,1,0,0:0:0:0:
64,192,116440,1,0,0:0:0:66:1.wav
320,192,116440,1,0,0:0:0:0:
448,192,116440,1,0,0:0:0:0:
192,192,116610,1,0,0:0:0:0:
64,192,116781,1,0,0:0:0:33:1.wav
192,192,116781,1,0,0:0:0:50:2.wav
320,192,116781,1,0,0:0:0:0:
448,192,116951,1,0,0:0:0:0:
64,192,117037,1,0,0:0:0:0:
192,192,117037,1,0,0:0:0:0:
320,192,117122,1,0,0:0:0:66:1.wav
448,192,117122,1,0,0:0:0:0:
64,192,117292,1,0,0:0:0:0:
320,192,117292,1,0,0:0:0:0:
64,192,117463,1,0,0:0:0:33:1.wav
192,192,117463,1,0,0:0:0:50:2.wav
448,192,117463,1,0,0:0:0:0:
320,192,117633,1,0,0:0:0:0:
448,192,117633,1,0,0:0:0:0:
64,192,117804,1,0,0:0:0:66:1.wav
192,192,117804,1,0,0:0:0:0:
320,192,117804,1,0,0:0:0:0:
64,192,117974,1,0,0:0:0:0:
448,192,117974,1,0,0:0:0:0:
192,192,118145,1,0,0:0:0:33:1.wav
320,192,118145,1,0,0:0:0:50:2.wav
448,192,118145,1,0,0:0:0:0:
64,192,118315,1,0,0:0:0:0:
320,192,118315,1,0,0:0:0:0:
64,192,118485,1,0,0:0:0:66:1.wav
192,192,118485,1,0,0:0:0:0:
448,192,118485,1,0,0:0:0:0:
192,192,118656,1,0,0:0:0:0:
320,192,118656,1,0,0:0:0:0:
64,192,118826,1,0,0:0:0:33:1.wav
320,192,118826,1,0,0:0:0:50:2.wav
448,192,118826,1,0,0:0:0:0:
64,192,118997,1,0,0:0:0:0:
192,192,118997,1,0,0:0:0:0:
192,192,119167,1,0,0:0:0:66:1.wav
320,192,119167,1,0,0:0:0:0:
448,192,119167,1,0,0:0:0:0:
64,192,119338,1,0,0:0:0:0:
64,192,119508,1,0,0:0:0:33:1.wav
320,192,119508,1,0,0:0:0:50:2.wav
448,192,119508,1,0,0:0:0:0:
192,192,119679,1,0,0:0:0:0:
320,192,119764,1,0,0:0:0:0:
448,192,119764,1,0,0:0:0:0:
64,192,119849,1,0,0:0:0:66:1.wav
192,192,119849,1,0,0:0:0:0:
64,192,120020,1,0,0:0:0:0:
320,192,120020,1,0,0:0:0:0:
192,192,120190,1,0,0:0:0:33:1.wav
320,192,120190,1,0,0:0:0:50:2.wav
448,192,120190,1,0,0:0:0:0:
64,192,120360,1,0,0:0:0:0:
192,192,120360,1,0,0:0:0:0:
64,192,120531,1,0,0:0:0:66:1.wav
320,192,120531,1,0,0:0:0:0:
448,192,120531,1,0,0:0:0:0:
192,192,120701,1,0,0:0:0:0:
64,192,120872,1,0,0:0:0:33:1.wav
192,192,120872,1,0,0:0:0:50:2.wav
448,192,120872,1,0,0:0:0:0:
320,192,121042,1,0,0:0:0:66:1.wav
448,192,121042,1,0,0:0:0:0:
192,192,121127,1,0,0:0:0:0:
64,192,121213,1,0,0:0:0:66:1.wav
448,192,121213,1,0,0:0:0:0:
192,192,121298,1,0,0:0:0:66:1.wav
320,192,121298,1,0,0:0:0:0:
448,192,121383,1,0,0:0:0:0:
64,192,121468,1,0,0:0:0:66:1.wav
192,192,121468,1,0,0:0:0:0:
320,192,121554,128,0,121724:0:0:0:33:1.wav
448,192,121554,128,0,121724:0:0:0:50:2.wav
64,192,121724,1,0,0:0:0:66:1.wav
192,192,121724,1,0,0:0:0:0:
64,192,121895,1,0,0:0:0:33:1.wav
192,192,121895,1,0,0:0:0:33:3.wav
448,192,121895,1,0,0:0:0:0:
320,192,122065,1,0,0:0:0:0:
64,192,122235,1,0,0:0:0:33:1.wav
192,192,122235,1,0,0:0:0:50:2.wav
320,192,122235,1,0,0:0:0:0:
448,192,122406,1,0,0:0:0:0:
192,192,122491,1,0,0:0:0:0:
320,192,122491,1,0,0:0:0:0:
64,192,122576,1,0,0:0:0:66:1.wav
448,192,122576,1,0,0:0:0:0:
64,192,122747,1,0,0:0:0:0:
192,192,122747,1,0,0:0:0:0:
192,192,122917,1,0,0:0:0:33:1.wav
320,192,122917,1,0,0:0:0:50:2.wav
448,192,122917,1,0,0:0:0:0:
64,192,123088,1,0,0:0:0:0:
320,192,123088,1,0,0:0:0:0:
64,192,123258,1,0,0:0:0:66:1.wav
192,192,123258,1,0,0:0:0:0:
448,192,123258,1,0,0:0:0:0:
320,192,123429,1,0,0:0:0:0:
448,192,123429,1,0,0:0:0:0:
64,192,123599,1,0,0:0:0:33:1.wav
192,192,123599,1,0,0:0:0:50:2.wav
320,192,123599,1,0,0:0:0:0:
448,192,123770,1,0,0:0:0:0:
64,192,123855,1,0,0:0:0:0:
192,192,123855,1,0,0:0:0:0:
320,192,123940,1,0,0:0:0:66:1.wav
448,192,123940,1,0,0:0:0:0:
64,192,124110,1,0,0:0:0:0:
320,192,124110,1,0,0:0:0:0:
64,192,124281,1,0,0:0:0:33:1.wav
192,192,124281,1,0,0:0:0:50:2.wav
448,192,124281,1,0,0:0:0:0:
320,192,124451,1,0,0:0:0:0:
448,192,124451,1,0,0:0:0:0:
64,192,124622,1,0,0:0:0:66:1.wav
192,192,124622,1,0,0:0:0:0:
320,192,124622,1,0,0:0:0:0:
448,192,124792,1,0,0:0:0:0:
64,192,124963,1,0,0:0:0:33:1.wav
192,192,124963,1,0,0:0:0:50:2.wav
448,192,124963,1,0,0:0:0:0:
320,192,125133,1,0,0:0:0:0:
64,192,125218,1,0,0:0:0:0:
448,192,125218,1,0,0:0:0:0:
192,192,125304,1,0,0:0:0:66:1.wav
320,192,125304,1,0,0:0:0:0:
192,192,125474,1,0,0:0:0:0:
448,192,125474,1,0,0:0:0:0:
64,192,125645,1,0,0:0:0:33:1.wav
320,192,125645,1,0,0:0:0:50:2.wav
448,192,125645,1,0,0:0:0:0:
64,192,125815,1,0,0:0:0:0:
192,192,125815,1,0,0:0:0:0:
192,192,125985,1,0,0:0:0:66:1.wav
320,192,125985,1,0,0:0:0:0:
448,192,125985,1,0,0:0:0:0:
64,192,126156,1,0,0:0:0:0:
64,192,126326,1,0,0:0:0:33:1.wav
320,192,126326,1,0,0:0:0:50:2.wav
448,192,126326,1,0,0:0:0:0:
192,192,126497,1,0,0:0:0:0:
320,192,126582,1,0,0:0:0:0:
448,192,126582,1,0,0:0:0:0:
64,192,126667,1,0,0:0:0:66:1.wav
192,192,126667,1,0,0:0:0:0:
64,192,126838,1,0,0:0:0:0:
320,192,126838,1,0,0:0:0:0:
192,192,127008,1,0,0:0:0:22:1.wav
320,192,127008,1,0,0:0:0:50:2.wav
448,192,127008,1,0,0:0:0:100:4.wav
64,192,127179,1,0,0:0:0:33:1.wav
192,192,127179,1,0,0:0:0:100:4.wav
320,192,127264,1,0,0:0:0:33:1.wav
64,192,127349,1,0,0:0:0:22:1.wav
192,192,127349,1,0,0:0:0:22:3.wav
448,192,127349,1,0,0:0:0:100:4.wav
448,192,127520,1,0,0:0:0:0:
64,192,127690,1,0,0:0:0:22:1.wav
192,192,127690,1,0,0:0:0:50:2.wav
320,192,127690,1,0,0:0:0:100:4.wav
448,192,127860,1,0,0:0:0:0:
192,192,127946,1,0,0:0:0:0:
320,192,127946,1,0,0:0:0:0:
64,192,128031,1,0,0:0:0:33:1.wav
448,192,128031,1,0,0:0:0:100:4.wav
64,192,128201,1,0,0:0:0:0:
192,192,128201,1,0,0:0:0:0:
192,192,128372,1,0,0:0:0:22:1.wav
320,192,128372,1,0,0:0:0:50:2.wav
448,192,128372,1,0,0:0:0:100:4.wav
64,192,128542,1,0,0:0:0:0:
320,192,128542,1,0,0:0:0:0:
64,192,128713,1,0,0:0:0:22:1.wav
192,192,128713,1,0,0:0:0:22:3.wav
448,192,128713,1,0,0:0:0:100:4.wav
192,192,128883,1,0,0:0:0:0:
320,192,128883,1,0,0:0:0:0:
64,192,129054,1,0,0:0:0:22:1.wav
320,192,129054,1,0,0:0:0:50:2.wav
448,192,129054,1,0,0:0:0:100:4.wav
192,192,129224,1,0,0:0:0:0:
448,192,129224,1,0,0:0:0:0:
64,192,129395,1,0,0:0:0:33:1.wav
192,192,129395,1,0,0:0:0:100:4.wav
320,192,129395,1,0,0:0:0:0:
320,192,129565,1,0,0:0:0:0:
448,192,129565,1,0,0:0:0:0:
64,192,129735,1,0,0:0:0:22:1.wav
192,192,129735,1,0,0:0:0:50:2.wav
448,192,129735,1,0,0:0:0:100:4.wav
192,192,129906,1,0,0:0:0:0:
320,192,129906,1,0,0:0:0:0:
64,192,130076,1,0,0:0:0:22:1.wav
320,192,130076,1,0,0:0:0:22:3.wav
448,192,130076,1,0,0:0:0:100:4.wav
64,192,130247,1,0,0:0:0:33:1.wav
192,192,130247,1,0,0:0:0:100:4.wav
192,192,130417,1,0,0:0:0:22:1.wav
320,192,130417,1,0,0:0:0:50:2.wav
448,192,130417,1,0,0:0:0:100:4.wav
64,192,130588,1,0,0:0:0:33:1.wav
448,192,130588,1,0,0:0:0:100:4.wav
192,192,130673,1,0,0:0:0:0:
64,192,130758,1,0,0:0:0:22:1.wav
320,192,130758,1,0,0:0:0:22:3.wav
448,192,130758,1,0,0:0:0:100:4.wav
192,192,130929,1,0,0:0:0:33:1.wav
320,192,130929,1,0,0:0:0:100:4.wav
64,192,131099,1,0,0:0:0:22:1.wav
192,192,131099,1,0,0:0:0:50:2.wav
448,192,131099,1,0,0:0:0:100:4.wav
64,192,131270,1,0,0:0:0:33:1.wav
320,192,131270,1,0,0:0:0:100:4.wav
192,192,131355,1,0,0:0:0:0:
320,192,131440,1,0,0:0:0:22:1.wav
448,192,131440,1,0,0:0:0:22:3.wav
64,192,131525,1,0,0:0:0:33:1.wav
192,192,131525,1,0,0:0:0:100:4.wav
320,192,131610,1,0,0:0:0:33:1.wav
448,192,131610,1,0,0:0:0:100:4.wav
64,192,131696,1,0,0:0:0:33:1.wav
192,192,131696,1,0,0:0:0:100:4.wav
320,192,131781,1,0,0:0:0:22:1.wav
448,192,131781,1,0,0:0:0:50:2.wav
64,192,131866,1,0,0:0:0:33:1.wav
192,192,131866,1,0,0:0:0:100:4.wav
320,192,131951,1,0,0:0:0:33:1.wav
448,192,131951,1,0,0:0:0:100:4.wav
64,192,132037,1,0,0:0:0:33:1.wav
192,192,132037,1,0,0:0:0:100:4.wav
320,192,132122,1,0,0:0:0:33:1.wav
448,192,132122,1,0,0:0:0:100:4.wav
64,192,132207,1,0,0:0:0:33:1.wav
192,192,132207,1,0,0:0:0:100:4.wav
448,192,132292,1,0,0:0:0:33:1.wav
320,192,132335,1,0,0:0:0:100:4.wav
64,192,132377,1,0,0:0:0:33:1.wav
192,192,132377,1,0,0:0:0:100:4.wav
320,192,132463,1,0,0:0:0:22:1.wav
448,192,132463,1,0,0:0:0:50:2.wav
64,192,132505,1,0,0:0:0:100:4.wav
192,192,132548,1,0,0:0:0:33:1.wav
320,192,132591,1,0,0:0:0:100:4.wav
448,192,132633,1,0,0:0:0:33:1.wav
64,192,132676,1,0,0:0:0:100:4.wav
192,192,132718,1,0,0:0:0:33:1.wav
320,192,132761,1,0,0:0:0:100:4.wav
64,192,132804,1,0,0:0:0:22:1.wav
192,192,132804,1,0,0:0:0:22:3.wav
448,192,132804,1,0,0:0:0:100:4.wav
448,192,132974,128,0,133145:0:0:0:0:
64,192,133145,1,0,0:0:0:0:
448,192,133315,128,0,133485:0:0:0:0:
64,192,133485,1,0,0:0:0:0:
448,192,133656,128,0,133826:0:0:0:0:
64,192,133826,1,0,0:0:0:0:
448,192,133997,128,0,134167:0:0:0:0:
64,192,134167,1,0,0:0:0:0:
448,192,134338,128,0,134508:0:0:0:0:
64,192,134508,1,0,0:0:0:0:
448,192,134679,128,0,134849:0:0:0:0:
64,192,134849,1,0,0:0:0:0:
192,192,135020,1,0,0:0:0:66:1.wav
320,192,135020,1,0,0:0:0:0:
64,192,135190,1,0,0:0:0:33:1.wav
320,192,135190,1,0,0:0:0:50:2.wav
448,192,135190,1,0,0:0:0:0:
64,192,135531,1,0,0:0:0:33:1.wav
192,192,135531,1,0,0:0:0:33:3.wav
448,192,135531,1,0,0:0:0:0:
64,192,135701,128,0,135872:0:0:0:0:
192,192,135872,1,0,0:0:0:33:1.wav
320,192,135872,1,0,0:0:0:50:2.wav
448,192,135872,1,0,0:0:0:0:
192,192,136042,128,0,136213:0:0:0:0:
64,192,136213,1,0,0:0:0:66:1.wav
320,192,136213,1,0,0:0:0:0:
448,192,136383,128,0,136554:0:0:0:0:
64,192,136554,1,0,0:0:0:33:1.wav
192,192,136554,1,0,0:0:0:50:2.wav
320,192,136554,1,0,0:0:0:0:
320,192,136724,128,0,136895:0:0:0:0:
64,192,136895,1,0,0:0:0:66:1.wav
448,192,136895,1,0,0:0:0:0:
192,192,137065,128,0,137235:0:0:0:0:
64,192,137235,1,0,0:0:0:33:1.wav
320,192,137235,1,0,0:0:0:50:2.wav
448,192,137235,1,0,0:0:0:0:
64,192,137406,128,0,137576:0:0:0:0:
192,192,137576,1,0,0:0:0:66:1.wav
448,192,137576,1,0,0:0:0:0:
320,192,137747,128,0,137917:0:0:0:0:
64,192,137917,1,0,0:0:0:33:1.wav
192,192,137917,1,0,0:0:0:50:2.wav
448,192,137917,1,0,0:0:0:0:
320,192,138088,1,0,0:0:0:66:1.wav
448,192,138088,128,0,138258:0:0:0:0:
64,192,138258,1,0,0:0:0:66:1.wav
192,192,138258,1,0,0:0:0:0:
320,192,138429,128,0,138599:0:0:0:0:
64,192,138599,1,0,0:0:0:33:1.wav
192,192,138599,1,0,0:0:0:50:2.wav
448,192,138599,1,0,0:0:0:0:
192,192,138770,128,0,138940:0:0:0:0:
64,192,138940,1,0,0:0:0:66:1.wav
320,192,138940,1,0,0:0:0:0:
448,192,139110,128,0,139281:0:0:0:0:
64,192,139281,1,0,0:0:0:33:1.wav
192,192,139281,1,0,0:0:0:50:2.wav
320,192,139281,1,0,0:0:0:0:
64,192,139451,128,0,139622:0:0:0:0:
320,192,139622,1,0,0:0:0:66:1.wav
448,192,139622,1,0,0:0:0:0:
192,192,139792,128,0,139963:0:0:0:0:
64,192,139963,1,0,0:0:0:33:1.wav
320,192,139963,1,0,0:0:0:50:2.wav
448,192,139963,1,0,0:0:0:0:
320,192,140133,128,0,140304:0:0:0:0:
64,192,140304,1,0,0:0:0:66:1.wav
192,192,140304,1,0,0:0:0:0:
64,192,140474,128,0,140645:0:0:0:0:
192,192,140645,1,0,0:0:0:33:1.wav
320,192,140645,1,0,0:0:0:50:2.wav
448,192,140645,1,0,0:0:0:0:
448,192,140815,128,0,140985:0:0:0:0:
64,192,140985,1,0,0:0:0:66:1.wav
320,192,140985,1,0,0:0:0:0:
192,192,141156,128,0,141326:0:0:0:0:
64,192,141326,1,0,0:0:0:33:1.wav
320,192,141326,1,0,0:0:0:50:2.wav
448,192,141326,1,0,0:0:0:0:
448,192,141497,128,0,141667:0:0:0:0:
192,192,141667,1,0,0:0:0:66:1.wav
320,192,141667,1,0,0:0:0:0:
64,192,141838,128,0,142008:0:0:0:0:
192,192,142008,1,0,0:0:0:33:1.wav
320,192,142008,1,0,0:0:0:50:2.wav
448,192,142008,1,0,0:0:0:0:
320,192,142179,128,0,142349:0:0:0:0:
64,192,142349,1,0,0:0:0:66:1.wav
192,192,142349,1,0,0:0:0:0:
448,192,142520,128,0,142690:0:0:0:0:
64,192,142690,1,0,0:0:0:33:1.wav
192,192,142690,1,0,0:0:0:50:2.wav
320,192,142690,1,0,0:0:0:0:
192,192,142860,128,0,143031:0:0:0:0:
320,192,143031,1,0,0:0:0:66:1.wav
448,192,143031,1,0,0:0:0:0:
64,192,143116,1,0,0:0:0:66:1.wav
192,192,143116,1,0,0:0:0:0:
448,192,143201,1,0,0:0:0:0:
192,192,143287,1,0,0:0:0:66:1.wav
320,192,143287,1,0,0:0:0:0:
64,192,143372,128,0,143542:0:0:0:33:1.wav
448,192,143372,128,0,143542:0:0:0:50:2.wav
192,192,143542,1,0,0:0:0:66:1.wav
320,192,143542,1,0,0:0:0:0:
64,192,143713,1,0,0:0:0:33:1.wav
320,192,143713,1,0,0:0:0:33:3.wav
448,192,143713,1,0,0:0:0:0:
192,192,143798,1,0,0:0:0:0:
448,192,143883,1,0,0:0:0:0:
320,192,143968,1,0,0:0:0:0:
64,192,144054,1,0,0:0:0:33:1.wav
192,192,144054,1,0,0:0:0:50:2.wav
448,192,144054,1,0,0:0:0:0:
320,192,144139,1,0,0:0:0:0:
64,192,144224,1,0,0:0:0:0:
192,192,144309,1,0,0:0:0:0:
320,192,144395,1,0,0:0:0:66:1.wav
448,192,144395,1,0,0:0:0:0:
192,192,144480,1,0,0:0:0:0:
64,192,144565,1,0,0:0:0:0:
448,192,144650,1,0,0:0:0:0:
64,192,144735,1,0,0:0:0:33:1.wav
192,192,144735,1,0,0:0:0:50:2.wav
320,192,144735,1,0,0:0:0:0:
448,192,144821,1,0,0:0:0:0:
320,192,144906,1,0,0:0:0:0:
64,192,144991,1,0,0:0:0:0:
192,192,145076,1,0,0:0:0:66:1.wav
448,192,145076,1,0,0:0:0:0:
320,192,145162,1,0,0:0:0:0:
64,192,145247,1,0,0:0:0:0:
448,192,145332,1,0,0:0:0:0:
64,192,145417,1,0,0:0:0:33:1.wav
192,192,145417,1,0,0:0:0:50:2.wav
320,192,145417,1,0,0:0:0:0:
448,192,145502,1,0,0:0:0:0:
192,192,145588,1,0,0:0:0:0:
320,192,145673,1,0,0:0:0:0:
64,192,145758,1,0,0:0:0:66:1.wav
448,192,145758,1,0,0:0:0:0:
192,192,145843,1,0,0:0:0:0:
320,192,145929,1,0,0:0:0:0:
64,192,146014,1,0,0:0:0:0:
192,192,146099,1,0,0:0:0:33:1.wav
320,192,146099,1,0,0:0:0:50:2.wav
448,192,146099,1,0,0:0:0:0:
64,192,146184,1,0,0:0:0:0:
448,192,146270,1,0,0:0:0:0:
192,192,146355,1,0,0:0:0:0:
64,192,146440,1,0,0:0:0:66:1.wav
320,192,146440,1,0,0:0:0:0:
448,192,146525,1,0,0:0:0:0:
192,192,146610,1,0,0:0:0:0:
64,192,146696,1,0,0:0:0:0:
192,192,146781,1,0,0:0:0:33:1.wav
320,192,146781,1,0,0:0:0:50:2.wav
448,192,146781,1,0,0:0:0:0:
64,192,146866,1,0,0:0:0:0:
320,192,146951,1,0,0:0:0:0:
448,192,147037,1,0,0:0:0:0:
64,192,147122,1,0,0:0:0:66:1.wav
192,192,147122,1,0,0:0:0:0:
448,192,147207,1,0,0:0:0:0:
320,192,147292,1,0,0:0:0:0:
192,192,147377,1,0,0:0:0:0:
64,192,147463,1,0,0:0:0:33:1.wav
320,192,147463,1,0,0:0:0:50:2.wav
448,192,147463,1,0,0:0:0:0:
192,192,147548,1,0,0:0:0:0:
64,192,147633,1,0,0:0:0:0:
320,192,147718,1,0,0:0:0:0:
192,192,147804,1,0,0:0:0:66:1.wav
448,192,147804,1,0,0:0:0:0:
320,192,147889,1,0,0:0:0:0:
64,192,147974,1,0,0:0:0:0:
448,192,148059,1,0,0:0:0:0:
64,192,148145,1,0,0:0:0:33:1.wav
192,192,148145,1,0,0:0:0:50:2.wav
320,192,148145,1,0,0:0:0:0:
448,192,148230,1,0,0:0:0:0:
320,192,148315,1,0,0:0:0:0:
192,192,148400,1,0,0:0:0:0:
64,192,148485,1,0,0:0:0:66:1.wav
448,192,148485,1,0,0:0:0:0:
320,192,148571,1,0,0:0:0:0:
192,192,148656,1,0,0:0:0:0:
64,192,148741,1,0,0:0:0:0:
192,192,148826,1,0,0:0:0:22:1.wav
320,192,148826,1,0,0:0:0:50:2.wav
448,192,148826,1,0,0:0:0:100:4.wav
64,192,148912,1,0,0:0:0:0:
320,192,148997,1,0,0:0:0:33:1.wav
448,192,148997,1,0,0:0:0:100:4.wav
192,192,149082,1,0,0:0:0:33:1.wav
64,192,149167,1,0,0:0:0:22:1.wav
320,192,149167,1,0,0:0:0:22:3.wav
448,192,149167,1,0,0:0:0:100:4.wav
192,192,149252,1,0,0:0:0:0:
448,192,149338,1,0,0:0:0:0:
320,192,149423,1,0,0:0:0:0:
64,192,149508,1,0,0:0:0:22:1.wav
192,192,149508,1,0,0:0:0:50:2.wav
448,192,149508,1,0,0:0:0:100:4.wav
320,192,149593,1,0,0:0:0:0:
192,192,149679,1,0,0:0:0:0:
64,192,149764,1,0,0:0:0:0:
192,192,149849,1,0,0:0:0:33:1.wav
320,192,149849,1,0,0:0:0:100:4.wav
448,192,149849,1,0,0:0:0:0:
64,192,149934,1,0,0:0:0:0:
320,192,150020,1,0,0:0:0:0:
192,192,150105,1,0,0:0:0:0:
64,192,150190,1,0,0:0:0:22:1.wav
320,192,150190,1,0,0:0:0:50:2.wav
448,192,150190,1,0,0:0:0:100:4.wav
192,192,150275,1,0,0:0:0:0:
64,192,150360,1,0,0:0:0:0:
320,192,150446,1,0,0:0:0:0:
64,192,150531,1,0,0:0:0:22:1.wav
192,192,150531,1,0,0:0:0:22:3.wav
448,192,150531,1,0,0:0:0:100:4.wav
320,192,150616,1,0,0:0:0:0:
448,192,150701,1,0,0:0:0:0:
192,192,150787,1,0,0:0:0:0:
64,192,150872,1,0,0:0:0:22:1.wav
320,192,150872,1,0,0:0:0:50:2.wav
448,192,150872,1,0,0:0:0:100:4.wav
192,192,150957,1,0,0:0:0:0:
320,192,151042,1,0,0:0:0:0:
448,192,151127,1,0,0:0:0:0:
64,192,151213,1,0,0:0:0:33:1.wav
192,192,151213,1,0,0:0:0:100:4.wav
320,192,151213,1,0,0:0:0:0:
448,192,151298,1,0,0:0:0:0:
64,192,151383,1,0,0:0:0:0:
192,192,151468,1,0,0:0:0:0:
64,192,151554,1,0,0:0:0:22:1.wav
320,192,151554,1,0,0:0:0:50:2.wav
448,192,151554,1,0,0:0:0:100:4.wav
192,192,151639,1,0,0:0:0:0:
320,192,151724,1,0,0:0:0:0:
448,192,151724,1,0,0:0:0:0:
64,192,151809,1,0,0:0:0:0:
192,192,151895,1,0,0:0:0:22:1.wav
320,192,151895,1,0,0:0:0:22:3.wav
448,192,151895,1,0,0:0:0:100:4.wav
64,192,151980,1,0,0:0:0:0:
192,192,152065,1,0,0:0:0:100:4.wav
448,192,152065,1,0,0:0:0:0:
320,192,152150,1,0,0:0:0:0:
64,192,152235,1,0,0:0:0:22:1.wav
192,192,152235,1,0,0:0:0:50:2.wav
448,192,152235,1,0,0:0:0:100:4.wav
320,192,152321,1,0,0:0:0:0:
64,192,152406,1,0,0:0:0:33:1.wav
448,192,152406,1,0,0:0:0:100:4.wav
192,192,152491,1,0,0:0:0:0:
320,192,152576,1,0,0:0:0:33:1.wav
448,192,152576,1,0,0:0:0:100:4.wav
64,192,152662,1,0,0:0:0:33:1.wav
192,192,152662,1,0,0:0:0:100:4.wav
320,192,152747,1,0,0:0:0:0:
64,192,152832,1,0,0:0:0:33:1.wav
448,192,152832,1,0,0:0:0:100:4.wav
192,192,152917,1,0,0:0:0:22:1.wav
320,192,152917,1,0,0:0:0:50:2.wav
448,192,153002,1,0,0:0:0:100:4.wav
64,192,153088,1,0,0:0:0:33:1.wav
192,192,153130,1,0,0:0:0:100:4.wav
320,192,153173,1,0,0:0:0:100:4.wav
64,192,153258,1,0,0:0:0:22:1.wav
192,192,153258,1,0,0:0:0:22:3.wav
448,192,153258,1,0,0:0:0:100:4.wav
320,192,153429,1,0,0:0:0:0:
192,192,153471,1,0,0:0:0:0:
448,192,153599,1,0,0:0:0:0:
320,192,153642,1,0,0:0:0:0:
64,192,153770,1,0,0:0:0:0:
448,192,153770,1,0,0:0:0:0:
192,192,153812,1,0,0:0:0:0:
320,192,153940,1,0,0:0:0:0:
448,192,153940,1,0,0:0:0:0:
192,192,153983,1,0,0:0:0:0:
64,192,154110,1,0,0:0:0:0:
192,192,154153,1,0,0:0:0:0:
64,192,154281,1,0,0:0:0:0:
448,192,154281,1,0,0:0:0:0:
320,192,154323,1,0,0:0:0:0:
192,192,154451,1,0,0:0:0:0:
320,192,154494,128,0,154622:0:0:0:0:
64,192,154622,1,0,0:0:0:33:1.wav
192,192,154622,1,0,0:0:0:33:3.wav
448,192,154622,128,0,154707:0:0:0:0:
192,192,154792,1,0,0:0:0:0:
64,192,154963,1,0,0:0:0:33:1.wav
320,192,154963,1,0,0:0:0:50:2.wav
448,192,154963,1,0,0:0:0:0:
192,192,155133,1,0,0:0:0:0:
320,192,155218,1,0,0:0:0:0:
64,192,155304,1,0,0:0:0:0:
448,192,155304,1,0,0:0:0:0:
192,192,155389,1,0,0:0:0:0:
320,192,155474,1,0,0:0:0:66:1.wav
448,192,155474,1,0,0:0:0:0:
192,192,155559,1,0,0:0:0:0:
64,192,155645,1,0,0:0:0:33:1.wav
320,192,155645,1,0,0:0:0:50:2.wav
448,192,155645,1,0,0:0:0:0:
192,192,155730,1,0,0:0:0:0:
64,192,155815,1,0,0:0:0:0:
192,192,155985,1,0,0:0:0:66:1.wav
320,192,155985,1,0,0:0:0:0:
448,192,156156,1,0,0:0:0:0:
320,192,156241,1,0,0:0:0:0:
64,192,156326,1,0,0:0:0:33:1.wav
192,192,156326,1,0,0:0:0:50:2.wav
448,192,156326,1,0,0:0:0:0:
320,192,156497,1,0,0:0:0:0:
64,192,156582,1,0,0:0:0:0:
192,192,156667,1,0,0:0:0:0:
320,192,156667,1,0,0:0:0:0:
448,192,156752,1,0,0:0:0:0:
64,192,156838,1,0,0:0:0:66:1.wav
192,192,156838,1,0,0:0:0:0:
320,192,156923,1,0,0:0:0:0:
64,192,157008,1,0,0:0:0:33:1.wav
192,192,157008,1,0,0:0:0:50:2.wav
448,192,157008,1,0,0:0:0:0:
320,192,157093,1,0,0:0:0:0:
448,192,157179,1,0,0:0:0:0:
192,192,157349,128,0,157434:0:0:0:66:1.wav
320,192,157349,1,0,0:0:0:0:
64,192,157520,1,0,0:0:0:0:
320,192,157605,1,0,0:0:0:0:
64,192,157690,1,0,0:0:0:33:1.wav
192,192,157690,1,0,0:0:0:50:2.wav
448,192,157690,1,0,0:0:0:0:
192,192,157860,1,0,0:0:0:0:
320,192,157946,1,0,0:0:0:0:
64,192,158031,1,0,0:0:0:0:
448,192,158031,1,0,0:0:0:0:
192,192,158116,1,0,0:0:0:0:
64,192,158201,1,0,0:0:0:66:1.wav
320,192,158201,1,0,0:0:0:0:
448,192,158287,1,0,0:0:0:0:
64,192,158372,1,0,0:0:0:33:1.wav
192,192,158372,1,0,0:0:0:50:2.wav
320,192,158372,1,0,0:0:0:0:
448,192,158457,1,0,0:0:0:0:
192,192,158542,1,0,0:0:0:0:
64,192,158713,1,0,0:0:0:66:1.wav
448,192,158713,1,0,0:0:0:0:
192,192,158883,1,0,0:0:0:0:
448,192,158968,1,0,0:0:0:0:
64,192,159054,1,0,0:0:0:33:1.wav
192,192,159054,1,0,0:0:0:50:2.wav
320,192,159054,1,0,0:0:0:0:
320,192,159224,1,0,0:0:0:0:
448,192,159309,1,0,0:0:0:0:
64,192,159395,1,0,0:0:0:0:
192,192,159395,1,0,0:0:0:0:
320,192,159480,1,0,0:0:0:0:
192,192,159565,1,0,0:0:0:66:1.wav
448,192,159565,1,0,0:0:0:0:
64,192,159650,1,0,0:0:0:0:
192,192,159735,1,0,0:0:0:33:1.wav
320,192,159735,1,0,0:0:0:50:2.wav
448,192,159735,1,0,0:0:0:0:
64,192,159821,1,0,0:0:0:0:
320,192,159906,1,0,0:0:0:0:
64,192,160076,128,0,160162:0:0:0:66:1.wav
192,192,160076,1,0,0:0:0:0:
320,192,160247,1,0,0:0:0:0:
192,192,160332,1,0,0:0:0:0:
64,192,160417,1,0,0:0:0:33:1.wav
320,192,160417,1,0,0:0:0:50:2.wav
448,192,160417,1,0,0:0:0:0:
192,192,160588,1,0,0:0:0:0:
320,192,160673,1,0,0:0:0:0:
64,192,160758,1,0,0:0:0:0:
448,192,160758,1,0,0:0:0:0:
192,192,160843,1,0,0:0:0:0:
320,192,160929,1,0,0:0:0:66:1.wav
448,192,160929,1,0,0:0:0:0:
64,192,161014,1,0,0:0:0:0:
192,192,161099,1,0,0:0:0:33:1.wav
320,192,161099,1,0,0:0:0:50:2.wav
448,192,161099,1,0,0:0:0:0:
64,192,161270,1,0,0:0:0:0:
320,192,161355,1,0,0:0:0:0:
64,192,161440,1,0,0:0:0:66:1.wav
192,192,161440,1,0,0:0:0:0:
448,192,161440,128,0,161525:0:0:0:0:
320,192,161610,1,0,0:0:0:0:
192,192,161696,1,0,0:0:0:0:
64,192,161781,1,0,0:0:0:33:1.wav
320,192,161781,1,0,0:0:0:50:2.wav
448,192,161781,1,0,0:0:0:0:
192,192,161951,1,0,0:0:0:0:
64,192,162037,1,0,0:0:0:0:
320,192,162122,1,0,0:0:0:0:
448,192,162122,1,0,0:0:0:0:
192,192,162207,1,0,0:0:0:0:
64,192,162292,1,0,0:0:0:66:1.wav
448,192,162292,1,0,0:0:0:0:
320,192,162377,1,0,0:0:0:0:
64,192,162463,1,0,0:0:0:33:1.wav
192,192,162463,1,0,0:0:0:50:2.wav
448,192,162463,1,0,0:0:0:0:
192,192,162633,1,0,0:0:0:0:
320,192,162718,1,0,0:0:0:0:
64,192,162804,128,0,162889:0:0:0:66:1.wav
448,192,162804,128,0,162889:0:0:0:0:
320,192,162974,1,0,0:0:0:0:
64,192,163059,1,0,0:0:0:0:
192,192,163145,1,0,0:0:0:33:1.wav
320,192,163145,1,0,0:0:0:50:2.wav
448,192,163145,1,0,0:0:0:0:
64,192,163315,1,0,0:0:0:0:
320,192,163400,1,0,0:0:0:0:
192,192,163485,1,0,0:0:0:0:
448,192,163485,1,0,0:0:0:0:
320,192,163571,1,0,0:0:0:0:
64,192,163656,1,0,0:0:0:66:1.wav
448,192,163656,1,0,0:0:0:0:
192,192,163741,1,0,0:0:0:0:
64,192,163826,1,0,0:0:0:33:1.wav
320,192,163826,1,0,0:0:0:50:2.wav
448,192,163826,1,0,0:0:0:0:
320,192,163997,1,0,0:0:0:0:
64,192,164167,1,0,0:0:0:66:1.wav
192,192,164167,1,0,0:0:0:0:
448,192,164338,1,0,0:0:0:0:
320,192,164423,1,0,0:0:0:0:
64,192,164508,1,0,0:0:0:33:1.wav
192,192,164508,1,0,0:0:0:50:2.wav
448,192,164508,1,0,0:0:0:0:
320,192,164679,1,0,0:0:0:0:
64,192,164764,1,0,0:0:0:0:
192,192,164849,1,0,0:0:0:0:
448,192,164849,1,0,0:0:0:0:
320,192,164934,1,0,0:0:0:0:
64,192,165020,1,0,0:0:0:66:1.wav
192,192,165020,1,0,0:0:0:0:
448,192,165105,1,0,0:0:0:0:
64,192,165190,1,0,0:0:0:33:1.wav
192,192,165190,1,0,0:0:0:50:2.wav
320,192,165190,1,0,0:0:0:0:
448,192,165275,1,0,0:0:0:0:
320,192,165360,1,0,0:0:0:0:
192,192,165446,1,0,0:0:0:0:
64,192,165531,1,0,0:0:0:33:1.wav
320,192,165531,128,0,165616:0:0:0:33:3.wav
448,192,165531,1,0,0:0:0:0:
448,192,165701,1,0,0:0:0:0:
64,192,165872,1,0,0:0:0:33:1.wav
192,192,165872,1,0,0:0:0:50:2.wav
320,192,165872,1,0,0:0:0:0:
448,192,166042,1,0,0:0:0:0:
192,192,166127,1,0,0:0:0:0:
64,192,166213,1,0,0:0:0:0:
448,192,166213,1,0,0:0:0:0:
320,192,166298,1,0,0:0:0:0:
64,192,166383,1,0,0:0:0:66:1.wav
192,192,166383,1,0,0:0:0:0:
448,192,166468,1,0,0:0:0:0:
64,192,166554,1,0,0:0:0:33:1.wav
192,192,166554,1,0,0:0:0:50:2.wav
320,192,166554,1,0,0:0:0:0:
448,192,166639,1,0,0:0:0:0:
320,192,166724,1,0,0:0:0:0:
192,192,166895,1,0,0:0:0:66:1.wav
448,192,166895,1,0,0:0:0:0:
64,192,167065,1,0,0:0:0:0:
192,192,167150,1,0,0:0:0:0:
64,192,167235,128,0,167321:0:0:0:33:1.wav
320,192,167235,1,0,0:0:0:50:2.wav
448,192,167235,1,0,0:0:0:0:
192,192,167406,1,0,0:0:0:0:
448,192,167491,1,0,0:0:0:0:
192,192,167576,128,0,167662:0:0:0:0:
320,192,167576,1,0,0:0:0:0:
64,192,167662,1,0,0:0:0:0:
320,192,167747,1,0,0:0:0:66:1.wav
448,192,167747,1,0,0:0:0:0:
192,192,167832,1,0,0:0:0:0:
64,192,167917,1,0,0:0:0:33:1.wav
320,192,167917,1,0,0:0:0:50:2.wav
448,192,167917,128,0,168002:0:0:0:0:
192,192,168002,1,0,0:0:0:0:
64,192,168088,1,0,0:0:0:0:
192,192,168258,1,0,0:0:0:66:1.wav
320,192,168258,128,0,168343:0:0:0:0:
448,192,168429,1,0,0:0:0:0:
192,192,168514,1,0,0:0:0:0:
64,192,168599,1,0,0:0:0:33:1.wav
320,192,168599,1,0,0:0:0:50:2.wav
448,192,168599,1,0,0:0:0:0:
320,192,168770,1,0,0:0:0:0:
192,192,168855,1,0,0:0:0:0:
64,192,168940,1,0,0:0:0:0:
448,192,168940,1,0,0:0:0:0:
320,192,169025,1,0,0:0:0:0:
192,192,169110,1,0,0:0:0:66:1.wav
448,192,169110,1,0,0:0:0:0:
64,192,169196,1,0,0:0:0:0:
192,192,169281,1,0,0:0:0:33:1.wav
320,192,169281,1,0,0:0:0:50:2.wav
448,192,169281,1,0,0:0:0:0:
64,192,169366,1,0,0:0:0:0:
320,192,169451,1,0,0:0:0:0:
192,192,169622,128,0,169707:0:0:0:66:1.wav
448,192,169622,1,0,0:0:0:0:
64,192,169792,1,0,0:0:0:0:
320,192,169877,1,0,0:0:0:0:
64,192,169963,1,0,0:0:0:33:1.wav
192,192,169963,1,0,0:0:0:50:2.wav
448,192,169963,1,0,0:0:0:0:
192,192,170133,1,0,0:0:0:0:
64,192,170218,1,0,0:0:0:0:
320,192,170304,1,0,0:0:0:0:
448,192,170304,1,0,0:0:0:0:
192,192,170389,1,0,0:0:0:0:
64,192,170474,1,0,0:0:0:66:1.wav
320,192,170474,1,0,0:0:0:0:
448,192,170559,1,0,0:0:0:0:
64,192,170645,1,0,0:0:0:33:1.wav
192,192,170645,1,0,0:0:0:50:2.wav
320,192,170645,1,0,0:0:0:0:
448,192,170730,1,0,0:0:0:0:
192,192,170815,1,0,0:0:0:0:
64,192,170985,128,0,171326:0:0:0:33:1.wav
320,192,170985,128,0,171156:0:0:0:33:3.wav
448,192,170985,128,0,171326:0:0:0:0:
192,192,171326,128,0,171497:0:0:0:66:1.wav
320,192,171326,128,0,171667:0:0:0:0:
64,192,171667,128,0,172008:0:0:0:33:1.wav
192,192,171667,128,0,171838:0:0:0:33:3.wav
448,192,171667,128,0,172008:0:0:0:0:
192,192,172008,128,0,172349:0:0:0:66:1.wav
320,192,172008,128,0,172179:0:0:0:0:
64,192,172349,128,0,172690:0:0:0:33:1.wav
320,192,172349,1,0,0:0:0:33:3.wav
448,192,172349,128,0,172690:0:0:0:0:
192,192,172690,1,0,0:0:0:66:1.wav
320,192,172690,128,0,173031:0:0:0:0:
64,192,173031,128,0,173372:0:0:0:33:1.wav
192,192,173031,1,0,0:0:0:33:3.wav
448,192,173031,128,0,173372:0:0:0:0:
192,192,173372,128,0,173713:0:0:0:66:1.wav
320,192,173372,1,0,0:0:0:0:
64,192,173713,1,0,0:0:0:33:1.wav
320,192,173713,1,0,0:0:0:33:3.wav
448,192,173713,1,0,0:0:0:0:
64,192,173883,1,0,0:0:0:66:1.wav
192,192,173883,1,0,0:0:0:0:
192,192,174054,1,0,0:0:0:66:1.wav
448,192,174054,1,0,0:0:0:0:
64,192,174224,1,0,0:0:0:33:1.wav
320,192,174224,1,0,0:0:0:33:3.wav
448,192,174224,1,0,0:0:0:0:
192,192,174395,1,0,0:0:0:66:1.wav
320,192,174395,1,0,0:0:0:0:
64,192,174565,1,0,0:0:0:66:1.wav
192,192,174565,1,0,0:0:0:0:
64,192,174735,1,0,0:0:0:33:1.wav
320,192,174735,1,0,0:0:0:33:3.wav
448,192,174735,1,0,0:0:0:0:
192,192,174906,1,0,0:0:0:66:1.wav
448,192,174906,1,0,0:0:0:0:
64,192,175076,1,0,0:0:0:66:1.wav
192,192,175076,1,0,0:0:0:0:
320,192,175162,1,0,0:0:0:66:1.wav
448,192,175162,1,0,0:0:0:0:
64,192,175247,1,0,0:0:0:66:1.wav
192,192,175247,1,0,0:0:0:0:
320,192,175332,1,0,0:0:0:66:1.wav
448,192,175332,1,0,0:0:0:0:
64,192,175417,1,0,0:0:0:66:1.wav
192,192,175417,1,0,0:0:0:0:
320,192,175502,1,0,0:0:0:66:1.wav
448,192,175502,1,0,0:0:0:0:
64,192,175588,1,0,0:0:0:66:1.wav
192,192,175588,1,0,0:0:0:0:
320,192,175673,1,0,0:0:0:66:1.wav
448,192,175673,1,0,0:0:0:0:
64,192,175758,1,0,0:0:0:33:1.wav
192,192,175758,1,0,0:0:0:70:5.wav
320,192,175843,1,0,0:0:0:66:1.wav
448,192,175843,1,0,0:0:0:0:
64,192,175929,1,0,0:0:0:66:1.wav
192,192,175971,1,0,0:0:0:66:1.wav
320,192,176014,1,0,0:0:0:66:1.wav
448,192,176056,1,0,0:0:0:66:1.wav
64,192,176099,1,0,0:0:0:33:1.wav
192,192,176099,1,0,0:0:0:70:5.wav
64,192,176440,1,0,0:0:0:33:1.wav
320,192,176440,1,0,0:0:0:33:3.wav
448,192,176440,1,0,0:0:0:0:
192,192,176610,1,0,0:0:0:0:
320,192,176610,1,0,0:0:0:0:
64,192,176781,1,0,0:0:0:33:1.wav
192,192,176781,1,0,0:0:0:50:2.wav
448,192,176781,1,0,0:0:0:0:
320,192,176951,1,0,0:0:0:0:
448,192,176951,1,0,0:0:0:0:
64,192,177037,1,0,0:0:0:0:
192,192,177037,1,0,0:0:0:0:
320,192,177122,1,0,0:0:0:66:1.wav
448,192,177122,1,0,0:0:0:0:
64,192,177292,1,0,0:0:0:0:
192,192,177292,1,0,0:0:0:0:
320,192,177377,1,0,0:0:0:0:
64,192,177463,1,0,0:0:0:33:1.wav
192,192,177463,1,0,0:0:0:50:2.wav
448,192,177463,1,0,0:0:0:0:
320,192,177548,1,0,0:0:0:0:
192,192,177633,1,0,0:0:0:0:
448,192,177633,1,0,0:0:0:0:
64,192,177718,1,0,0:0:0:0:
320,192,177804,1,0,0:0:0:66:1.wav
448,192,177804,1,0,0:0:0:0:
64,192,177974,1,0,0:0:0:0:
320,192,177974,1,0,0:0:0:0:
64,192,178145,1,0,0:0:0:33:1.wav
192,192,178145,1,0,0:0:0:50:2.wav
448,192,178145,1,0,0:0:0:0:
192,192,178315,1,0,0:0:0:0:
320,192,178315,1,0,0:0:0:0:
64,192,178400,1,0,0:0:0:0:
448,192,178400,1,0,0:0:0:0:
192,192,178485,1,0,0:0:0:66:1.wav
320,192,178485,1,0,0:0:0:0:
64,192,178656,1,0,0:0:0:0:
448,192,178656,1,0,0:0:0:0:
192,192,178741,1,0,0:0:0:0:
64,192,178826,1,0,0:0:0:33:1.wav
320,192,178826,1,0,0:0:0:50:2.wav
448,192,178826,1,0,0:0:0:0:
192,192,178912,1,0,0:0:0:0:
64,192,178997,1,0,0:0:0:0:
320,192,178997,1,0,0:0:0:0:
448,192,179082,1,0,0:0:0:0:
64,192,179167,1,0,0:0:0:66:1.wav
192,192,179167,1,0,0:0:0:0:
192,192,179338,1,0,0:0:0:0:
448,192,179338,1,0,0:0:0:0:
64,192,179508,1,0,0:0:0:33:1.wav
320,192,179508,1,0,0:0:0:50:2.wav
448,192,179508,1,0,0:0:0:0:
64,192,179679,1,0,0:0:0:0:
192,192,179679,1,0,0:0:0:0:
320,192,179764,1,0,0:0:0:0:
448,192,179764,1,0,0:0:0:0:
64,192,179849,1,0,0:0:0:66:1.wav
192,192,179849,1,0,0:0:0:0:
320,192,180020,1,0,0:0:0:0:
448,192,180020,1,0,0:0:0:0:
64,192,180105,1,0,0:0:0:0:
192,192,180190,1,0,0:0:0:33:1.wav
320,192,180190,1,0,0:0:0:50:2.wav
448,192,180190,1,0,0:0:0:0:
64,192,180275,1,0,0:0:0:0:
192,192,180360,1,0,0:0:0:0:
320,192,180360,1,0,0:0:0:0:
448,192,180446,1,0,0:0:0:0:
64,192,180531,1,0,0:0:0:66:1.wav
192,192,180531,1,0,0:0:0:0:
64,192,180701,1,0,0:0:0:0:
320,192,180701,1,0,0:0:0:0:
192,192,180872,1,0,0:0:0:33:1.wav
320,192,180872,1,0,0:0:0:50:2.wav
448,192,180872,1,0,0:0:0:0:
64,192,181042,1,0,0:0:0:0:
448,192,181042,1,0,0:0:0:0:
192,192,181127,1,0,0:0:0:0:
320,192,181127,1,0,0:0:0:0:
64,192,181213,1,0,0:0:0:66:1.wav
448,192,181213,1,0,0:0:0:0:
192,192,181383,1,0,0:0:0:0:
320,192,181383,1,0,0:0:0:0:
448,192,181468,1,0,0:0:0:0:
64,192,181554,1,0,0:0:0:33:1.wav
192,192,181554,1,0,0:0:0:50:2.wav
320,192,181554,1,0,0:0:0:0:
64,192,181724,1,0,0:0:0:66:1.wav
192,192,181724,1,0,0:0:0:0:
64,192,181895,1,0,0:0:0:66:1.wav
192,192,181895,1,0,0:0:0:0:
320,192,182065,1,0,0:0:0:0:
448,192,182065,1,0,0:0:0:0:
64,192,182235,1,0,0:0:0:33:1.wav
192,192,182235,1,0,0:0:0:50:2.wav
448,192,182235,1,0,0:0:0:0:
192,192,182406,1,0,0:0:0:0:
320,192,182406,1,0,0:0:0:0:
64,192,182491,1,0,0:0:0:0:
448,192,182491,1,0,0:0:0:0:
192,192,182576,1,0,0:0:0:66:1.wav
320,192,182576,1,0,0:0:0:0:
64,192,182747,1,0,0:0:0:0:
448,192,182747,1,0,0:0:0:0:
192,192,182832,1,0,0:0:0:0:
64,192,182917,1,0,0:0:0:33:1.wav
320,192,182917,1,0,0:0:0:50:2.wav
448,192,182917,1,0,0:0:0:0:
192,192,183002,1,0,0:0:0:0:
320,192,183088,1,0,0:0:0:0:
448,192,183088,1,0,0:0:0:0:
64,192,183173,1,0,0:0:0:0:
192,192,183258,1,0,0:0:0:66:1.wav
320,192,183258,1,0,0:0:0:0:
192,192,183429,1,0,0:0:0:0:
448,192,183429,1,0,0:0:0:0:
64,192,183599,1,0,0:0:0:33:1.wav
320,192,183599,1,0,0:0:0:50:2.wav
448,192,183599,1,0,0:0:0:0:
64,192,183770,1,0,0:0:0:0:
192,192,183770,1,0,0:0:0:0:
320,192,183855,1,0,0:0:0:0:
448,192,183855,1,0,0:0:0:0:
64,192,183940,1,0,0:0:0:66:1.wav
192,192,183940,1,0,0:0:0:0:
320,192,184110,1,0,0:0:0:0:
448,192,184110,1,0,0:0:0:0:
64,192,184196,1,0,0:0:0:0:
192,192,184281,1,0,0:0:0:33:1.wav
320,192,184281,1,0,0:0:0:50:2.wav
448,192,184281,1,0,0:0:0:0:
64,192,184366,1,0,0:0:0:0:
192,192,184451,1,0,0:0:0:0:
320,192,184451,1,0,0:0:0:0:
448,192,184537,1,0,0:0:0:0:
64,192,184622,1,0,0:0:0:66:1.wav
192,192,184622,1,0,0:0:0:0:
64,192,184792,1,0,0:0:0:0:
320,192,184792,1,0,0:0:0:0:
192,192,184963,1,0,0:0:0:33:1.wav
320,192,184963,1,0,0:0:0:50:2.wav
448,192,184963,1,0,0:0:0:0:
64,192,185133,1,0,0:0:0:0:
448,192,185133,1,0,0:0:0:0:
192,192,185218,1,0,0:0:0:0:
320,192,185218,1,0,0:0:0:0:
64,192,185304,1,0,0:0:0:66:1.wav
448,192,185304,1,0,0:0:0:0:
192,192,185474,1,0,0:0:0:0:
320,192,185474,1,0,0:0:0:0:
448,192,185559,1,0,0:0:0:0:
64,192,185645,1,0,0:0:0:33:1.wav
192,192,185645,1,0,0:0:0:50:2.wav
320,192,185645,1,0,0:0:0:0:
448,192,185730,1,0,0:0:0:0:
64,192,185815,1,0,0:0:0:0:
320,192,185815,1,0,0:0:0:0:
192,192,185900,1,0,0:0:0:0:
320,192,185985,1,0,0:0:0:66:1.wav
448,192,185985,1,0,0:0:0:0:
64,192,186156,1,0,0:0:0:0:
192,192,186156,1,0,0:0:0:0:
448,192,186241,1,0,0:0:0:0:
64,192,186326,1,0,0:0:0:33:1.wav
192,192,186326,1,0,0:0:0:50:2.wav
320,192,186326,1,0,0:0:0:0:
192,192,186497,1,0,0:0:0:66:1.wav
320,192,186497,1,0,0:0:0:0:
64,192,186667,1,0,0:0:0:66:1.wav
448,192,186667,1,0,0:0:0:0:
192,192,186752,1,0,0:0:0:66:1.wav
320,192,186752,1,0,0:0:0:0:
64,192,186838,1,0,0:0:0:0:
320,192,186923,1,0,0:0:0:66:1.wav
448,192,186923,1,0,0:0:0:0:
64,192,187008,128,0,187179:0:0:0:33:1.wav
192,192,187008,128,0,187179:0:0:0:50:2.wav
320,192,187179,1,0,0:0:0:66:1.wav
448,192,187179,1,0,0:0:0:0:
64,192,187349,1,0,0:0:0:33:1.wav
192,192,187349,1,0,0:0:0:33:3.wav
320,192,187349,1,0,0:0:0:0:
192,192,187520,1,0,0:0:0:0:
448,192,187520,1,0,0:0:0:0:
64,192,187690,1,0,0:0:0:33:1.wav
320,192,187690,1,0,0:0:0:50:2.wav
448,192,187690,1,0,0:0:0:0:
64,192,187860,1,0,0:0:0:0:
192,192,187860,1,0,0:0:0:0:
320,192,187946,1,0,0:0:0:0:
448,192,187946,1,0,0:0:0:0:
64,192,188031,1,0,0:0:0:66:1.wav
192,192,188031,1,0,0:0:0:0:
320,192,188201,1,0,0:0:0:0:
448,192,188201,1,0,0:0:0:0:
192,192,188287,1,0,0:0:0:0:
64,192,188372,1,0,0:0:0:33:1.wav
320,192,188372,1,0,0:0:0:50:2.wav
448,192,188372,1,0,0:0:0:0:
192,192,188457,1,0,0:0:0:0:
64,192,188542,1,0,0:0:0:0:
448,192,188542,1,0,0:0:0:0:
320,192,188627,1,0,0:0:0:0:
192,192,188713,1,0,0:0:0:66:1.wav
448,192,188713,1,0,0:0:0:0:
64,192,188883,1,0,0:0:0:0:
192,192,188883,1,0,0:0:0:0:
64,192,189054,1,0,0:0:0:33:1.wav
320,192,189054,1,0,0:0:0:50:2.wav
448,192,189054,1,0,0:0:0:0:
192,192,189224,1,0,0:0:0:0:
320,192,189224,1,0,0:0:0:0:
64,192,189309,1,0,0:0:0:0:
448,192,189309,1,0,0:0:0:0:
192,192,189395,1,0,0:0:0:66:1.wav
320,192,189395,1,0,0:0:0:0:
64,192,189565,1,0,0:0:0:0:
448,192,189565,1,0,0:0:0:0:
320,192,189650,1,0,0:0:0:0:
64,192,189735,1,0,0:0:0:33:1.wav
192,192,189735,1,0,0:0:0:50:2.wav
448,192,189735,1,0,0:0:0:0:
320,192,189821,1,0,0:0:0:0:
192,192,189906,1,0,0:0:0:0:
448,192,189906,1,0,0:0:0:0:
64,192,189991,1,0,0:0:0:0:
192,192,190076,1,0,0:0:0:66:1.wav
320,192,190076,1,0,0:0:0:0:
64,192,190247,1,0,0:0:0:0:
320,192,190247,1,0,0:0:0:0:
64,192,190417,1,0,0:0:0:33:1.wav
192,192,190417,1,0,0:0:0:50:2.wav
448,192,190417,1,0,0:0:0:0:
320,192,190588,1,0,0:0:0:0:
448,192,190588,1,0,0:0:0:0:
64,192,190673,1,0,0:0:0:0:
192,192,190673,1,0,0:0:0:0:
320,192,190758,1,0,0:0:0:66:1.wav
448,192,190758,1,0,0:0:0:0:
64,192,190929,1,0,0:0:0:0:
192,192,190929,1,0,0:0:0:0:
448,192,191014,1,0,0:0:0:0:
64,192,191099,1,0,0:0:0:33:1.wav
192,192,191099,1,0,0:0:0:50:2.wav
320,192,191099,1,0,0:0:0:0:
448,192,191184,1,0,0:0:0:0:
64,192,191270,1,0,0:0:0:0:
320,192,191270,1,0,0:0:0:0:
192,192,191355,1,0,0:0:0:0:
320,192,191440,1,0,0:0:0:66:1.wav
448,192,191440,1,0,0:0:0:0:
192,192,191610,1,0,0:0:0:0:
448,192,191610,1,0,0:0:0:0:
64,192,191781,1,0,0:0:0:33:1.wav
192,192,191781,1,0,0:0:0:50:2.wav
320,192,191781,1,0,0:0:0:0:
64,192,191951,1,0,0:0:0:0:
448,192,191951,1,0,0:0:0:0:
192,192,192037,1,0,0:0:0:0:
320,192,192037,1,0,0:0:0:0:
64,192,192122,1,0,0:0:0:66:1.wav
448,192,192122,1,0,0:0:0:0:
192,192,192292,1,0,0:0:0:0:
320,192,192292,1,0,0:0:0:0:
448,192,192377,1,0,0:0:0:0:
64,192,192463,1,0,0:0:0:22:1.wav
192,192,192463,1,0,0:0:0:50:2.wav
320,192,192463,1,0,0:0:0:100:4.wav
64,192,192633,1,0,0:0:0:33:1.wav
448,192,192633,1,0,0:0:0:100:4.wav
320,192,192718,1,0,0:0:0:33:1.wav
64,192,192804,1,0,0:0:0:22:1.wav
192,192,192804,1,0,0:0:0:22:3.wav
448,192,192804,1,0,0:0:0:100:4.wav
192,192,192974,1,0,0:0:0:0:
320,192,192974,1,0,0:0:0:0:
64,192,193145,1,0,0:0:0:22:1.wav
320,192,193145,1,0,0:0:0:50:2.wav
448,192,193145,1,0,0:0:0:100:4.wav
192,192,193315,1,0,0:0:0:0:
448,192,193315,1,0,0:0:0:0:
320,192,193400,1,0,0:0:0:0:
64,192,193485,1,0,0:0:0:33:1.wav
192,192,193485,1,0,0:0:0:100:4.wav
448,192,193485,1,0,0:0:0:0:
64,192,193656,1,0,0:0:0:0:
320,192,193656,1,0,0:0:0:0:
192,192,193826,1,0,0:0:0:22:1.wav
320,192,193826,1,0,0:0:0:50:2.wav
448,192,193826,1,0,0:0:0:100:4.wav
64,192,193997,1,0,0:0:0:0:
448,192,193997,1,0,0:0:0:0:
320,192,194082,1,0,0:0:0:0:
64,192,194167,1,0,0:0:0:22:1.wav
192,192,194167,1,0,0:0:0:22:3.wav
448,192,194167,1,0,0:0:0:100:4.wav
192,192,194338,1,0,0:0:0:0:
320,192,194338,1,0,0:0:0:0:
64,192,194508,1,0,0:0:0:22:1.wav
320,192,194508,1,0,0:0:0:50:2.wav
448,192,194508,1,0,0:0:0:100:4.wav
192,192,194679,1,0,0:0:0:0:
448,192,194679,1,0,0:0:0:0:
320,192,194764,1,0,0:0:0:0:
64,192,194849,1,0,0:0:0:33:1.wav
192,192,194849,1,0,0:0:0:100:4.wav
448,192,194849,1,0,0:0:0:0:
64,192,195020,1,0,0:0:0:0:
320,192,195020,1,0,0:0:0:0:
192,192,195190,1,0,0:0:0:22:1.wav
320,192,195190,1,0,0:0:0:50:2.wav
448,192,195190,1,0,0:0:0:100:4.wav
64,192,195275,1,0,0:0:0:0:
192,192,195360,1,0,0:0:0:0:
448,192,195360,1,0,0:0:0:0:
64,192,195531,1,0,0:0:0:22:1.wav
192,192,195531,1,0,0:0:0:22:3.wav
320,192,195531,1,0,0:0:0:100:4.wav
64,192,195701,1,0,0:0:0:33:1.wav
320,192,195701,1,0,0:0:0:100:4.wav
448,192,195701,1,0,0:0:0:0:
64,192,195872,1,0,0:0:0:22:1.wav
192,192,195872,1,0,0:0:0:50:2.wav
448,192,195872,1,0,0:0:0:100:4.wav
192,192,196042,1,0,0:0:0:33:1.wav
320,192,196042,1,0,0:0:0:100:4.wav
64,192,196127,1,0,0:0:0:0:
192,192,196213,1,0,0:0:0:22:1.wav
320,192,196213,1,0,0:0:0:22:3.wav
448,192,196213,1,0,0:0:0:100:4.wav
64,192,196383,1,0,0:0:0:33:1.wav
320,192,196383,1,0,0:0:0:100:4.wav
448,192,196383,1,0,0:0:0:0:
64,192,196554,1,0,0:0:0:22:1.wav
192,192,196554,1,0,0:0:0:50:2.wav
448,192,196554,1,0,0:0:0:100:4.wav
192,192,196724,1,0,0:0:0:33:1.wav
320,192,196724,1,0,0:0:0:100:4.wav
64,192,196809,1,0,0:0:0:0:
320,192,196895,1,0,0:0:0:22:1.wav
448,192,196895,1,0,0:0:0:22:3.wav
64,192,196980,1,0,0:0:0:33:1.wav
192,192,196980,1,0,0:0:0:100:4.wav
320,192,197065,1,0,0:0:0:33:1.wav
448,192,197065,1,0,0:0:0:100:4.wav
64,192,197150,1,0,0:0:0:33:1.wav
192,192,197150,1,0,0:0:0:100:4.wav
320,192,197235,1,0,0:0:0:22:1.wav
448,192,197235,1,0,0:0:0:50:2.wav
64,192,197321,1,0,0:0:0:33:1.wav
192,192,197321,1,0,0:0:0:100:4.wav
320,192,197406,1,0,0:0:0:33:1.wav
448,192,197406,1,0,0:0:0:100:4.wav
64,192,197491,1,0,0:0:0:33:1.wav
192,192,197491,1,0,0:0:0:100:4.wav
320,192,197576,1,0,0:0:0:33:1.wav
448,192,197576,1,0,0:0:0:100:4.wav
64,192,197662,1,0,0:0:0:33:1.wav
192,192,197662,1,0,0:0:0:100:4.wav
448,192,197747,1,0,0:0:0:33:1.wav
320,192,197789,1,0,0:0:0:100:4.wav
64,192,197832,1,0,0:0:0:33:1.wav
192,192,197832,1,0,0:0:0:100:4.wav
320,192,197917,1,0,0:0:0:22:1.wav
448,192,197917,1,0,0:0:0:50:2.wav
64,192,197960,1,0,0:0:0:100:4.wav
192,192,198002,1,0,0:0:0:33:1.wav
320,192,198045,1,0,0:0:0:100:4.wav
448,192,198088,1,0,0:0:0:33:1.wav
64,192,198130,1,0,0:0:0:100:4.wav
192,192,198173,1,0,0:0:0:33:1.wav
320,192,198216,1,0,0:0:0:100:4.wav
64,192,198258,1,0,0:0:0:22:1.wav
192,192,198258,1,0,0:0:0:22:3.wav
448,192,198258,1,0,0:0:0:100:4.wav
320,192,198429,1,0,0:0:0:0:
192,192,198599,1,0,0:0:0:33:1.wav
320,192,198599,1,0,0:0:0:50:2.wav
448,192,198599,1,0,0:0:0:0:
64,192,198770,1,0,0:0:0:0:
320,192,198855,1,0,0:0:0:0:
448,192,198855,1,0,0:0:0:0:
64,192,198940,1,0,0:0:0:66:1.wav
192,192,198940,1,0,0:0:0:0:
192,192,199110,1,0,0:0:0:0:
448,192,199110,1,0,0:0:0:0:
64,192,199281,1,0,0:0:0:33:1.wav
320,192,199281,1,0,0:0:0:50:2.wav
448,192,199281,1,0,0:0:0:0:
64,192,199451,1,0,0:0:0:0:
192,192,199451,1,0,0:0:0:0:
192,192,199622,1,0,0:0:0:66:1.wav
320,192,199622,1,0,0:0:0:0:
448,192,199622,1,0,0:0:0:0:
64,192,199792,1,0,0:0:0:0:
320,192,199792,1,0,0:0:0:0:
64,192,199963,1,0,0:0:0:33:1.wav
192,192,199963,1,0,0:0:0:50:2.wav
448,192,199963,1,0,0:0:0:0:
320,192,200133,1,0,0:0:0:0:
64,192,200218,1,0,0:0:0:0:
192,192,200218,1,0,0:0:0:0:
320,192,200304,1,0,0:0:0:66:1.wav
448,192,200304,1,0,0:0:0:0:
192,192,200474,1,0,0:0:0:0:
448,192,200474,1,0,0:0:0:0:
64,192,200645,1,0,0:0:0:33:1.wav
192,192,200645,1,0,0:0:0:50:2.wav
320,192,200645,1,0,0:0:0:0:
64,192,200815,1,0,0:0:0:0:
448,192,200815,1,0,0:0:0:0:
192,192,200985,1,0,0:0:0:66:1.wav
320,192,200985,1,0,0:0:0:0:
448,192,200985,1,0,0:0:0:0:
64,192,201156,1,0,0:0:0:0:
192,192,201156,1,0,0:0:0:0:
64,192,201326,1,0,0:0:0:33:1.wav
320,192,201326,1,0,0:0:0:50:2.wav
448,192,201326,1,0,0:0:0:0:
192,192,201497,1,0,0:0:0:0:
64,192,201582,1,0,0:0:0:0:
448,192,201582,1,0,0:0:0:0:
192,192,201667,1,0,0:0:0:66:1.wav
320,192,201667,1,0,0:0:0:0:
320,192,201838,1,0,0:0:0:0:
448,192,201838,1,0,0:0:0:0:
64,192,202008,1,0,0:0:0:33:1.wav
192,192,202008,1,0,0:0:0:50:2.wav
448,192,202008,1,0,0:0:0:0:
64,192,202179,1,0,0:0:0:0:
320,192,202179,1,0,0:0:0:0:
192,192,202349,1,0,0:0:0:66:1.wav
320,192,202349,1,0,0:0:0:0:
448,192,202349,1,0,0:0:0:0:
64,192,202520,1,0,0:0:0:0:
64,192,202690,1,0,0:0:0:33:1.wav
192,192,202690,1,0,0:0:0:50:2.wav
320,192,202690,1,0,0:0:0:0:
448,192,202860,1,0,0:0:0:0:
192,192,202946,1,0,0:0:0:0:
320,192,202946,1,0,0:0:0:0:
64,192,203031,1,0,0:0:0:66:1.wav
448,192,203031,1,0,0:0:0:0:
64,192,203201,1,0,0:0:0:0:
192,192,203201,1,0,0:0:0:0:
192,192,203372,1,0,0:0:0:33:1.wav
320,192,203372,1,0,0:0:0:50:2.wav
448,192,203372,1,0,0:0:0:0:
320,192,203542,1,0,0:0:0:66:1.wav
448,192,203542,1,0,0:0:0:0:
64,192,203713,1,0,0:0:0:66:1.wav
192,192,203713,1,0,0:0:0:0:
448,192,203713,1,0,0:0:0:0:
320,192,203883,1,0,0:0:0:0:
192,192,204054,1,0,0:0:0:33:1.wav
320,192,204054,1,0,0:0:0:50:2.wav
448,192,204054,1,0,0:0:0:0:
64,192,204224,1,0,0:0:0:0:
320,192,204309,1,0,0:0:0:0:
448,192,204309,1,0,0:0:0:0:
64,192,204395,1,0,0:0:0:66:1.wav
192,192,204395,1,0,0:0:0:0:
192,192,204565,1,0,0:0:0:0:
448,192,204565,1,0,0:0:0:0:
64,192,204735,1,0,0:0:0:33:1.wav
320,192,204735,1,0,0:0:0:50:2.wav
448,192,204735,1,0,0:0:0:0:
64,192,204906,1,0,0:0:0:0:
192,192,204906,1,0,0:0:0:0:
192,192,205076,1,0,0:0:0:66:1.wav
320,192,205076,1,0,0:0:0:0:
448,192,205076,1,0,0:0:0:0:
64,192,205247,1,0,0:0:0:0:
448,192,205247,1,0,0:0:0:0:
64,192,205417,1,0,0:0:0:33:1.wav
192,192,205417,1,0,0:0:0:50:2.wav
320,192,205417,1,0,0:0:0:0:
192,192,205588,1,0,0:0:0:0:
448,192,205588,1,0,0:0:0:0:
64,192,205758,1,0,0:0:0:66:1.wav
320,192,205758,1,0,0:0:0:0:
448,192,205758,1,0,0:0:0:0:
192,192,205929,1,0,0:0:0:0:
320,192,205929,1,0,0:0:0:0:
64,192,206099,1,0,0:0:0:33:1.wav
192,192,206099,1,0,0:0:0:50:2.wav
448,192,206099,1,0,0:0:0:0:
320,192,206270,1,0,0:0:0:0:
448,192,206270,1,0,0:0:0:0:
64,192,206440,1,0,0:0:0:66:1.wav
192,192,206440,1,0,0:0:0:0:
320,192,206440,1,0,0:0:0:0:
448,192,206610,1,0,0:0:0:0:
64,192,206781,1,0,0:0:0:33:1.wav
192,192,206781,1,0,0:0:0:50:2.wav
448,192,206781,1,0,0:0:0:0:
320,192,206951,1,0,0:0:0:0:
64,192,207037,1,0,0:0:0:0:
192,192,207037,1,0,0:0:0:0:
320,192,207122,1,0,0:0:0:66:1.wav
448,192,207122,1,0,0:0:0:0:
64,192,207292,1,0,0:0:0:0:
448,192,207292,1,0,0:0:0:0:
64,192,207463,1,0,0:0:0:33:1.wav
192,192,207463,1,0,0:0:0:50:2.wav
320,192,207463,1,0,0:0:0:0:
192,192,207633,1,0,0:0:0:0:
448,192,207633,1,0,0:0:0:0:
64,192,207804,1,0,0:0:0:66:1.wav
320,192,207804,1,0,0:0:0:0:
448,192,207804,1,0,0:0:0:0:
192,192,207974,1,0,0:0:0:0:
64,192,208145,1,0,0:0:0:33:1.wav
192,192,208145,1,0,0:0:0:50:2.wav
320,192,208145,1,0,0:0:0:0:
64,192,208315,1,0,0:0:0:66:1.wav
448,192,208315,1,0,0:0:0:0:
192,192,208400,1,0,0:0:0:0:
320,192,208485,1,0,0:0:0:66:1.wav
448,192,208485,1,0,0:0:0:0:
64,192,208571,1,0,0:0:0:66:1.wav
192,192,208571,1,0,0:0:0:0:
320,192,208656,1,0,0:0:0:0:
64,192,208741,1,0,0:0:0:66:1.wav
448,192,208741,1,0,0:0:0:0:
192,192,208826,128,0,208997:0:0:0:33:1.wav
320,192,208826,128,0,208997:0:0:0:50:2.wav
64,192,208997,1,0,0:0:0:66:1.wav
448,192,208997,1,0,0:0:0:0:
64,192,209167,1,0,0:0:0:33:1.wav
192,192,209167,1,0,0:0:0:33:3.wav
320,192,209167,1,0,0:0:0:0:
448,192,209338,1,0,0:0:0:0:
192,192,209508,1,0,0:0:0:0:
320,192,209508,1,0,0:0:0:0:
64,192,209679,1,0,0:0:0:0:
320,192,209764,1,0,0:0:0:0:
448,192,209764,1,0,0:0:0:0:
64,192,209849,1,0,0:0:0:0:
192,192,209849,1,0,0:0:0:0:
192,192,210020,1,0,0:0:0:0:
448,192,210020,1,0,0:0:0:0:
320,192,210190,1,0,0:0:0:0:
448,192,210190,1,0,0:0:0:0:
64,192,210360,1,0,0:0:0:0:
320,192,210360,1,0,0:0:0:0:
64,192,210531,1,0,0:0:0:33:1.wav
192,192,210531,1,0,0:0:0:33:3.wav
448,192,210531,1,0,0:0:0:0:
320,192,210701,1,0,0:0:0:0:
64,192,210872,1,0,0:0:0:0:
192,192,210872,1,0,0:0:0:0:
448,192,211042,1,0,0:0:0:0:
64,192,211127,1,0,0:0:0:0:
192,192,211127,1,0,0:0:0:0:
320,192,211213,1,0,0:0:0:0:
448,192,211213,1,0,0:0:0:0:
64,192,211383,1,0,0:0:0:0:
320,192,211383,1,0,0:0:0:0:
64,192,211554,1,0,0:0:0:0:
192,192,211554,1,0,0:0:0:0:
192,192,211724,1,0,0:0:0:0:
448,192,211724,1,0,0:0:0:0:
64,192,211895,1,0,0:0:0:33:1.wav
320,192,211895,1,0,0:0:0:33:3.wav
448,192,211895,1,0,0:0:0:0:
192,192,212065,1,0,0:0:0:0:
320,192,212235,1,0,0:0:0:0:
448,192,212235,1,0,0:0:0:0:
64,192,212406,1,0,0:0:0:0:
320,192,212491,1,0,0:0:0:0:
448,192,212491,1,0,0:0:0:0:
64,192,212576,1,0,0:0:0:0:
192,192,212576,1,0,0:0:0:0:
192,192,212747,1,0,0:0:0:0:
448,192,212747,1,0,0:0:0:0:
320,192,212917,1,0,0:0:0:0:
448,192,212917,1,0,0:0:0:0:
64,192,213088,1,0,0:0:0:0:
320,192,213088,1,0,0:0:0:0:
64,192,213258,1,0,0:0:0:33:1.wav
192,192,213258,1,0,0:0:0:33:3.wav
448,192,213258,1,0,0:0:0:0:
320,192,213429,1,0,0:0:0:0:
64,192,213599,1,0,0:0:0:0:
192,192,213599,1,0,0:0:0:0:
448,192,213770,1,0,0:0:0:0:
64,192,213855,1,0,0:0:0:0:
192,192,213855,1,0,0:0:0:0:
320,192,213940,1,0,0:0:0:0:
448,192,213940,1,0,0:0:0:0:
64,192,214110,1,0,0:0:0:0:
320,192,214110,1,0,0:0:0:0:
64,192,214281,1,0,0:0:0:0:
192,192,214281,1,0,0:0:0:0:
192,192,214451,1,0,0:0:0:0:
448,192,214451,1,0,0:0:0:0:
64,192,214622,1,0,0:0:0:16:1.wav
320,192,214622,1,0,0:0:0:50:2.wav
448,192,214622,1,0,0:0:0:16:3.wav
64,192,214792,1,0,0:0:0:0:
192,192,214792,1,0,0:0:0:0:
192,192,214963,1,0,0:0:0:22:1.wav
320,192,214963,1,0,0:0:0:50:2.wav
448,192,214963,1,0,0:0:0:100:4.wav
64,192,215133,1,0,0:0:0:0:
320,192,215133,1,0,0:0:0:0:
64,192,215304,1,0,0:0:0:16:1.wav
192,192,215304,1,0,0:0:0:50:2.wav
448,192,215304,1,0,0:0:0:16:3.wav
320,192,215474,1,0,0:0:0:0:
448,192,215474,1,0,0:0:0:0:
64,192,215645,1,0,0:0:0:22:1.wav
192,192,215645,1,0,0:0:0:50:2.wav
320,192,215645,1,0,0:0:0:100:4.wav
192,192,215815,1,0,0:0:0:0:
448,192,215815,1,0,0:0:0:0:
64,192,215985,1,0,0:0:0:16:1.wav
320,192,215985,1,0,0:0:0:50:2.wav
448,192,215985,1,0,0:0:0:16:3.wav
64,192,216156,1,0,0:0:0:0:
192,192,216156,1,0,0:0:0:0:
192,192,216326,1,0,0:0:0:22:1.wav
320,192,216326,1,0,0:0:0:50:2.wav
448,192,216326,1,0,0:0:0:100:4.wav
64,192,216497,1,0,0:0:0:0:
320,192,216497,1,0,0:0:0:0:
64,192,216667,1,0,0:0:0:16:1.wav
192,192,216667,1,0,0:0:0:50:2.wav
448,192,216667,1,0,0:0:0:16:3.wav
320,192,216838,1,0,0:0:0:0:
448,192,216838,1,0,0:0:0:0:
64,192,217008,1,0,0:0:0:22:1.wav
192,192,217008,1,0,0:0:0:50:2.wav
320,192,217008,1,0,0:0:0:100:4.wav
192,192,217179,1,0,0:0:0:0:
448,192,217179,1,0,0:0:0:0:
64,192,217349,1,0,0:0:0:16:1.wav
320,192,217349,1,0,0:0:0:50:2.wav
448,192,217349,1,0,0:0:0:16:3.wav
192,192,217434,1,0,0:0:0:100:4.wav
64,192,217520,1,0,0:0:0:100:4.wav
320,192,217605,1,0,0:0:0:100:4.wav
64,192,217690,1,0,0:0:0:22:1.wav
192,192,217690,1,0,0:0:0:50:2.wav
448,192,217690,1,0,0:0:0:100:4.wav
320,192,217775,1,0,0:0:0:100:4.wav
448,192,217860,1,0,0:0:0:100:4.wav
192,192,217946,1,0,0:0:0:100:4.wav
64,192,218031,1,0,0:0:0:22:1.wav
320,192,218031,1,0,0:0:0:50:2.wav
448,192,218031,1,0,0:0:0:100:4.wav
192,192,218116,1,0,0:0:0:100:4.wav
64,192,218201,1,0,0:0:0:100:4.wav
448,192,218244,1,0,0:0:0:100:4.wav
320,192,218287,1,0,0:0:0:100:4.wav
64,192,218372,1,0,0:0:0:22:1.wav
192,192,218372,1,0,0:0:0:50:2.wav
448,192,218414,1,0,0:0:0:100:4.wav
320,192,218457,1,0,0:0:0:100:4.wav
192,192,218500,1,0,0:0:0:100:4.wav
64,192,218542,1,0,0:0:0:100:4.wav
448,192,218585,1,0,0:0:0:100:4.wav
320,192,218627,1,0,0:0:0:100:4.wav
192,192,218670,1,0,0:0:0:100:4.wav
64,192,218713,1,0,0:0:0:0:
448,192,218777,1,0,0:0:0:0:
320,192,218862,1,0,0:0:0:0:
448,192,218947,1,0,0:0:0:0:
320,192,219032,128,0,219395:0:0:0:0:
192,192,219395,1,0,0:0:0:0:
320,192,219480,1,0,0:0:0:0:
192,192,219565,1,0,0:0:0:0:
320,192,219650,1,0,0:0:0:0:
64,192,219735,1,0,0:0:0:50:2.wav
192,192,219735,1,0,0:0:0:100:4.wav
448,192,219735,1,0,0:0:0:0:
64,192,220076,1,0,0:0:0:33:1.wav
320,192,220076,1,0,0:0:0:33:3.wav
448,192,220076,1,0,0:0:0:0:
192,192,220247,1,0,0:0:0:0:
64,192,220417,1,0,0:0:0:33:1.wav
192,192,220417,1,0,0:0:0:50:2.wav
320,192,220417,1,0,0:0:0:0:
448,192,220588,1,0,0:0:0:0:
64,192,220673,1,0,0:0:0:0:
192,192,220673,1,0,0:0:0:0:
320,192,220758,1,0,0:0:0:66:1.wav
448,192,220758,1,0,0:0:0:0:
64,192,220929,1,0,0:0:0:0:
320,192,220929,1,0,0:0:0:0:
64,192,221099,1,0,0:0:0:33:1.wav
192,192,221099,1,0,0:0:0:50:2.wav
448,192,221099,1,0,0:0:0:0:
320,192,221270,1,0,0:0:0:0:
448,192,221270,1,0,0:0:0:0:
64,192,221440,1,0,0:0:0:66:1.wav
192,192,221440,1,0,0:0:0:0:
320,192,221440,1,0,0:0:0:0:
192,192,221610,1,0,0:0:0:0:
448,192,221610,1,0,0:0:0:0:
64,192,221781,1,0,0:0:0:33:1.wav
320,192,221781,1,0,0:0:0:50:2.wav
448,192,221781,1,0,0:0:0:0:
192,192,221951,1,0,0:0:0:0:
320,192,222037,1,0,0:0:0:0:
448,192,222037,1,0,0:0:0:0:
64,192,222122,1,0,0:0:0:66:1.wav
192,192,222122,1,0,0:0:0:0:
64,192,222292,1,0,0:0:0:0:
320,192,222292,1,0,0:0:0:0:
192,192,222463,1,0,0:0:0:33:1.wav
320,192,222463,1,0,0:0:0:50:2.wav
448,192,222463,1,0,0:0:0:0:
64,192,222633,1,0,0:0:0:0:
448,192,222633,1,0,0:0:0:0:
64,192,222804,1,0,0:0:0:66:1.wav
192,192,222804,1,0,0:0:0:0:
320,192,222804,1,0,0:0:0:0:
320,192,222974,1,0,0:0:0:0:
448,192,222974,1,0,0:0:0:0:
64,192,223145,1,0,0:0:0:33:1.wav
192,192,223145,1,0,0:0:0:50:2.wav
448,192,223145,1,0,0:0:0:0:
320,192,223315,1,0,0:0:0:0:
64,192,223400,1,0,0:0:0:0:
448,192,223400,1,0,0:0:0:0:
192,192,223485,1,0,0:0:0:66:1.wav
320,192,223485,1,0,0:0:0:0:
64,192,223656,1,0,0:0:0:0:
192,192,223656,1,0,0:0:0:0:
64,192,223826,1,0,0:0:0:33:1.wav
320,192,223826,1,0,0:0:0:50:2.wav
448,192,223826,1,0,0:0:0:0:
192,192,223997,1,0,0:0:0:0:
448,192,223997,1,0,0:0:0:0:
64,192,224167,1,0,0:0:0:66:1.wav
192,192,224167,1,0,0:0:0:0:
320,192,224167,1,0,0:0:0:0:
448,192,224338,1,0,0:0:0:0:
192,192,224508,1,0,0:0:0:33:1.wav
320,192,224508,1,0,0:0:0:50:2.wav
448,192,224508,1,0,0:0:0:0:
64,192,224679,1,0,0:0:0:0:
192,192,224764,1,0,0:0:0:0:
320,192,224764,1,0,0:0:0:0:
64,192,224849,1,0,0:0:0:66:1.wav
448,192,224849,1,0,0:0:0:0:
320,192,225020,1,0,0:0:0:0:
448,192,225020,1,0,0:0:0:0:
64,192,225190,1,0,0:0:0:33:1.wav
192,192,225190,1,0,0:0:0:50:2.wav
320,192,225190,1,0,0:0:0:0:
64,192,225360,1,0,0:0:0:66:1.wav
192,192,225360,1,0,0:0:0:0:
64,192,225531,1,0,0:0:0:66:1.wav
320,192,225531,1,0,0:0:0:0:
448,192,225531,1,0,0:0:0:0:
192,192,225701,1,0,0:0:0:0:
64,192,225872,1,0,0:0:0:33:1.wav
192,192,225872,1,0,0:0:0:50:2.wav
320,192,225872,1,0,0:0:0:0:
448,192,226042,1,0,0:0:0:0:
64,192,226127,1,0,0:0:0:0:
192,192,226127,1,0,0:0:0:0:
320,192,226213,1,0,0:0:0:66:1.wav
448,192,226213,1,0,0:0:0:0:
64,192,226383,1,0,0:0:0:0:
320,192,226383,1,0,0:0:0:0:
64,192,226554,1,0,0:0:0:33:1.wav
192,192,226554,1,0,0:0:0:50:2.wav
448,192,226554,1,0,0:0:0:0:
320,192,226724,1,0,0:0:0:0:
448,192,226724,1,0,0:0:0:0:
64,192,226895,1,0,0:0:0:66:1.wav
192,192,226895,1,0,0:0:0:0:
320,192,226895,1,0,0:0:0:0:
64,192,227065,1,0,0:0:0:0:
448,192,227065,1,0,0:0:0:0:
192,192,227235,1,0,0:0:0:33:1.wav
320,192,227235,1,0,0:0:0:50:2.wav
448,192,227235,1,0,0:0:0:0:
64,192,227406,1,0,0:0:0:0:
320,192,227406,1,0,0:0:0:0:
64,192,227576,1,0,0:0:0:66:1.wav
192,192,227576,1,0,0:0:0:0:
448,192,227576,1,0,0:0:0:0:
192,192,227747,1,0,0:0:0:0:
320,192,227747,1,0,0:0:0:0:
64,192,227917,1,0,0:0:0:33:1.wav
320,192,227917,1,0,0:0:0:50:2.wav
448,192,227917,1,0,0:0:0:0:
64,192,228088,1,0,0:0:0:0:
192,192,228088,1,0,0:0:0:0:
192,192,228258,1,0,0:0:0:66:1.wav
320,192,228258,1,0,0:0:0:0:
448,192,228258,1,0,0:0:0:0:
64,192,228429,1,0,0:0:0:0:
64,192,228599,1,0,0:0:0:33:1.wav
320,192,228599,1,0,0:0:0:50:2.wav
448,192,228599,1,0,0:0:0:0:
192,192,228770,1,0,0:0:0:0:
320,192,228855,1,0,0:0:0:0:
448,192,228855,1,0,0:0:0:0:
64,192,228940,1,0,0:0:0:66:1.wav
192,192,228940,1,0,0:0:0:0:
64,192,229110,1,0,0:0:0:0:
320,192,229110,1,0,0:0:0:0:
192,192,229281,1,0,0:0:0:33:1.wav
320,192,229281,1,0,0:0:0:50:2.wav
448,192,229281,1,0,0:0:0:0:
64,192,229451,1,0,0:0:0:0:
192,192,229451,1,0,0:0:0:0:
64,192,229622,1,0,0:0:0:66:1.wav
320,192,229622,1,0,0:0:0:0:
448,192,229622,1,0,0:0:0:0:
192,192,229792,1,0,0:0:0:0:
64,192,229963,1,0,0:0:0:33:1.wav
192,192,229963,1,0,0:0:0:50:2.wav
448,192,229963,1,0,0:0:0:0:
320,192,230133,1,0,0:0:0:66:1.wav
448,192,230133,1,0,0:0:0:0:
64,192,230218,1,0,0:0:0:0:
192,192,230304,1,0,0:0:0:66:1.wav
320,192,230304,1,0,0:0:0:0:
64,192,230389,1,0,0:0:0:66:1.wav
448,192,230389,1,0,0:0:0:0:
192,192,230474,1,0,0:0:0:0:
320,192,230559,1,0,0:0:0:66:1.wav
448,192,230559,1,0,0:0:0:0:
64,192,230645,128,0,230815:0:0:0:33:1.wav
192,192,230645,128,0,230815:0:0:0:50:2.wav
320,192,230815,1,0,0:0:0:66:1.wav
448,192,230815,1,0,0:0:0:0:
64,192,230985,1,0,0:0:0:33:1.wav
192,192,230985,1,0,0:0:0:33:3.wav
448,192,230985,1,0,0:0:0:0:
320,192,231156,1,0,0:0:0:0:
64,192,231326,1,0,0:0:0:33:1.wav
192,192,231326,1,0,0:0:0:50:2.wav
320,192,231326,1,0,0:0:0:0:
448,192,231497,1,0,0:0:0:0:
192,192,231582,1,0,0:0:0:0:
320,192,231582,1,0,0:0:0:0:
64,192,231667,1,0,0:0:0:66:1.wav
448,192,231667,1,0,0:0:0:0:
64,192,231838,1,0,0:0:0:0:
192,192,231838,1,0,0:0:0:0:
192,192,232008,1,0,0:0:0:33:1.wav
320,192,232008,1,0,0:0:0:50:2.wav
448,192,232008,1,0,0:0:0:0:
64,192,232179,1,0,0:0:0:0:
320,192,232179,1,0,0:0:0:0:
64,192,232349,1,0,0:0:0:66:1.wav
192,192,232349,1,0,0:0:0:0:
448,192,232349,1,0,0:0:0:0:
320,192,232520,1,0,0:0:0:0:
448,192,232520,1,0,0:0:0:0:
64,192,232690,1,0,0:0:0:33:1.wav
192,192,232690,1,0,0:0:0:50:2.wav
320,192,232690,1,0,0:0:0:0:
448,192,232860,1,0,0:0:0:0:
64,192,232946,1,0,0:0:0:0:
192,192,232946,1,0,0:0:0:0:
320,192,233031,1,0,0:0:0:66:1.wav
448,192,233031,1,0,0:0:0:0:
64,192,233201,1,0,0:0:0:0:
320,192,233201,1,0,0:0:0:0:
64,192,233372,1,0,0:0:0:33:1.wav
192,192,233372,1,0,0:0:0:50:2.wav
448,192,233372,1,0,0:0:0:0:
320,192,233542,1,0,0:0:0:0:
448,192,233542,1,0,0:0:0:0:
64,192,233713,1,0,0:0:0:66:1.wav
192,192,233713,1,0,0:0:0:0:
320,192,233713,1,0,0:0:0:0:
448,192,233883,1,0,0:0:0:0:
64,192,234054,1,0,0:0:0:33:1.wav
320,192,234054,1,0,0:0:0:50:2.wav
448,192,234054,1,0,0:0:0:0:
192,192,234224,1,0,0:0:0:0:
64,192,234309,1,0,0:0:0:0:
448,192,234309,1,0,0:0:0:0:
192,192,234395,1,0,0:0:0:66:1.wav
320,192,234395,1,0,0:0:0:0:
320,192,234565,1,0,0:0:0:0:
448,192,234565,1,0,0:0:0:0:
64,192,234735,1,0,0:0:0:33:1.wav
192,192,234735,1,0,0:0:0:50:2.wav
448,192,234735,1,0,0:0:0:0:
64,192,234906,1,0,0:0:0:0:
320,192,234906,1,0,0:0:0:0:
192,192,235076,1,0,0:0:0:66:1.wav
320,192,235076,1,0,0:0:0:0:
448,192,235076,1,0,0:0:0:0:
64,192,235247,1,0,0:0:0:0:
64,192,235417,1,0,0:0:0:33:1.wav
320,192,235417,1,0,0:0:0:50:2.wav
448,192,235417,1,0,0:0:0:0:
192,192,235588,1,0,0:0:0:0:
320,192,235673,1,0,0:0:0:0:
448,192,235673,1,0,0:0:0:0:
64,192,235758,1,0,0:0:0:66:1.wav
192,192,235758,1,0,0:0:0:0:
64,192,235929,1,0,0:0:0:0:
320,192,235929,1,0,0:0:0:0:
192,192,236099,1,0,0:0:0:22:1.wav
320,192,236099,1,0,0:0:0:50:2.wav
448,192,236099,1,0,0:0:0:100:4.wav
64,192,236270,1,0,0:0:0:33:1.wav
192,192,236270,1,0,0:0:0:100:4.wav
320,192,236355,1,0,0:0:0:33:1.wav
64,192,236440,1,0,0:0:0:22:1.wav
192,192,236440,1,0,0:0:0:22:3.wav
448,192,236440,1,0,0:0:0:100:4.wav
64,192,236610,1,0,0:0:0:0:
192,192,236781,1,0,0:0:0:22:1.wav
320,192,236781,1,0,0:0:0:50:2.wav
448,192,236781,1,0,0:0:0:100:4.wav
64,192,236951,1,0,0:0:0:0:
320,192,237037,1,0,0:0:0:0:
448,192,237037,1,0,0:0:0:0:
64,192,237122,1,0,0:0:0:33:1.wav
192,192,237122,1,0,0:0:0:100:4.wav
192,192,237292,1,0,0:0:0:0:
448,192,237292,1,0,0:0:0:0:
64,192,237463,1,0,0:0:0:22:1.wav
320,192,237463,1,0,0:0:0:50:2.wav
448,192,237463,1,0,0:0:0:100:4.wav
64,192,237633,1,0,0:0:0:0:
192,192,237633,1,0,0:0:0:0:
192,192,237804,1,0,0:0:0:22:1.wav
320,192,237804,1,0,0:0:0:22:3.wav
448,192,237804,1,0,0:0:0:100:4.wav
64,192,237974,1,0,0:0:0:0:
448,192,237974,1,0,0:0:0:0:
64,192,238145,1,0,0:0:0:22:1.wav
192,192,238145,1,0,0:0:0:50:2.wav
320,192,238145,1,0,0:0:0:100:4.wav
192,192,238315,1,0,0:0:0:0:
448,192,238315,1,0,0:0:0:0:
64,192,238485,1,0,0:0:0:33:1.wav
320,192,238485,1,0,0:0:0:100:4.wav
448,192,238485,1,0,0:0:0:0:
192,192,238656,1,0,0:0:0:0:
320,192,238656,1,0,0:0:0:0:
64,192,238826,1,0,0:0:0:22:1.wav
192,192,238826,1,0,0:0:0:50:2.wav
448,192,238826,1,0,0:0:0:100:4.wav
64,192,238997,1,0,0:0:0:0:
320,192,238997,1,0,0:0:0:0:
192,192,239167,1,0,0:0:0:22:1.wav
320,192,239167,1,0,0:0:0:22:3.wav
448,192,239167,1,0,0:0:0:100:4.wav
64,192,239338,1,0,0:0:0:33:1.wav
448,192,239338,1,0,0:0:0:100:4.wav
64,192,239508,1,0,0:0:0:22:1.wav
192,192,239508,1,0,0:0:0:50:2.wav
320,192,239508,1,0,0:0:0:100:4.wav
320,192,239679,1,0,0:0:0:33:1.wav
448,192,239679,1,0,0:0:0:100:4.wav
64,192,239764,1,0,0:0:0:0:
192,192,239849,1,0,0:0:0:22:1.wav
320,192,239849,1,0,0:0:0:22:3.wav
448,192,239849,1,0,0:0:0:100:4.wav
64,192,240020,1,0,0:0:0:33:1.wav
192,192,240020,1,0,0:0:0:100:4.wav
64,192,240190,1,0,0:0:0:22:1.wav
320,192,240190,1,0,0:0:0:50:2.wav
448,192,240190,1,0,0:0:0:100:4.wav
192,192,240360,1,0,0:0:0:33:1.wav
448,192,240360,1,0,0:0:0:100:4.wav
320,192,240446,1,0,0:0:0:0:
64,192,240531,1,0,0:0:0:22:1.wav
192,192,240531,1,0,0:0:0:22:3.wav
320,192,240616,1,0,0:0:0:33:1.wav
448,192,240616,1,0,0:0:0:100:4.wav
64,192,240701,1,0,0:0:0:33:1.wav
192,192,240701,1,0,0:0:0:100:4.wav
320,192,240787,1,0,0:0:0:33:1.wav
448,192,240787,1,0,0:0:0:100:4.wav
64,192,240872,1,0,0:0:0:22:1.wav
192,192,240872,1,0,0:0:0:50:2.wav
320,192,240957,1,0,0:0:0:33:1.wav
448,192,240957,1,0,0:0:0:100:4.wav
64,192,241042,1,0,0:0:0:33:1.wav
192,192,241042,1,0,0:0:0:100:4.wav
320,192,241127,1,0,0:0:0:33:1.wav
448,192,241127,1,0,0:0:0:100:4.wav
64,192,241213,1,0,0:0:0:33:1.wav
192,192,241213,1,0,0:0:0:100:4.wav
320,192,241298,1,0,0:0:0:33:1.wav
448,192,241298,1,0,0:0:0:100:4.wav
64,192,241383,1,0,0:0:0:33:1.wav
192,192,241426,1,0,0:0:0:100:4.wav
320,192,241468,1,0,0:0:0:33:1.wav
448,192,241468,1,0,0:0:0:100:4.wav
64,192,241554,1,0,0:0:0:22:1.wav
192,192,241554,1,0,0:0:0:50:2.wav
448,192,241596,1,0,0:0:0:100:4.wav
320,192,241639,1,0,0:0:0:33:1.wav
192,192,241681,1,0,0:0:0:100:4.wav
64,192,241724,1,0,0:0:0:33:1.wav
448,192,241767,1,0,0:0:0:100:4.wav
320,192,241809,1,0,0:0:0:33:1.wav
192,192,241852,1,0,0:0:0:100:4.wav
64,192,241895,1,0,0:0:0:22:1.wav
320,192,241895,1,0,0:0:0:22:3.wav
448,192,241895,1,0,0:0:0:100:4.wav
192,192,242065,128,0,242235:0:0:0:0:
64,192,242235,1,0,0:0:0:70:5.wav
448,192,242235,1,0,0:0:0:0:
192,192,242406,128,0,242576:0:0:0:0:
192,192,242747,128,0,242917:0:0:0:0:
320,192,242917,1,0,0:0:0:70:5.wav
448,192,242917,1,0,0:0:0:0:
192,192,243088,128,0,243258:0:0:0:66:1.wav
448,192,243088,1,0,0:0:0:0:
64,192,243258,1,0,0:0:0:66:1.wav
320,192,243258,1,0,0:0:0:0:
448,192,243429,128,0,243599:0:0:0:0:
64,192,243599,1,0,0:0:0:70:5.wav
320,192,243599,1,0,0:0:0:0:
448,192,243770,128,0,243940:0:0:0:0:
448,192,244110,128,0,244281:0:0:0:0:
64,192,244281,1,0,0:0:0:70:5.wav
192,192,244281,1,0,0:0:0:0:
448,192,244451,128,0,244622:0:0:0:0:
192,192,244622,1,0,0:0:0:66:1.wav
320,192,244622,1,0,0:0:0:0:
64,192,244792,128,0,244963:0:0:0:0:
320,192,244963,1,0,0:0:0:70:5.wav
448,192,244963,1,0,0:0:0:0:
64,192,245133,128,0,245304:0:0:0:0:
64,192,245474,128,0,245645:0:0:0:0:
192,192,245645,1,0,0:0:0:70:5.wav
448,192,245645,1,0,0:0:0:0:
64,192,245815,128,0,245985:0:0:0:66:1.wav
192,192,245815,1,0,0:0:0:0:
320,192,245985,1,0,0:0:0:66:1.wav
448,192,245985,1,0,0:0:0:0:
320,192,246156,128,0,246326:0:0:0:0:
64,192,246326,1,0,0:0:0:70:5.wav
192,192,246326,1,0,0:0:0:0:
320,192,246497,128,0,246667:0:0:0:0:
320,192,246838,128,0,247008:0:0:0:0:
192,192,247008,1,0,0:0:0:70:5.wav
448,192,247008,1,0,0:0:0:0:
320,192,247179,128,0,247349:0:0:0:0:
64,192,247349,1,0,0:0:0:66:1.wav
192,192,247349,1,0,0:0:0:0:
448,192,247520,128,0,247690:0:0:0:0:
64,192,247690,1,0,0:0:0:70:5.wav
320,192,247690,1,0,0:0:0:0:
448,192,247860,128,0,248031:0:0:0:0:
448,192,248201,128,0,248372:0:0:0:0:
192,192,248372,1,0,0:0:0:70:5.wav
320,192,248372,1,0,0:0:0:0:
320,192,248542,1,0,0:0:0:66:1.wav
448,192,248542,128,0,248713:0:0:0:0:
64,192,248713,1,0,0:0:0:66:1.wav
192,192,248713,1,0,0:0:0:0:
320,192,248883,128,0,249054:0:0:0:0:
64,192,249054,1,0,0:0:0:70:5.wav
448,192,249054,1,0,0:0:0:0:
320,192,249224,128,0,249395:0:0:0:0:
320,192,249565,128,0,249735:0:0:0:0:
192,192,249735,1,0,0:0:0:70:5.wav
448,192,249735,1,0,0:0:0:0:
320,192,249906,128,0,250076:0:0:0:0:
64,192,250076,1,0,0:0:0:66:1.wav
448,192,250076,1,0,0:0:0:0:
64,192,250247,128,0,250417:0:0:0:0:
320,192,250417,1,0,0:0:0:70:5.wav
448,192,250417,1,0,0:0:0:0:
64,192,250588,128,0,250758:0:0:0:0:
192,192,250758,1,0,0:0:0:66:1.wav
320,192,250758,1,0,0:0:0:0:
64,192,250929,128,0,251099:0:0:0:0:
192,192,251099,1,0,0:0:0:70:5.wav
448,192,251099,1,0,0:0:0:0:
64,192,251270,128,0,251440:0:0:0:0:
192,192,251440,1,0,0:0:0:22:1.wav
320,192,251440,1,0,0:0:0:50:2.wav
448,192,251440,1,0,0:0:0:22:3.wav
64,192,251610,1,0,0:0:0:66:1.wav
192,192,251610,1,0,0:0:0:0:
64,192,251781,1,0,0:0:0:22:1.wav
320,192,251781,1,0,0:0:0:50:2.wav
448,192,251781,1,0,0:0:0:22:3.wav
192,192,251951,1,0,0:0:0:66:1.wav
320,192,251951,1,0,0:0:0:0:
64,192,252463,1,0,0:0:0:22:1.wav
192,192,252463,1,0,0:0:0:50:2.wav
320,192,252463,1,0,0:0:0:22:3.wav
320,192,252633,1,0,0:0:0:66:1.wav
448,192,252633,1,0,0:0:0:0:
64,192,252804,1,0,0:0:0:22:1.wav
192,192,252804,1,0,0:0:0:50:2.wav
448,192,252804,1,0,0:0:0:22:3.wav
192,192,252974,1,0,0:0:0:66:1.wav
320,192,252974,1,0,0:0:0:0:
64,192,253485,1,0,0:0:0:22:1.wav
192,192,253485,1,0,0:0:0:50:2.wav
320,192,253485,1,0,0:0:0:22:3.wav
192,192,253656,1,0,0:0:0:33:1.wav
320,192,253656,1,0,0:0:0:33:3.wav
448,192,253656,1,0,0:0:0:0:
64,192,253826,1,0,0:0:0:22:1.wav
192,192,253826,1,0,0:0:0:50:2.wav
448,192,253826,1,0,0:0:0:22:3.wav
64,192,253997,1,0,0:0:0:33:1.wav
320,192,253997,1,0,0:0:0:33:3.wav
448,192,253997,1,0,0:0:0:0:
64,192,254508,1,0,0:0:0:33:1.wav
192,192,254508,1,0,0:0:0:50:2.wav
320,192,254508,1,0,0:0:0:0:
64,192,254679,128,0,254849:0:0:0:0:
320,192,254849,1,0,0:0:0:66:1.wav
448,192,254849,1,0,0:0:0:0:
192,192,255020,128,0,255190:0:0:0:0:
64,192,255190,1,0,0:0:0:33:1.wav
320,192,255190,1,0,0:0:0:50:2.wav
448,192,255190,1,0,0:0:0:0:
448,192,255360,128,0,255531:0:0:0:0:
64,192,255531,1,0,0:0:0:66:1.wav
192,192,255531,1,0,0:0:0:0:
192,192,255701,1,0,0:0:0:66:1.wav
320,192,255701,1,0,0:0:0:0:
64,192,255872,1,0,0:0:0:33:1.wav
320,192,255872,1,0,0:0:0:50:2.wav
448,192,255872,1,0,0:0:0:0:
64,192,256042,1,0,0:0:0:66:1.wav
192,192,256042,1,0,0:0:0:0:
320,192,256127,1,0,0:0:0:66:1.wav
448,192,256127,1,0,0:0:0:0:
64,192,256213,1,0,0:0:0:66:1.wav
192,192,256213,1,0,0:0:0:0:
320,192,256298,1,0,0:0:0:66:1.wav
448,192,256298,1,0,0:0:0:0:
64,192,256383,1,0,0:0:0:66:1.wav
192,192,256383,1,0,0:0:0:0:
320,192,256468,1,0,0:0:0:66:1.wav
448,192,256468,1,0,0:0:0:0:
64,192,256554,1,0,0:0:0:66:1.wav
192,192,256554,1,0,0:0:0:0:
320,192,256639,1,0,0:0:0:66:1.wav
448,192,256639,1,0,0:0:0:0:
64,192,256724,1,0,0:0:0:66:1.wav
192,192,256767,1,0,0:0:0:66:1.wav
320,192,256809,1,0,0:0:0:66:1.wav
448,192,256852,1,0,0:0:0:66:1.wav
64,192,256895,1,0,0:0:0:33:1.wav
192,192,256895,1,0,0:0:0:33:3.wav
64,192,257065,1,0,0:0:0:0:
320,192,257065,1,0,0:0:0:0:
192,192,257235,1,0,0:0:0:33:1.wav
320,192,257235,1,0,0:0:0:50:2.wav
448,192,257235,1,0,0:0:0:0:
64,192,257406,1,0,0:0:0:0:
448,192,257406,1,0,0:0:0:0:
192,192,257491,1,0,0:0:0:0:
320,192,257491,1,0,0:0:0:0:
64,192,257576,1,0,0:0:0:66:1.wav
448,192,257576,1,0,0:0:0:0:
192,192,257747,1,0,0:0:0:0:
320,192,257747,1,0,0:0:0:0:
448,192,257832,1,0,0:0:0:0:
64,192,257917,1,0,0:0:0:33:1.wav
192,192,257917,1,0,0:0:0:50:2.wav
320,192,257917,1,0,0:0:0:0:
448,192,258002,1,0,0:0:0:0:
64,192,258088,1,0,0:0:0:0:
192,192,258088,1,0,0:0:0:0:
320,192,258173,1,0,0:0:0:0:
64,192,258258,1,0,0:0:0:66:1.wav
448,192,258258,1,0,0:0:0:0:
192,192,258429,1,0,0:0:0:0:
448,192,258429,1,0,0:0:0:0:
64,192,258599,1,0,0:0:0:33:1.wav
192,192,258599,1,0,0:0:0:50:2.wav
320,192,258599,1,0,0:0:0:0:
320,192,258770,1,0,0:0:0:0:
448,192,258770,1,0,0:0:0:0:
64,192,258855,1,0,0:0:0:0:
192,192,258855,1,0,0:0:0:0:
320,192,258940,1,0,0:0:0:66:1.wav
448,192,258940,1,0,0:0:0:0:
64,192,259110,1,0,0:0:0:0:
192,192,259110,1,0,0:0:0:0:
320,192,259196,1,0,0:0:0:0:
64,192,259281,1,0,0:0:0:33:1.wav
192,192,259281,1,0,0:0:0:50:2.wav
448,192,259281,1,0,0:0:0:0:
320,192,259366,1,0,0:0:0:0:
64,192,259451,1,0,0:0:0:0:
448,192,259451,1,0,0:0:0:0:
192,192,259537,1,0,0:0:0:0:
320,192,259622,1,0,0:0:0:66:1.wav
448,192,259622,1,0,0:0:0:0:
64,192,259792,1,0,0:0:0:0:
320,192,259792,1,0,0:0:0:0:
64,192,259963,1,0,0:0:0:33:1.wav
192,192,259963,1,0,0:0:0:50:2.wav
448,192,259963,1,0,0:0:0:0:
192,192,260133,1,0,0:0:0:0:
320,192,260133,1,0,0:0:0:0:
64,192,260218,1,0,0:0:0:0:
448,192,260218,1,0,0:0:0:0:
192,192,260304,1,0,0:0:0:66:1.wav
320,192,260304,1,0,0:0:0:0:
64,192,260474,1,0,0:0:0:0:
448,192,260474,1,0,0:0:0:0:
192,192,260559,1,0,0:0:0:0:
64,192,260645,1,0,0:0:0:33:1.wav
320,192,260645,1,0,0:0:0:50:2.wav
448,192,260645,1,0,0:0:0:0:
192,192,260730,1,0,0:0:0:0:
320,192,260815,1,0,0:0:0:0:
448,192,260815,1,0,0:0:0:0:
64,192,260900,1,0,0:0:0:0:
192,192,260985,1,0,0:0:0:66:1.wav
320,192,260985,1,0,0:0:0:0:
192,192,261156,1,0,0:0:0:0:
448,192,261156,1,0,0:0:0:0:
64,192,261326,1,0,0:0:0:33:1.wav
320,192,261326,1,0,0:0:0:50:2.wav
448,192,261326,1,0,0:0:0:0:
64,192,261497,1,0,0:0:0:0:
192,192,261497,1,0,0:0:0:0:
320,192,261582,1,0,0:0:0:0:
448,192,261582,1,0,0:0:0:0:
64,192,261667,1,0,0:0:0:66:1.wav
192,192,261667,1,0,0:0:0:0:
320,192,261838,1,0,0:0:0:0:
448,192,261838,1,0,0:0:0:0:
192,192,261923,1,0,0:0:0:0:
64,192,262008,1,0,0:0:0:33:1.wav
320,192,262008,1,0,0:0:0:50:2.wav
448,192,262008,1,0,0:0:0:0:
64,192,262179,1,0,0:0:0:66:1.wav
192,192,262179,1,0,0:0:0:0:
64,192,262349,1,0,0:0:0:66:1.wav
192,192,262349,1,0,0:0:0:0:
320,192,262520,1,0,0:0:0:0:
448,192,262520,1,0,0:0:0:0:
64,192,262690,1,0,0:0:0:33:1.wav
192,192,262690,1,0,0:0:0:50:2.wav
320,192,262690,1,0,0:0:0:0:
64,192,262860,1,0,0:0:0:0:
448,192,262860,1,0,0:0:0:0:
192,192,262946,1,0,0:0:0:0:
320,192,262946,1,0,0:0:0:0:
64,192,263031,1,0,0:0:0:66:1.wav
448,192,263031,1,0,0:0:0:0:
192,192,263201,1,0,0:0:0:0:
320,192,263201,1,0,0:0:0:0:
64,192,263287,1,0,0:0:0:0:
192,192,263372,1,0,0:0:0:33:1.wav
320,192,263372,1,0,0:0:0:50:2.wav
448,192,263372,1,0,0:0:0:0:
64,192,263457,1,0,0:0:0:0:
192,192,263542,1,0,0:0:0:0:
448,192,263542,1,0,0:0:0:0:
320,192,263627,1,0,0:0:0:0:
64,192,263713,1,0,0:0:0:66:1.wav
448,192,263713,1,0,0:0:0:0:
64,192,263883,1,0,0:0:0:0:
320,192,263883,1,0,0:0:0:0:
192,192,264054,1,0,0:0:0:33:1.wav
320,192,264054,1,0,0:0:0:50:2.wav
448,192,264054,1,0,0:0:0:0:
64,192,264224,1,0,0:0:0:0:
192,192,264224,1,0,0:0:0:0:
320,192,264309,1,0,0:0:0:0:
448,192,264309,1,0,0:0:0:0:
64,192,264395,1,0,0:0:0:66:1.wav
192,192,264395,1,0,0:0:0:0:
320,192,264565,1,0,0:0:0:0:
448,192,264565,1,0,0:0:0:0:
192,192,264650,1,0,0:0:0:0:
64,192,264735,1,0,0:0:0:33:1.wav
320,192,264735,1,0,0:0:0:50:2.wav
448,192,264735,1,0,0:0:0:0:
192,192,264821,1,0,0:0:0:0:
64,192,264906,1,0,0:0:0:0:
448,192,264906,1,0,0:0:0:0:
320,192,264991,1,0,0:0:0:0:
64,192,265076,1,0,0:0:0:66:1.wav
192,192,265076,1,0,0:0:0:0:
192,192,265247,1,0,0:0:0:0:
448,192,265247,1,0,0:0:0:0:
64,192,265417,1,0,0:0:0:33:1.wav
320,192,265417,1,0,0:0:0:50:2.wav
448,192,265417,1,0,0:0:0:0:
192,192,265588,1,0,0:0:0:0:
320,192,265588,1,0,0:0:0:0:
64,192,265673,1,0,0:0:0:0:
448,192,265673,1,0,0:0:0:0:
192,192,265758,1,0,0:0:0:66:1.wav
320,192,265758,1,0,0:0:0:0:
64,192,265929,1,0,0:0:0:0:
448,192,265929,1,0,0:0:0:0:
192,192,266014,1,0,0:0:0:0:
64,192,266099,1,0,0:0:0:33:1.wav
320,192,266099,1,0,0:0:0:50:2.wav
448,192,266099,1,0,0:0:0:0:
192,192,266184,1,0,0:0:0:0:
64,192,266270,1,0,0:0:0:0:
320,192,266270,1,0,0:0:0:0:
448,192,266355,1,0,0:0:0:0:
192,192,266440,1,0,0:0:0:66:1.wav
320,192,266440,1,0,0:0:0:0:
64,192,266610,1,0,0:0:0:0:
192,192,266610,1,0,0:0:0:0:
64,192,266781,1,0,0:0:0:33:1.wav
320,192,266781,1,0,0:0:0:50:2.wav
448,192,266781,1,0,0:0:0:0:
320,192,266951,1,0,0:0:0:66:1.wav
448,192,266951,1,0,0:0:0:0:
64,192,267122,1,0,0:0:0:66:1.wav
192,192,267122,1,0,0:0:0:0:
320,192,267207,1,0,0:0:0:66:1.wav
448,192,267207,1,0,0:0:0:0:
64,192,267292,1,0,0:0:0:0:
192,192,267377,1,0,0:0:0:66:1.wav
320,192,267377,1,0,0:0:0:0:
64,192,267463,128,0,267633:0:0:0:33:1.wav
448,192,267463,128,0,267633:0:0:0:50:2.wav
192,192,267633,1,0,0:0:0:66:1.wav
320,192,267633,1,0,0:0:0:0:
64,192,267804,1,0,0:0:0:33:1.wav
320,192,267804,1,0,0:0:0:33:3.wav
448,192,267804,1,0,0:0:0:0:
192,192,267974,1,0,0:0:0:0:
448,192,267974,1,0,0:0:0:0:
64,192,268145,1,0,0:0:0:33:1.wav
192,192,268145,1,0,0:0:0:50:2.wav
320,192,268145,1,0,0:0:0:0:
64,192,268315,1,0,0:0:0:0:
448,192,268315,1,0,0:0:0:0:
192,192,268400,1,0,0:0:0:0:
320,192,268400,1,0,0:0:0:0:
64,192,268485,1,0,0:0:0:66:1.wav
448,192,268485,1,0,0:0:0:0:
192,192,268656,1,0,0:0:0:0:
320,192,268656,1,0,0:0:0:0:
448,192,268741,1,0,0:0:0:0:
64,192,268826,1,0,0:0:0:33:1.wav
192,192,268826,1,0,0:0:0:50:2.wav
320,192,268826,1,0,0:0:0:0:
448,192,268912,1,0,0:0:0:0:
64,192,268997,1,0,0:0:0:0:
192,192,268997,1,0,0:0:0:0:
320,192,269082,1,0,0:0:0:0:
64,192,269167,1,0,0:0:0:66:1.wav
448,192,269167,1,0,0:0:0:0:
192,192,269338,1,0,0:0:0:0:
448,192,269338,1,0,0:0:0:0:
64,192,269508,1,0,0:0:0:33:1.wav
192,192,269508,1,0,0:0:0:50:2.wav
320,192,269508,1,0,0:0:0:0:
320,192,269679,1,0,0:0:0:0:
448,192,269679,1,0,0:0:0:0:
64,192,269764,1,0,0:0:0:0:
192,192,269764,1,0,0:0:0:0:
320,192,269849,1,0,0:0:0:66:1.wav
448,192,269849,1,0,0:0:0:0:
64,192,270020,1,0,0:0:0:0:
192,192,270020,1,0,0:0:0:0:
320,192,270105,1,0,0:0:0:0:
64,192,270190,1,0,0:0:0:33:1.wav
192,192,270190,1,0,0:0:0:50:2.wav
448,192,270190,1,0,0:0:0:0:
320,192,270275,1,0,0:0:0:0:
192,192,270360,1,0,0:0:0:0:
448,192,270360,1,0,0:0:0:0:
64,192,270446,1,0,0:0:0:0:
320,192,270531,1,0,0:0:0:66:1.wav
448,192,270531,1,0,0:0:0:0:
64,192,270701,1,0,0:0:0:0:
320,192,270701,1,0,0:0:0:0:
64,192,270872,1,0,0:0:0:33:1.wav
192,192,270872,1,0,0:0:0:50:2.wav
448,192,270872,1,0,0:0:0:0:
192,192,271042,1,0,0:0:0:0:
320,192,271042,1,0,0:0:0:0:
64,192,271127,1,0,0:0:0:0:
448,192,271127,1,0,0:0:0:0:
192,192,271213,1,0,0:0:0:66:1.wav
320,192,271213,1,0,0:0:0:0:
64,192,271383,1,0,0:0:0:0:
448,192,271383,1,0,0:0:0:0:
320,192,271468,1,0,0:0:0:0:
64,192,271554,1,0,0:0:0:33:1.wav
192,192,271554,1,0,0:0:0:50:2.wav
448,192,271554,1,0,0:0:0:0:
320,192,271639,1,0,0:0:0:0:
64,192,271724,1,0,0:0:0:0:
192,192,271724,1,0,0:0:0:0:
448,192,271809,1,0,0:0:0:0:
192,192,271895,1,0,0:0:0:66:1.wav
320,192,271895,1,0,0:0:0:0:
64,192,272065,1,0,0:0:0:0:
448,192,272065,1,0,0:0:0:0:
192,192,272235,1,0,0:0:0:33:1.wav
320,192,272235,1,0,0:0:0:50:2.wav
448,192,272235,1,0,0:0:0:0:
64,192,272406,1,0,0:0:0:0:
192,192,272406,1,0,0:0:0:0:
320,192,272491,1,0,0:0:0:0:
448,192,272491,1,0,0:0:0:0:
64,192,272576,1,0,0:0:0:66:1.wav
192,192,272576,1,0,0:0:0:0:
320,192,272747,1,0,0:0:0:0:
448,192,272747,1,0,0:0:0:0:
192,192,272832,1,0,0:0:0:0:
64,192,272917,1,0,0:0:0:22:1.wav
320,192,272917,1,0,0:0:0:50:2.wav
448,192,272917,1,0,0:0:0:100:4.wav
64,192,273088,1,0,0:0:0:33:1.wav
192,192,273088,1,0,0:0:0:100:4.wav
320,192,273173,1,0,0:0:0:33:1.wav
64,192,273258,1,0,0:0:0:22:1.wav
192,192,273258,1,0,0:0:0:22:3.wav
448,192,273258,1,0,0:0:0:100:4.wav
192,192,273429,1,0,0:0:0:0:
320,192,273429,1,0,0:0:0:0:
64,192,273599,1,0,0:0:0:22:1.wav
320,192,273599,1,0,0:0:0:50:2.wav
448,192,273599,1,0,0:0:0:100:4.wav
64,192,273770,1,0,0:0:0:0:
192,192,273770,1,0,0:0:0:0:
320,192,273855,1,0,0:0:0:0:
64,192,273940,1,0,0:0:0:33:1.wav
192,192,273940,1,0,0:0:0:100:4.wav
448,192,273940,1,0,0:0:0:0:
192,192,274110,1,0,0:0:0:0:
320,192,274110,1,0,0:0:0:0:
64,192,274281,1,0,0:0:0:22:1.wav
320,192,274281,1,0,0:0:0:50:2.wav
448,192,274281,1,0,0:0:0:100:4.wav
192,192,274451,1,0,0:0:0:0:
448,192,274451,1,0,0:0:0:0:
64,192,274537,1,0,0:0:0:0:
192,192,274622,1,0,0:0:0:22:1.wav
320,192,274622,1,0,0:0:0:22:3.wav
448,192,274622,1,0,0:0:0:100:4.wav
64,192,274792,1,0,0:0:0:0:
320,192,274792,1,0,0:0:0:0:
64,192,274963,1,0,0:0:0:22:1.wav
192,192,274963,1,0,0:0:0:50:2.wav
448,192,274963,1,0,0:0:0:100:4.wav
192,192,275133,1,0,0:0:0:0:
320,192,275133,1,0,0:0:0:0:
64,192,275218,1,0,0:0:0:0:
192,192,275304,1,0,0:0:0:33:1.wav
320,192,275304,1,0,0:0:0:100:4.wav
448,192,275304,1,0,0:0:0:0:
64,192,275474,1,0,0:0:0:0:
448,192,275474,1,0,0:0:0:0:
64,192,275645,1,0,0:0:0:22:1.wav
192,192,275645,1,0,0:0:0:50:2.wav
320,192,275645,1,0,0:0:0:100:4.wav
448,192,275730,1,0,0:0:0:0:
192,192,275815,1,0,0:0:0:0:
320,192,275815,1,0,0:0:0:0:
64,192,275985,1,0,0:0:0:22:1.wav
320,192,275985,1,0,0:0:0:22:3.wav
448,192,275985,1,0,0:0:0:100:4.wav
64,192,276156,1,0,0:0:0:33:1.wav
192,192,276156,1,0,0:0:0:100:4.wav
448,192,276156,1,0,0:0:0:0:
192,192,276326,1,0,0:0:0:22:1.wav
320,192,276326,1,0,0:0:0:50:2.wav
448,192,276326,1,0,0:0:0:100:4.wav
64,192,276497,1,0,0:0:0:33:1.wav
320,192,276497,1,0,0:0:0:100:4.wav
448,192,276582,1,0,0:0:0:0:
64,192,276667,1,0,0:0:0:22:1.wav
192,192,276667,1,0,0:0:0:22:3.wav
320,192,276667,1,0,0:0:0:100:4.wav
64,192,276838,1,0,0:0:0:33:1.wav
192,192,276838,1,0,0:0:0:100:4.wav
448,192,276838,1,0,0:0:0:0:
192,192,277008,1,0,0:0:0:22:1.wav
320,192,277008,1,0,0:0:0:50:2.wav
448,192,277008,1,0,0:0:0:100:4.wav
64,192,277179,1,0,0:0:0:33:1.wav
320,192,277179,1,0,0:0:0:100:4.wav
448,192,277264,1,0,0:0:0:0:
64,192,277349,1,0,0:0:0:22:1.wav
192,192,277349,1,0,0:0:0:22:3.wav
320,192,277434,1,0,0:0:0:33:1.wav
448,192,277434,1,0,0:0:0:100:4.wav
64,192,277520,1,0,0:0:0:33:1.wav
192,192,277520,1,0,0:0:0:100:4.wav
320,192,277605,1,0,0:0:0:33:1.wav
448,192,277605,1,0,0:0:0:100:4.wav
64,192,277690,1,0,0:0:0:22:1.wav
192,192,277690,1,0,0:0:0:50:2.wav
320,192,277775,1,0,0:0:0:33:1.wav
448,192,277775,1,0,0:0:0:100:4.wav
64,192,277860,1,0,0:0:0:33:1.wav
192,192,277860,1,0,0:0:0:100:4.wav
320,192,277946,1,0,0:0:0:33:1.wav
448,192,277946,1,0,0:0:0:100:4.wav
64,192,278031,1,0,0:0:0:33:1.wav
192,192,278031,1,0,0:0:0:100:4.wav
320,192,278116,1,0,0:0:0:33:1.wav
448,192,278116,1,0,0:0:0:100:4.wav
192,192,278201,1,0,0:0:0:33:1.wav
64,192,278244,1,0,0:0:0:100:4.wav
320,192,278287,1,0,0:0:0:33:1.wav
448,192,278287,1,0,0:0:0:100:4.wav
64,192,278372,1,0,0:0:0:22:1.wav
192,192,278372,1,0,0:0:0:50:2.wav
448,192,278414,1,0,0:0:0:100:4.wav
320,192,278457,1,0,0:0:0:33:1.wav
192,192,278500,1,0,0:0:0:100:4.wav
64,192,278542,1,0,0:0:0:33:1.wav
448,192,278585,1,0,0:0:0:100:4.wav
320,192,278627,1,0,0:0:0:33:1.wav
192,192,278670,1,0,0:0:0:100:4.wav
64,192,278713,128,0,280076:0:0:0:0:
192,192,279735,128,0,280076:0:0:0:0:
320,192,280076,1,0,0:0:0:33:1.wav
448,192,280076,1,0,0:0:0:33:3.wav
64,192,280247,1,0,0:0:0:0:
64,192,280417,1,0,0:0:0:33:1.wav
192,192,280417,1,0,0:0:0:50:2.wav
320,192,280417,1,0,0:0:0:0:
448,192,280588,1,0,0:0:0:0:
64,192,280673,1,0,0:0:0:0:
192,192,280673,1,0,0:0:0:0:
320,192,280758,1,0,0:0:0:66:1.wav
448,192,280758,1,0,0:0:0:0:
64,192,280929,1,0,0:0:0:0:
320,192,280929,1,0,0:0:0:0:
64,192,281099,1,0,0:0:0:33:1.wav
192,192,281099,1,0,0:0:0:50:2.wav
448,192,281099,1,0,0:0:0:0:
320,192,281270,1,0,0:0:0:0:
448,192,281270,1,0,0:0:0:0:
64,192,281440,1,0,0:0:0:66:1.wav
192,192,281440,1,0,0:0:0:0:
320,192,281440,1,0,0:0:0:0:
192,192,281610,1,0,0:0:0:0:
448,192,281610,1,0,0:0:0:0:
64,192,281781,1,0,0:0:0:33:1.wav
320,192,281781,1,0,0:0:0:50:2.wav
448,192,281781,1,0,0:0:0:0:
192,192,281951,1,0,0:0:0:0:
320,192,282037,1,0,0:0:0:0:
448,192,282037,1,0,0:0:0:0:
64,192,282122,1,0,0:0:0:66:1.wav
192,192,282122,1,0,0:0:0:0:
64,192,282292,1,0,0:0:0:0:
320,192,282292,1,0,0:0:0:0:
192,192,282463,1,0,0:0:0:33:1.wav
320,192,282463,1,0,0:0:0:50:2.wav
448,192,282463,1,0,0:0:0:0:
64,192,282633,1,0,0:0:0:0:
448,192,282633,1,0,0:0:0:0:
64,192,282804,1,0,0:0:0:66:1.wav
192,192,282804,1,0,0:0:0:0:
320,192,282804,1,0,0:0:0:0:
448,192,282974,1,0,0:0:0:0:
64,192,283145,1,0,0:0:0:33:1.wav
192,192,283145,1,0,0:0:0:50:2.wav
448,192,283145,1,0,0:0:0:0:
320,192,283315,1,0,0:0:0:0:
64,192,283400,1,0,0:0:0:0:
448,192,283400,1,0,0:0:0:0:
192,192,283485,1,0,0:0:0:66:1.wav
320,192,283485,1,0,0:0:0:0:
64,192,283656,1,0,0:0:0:0:
192,192,283656,1,0,0:0:0:0:
64,192,283826,1,0,0:0:0:33:1.wav
320,192,283826,1,0,0:0:0:50:2.wav
448,192,283826,1,0,0:0:0:0:
192,192,283997,1,0,0:0:0:0:
448,192,283997,1,0,0:0:0:0:
64,192,284167,1,0,0:0:0:66:1.wav
192,192,284167,1,0,0:0:0:0:
320,192,284167,1,0,0:0:0:0:
448,192,284338,1,0,0:0:0:0:
192,192,284508,1,0,0:0:0:33:1.wav
320,192,284508,1,0,0:0:0:50:2.wav
448,192,284508,1,0,0:0:0:0:
64,192,284679,1,0,0:0:0:0:
192,192,284764,1,0,0:0:0:0:
320,192,284764,1,0,0:0:0:0:
64,192,284849,1,0,0:0:0:66:1.wav
448,192,284849,1,0,0:0:0:0:
320,192,285020,1,0,0:0:0:0:
448,192,285020,1,0,0:0:0:0:
64,192,285190,1,0,0:0:0:33:1.wav
192,192,285190,1,0,0:0:0:50:2.wav
320,192,285190,1,0,0:0:0:0:
64,192,285360,1,0,0:0:0:66:1.wav
192,192,285360,1,0,0:0:0:0:
64,192,285531,1,0,0:0:0:66:1.wav
320,192,285531,1,0,0:0:0:0:
448,192,285531,1,0,0:0:0:0:
192,192,285701,1,0,0:0:0:0:
64,192,285872,1,0,0:0:0:33:1.wav
192,192,285872,1,0,0:0:0:50:2.wav
320,192,285872,1,0,0:0:0:0:
448,192,286042,1,0,0:0:0:0:
64,192,286127,1,0,0:0:0:0:
192,192,286127,1,0,0:0:0:0:
320,192,286213,1,0,0:0:0:66:1.wav
448,192,286213,1,0,0:0:0:0:
64,192,286383,1,0,0:0:0:0:
320,192,286383,1,0,0:0:0:0:
64,192,286554,1,0,0:0:0:33:1.wav
192,192,286554,1,0,0:0:0:50:2.wav
448,192,286554,1,0,0:0:0:0:
320,192,286724,1,0,0:0:0:0:
448,192,286724,1,0,0:0:0:0:
64,192,286895,1,0,0:0:0:66:1.wav
192,192,286895,1,0,0:0:0:0:
320,192,286895,1,0,0:0:0:0:
64,192,287065,1,0,0:0:0:0:
448,192,287065,1,0,0:0:0:0:
192,192,287235,1,0,0:0:0:33:1.wav
320,192,287235,1,0,0:0:0:50:2.wav
448,192,287235,1,0,0:0:0:0:
64,192,287406,1,0,0:0:0:0:
320,192,287406,1,0,0:0:0:0:
64,192,287576,1,0,0:0:0:66:1.wav
192,192,287576,1,0,0:0:0:0:
448,192,287576,1,0,0:0:0:0:
192,192,287747,1,0,0:0:0:0:
320,192,287747,1,0,0:0:0:0:
64,192,287917,1,0,0:0:0:33:1.wav
320,192,287917,1,0,0:0:0:50:2.wav
448,192,287917,1,0,0:0:0:0:
64,192,288088,1,0,0:0:0:0:
192,192,288088,1,0,0:0:0:0:
192,192,288258,1,0,0:0:0:66:1.wav
320,192,288258,1,0,0:0:0:0:
448,192,288258,1,0,0:0:0:0:
64,192,288429,1,0,0:0:0:0:
64,192,288599,1,0,0:0:0:33:1.wav
320,192,288599,1,0,0:0:0:50:2.wav
448,192,288599,1,0,0:0:0:0:
192,192,288770,1,0,0:0:0:0:
320,192,288855,1,0,0:0:0:0:
448,192,288855,1,0,0:0:0:0:
64,192,288940,1,0,0:0:0:66:1.wav
192,192,288940,1,0,0:0:0:0:
64,192,289110,1,0,0:0:0:0:
320,192,289110,1,0,0:0:0:0:
192,192,289281,1,0,0:0:0:33:1.wav
320,192,289281,1,0,0:0:0:50:2.wav
448,192,289281,1,0,0:0:0:0:
64,192,289451,1,0,0:0:0:0:
192,192,289451,1,0,0:0:0:0:
64,192,289622,1,0,0:0:0:66:1.wav
320,192,289622,1,0,0:0:0:0:
448,192,289622,1,0,0:0:0:0:
192,192,289792,1,0,0:0:0:0:
64,192,289963,1,0,0:0:0:33:1.wav
192,192,289963,1,0,0:0:0:50:2.wav
320,192,289963,1,0,0:0:0:0:
64,192,290133,1,0,0:0:0:66:1.wav
448,192,290133,1,0,0:0:0:0:
320,192,290304,1,0,0:0:0:66:1.wav
448,192,290304,1,0,0:0:0:0:
64,192,290389,1,0,0:0:0:66:1.wav
192,192,290389,1,0,0:0:0:0:
320,192,290474,1,0,0:0:0:0:
64,192,290559,1,0,0:0:0:66:1.wav
448,192,290559,1,0,0:0:0:0:
192,192,290645,1,0,0:0:0:33:1.wav
320,192,290645,1,0,0:0:0:50:2.wav
64,192,290815,1,0,0:0:0:66:1.wav
192,192,290815,1,0,0:0:0:0:
448,192,290815,1,0,0:0:0:0:
64,192,290985,1,0,0:0:0:33:1.wav
320,192,290985,1,0,0:0:0:33:3.wav
448,192,290985,1,0,0:0:0:0:
192,192,291156,1,0,0:0:0:0:
64,192,291326,1,0,0:0:0:33:1.wav
192,192,291326,1,0,0:0:0:50:2.wav
320,192,291326,1,0,0:0:0:0:
448,192,291497,1,0,0:0:0:0:
192,192,291582,1,0,0:0:0:0:
320,192,291582,1,0,0:0:0:0:
64,192,291667,1,0,0:0:0:66:1.wav
448,192,291667,1,0,0:0:0:0:
64,192,291838,1,0,0:0:0:0:
192,192,291838,1,0,0:0:0:0:
192,192,292008,1,0,0:0:0:33:1.wav
320,192,292008,1,0,0:0:0:50:2.wav
448,192,292008,1,0,0:0:0:0:
64,192,292179,1,0,0:0:0:0:
320,192,292179,1,0,0:0:0:0:
64,192,292349,1,0,0:0:0:66:1.wav
192,192,292349,1,0,0:0:0:0:
448,192,292349,1,0,0:0:0:0:
192,192,292520,1,0,0:0:0:0:
320,192,292520,1,0,0:0:0:0:
64,192,292690,1,0,0:0:0:33:1.wav
320,192,292690,1,0,0:0:0:50:2.wav
448,192,292690,1,0,0:0:0:0:
192,192,292860,1,0,0:0:0:0:
64,192,292946,1,0,0:0:0:0:
448,192,292946,1,0,0:0:0:0:
192,192,293031,1,0,0:0:0:66:1.wav
320,192,293031,1,0,0:0:0:0:
64,192,293201,1,0,0:0:0:0:
320,192,293201,1,0,0:0:0:0:
64,192,293372,1,0,0:0:0:33:1.wav
192,192,293372,1,0,0:0:0:50:2.wav
448,192,293372,1,0,0:0:0:0:
320,192,293542,1,0,0:0:0:0:
448,192,293542,1,0,0:0:0:0:
64,192,293713,1,0,0:0:0:66:1.wav
192,192,293713,1,0,0:0:0:0:
320,192,293713,1,0,0:0:0:0:
448,192,293883,1,0,0:0:0:0:
192,192,294054,1,0,0:0:0:33:1.wav
320,192,294054,1,0,0:0:0:50:2.wav
448,192,294054,1,0,0:0:0:0:
64,192,294224,1,0,0:0:0:0:
320,192,294309,1,0,0:0:0:0:
448,192,294309,1,0,0:0:0:0:
64,192,294395,1,0,0:0:0:66:1.wav
192,192,294395,1,0,0:0:0:0:
192,192,294565,1,0,0:0:0:0:
448,192,294565,1,0,0:0:0:0:
64,192,294735,1,0,0:0:0:33:1.wav
320,192,294735,1,0,0:0:0:50:2.wav
448,192,294735,1,0,0:0:0:0:
64,192,294906,1,0,0:0:0:0:
192,192,294906,1,0,0:0:0:0:
192,192,295076,1,0,0:0:0:66:1.wav
320,192,295076,1,0,0:0:0:0:
448,192,295076,1,0,0:0:0:0:
64,192,295247,1,0,0:0:0:0:
64,192,295417,1,0,0:0:0:33:1.wav
192,192,295417,1,0,0:0:0:50:2.wav
448,192,295417,1,0,0:0:0:0:
320,192,295588,1,0,0:0:0:0:
64,192,295673,1,0,0:0:0:0:
192,192,295673,1,0,0:0:0:0:
320,192,295758,1,0,0:0:0:66:1.wav
448,192,295758,1,0,0:0:0:0:
64,192,295929,1,0,0:0:0:0:
448,192,295929,1,0,0:0:0:0:
64,192,296099,1,0,0:0:0:22:1.wav
192,192,296099,1,0,0:0:0:50:2.wav
320,192,296099,1,0,0:0:0:100:4.wav
320,192,296270,1,0,0:0:0:33:1.wav
448,192,296270,1,0,0:0:0:100:4.wav
192,192,296355,1,0,0:0:0:33:1.wav
64,192,296440,1,0,0:0:0:22:1.wav
320,192,296440,1,0,0:0:0:22:3.wav
448,192,296440,1,0,0:0:0:100:4.wav
192,192,296610,1,0,0:0:0:0:
64,192,296781,1,0,0:0:0:22:1.wav
192,192,296781,1,0,0:0:0:50:2.wav
448,192,296781,1,0,0:0:0:100:4.wav
320,192,296951,1,0,0:0:0:0:
64,192,297037,1,0,0:0:0:0:
192,192,297037,1,0,0:0:0:0:
320,192,297122,1,0,0:0:0:33:1.wav
448,192,297122,1,0,0:0:0:100:4.wav
64,192,297292,1,0,0:0:0:0:
448,192,297292,1,0,0:0:0:0:
64,192,297463,1,0,0:0:0:22:1.wav
192,192,297463,1,0,0:0:0:50:2.wav
320,192,297463,1,0,0:0:0:100:4.wav
320,192,297633,1,0,0:0:0:0:
448,192,297633,1,0,0:0:0:0:
64,192,297804,1,0,0:0:0:22:1.wav
192,192,297804,1,0,0:0:0:22:3.wav
448,192,297804,1,0,0:0:0:100:4.wav
64,192,297974,1,0,0:0:0:0:
320,192,297974,1,0,0:0:0:0:
192,192,298145,1,0,0:0:0:22:1.wav
320,192,298145,1,0,0:0:0:50:2.wav
448,192,298145,1,0,0:0:0:100:4.wav
64,192,298315,1,0,0:0:0:0:
448,192,298315,1,0,0:0:0:0:
64,192,298485,1,0,0:0:0:33:1.wav
192,192,298485,1,0,0:0:0:100:4.wav
320,192,298485,1,0,0:0:0:0:
192,192,298656,1,0,0:0:0:0:
448,192,298656,1,0,0:0:0:0:
64,192,298826,1,0,0:0:0:22:1.wav
320,192,298826,1,0,0:0:0:50:2.wav
448,192,298826,1,0,0:0:0:100:4.wav
192,192,298997,1,0,0:0:0:0:
320,192,298997,1,0,0:0:0:0:
64,192,299167,1,0,0:0:0:22:1.wav
192,192,299167,1,0,0:0:0:22:3.wav
448,192,299167,1,0,0:0:0:100:4.wav
64,192,299338,1,0,0:0:0:33:1.wav
320,192,299338,1,0,0:0:0:100:4.wav
192,192,299508,1,0,0:0:0:22:1.wav
320,192,299508,1,0,0:0:0:50:2.wav
448,192,299508,1,0,0:0:0:100:4.wav
64,192,299679,1,0,0:0:0:33:1.wav
192,192,299679,1,0,0:0:0:100:4.wav
448,192,299764,1,0,0:0:0:0:
64,192,299849,1,0,0:0:0:22:1.wav
192,192,299849,1,0,0:0:0:22:3.wav
320,192,299849,1,0,0:0:0:100:4.wav
320,192,300020,1,0,0:0:0:33:1.wav
448,192,300020,1,0,0:0:0:100:4.wav
64,192,300190,1,0,0:0:0:22:1.wav
192,192,300190,1,0,0:0:0:50:2.wav
448,192,300190,1,0,0:0:0:100:4.wav
64,192,300360,1,0,0:0:0:33:1.wav
320,192,300360,1,0,0:0:0:100:4.wav
192,192,300446,1,0,0:0:0:0:
320,192,300531,1,0,0:0:0:22:1.wav
448,192,300531,1,0,0:0:0:22:3.wav
64,192,300616,1,0,0:0:0:33:1.wav
192,192,300616,1,0,0:0:0:100:4.wav
320,192,300701,1,0,0:0:0:33:1.wav
448,192,300701,1,0,0:0:0:100:4.wav
64,192,300787,1,0,0:0:0:33:1.wav
192,192,300787,1,0,0:0:0:100:4.wav
320,192,300872,1,0,0:0:0:22:1.wav
448,192,300872,1,0,0:0:0:50:2.wav
64,192,300957,1,0,0:0:0:33:1.wav
192,192,300957,1,0,0:0:0:100:4.wav
320,192,301042,1,0,0:0:0:33:1.wav
448,192,301042,1,0,0:0:0:100:4.wav
64,192,301127,1,0,0:0:0:33:1.wav
192,192,301127,1,0,0:0:0:100:4.wav
320,192,301213,1,0,0:0:0:33:1.wav
448,192,301213,1,0,0:0:0:100:4.wav
64,192,301298,1,0,0:0:0:33:1.wav
192,192,301298,1,0,0:0:0:100:4.wav
320,192,301383,1,0,0:0:0:33:1.wav
448,192,301426,1,0,0:0:0:100:4.wav
64,192,301468,1,0,0:0:0:33:1.wav
192,192,301468,1,0,0:0:0:100:4.wav
320,192,301554,1,0,0:0:0:22:1.wav
448,192,301554,1,0,0:0:0:50:2.wav
64,192,301596,1,0,0:0:0:100:4.wav
192,192,301639,1,0,0:0:0:33:1.wav
320,192,301681,1,0,0:0:0:100:4.wav
448,192,301724,1,0,0:0:0:33:1.wav
64,192,301767,1,0,0:0:0:100:4.wav
192,192,301809,1,0,0:0:0:33:1.wav
320,192,301852,1,0,0:0:0:100:4.wav
64,192,301895,1,0,0:0:0:22:1.wav
192,192,301895,1,0,0:0:0:22:3.wav
448,192,301895,1,0,0:0:0:100:4.wav
320,192,302065,128,0,302235:0:0:0:0:
192,192,302235,1,0,0:0:0:66:1.wav
448,192,302235,1,0,0:0:0:0:
64,192,302406,128,0,302576:0:0:0:0:
192,192,302576,1,0,0:0:0:66:1.wav
320,192,302576,1,0,0:0:0:0:
448,192,302747,128,0,302917:0:0:0:0:
64,192,302917,1,0,0:0:0:66:1.wav
320,192,302917,1,0,0:0:0:0:
192,192,303088,128,0,303258:0:0:0:0:
320,192,303258,1,0,0:0:0:66:1.wav
448,192,303258,1,0,0:0:0:0:
64,192,303429,128,0,303599:0:0:0:0:
192,192,303599,1,0,0:0:0:66:1.wav
448,192,303599,1,0,0:0:0:0:
320,192,303770,128,0,303940:0:0:0:0:
64,192,303940,1,0,0:0:0:66:1.wav
448,192,303940,1,0,0:0:0:0:
192,192,304110,128,0,304281:0:0:0:0:
64,192,304281,1,0,0:0:0:66:1.wav
320,192,304281,1,0,0:0:0:0:
448,192,304451,128,0,304622:0:0:0:0:
192,192,304622,1,0,0:0:0:66:1.wav
320,192,304622,1,0,0:0:0:0:
64,192,304792,128,0,304963:0:0:0:0:
320,192,304963,1,0,0:0:0:66:1.wav
448,192,304963,1,0,0:0:0:0:
192,192,305133,128,0,305304:0:0:0:0:
64,192,305304,1,0,0:0:0:66:1.wav
448,192,305304,1,0,0:0:0:0:
320,192,305474,128,0,305645:0:0:0:0:
64,192,305645,1,0,0:0:0:66:1.wav
192,192,305645,1,0,0:0:0:0:
448,192,305815,128,0,305985:0:0:0:0:
192,192,305985,1,0,0:0:0:66:1.wav
320,192,305985,1,0,0:0:0:0:
448,192,306156,128,0,306326:0:0:0:0:
64,192,306326,1,0,0:0:0:66:1.wav
192,192,306326,1,0,0:0:0:0:
320,192,306497,128,0,306667:0:0:0:0:
64,192,306667,1,0,0:0:0:66:1.wav
448,192,306667,1,0,0:0:0:0:
192,192,306838,128,0,307008:0:0:0:0:
320,192,307008,1,0,0:0:0:66:1.wav
448,192,307008,1,0,0:0:0:0:
64,192,307179,128,0,307349:0:0:0:66:1.wav
320,192,307179,1,0,0:0:0:0:
192,192,307349,1,0,0:0:0:66:1.wav
448,192,307349,1,0,0:0:0:0:
320,192,307520,128,0,307690:0:0:0:0:
64,192,307690,1,0,0:0:0:66:1.wav
192,192,307690,1,0,0:0:0:0:
448,192,307860,128,0,308031:0:0:0:0:
64,192,308031,1,0,0:0:0:66:1.wav
320,192,308031,1,0,0:0:0:0:
192,192,308201,128,0,308372:0:0:0:0:
320,192,308372,1,0,0:0:0:66:1.wav
448,192,308372,1,0,0:0:0:0:
64,192,308542,128,0,308713:0:0:0:0:
192,192,308713,1,0,0:0:0:66:1.wav
320,192,308713,1,0,0:0:0:0:
448,192,308883,128,0,309054:0:0:0:0:
64,192,309054,1,0,0:0:0:66:1.wav
192,192,309054,1,0,0:0:0:0:
320,192,309224,128,0,309395:0:0:0:0:
192,192,309395,1,0,0:0:0:66:1.wav
448,192,309395,1,0,0:0:0:0:
64,192,309565,128,0,309735:0:0:0:0:
320,192,309735,1,0,0:0:0:66:1.wav
448,192,309735,1,0,0:0:0:0:
192,192,309906,128,0,310076:0:0:0:0:
64,192,310076,1,0,0:0:0:66:1.wav
448,192,310076,1,0,0:0:0:0:
192,192,310247,128,0,310417:0:0:0:0:
320,192,310417,1,0,0:0:0:66:1.wav
448,192,310417,1,0,0:0:0:0:
64,192,310588,128,0,310758:0:0:0:0:
192,192,310758,1,0,0:0:0:66:1.wav
448,192,310758,1,0,0:0:0:0:
320,192,310929,128,0,311099:0:0:0:0:
64,192,311099,1,0,0:0:0:66:1.wav
192,192,311099,1,0,0:0:0:0:
448,192,311270,128,0,311440:0:0:0:0:
192,192,311440,1,0,0:0:0:66:1.wav
320,192,311440,1,0,0:0:0:0:
64,192,311610,128,0,311781:0:0:0:0:
192,192,311781,1,0,0:0:0:66:1.wav
448,192,311781,1,0,0:0:0:0:
64,192,311951,1,0,0:0:0:66:1.wav
192,192,311951,1,0,0:0:0:0:
320,192,312122,1,0,0:0:0:66:1.wav
448,192,312122,1,0,0:0:0:0:
64,192,312207,1,0,0:0:0:66:1.wav
192,192,312207,1,0,0:0:0:0:
64,192,312377,1,0,0:0:0:66:1.wav
448,192,312377,1,0,0:0:0:0:
192,192,312463,1,0,0:0:0:66:1.wav
320,192,312463,1,0,0:0:0:0:
64,192,312633,1,0,0:0:0:66:1.wav
192,192,312633,1,0,0:0:0:0:
64,192,312804,1,0,0:0:0:33:1.wav
320,192,312804,1,0,0:0:0:33:3.wav
448,192,312804,1,0,0:0:0:0:
192,192,312974,128,0,313145:0:0:0:0:
64,192,313145,1,0,0:0:0:66:1.wav
448,192,313145,1,0,0:0:0:0:
320,192,313315,128,0,313485:0:0:0:0:
192,192,313485,1,0,0:0:0:66:1.wav
448,192,313485,1,0,0:0:0:0:
64,192,313656,128,0,313826:0:0:0:0:
192,192,313826,1,0,0:0:0:66:1.wav
320,192,313826,1,0,0:0:0:0:
448,192,313997,128,0,314167:0:0:0:0:
64,192,314167,1,0,0:0:0:66:1.wav
192,192,314167,1,0,0:0:0:0:
320,192,314338,128,0,314508:0:0:0:0:
64,192,314508,1,0,0:0:0:66:1.wav
448,192,314508,1,0,0:0:0:0:
192,192,314679,128,0,314849:0:0:0:0:
64,192,314849,1,0,0:0:0:66:1.wav
320,192,314849,1,0,0:0:0:0:
448,192,315020,128,0,315190:0:0:0:0:
192,192,315190,1,0,0:0:0:66:1.wav
320,192,315190,1,0,0:0:0:0:
64,192,315360,128,0,315531:0:0:0:0:
192,192,315531,1,0,0:0:0:66:1.wav
448,192,315531,1,0,0:0:0:0:
320,192,315701,128,0,315872:0:0:0:0:
64,192,315872,1,0,0:0:0:66:1.wav
192,192,315872,1,0,0:0:0:0:
448,192,316042,128,0,316213:0:0:0:0:
64,192,316213,1,0,0:0:0:66:1.wav
320,192,316213,1,0,0:0:0:0:
192,192,316383,128,0,316554:0:0:0:0:
320,192,316554,1,0,0:0:0:66:1.wav
448,192,316554,1,0,0:0:0:0:
64,192,316724,128,0,316895:0:0:0:0:
192,192,316895,1,0,0:0:0:66:1.wav
320,192,316895,1,0,0:0:0:0:
448,192,317065,128,0,317235:0:0:0:0:
64,192,317235,1,0,0:0:0:66:1.wav
192,192,317235,1,0,0:0:0:0:
320,192,317406,128,0,317576:0:0:0:0:
192,192,317576,1,0,0:0:0:66:1.wav
448,192,317576,1,0,0:0:0:0:
64,192,317747,128,0,317917:0:0:0:0:
192,192,317917,1,0,0:0:0:33:1.wav
320,192,317917,1,0,0:0:0:100:4.wav
448,192,317917,1,0,0:0:0:0:
64,192,318088,1,0,0:0:0:33:1.wav
192,192,318088,1,0,0:0:0:100:4.wav
320,192,318173,1,0,0:0:0:100:4.wav
448,192,318173,1,0,0:0:0:0:
64,192,318258,1,0,0:0:0:33:1.wav
192,192,318258,1,0,0:0:0:100:4.wav
320,192,318429,128,0,318599:0:0:0:0:
64,192,318599,1,0,0:0:0:33:1.wav
192,192,318599,1,0,0:0:0:100:4.wav
448,192,318599,1,0,0:0:0:0:
64,192,318770,128,0,318940:0:0:0:0:
192,192,318940,1,0,0:0:0:33:1.wav
320,192,318940,1,0,0:0:0:100:4.wav
448,192,318940,1,0,0:0:0:0:
448,192,319110,128,0,319281:0:0:0:0:
64,192,319281,1,0,0:0:0:33:1.wav
192,192,319281,1,0,0:0:0:100:4.wav
320,192,319281,1,0,0:0:0:0:
192,192,319451,128,0,319622:0:0:0:0:
64,192,319622,1,0,0:0:0:33:1.wav
320,192,319622,1,0,0:0:0:100:4.wav
448,192,319622,1,0,0:0:0:0:
320,192,319792,128,0,319963:0:0:0:0:
64,192,319963,1,0,0:0:0:33:1.wav
192,192,319963,1,0,0:0:0:100:4.wav
448,192,319963,1,0,0:0:0:0:
448,192,320133,128,0,320304:0:0:0:0:
64,192,320304,1,0,0:0:0:33:1.wav
192,192,320304,1,0,0:0:0:100:4.wav
320,192,320304,1,0,0:0:0:0:
192,192,320474,128,0,320645:0:0:0:0:
64,192,320645,1,0,0:0:0:33:1.wav
320,192,320645,1,0,0:0:0:100:4.wav
448,192,320645,1,0,0:0:0:0:
64,192,320815,128,0,320985:0:0:0:100:4.wav
448,192,320815,1,0,0:0:0:0:
192,192,320985,1,0,0:0:0:33:1.wav
320,192,320985,1,0,0:0:0:100:4.wav
448,192,320985,1,0,0:0:0:0:
192,192,321156,1,0,0:0:0:100:4.wav
320,192,321156,128,0,321326:0:0:0:0:
64,192,321326,1,0,0:0:0:33:1.wav
192,192,321326,1,0,0:0:0:100:4.wav
448,192,321326,1,0,0:0:0:0:
64,192,321497,128,0,321667:0:0:0:100:4.wav
448,192,321497,1,0,0:0:0:0:
192,192,321667,1,0,0:0:0:33:1.wav
320,192,321667,1,0,0:0:0:100:4.wav
448,192,321667,1,0,0:0:0:0:
192,192,321838,128,0,322008:0:0:0:100:4.wav
320,192,321838,1,0,0:0:0:0:
64,192,322008,1,0,0:0:0:33:1.wav
320,192,322008,1,0,0:0:0:100:4.wav
448,192,322008,1,0,0:0:0:0:
64,192,322179,1,0,0:0:0:100:4.wav
448,192,322179,128,0,322349:0:0:0:0:
192,192,322264,1,0,0:0:0:100:4.wav
64,192,322349,1,0,0:0:0:33:1.wav
320,192,322349,1,0,0:0:0:100:4.wav
192,192,322434,1,0,0:0:0:100:4.wav
320,192,322520,1,0,0:0:0:100:4.wav
448,192,322605,1,0,0:0:0:100:4.wav
64,192,322690,1,0,0:0:0:33:1.wav
192,192,322690,1,0,0:0:0:100:4.wav
320,192,322775,1,0,0:0:0:100:4.wav
64,192,322860,1,0,0:0:0:33:1.wav
448,192,322860,1,0,0:0:0:100:4.wav
192,192,322946,1,0,0:0:0:100:4.wav
320,192,323031,1,0,0:0:0:33:1.wav
448,192,323031,1,0,0:0:0:100:4.wav
64,192,323116,1,0,0:0:0:33:1.wav
192,192,323116,1,0,0:0:0:100:4.wav
448,192,323201,1,0,0:0:0:100:4.wav
320,192,323244,1,0,0:0:0:100:4.wav
64,192,323287,1,0,0:0:0:33:1.wav
192,192,323287,1,0,0:0:0:100:4.wav
320,192,323372,1,0,0:0:0:33:1.wav
448,192,323372,1,0,0:0:0:100:4.wav
192,192,323414,1,0,0:0:0:100:4.wav
64,192,323457,1,0,0:0:0:100:4.wav
448,192,323500,1,0,0:0:0:100:4.wav
192,192,323542,1,0,0:0:0:33:1.wav
320,192,323542,1,0,0:0:0:100:4.wav
64,192,323585,1,0,0:0:0:100:4.wav
448,192,323627,1,0,0:0:0:100:4.wav
320,192,323670,1,0,0:0:0:100:4.wav
64,192,323713,1,0,0:0:0:0:
192,192,323713,1,0,0:0:0:0:
