osu file format v14

[General]
AudioFilename: audio.ogg
AudioLeadIn: 0
PreviewTime: 47491
Countdown: 0
SampleSet: Drum
StackLeniency: 0.7
Mode: 3
LetterboxInBreaks: 0
SpecialStyle: 0
WidescreenStoryboard: 1

[Editor]
DistanceSpacing: 1.4
BeatDivisor: 4
GridSize: 16
TimelineZoom: 1.6

[Metadata]
Title:Ashita Genki ni Naare! (Cut Ver.)
TitleUnicode:あした元気になぁれ!(Cut Ver.)
Artist:Chino (CV: Inori Minase)
ArtistUnicode:チノ (CV: 水瀬いのり)
Creator:Muse Dash
Version:Vitality!
Source:ご注文はうさぎですか??
Tags:dudehacker Drum-hitnormal ML-ysg ごちうさ Gochiusa かふうちの 香風智乃 キャラクターソング Kafū Kafuu character song short Gochuumon wa Usagi Desu ka? Is the Order a Rabbit? チマメ隊 Chimame-tai chimame march GNCA-1500 Koi 芳文社 Houbunsha pop jpop j-pop anime Japanese
BeatmapID:3494448
BeatmapSetID:1710155

[Difficulty]
HPDrainRate:8.8
CircleSize:4
OverallDifficulty:8
ApproachRate:5
SliderMultiplier:1.4
SliderTickRate:1

[Events]
//Background and Video events
0,0,"064.jpg",0,0
//Break Periods
//Storyboard Layer 0 (Background)
//Storyboard Layer 1 (Fail)
//Storyboard Layer 2 (Pass)
//Storyboard Layer 3 (Foreground)
//Storyboard Layer 4 (Overlay)
//Storyboard Sound Samples

[TimingPoints]
1345,352.941176470588,4,3,1,70,1,0
14050,352.941176470588,4,3,1,70,1,0
22521,352.941176470588,4,3,1,70,1,0
33462,-102.040816326531,4,3,1,70,0,0
33550,-104.166666666667,4,3,1,70,0,0
33639,-106.382978723404,4,3,1,70,0,0
33727,-108.695652173913,4,3,1,70,0,0
33815,-111.111111111111,4,3,1,70,0,0
38756,-107.52688172043,4,3,1,70,0,0
39109,-103.092783505155,4,3,1,70,0,0
39462,-100,4,3,1,70,0,0
47933,352.941176470588,4,3,1,70,1,1
70344,-102.040816326531,4,3,1,70,0,1
70389,-104.166666666667,4,3,1,70,0,1
70433,-106.382978723404,4,3,1,70,0,1
70477,-108.695652173913,4,3,1,70,0,1
70521,-111.111111111111,4,3,1,70,0,0
74403,-105.263157894737,4,3,1,70,0,0
74756,-100,4,3,1,70,0,1
78992,352.941176470588,4,3,1,70,1,0

[HitObjects]
64,192,992,5,0,0:0:0:0:
448,192,1168,1,0,0:0:0:0:
64,192,1345,1,0,0:0:0:0:
320,192,1345,128,0,1521:0:0:0:0:
448,192,1521,1,0,0:0:0:0:
192,192,1697,128,0,1874:0:0:0:30:LR_Clap Normal.wav
320,192,1697,1,0,0:0:0:0:
64,192,1874,1,0,0:0:0:30:LR_Clap Normal.wav
320,192,1874,128,0,2050:0:0:0:0:
192,192,2050,1,0,0:0:0:0:
448,192,2050,1,0,0:0:0:0:
320,192,2227,128,0,2403:0:0:0:0:
448,192,2227,1,0,0:0:0:0:
64,192,2403,1,0,0:0:0:30:LR_Clap Normal.wav
192,192,2403,1,0,0:0:0:0:
64,192,2580,1,0,0:0:0:0:
320,192,2580,128,0,2756:0:0:0:0:
192,192,2756,128,0,2933:0:0:0:0:
448,192,2756,1,0,0:0:0:0:
64,192,2933,128,0,3109:0:0:0:0:
320,192,3109,1,0,0:0:0:30:LR_Clap Normal.wav
448,192,3109,128,0,3286:0:0:0:0:
192,192,3286,1,0,0:0:0:30:LR_Clap Normal.wav
320,192,3286,128,0,3462:0:0:0:0:
64,192,3462,128,0,3639:0:0:0:0:
448,192,3462,1,0,0:0:0:0:
192,192,3639,128,0,3815:0:0:0:0:
64,192,3815,1,0,0:0:0:30:LR_Clap Normal.wav
320,192,3815,128,0,3992:0:0:0:0:
448,192,3992,128,0,4168:0:0:0:0:
64,192,4168,128,0,4344:0:0:0:0:
320,192,4168,1,0,0:0:0:0:
192,192,4344,1,0,0:0:0:0:
64,192,4521,1,0,0:0:0:30:LR_Clap Normal.wav
448,192,4521,128,0,4697:0:0:0:0:
64,192,4697,128,0,4874:0:0:0:30:LR_Clap Normal.wav
192,192,4697,1,0,0:0:0:0:
320,192,4874,1,0,0:0:0:0:
448,192,4874,1,0,0:0:0:0:
64,192,5050,128,0,5227:0:0:0:0:
448,192,5050,1,0,0:0:0:0:
192,192,5227,1,0,0:0:0:30:LR_Clap Normal.wav
320,192,5227,1,0,0:0:0:0:
64,192,5403,128,0,5580:0:0:0:0:
320,192,5403,1,0,0:0:0:0:
192,192,5580,128,0,5756:0:0:0:0:
448,192,5580,1,0,0:0:0:0:
320,192,5756,128,0,5933:0:0:0:0:
192,192,5933,1,0,0:0:0:30:LR_Clap Normal.wav
448,192,5933,128,0,6109:0:0:0:0:
64,192,6109,1,0,0:0:0:30:LR_Clap Normal.wav
192,192,6109,128,0,6286:0:0:0:0:
320,192,6286,128,0,6462:0:0:0:0:
448,192,6286,1,0,0:0:0:0:
64,192,6462,128,0,6639:0:0:0:0:
192,192,6639,128,0,6815:0:0:0:30:LR_Clap Normal.wav
448,192,6639,1,0,0:0:0:0:
320,192,6815,128,0,6992:0:0:0:0:
192,192,6992,128,0,7168:0:0:0:0:
448,192,6992,1,0,0:0:0:0:
64,192,7168,1,0,0:0:0:0:
192,192,7344,1,0,0:0:0:30:LR_Clap Normal.wav
320,192,7344,128,0,7521:0:0:0:0:
192,192,7521,128,0,7697:0:0:0:30:LR_Clap Normal.wav
448,192,7521,1,0,0:0:0:0:
64,192,7697,1,0,0:0:0:0:
320,192,7697,1,0,0:0:0:0:
64,192,7874,1,0,0:0:0:0:
192,192,7874,128,0,8050:0:0:0:0:
320,192,8050,1,0,0:0:0:30:LR_Clap Normal.wav
448,192,8050,1,0,0:0:0:0:
192,192,8227,128,0,8403:0:0:0:0:
448,192,8227,1,0,0:0:0:0:
64,192,8403,1,0,0:0:0:0:
320,192,8403,128,0,8580:0:0:0:0:
448,192,8580,128,0,8756:0:0:0:0:
64,192,8756,128,0,8933:0:0:0:30:LR_Clap Normal.wav
192,192,8756,1,0,0:0:0:0:
192,192,8933,128,0,9109:0:0:0:30:LR_Clap Normal.wav
320,192,8933,1,0,0:0:0:0:
64,192,9109,1,0,0:0:0:0:
448,192,9109,128,0,9286:0:0:0:0:
320,192,9286,128,0,9462:0:0:0:0:
192,192,9462,128,0,9639:0:0:0:30:LR_Clap Normal.wav
448,192,9462,1,0,0:0:0:0:
64,192,9639,128,0,9815:0:0:0:0:
192,192,9815,1,2,0:0:0:0:
320,192,9815,1,0,0:0:0:70:Tom1.wav
448,192,9815,1,0,0:0:0:0:
64,192,9992,1,2,0:0:0:0:
192,192,9992,1,0,0:0:0:70:Tom1.wav
448,192,9992,1,0,0:0:0:0:
320,192,10168,1,0,0:0:0:0:
64,192,10344,1,2,0:0:0:0:
192,192,10344,128,4,10697:0:0:0:0:
448,192,10344,1,0,0:0:0:0:
64,192,10697,1,8,0:0:0:0:
320,192,10697,128,0,10874:0:0:0:0:
448,192,10697,1,0,0:0:0:0:
192,192,11050,1,4,0:0:0:0:
320,192,11050,128,0,11403:0:0:0:0:
448,192,11050,1,0,0:0:0:0:
64,192,11403,1,2,0:0:0:0:
192,192,11403,1,0,0:0:0:0:
64,192,11580,1,8,0:0:0:0:
320,192,11580,1,0,0:0:0:0:
448,192,11580,1,0,0:0:0:0:
320,192,11756,1,0,0:0:0:0:
64,192,11933,1,8,0:0:0:0:
192,192,11933,1,0,0:0:0:0:
448,192,11933,1,0,0:0:0:0:
192,192,12109,1,2,0:0:0:0:
320,192,12109,1,0,0:0:0:0:
64,192,12286,1,8,0:0:0:0:
320,192,12286,1,0,0:0:0:0:
448,192,12286,1,0,0:0:0:0:
64,192,12462,1,2,0:0:0:0:
192,192,12462,128,4,12815:0:0:0:0:
448,192,12462,1,0,0:0:0:0:
320,192,12815,1,2,0:0:0:0:
448,192,12815,1,0,0:0:0:0:
64,192,12992,1,8,0:0:0:0:
192,192,12992,1,0,0:0:0:0:
448,192,12992,1,0,0:0:0:0:
192,192,13168,1,2,0:0:0:0:
320,192,13168,1,0,0:0:0:0:
320,192,13344,1,0,0:0:0:70:Tom1.wav
448,192,13344,1,0,0:0:0:0:
192,192,13433,1,0,0:0:0:70:Tom1.wav
64,192,13521,1,0,0:0:0:70:Tom2.wav
448,192,13521,1,0,0:0:0:0:
320,192,13609,1,2,0:0:0:0:
64,192,13697,1,8,0:0:0:0:
192,192,13697,1,0,0:0:0:0:
448,192,13697,1,0,0:0:0:0:
320,192,13874,1,8,0:0:0:0:
448,192,13874,1,0,0:0:0:0:
192,192,13962,1,8,0:0:0:0:
64,192,14050,128,4,14402:0:0:0:0:
320,192,14050,1,2,0:0:0:0:
448,192,14050,1,0,0:0:0:0:
448,192,14226,128,0,14402:0:0:0:0:
192,192,14402,1,8,0:0:0:0:
320,192,14402,128,0,14755:0:0:0:0:
192,192,14579,128,0,14755:0:0:0:0:
64,192,14755,1,8,0:0:0:0:
448,192,14755,1,0,0:0:0:0:
320,192,14932,128,2,15108:0:0:0:0:
448,192,14932,1,0,0:0:0:0:
64,192,15108,1,8,0:0:0:0:
192,192,15108,1,0,0:0:0:0:
192,192,15285,128,2,15461:0:0:0:0:
448,192,15285,1,0,0:0:0:0:
64,192,15461,1,2,0:0:0:0:
320,192,15461,1,4,0:0:0:0:
448,192,15461,128,0,15814:0:0:0:0:
192,192,15638,128,0,15814:0:0:0:0:
64,192,15814,1,8,0:0:0:0:
320,192,15814,1,0,0:0:0:0:
64,192,15991,128,2,16167:0:0:0:0:
192,192,15991,1,4,0:0:0:0:
320,192,15991,128,0,16344:0:0:0:0:
64,192,16344,1,2,0:0:0:0:
192,192,16344,1,0,0:0:0:0:
192,192,16520,128,8,16873:0:0:0:0:
320,192,16520,1,0,0:0:0:0:
448,192,16520,128,0,16697:0:0:0:0:
64,192,16873,1,2,0:0:0:0:
320,192,16873,1,4,0:0:0:0:
448,192,16873,128,0,17226:0:0:0:0:
64,192,17050,128,0,17226:0:0:0:0:
192,192,17226,128,8,17579:0:0:0:0:
320,192,17226,1,0,0:0:0:0:
320,192,17402,128,0,17579:0:0:0:0:
64,192,17579,1,8,0:0:0:0:
448,192,17579,1,0,0:0:0:0:
64,192,17755,1,2,0:0:0:0:
192,192,17755,128,0,17932:0:0:0:0:
320,192,17932,1,8,0:0:0:0:
448,192,17932,1,0,0:0:0:0:
64,192,18108,1,2,0:0:0:0:
320,192,18108,128,0,18285:0:0:0:0:
64,192,18285,128,2,18638:0:0:0:0:
192,192,18285,1,4,0:0:0:0:
448,192,18285,128,0,18461:0:0:0:0:
192,192,18638,1,8,0:0:0:0:
320,192,18638,1,0,0:0:0:0:
448,192,18638,128,0,18991:0:0:0:0:
64,192,18814,1,2,0:0:0:0:
192,192,18814,128,4,18991:0:0:0:0:
64,192,19167,1,2,0:0:0:0:
192,192,19167,128,0,19344:0:0:0:0:
448,192,19167,1,0,0:0:0:0:
320,192,19344,1,8,0:0:0:0:
448,192,19344,1,0,0:0:0:0:
192,192,19520,1,2,0:0:0:0:
320,192,19520,128,0,19697:0:0:0:0:
64,192,19697,128,2,19873:0:0:0:0:
192,192,19697,1,4,0:0:0:0:
448,192,19697,128,0,19873:0:0:0:0:
64,192,20049,1,8,0:0:0:0:
320,192,20049,128,0,20226:0:0:0:0:
448,192,20049,128,0,20226:0:0:0:0:
64,192,20402,128,8,20579:0:0:0:0:
320,192,20402,128,0,20579:0:0:0:0:
448,192,20402,1,0,0:0:0:0:
192,192,20579,1,2,0:0:0:0:
64,192,20755,128,8,20932:0:0:0:0:
320,192,20755,128,0,20932:0:0:0:0:
448,192,20755,1,0,0:0:0:0:
192,192,20932,1,2,0:0:0:0:
64,192,21108,1,8,0:0:0:0:
320,192,21108,1,0,0:0:0:70:Tom2.wav
448,192,21108,1,0,0:0:0:0:
64,192,21285,1,8,0:0:0:0:
192,192,21285,128,0,21461:0:0:0:70:Tom3.wav
448,192,21285,128,0,21461:0:0:0:0:
64,192,21638,1,2,0:0:0:0:
320,192,21638,128,0,21991:0:0:0:0:
448,192,21638,128,0,21991:0:0:0:0:
64,192,21991,1,0,0:0:0:70:Tom1.wav
192,192,21991,1,0,0:0:0:0:
320,192,22167,1,0,0:0:0:70:Tom2.wav
448,192,22167,1,0,0:0:0:0:
192,192,22255,1,0,0:0:0:0:
64,192,22344,1,0,0:0:0:0:
448,192,22344,1,0,0:0:0:0:
320,192,22432,1,0,0:0:0:0:
64,192,22520,1,8,0:0:0:0:
192,192,22520,1,0,0:0:0:0:
448,192,22520,1,0,0:0:0:0:
64,192,22697,1,8,0:0:0:0:
192,192,22697,1,0,0:0:0:0:
320,192,22785,1,0,0:0:0:0:
192,192,22873,128,0,23050:0:0:0:70:RimShot.wav
448,192,22873,1,0,0:0:0:0:
448,192,23050,1,0,0:0:0:0:
320,192,23138,1,0,0:0:0:70:RimShot.wav
64,192,23226,1,0,0:0:0:0:
192,192,23315,1,0,0:0:0:0:
320,192,23403,128,0,23579:0:0:0:0:
64,192,23579,1,0,0:0:0:70:RimShot.wav
192,192,23579,1,0,0:0:0:0:
64,192,23756,128,2,23932:0:0:0:0:
320,192,23756,128,8,24109:0:0:0:0:
448,192,23756,1,0,0:0:0:0:
64,192,24109,128,0,24285:0:0:0:70:Tom1.wav
448,192,24109,1,0,0:0:0:0:
320,192,24285,1,0,0:0:0:70:Tom2.wav
448,192,24285,128,0,24462:0:0:0:0:
192,192,24462,1,0,0:0:0:0:
320,192,24550,1,0,0:0:0:70:RimShot.wav
64,192,24638,1,2,0:0:0:0:
192,192,24638,128,8,24815:0:0:0:0:
320,192,24815,1,0,0:0:0:0:
64,192,24991,1,2,0:0:0:0:
448,192,24991,128,8,25168:0:0:0:0:
192,192,25168,1,0,0:0:0:0:
64,192,25344,1,8,0:0:0:0:
320,192,25344,1,0,0:0:0:0:
448,192,25344,1,0,0:0:0:0:
320,192,25521,1,8,0:0:0:0:
448,192,25521,1,0,0:0:0:0:
192,192,25609,1,0,0:0:0:0:
64,192,25697,1,0,0:0:0:70:RimShot.wav
320,192,25697,128,0,25873:0:0:0:0:
64,192,25873,1,0,0:0:0:0:
192,192,25962,1,0,0:0:0:70:RimShot.wav
448,192,26050,1,0,0:0:0:0:
320,192,26138,1,0,0:0:0:0:
192,192,26226,128,0,26403:0:0:0:0:
320,192,26403,1,0,0:0:0:70:RimShot.wav
448,192,26403,1,0,0:0:0:0:
64,192,26579,1,8,0:0:0:0:
192,192,26579,128,2,26932:0:0:0:0:
448,192,26579,128,0,26756:0:0:0:0:
64,192,26932,1,8,0:0:0:0:
448,192,26932,128,0,27109:0:0:0:70:Tom1.wav
64,192,27109,128,8,27285:0:0:0:0:
192,192,27109,1,0,0:0:0:70:Tom2.wav
320,192,27285,1,0,0:0:0:0:
192,192,27373,1,0,0:0:0:70:RimShot.wav
320,192,27462,128,0,27638:0:0:0:70:Tom2.wav
448,192,27462,1,0,0:0:0:0:
192,192,27638,1,0,0:0:0:0:
64,192,27815,1,0,0:0:0:70:Tom3.wav
448,192,27815,128,0,27991:0:0:0:0:
320,192,27991,128,0,28168:0:0:0:0:
64,192,28168,128,0,28344:0:0:0:0:
192,192,28344,128,0,28520:0:0:0:0:
64,192,28520,128,0,28697:0:0:0:30:LR_Clap Normal.wav
448,192,28520,1,0,0:0:0:0:
448,192,28697,1,0,0:0:0:30:LR_Clap Normal.wav
192,192,28785,1,0,0:0:0:0:
64,192,28873,128,0,29050:0:0:0:0:
192,192,29050,128,0,29226:0:0:0:0:
64,192,29226,1,0,0:0:0:30:LR_Clap Normal.wav
448,192,29226,1,0,0:0:0:0:
320,192,29315,1,0,0:0:0:0:
192,192,29403,1,0,0:0:0:0:
64,192,29491,1,0,0:0:0:0:
448,192,29579,128,0,29756:0:0:0:0:
320,192,29756,128,0,29932:0:0:0:0:
64,192,29932,1,0,0:0:0:30:LR_Clap Normal.wav
448,192,29932,128,0,30109:0:0:0:0:
64,192,30109,1,0,0:0:0:30:LR_Clap Normal.wav
192,192,30197,1,0,0:0:0:70:RimShot.wav
448,192,30285,128,0,30462:0:0:0:0:
320,192,30462,1,0,0:0:0:0:
192,192,30550,1,0,0:0:0:0:
64,192,30638,1,0,0:0:0:30:LR_Clap Normal.wav
448,192,30638,1,0,0:0:0:0:
192,192,30726,1,0,0:0:0:0:
320,192,30815,1,0,0:0:0:0:
192,192,30903,1,0,0:0:0:0:
64,192,30991,128,0,31256:0:0:0:70:Tom1.wav
320,192,30991,1,0,0:0:0:0:
448,192,30991,1,0,0:0:0:0:
192,192,31256,128,0,31520:0:0:0:70:Tom2.wav
320,192,31256,1,0,0:0:0:0:
320,192,31520,128,0,31697:0:0:0:70:Tom3.wav
448,192,31520,1,0,0:0:0:0:
64,192,31697,1,8,0:0:0:70:Tom1.wav
192,192,31697,128,0,31962:0:0:0:0:
448,192,31697,1,0,0:0:0:0:
64,192,31962,1,0,0:0:0:70:Tom2.wav
320,192,31962,128,0,32226:0:0:0:0:
192,192,32226,1,0,0:0:0:70:Tom3.wav
448,192,32226,128,0,32403:0:0:0:0:
64,192,32403,128,8,32579:0:0:0:0:
192,192,32403,1,0,0:0:0:0:
320,192,32403,1,0,0:0:0:0:
64,192,32756,1,8,0:0:0:0:
192,192,32756,1,0,0:0:0:0:
448,192,32756,128,0,32932:0:0:0:0:
64,192,33109,128,8,33462:0:0:0:0:
320,192,33109,1,0,0:0:0:0:
448,192,33109,128,0,33462:0:0:0:0:
192,192,33462,1,0,0:0:0:0:
64,192,33815,1,2,0:0:0:0:
320,192,33815,1,4,0:0:0:0:
448,192,33815,1,0,0:0:0:0:
192,192,33991,1,0,0:0:0:0:
320,192,34168,1,0,0:0:0:0:
192,192,34344,1,0,0:0:0:0:
320,192,34520,1,8,0:0:0:0:
448,192,34520,1,0,0:0:0:0:
64,192,34697,1,0,0:0:0:0:
448,192,34873,1,0,0:0:0:0:
192,192,35050,1,2,0:0:0:0:
64,192,35226,1,2,0:0:0:0:
448,192,35226,1,0,0:0:0:0:
320,192,35403,1,0,0:0:0:0:
192,192,35491,1,0,0:0:0:0:
64,192,35579,1,2,0:0:0:0:
448,192,35579,1,0,0:0:0:0:
320,192,35756,1,0,0:0:0:0:
64,192,35932,1,8,0:0:0:0:
448,192,35932,1,0,0:0:0:0:
192,192,36109,1,0,0:0:0:0:
448,192,36285,1,0,0:0:0:0:
320,192,36462,1,0,0:0:0:0:
64,192,36638,1,2,0:0:0:0:
448,192,36638,1,0,0:0:0:0:
192,192,36815,1,0,0:0:0:0:
64,192,36991,1,2,0:0:0:0:
320,192,36991,1,0,0:0:0:0:
192,192,37168,1,0,0:0:0:0:
64,192,37344,1,8,0:0:0:0:
448,192,37344,1,0,0:0:0:0:
320,192,37520,1,0,0:0:0:0:
192,192,37697,1,0,0:0:0:0:
448,192,37697,1,0,0:0:0:0:
64,192,37873,1,8,0:0:0:0:
192,192,37962,1,0,0:0:0:0:
320,192,38050,1,2,0:0:0:0:
448,192,38050,1,0,0:0:0:0:
64,192,38226,1,8,0:0:0:0:
192,192,38226,1,0,0:0:0:0:
320,192,38403,1,2,0:0:0:0:
448,192,38403,1,0,0:0:0:0:
192,192,38579,1,0,0:0:0:0:
64,192,38756,1,8,0:0:0:0:
448,192,38756,1,0,0:0:0:0:
320,192,38932,1,2,0:0:0:0:
192,192,39020,1,2,0:0:0:0:
64,192,39109,1,8,0:0:0:0:
320,192,39109,1,4,0:0:0:0:
448,192,39109,1,0,0:0:0:0:
192,192,39285,1,0,0:0:0:0:
64,192,39462,1,4,0:0:0:0:
192,192,39462,1,2,0:0:0:0:
448,192,39462,1,0,0:0:0:0:
320,192,39638,1,0,0:0:0:0:
192,192,39726,1,0,0:0:0:0:
64,192,39815,1,8,0:0:0:0:
448,192,39815,1,0,0:0:0:0:
320,192,39903,1,0,0:0:0:0:
64,192,39991,1,0,0:0:0:0:
192,192,39991,1,0,0:0:0:0:
320,192,40168,1,2,0:0:0:0:
448,192,40168,1,0,0:0:0:0:
192,192,40256,1,0,0:0:0:0:
64,192,40344,1,2,0:0:0:0:
448,192,40344,1,0,0:0:0:0:
320,192,40432,1,0,0:0:0:0:
64,192,40520,1,8,0:0:0:0:
192,192,40520,1,0,0:0:0:0:
448,192,40609,1,0,0:0:0:0:
320,192,40697,1,0,0:0:0:0:
192,192,40785,1,0,0:0:0:0:
64,192,40873,1,2,0:0:0:0:
320,192,40873,1,0,0:0:0:0:
448,192,40873,1,0,0:0:0:0:
192,192,41050,1,0,0:0:0:0:
320,192,41138,1,0,0:0:0:0:
64,192,41226,1,8,0:0:0:0:
448,192,41226,1,0,0:0:0:0:
192,192,41315,1,0,0:0:0:0:
320,192,41403,1,2,0:0:0:0:
448,192,41403,1,0,0:0:0:0:
64,192,41579,1,0,0:0:0:0:
192,192,41579,1,0,0:0:0:0:
320,192,41668,1,0,0:0:0:0:
64,192,41756,1,2,0:0:0:0:
448,192,41756,1,0,0:0:0:0:
192,192,41844,1,0,0:0:0:0:
320,192,41932,1,8,0:0:0:0:
448,192,41932,1,0,0:0:0:0:
64,192,42020,1,0,0:0:0:0:
192,192,42109,1,0,0:0:0:0:
320,192,42197,1,0,0:0:0:0:
64,192,42285,1,4,0:0:0:0:
192,192,42285,1,8,0:0:0:0:
448,192,42285,1,0,0:0:0:0:
64,192,42462,1,2,0:0:0:0:
448,192,42462,1,0,0:0:0:0:
64,192,42638,1,2,0:0:0:0:
448,192,42638,1,0,0:0:0:0:
64,192,42815,1,8,0:0:0:0:
192,192,42815,1,0,0:0:0:0:
448,192,42815,1,0,0:0:0:0:
192,192,42991,1,2,0:0:0:0:
320,192,42991,1,0,0:0:0:0:
64,192,43079,1,0,0:0:0:0:
320,192,43168,1,2,0:0:0:0:
448,192,43168,1,0,0:0:0:0:
192,192,43256,1,0,0:0:0:0:
64,192,43344,1,8,0:0:0:0:
448,192,43344,1,4,0:0:0:0:
320,192,43432,1,0,0:0:0:0:
64,192,43520,1,2,0:0:0:0:
192,192,43520,1,0,0:0:0:0:
448,192,43609,1,0,0:0:0:0:
192,192,43697,1,2,0:0:0:0:
320,192,43697,1,0,0:0:0:0:
64,192,43785,1,0,0:0:0:0:
320,192,43873,1,8,0:0:0:0:
448,192,43873,1,4,0:0:0:0:
192,192,43962,1,0,0:0:0:0:
64,192,44050,1,2,0:0:0:0:
448,192,44050,1,0,0:0:0:0:
320,192,44138,1,0,0:0:0:0:
64,192,44226,1,2,0:0:0:0:
192,192,44226,1,0,0:0:0:0:
64,192,44403,1,8,0:0:0:0:
320,192,44403,1,4,0:0:0:0:
448,192,44403,1,0,0:0:0:0:
64,192,44579,1,2,0:0:0:0:
320,192,44579,1,0,0:0:0:0:
448,192,44579,1,0,0:0:0:0:
64,192,44756,1,8,0:0:0:0:
192,192,44756,1,0,0:0:0:0:
448,192,44756,1,0,0:0:0:0:
64,192,44932,1,2,0:0:0:0:
192,192,44932,1,0,0:0:0:0:
448,192,44932,1,0,0:0:0:0:
64,192,45109,128,8,45462:0:0:0:0:
320,192,45109,1,4,0:0:0:0:
448,192,45109,128,0,45462:0:0:0:0:
64,192,45638,1,8,0:0:0:0:
192,192,45638,128,4,45991:0:0:0:0:
448,192,45638,128,0,45991:0:0:0:0:
192,192,46168,1,8,0:0:0:0:
320,192,46168,128,0,46344:0:0:0:0:
448,192,46168,128,0,46344:0:0:0:0:
64,192,46520,128,8,46697:0:0:0:0:
192,192,46520,128,0,46697:0:0:0:0:
320,192,46520,1,0,0:0:0:0:
448,192,46697,1,0,0:0:0:0:
320,192,46873,1,0,0:0:0:0:
192,192,47050,1,0,0:0:0:0:
64,192,47226,1,0,0:0:0:0:
320,192,47315,1,0,0:0:0:0:
192,192,47403,1,0,0:0:0:0:
448,192,47491,1,0,0:0:0:0:
64,192,47579,1,8,0:0:0:0:
192,192,47579,1,0,0:0:0:0:
320,192,47668,1,8,0:0:0:0:
64,192,47756,1,8,0:0:0:0:
448,192,47756,1,0,0:0:0:0:
192,192,47844,1,8,0:0:0:0:
64,192,47932,128,2,48109:0:0:0:0:
320,192,47932,128,4,48109:0:0:0:0:
448,192,47932,128,0,48285:0:0:0:0:
64,192,48285,128,8,48638:0:0:0:0:
192,192,48285,1,0,0:0:0:0:
320,192,48285,1,0,0:0:0:0:
320,192,48462,128,8,48638:0:0:0:0:
448,192,48462,1,0,0:0:0:0:
192,192,48638,1,0,0:0:0:0:
64,192,48815,1,2,0:0:0:0:
320,192,48815,128,0,48991:0:0:0:0:
64,192,48991,1,8,0:0:0:0:
448,192,48991,1,0,0:0:0:0:
192,192,49168,128,2,49344:0:0:0:0:
448,192,49168,128,0,49521:0:0:0:0:
64,192,49344,1,0,0:0:0:0:
192,192,49521,128,2,49697:0:0:0:0:
320,192,49521,1,0,0:0:0:0:
64,192,49697,128,8,49874:0:0:0:0:
320,192,49697,128,0,50050:0:0:0:0:
448,192,49697,1,0,0:0:0:0:
64,192,50050,128,2,50227:0:0:0:0:
448,192,50050,1,0,0:0:0:0:
192,192,50227,1,2,0:0:0:0:
448,192,50227,128,0,50403:0:0:0:0:
192,192,50403,128,8,50580:0:0:0:0:
320,192,50403,1,0,0:0:0:0:
320,192,50580,128,0,50756:0:0:0:0:
64,192,50756,1,2,0:0:0:0:
192,192,50756,128,4,51109:0:0:0:0:
448,192,50756,128,0,50933:0:0:0:0:
64,192,51109,1,8,0:0:0:0:
320,192,51109,1,0,0:0:0:0:
448,192,51109,128,0,51462:0:0:0:0:
64,192,51285,1,2,0:0:0:0:
192,192,51285,128,0,51462:0:0:0:0:
320,192,51462,1,0,0:0:0:0:
192,192,51638,128,2,51815:0:0:0:0:
448,192,51638,1,0,0:0:0:0:
64,192,51815,1,8,0:0:0:0:
448,192,51815,1,0,0:0:0:0:
64,192,51991,128,2,52344:0:0:0:0:
320,192,51991,128,0,52168:0:0:0:0:
448,192,52168,1,0,0:0:0:0:
192,192,52344,1,2,0:0:0:0:
320,192,52344,128,0,52521:0:0:0:0:
64,192,52521,1,8,0:0:0:0:
192,192,52521,128,0,52874:0:0:0:0:
448,192,52521,128,0,52697:0:0:0:0:
64,192,52874,1,2,0:0:0:0:
448,192,52874,128,0,53050:0:0:0:0:
64,192,53050,128,2,53227:0:0:0:0:
320,192,53050,1,0,0:0:0:0:
192,192,53227,1,8,0:0:0:0:
320,192,53227,128,0,53403:0:0:0:0:
192,192,53403,128,0,53580:0:0:0:0:
64,192,53580,128,2,53933:0:0:0:0:
320,192,53580,128,4,53756:0:0:0:0:
448,192,53580,128,0,53756:0:0:0:0:
192,192,53933,1,8,0:0:0:0:
320,192,53933,1,0,0:0:0:0:
448,192,53933,128,0,54285:0:0:0:0:
64,192,54109,1,8,0:0:0:0:
192,192,54109,128,0,54285:0:0:0:0:
320,192,54285,1,0,0:0:0:0:
64,192,54462,1,2,0:0:0:0:
192,192,54462,128,0,54638:0:0:0:0:
64,192,54638,1,8,0:0:0:0:
448,192,54638,1,0,0:0:0:0:
320,192,54815,128,2,54991:0:0:0:0:
448,192,54815,128,0,55168:0:0:0:0:
64,192,54991,1,0,0:0:0:0:
192,192,55168,1,2,0:0:0:0:
320,192,55168,128,0,55344:0:0:0:0:
64,192,55344,128,8,55521:0:0:0:0:
192,192,55344,1,0,0:0:0:0:
448,192,55344,1,0,0:0:0:0:
320,192,55521,128,0,55697:0:0:0:0:
64,192,55697,128,2,55874:0:0:0:0:
448,192,55697,1,0,0:0:0:0:
192,192,55874,1,2,0:0:0:0:
448,192,55874,128,0,56050:0:0:0:0:
192,192,56050,128,8,56227:0:0:0:0:
320,192,56050,1,0,0:0:0:0:
320,192,56227,128,0,56403:0:0:0:0:
64,192,56403,128,2,56580:0:0:0:0:
192,192,56403,1,4,0:0:0:0:
448,192,56403,128,0,56756:0:0:0:0:
320,192,56580,128,0,56756:0:0:0:0:
64,192,56756,1,8,0:0:0:0:
192,192,56756,1,0,0:0:0:0:
192,192,56932,128,2,57109:0:0:0:0:
320,192,56932,1,0,0:0:0:0:
448,192,57109,128,0,57285:0:0:0:0:
192,192,57285,128,2,57462:0:0:0:0:
320,192,57285,1,0,0:0:0:0:
64,192,57462,1,8,0:0:0:0:
320,192,57462,1,0,0:0:0:0:
448,192,57462,1,0,0:0:0:0:
64,192,57638,128,2,57991:0:0:0:0:
192,192,57638,1,4,0:0:0:0:
448,192,57638,128,0,57815:0:0:0:0:
320,192,57991,128,2,58168:0:0:0:0:
448,192,57991,1,0,0:0:0:0:
64,192,58168,1,8,0:0:0:0:
192,192,58168,128,0,58521:0:0:0:0:
448,192,58168,1,0,0:0:0:0:
64,192,58344,128,2,58521:0:0:0:0:
320,192,58344,1,0,0:0:0:0:
320,192,58521,1,8,0:0:0:0:
448,192,58521,128,0,58697:0:0:0:0:
64,192,58697,1,2,0:0:0:0:
192,192,58697,1,0,0:0:0:0:
64,192,58874,128,8,59050:0:0:0:0:
320,192,58874,1,4,0:0:0:0:
448,192,58874,1,0,0:0:0:0:
320,192,59050,128,0,59227:0:0:0:0:
64,192,59227,128,2,59580:0:0:0:0:
192,192,59227,128,4,59403:0:0:0:0:
448,192,59227,128,0,59403:0:0:0:0:
192,192,59580,1,8,0:0:0:0:
320,192,59580,1,0,0:0:0:0:
448,192,59580,128,0,59932:0:0:0:0:
64,192,59756,128,8,59932:0:0:0:0:
192,192,59756,1,0,0:0:0:0:
320,192,59932,128,0,60109:0:0:0:0:
64,192,60109,128,2,60462:0:0:0:0:
448,192,60109,1,0,0:0:0:0:
192,192,60285,1,8,0:0:0:0:
448,192,60285,1,0,0:0:0:0:
192,192,60462,128,2,60638:0:0:0:0:
320,192,60462,128,0,60815:0:0:0:0:
64,192,60638,1,0,0:0:0:0:
192,192,60815,128,2,60991:0:0:0:0:
448,192,60815,1,0,0:0:0:0:
64,192,60991,128,8,61344:0:0:0:0:
320,192,60991,1,0,0:0:0:0:
448,192,60991,128,0,61168:0:0:0:0:
192,192,61344,1,2,0:0:0:0:
448,192,61344,128,0,61697:0:0:0:0:
64,192,61521,128,2,61697:0:0:0:0:
320,192,61521,1,0,0:0:0:0:
192,192,61697,1,8,0:0:0:0:
320,192,61697,128,0,61874:0:0:0:0:
192,192,61874,128,0,62050:0:0:0:0:
64,192,62050,128,2,62227:0:0:0:0:
320,192,62050,1,4,0:0:0:0:
448,192,62050,128,0,62403:0:0:0:0:
64,192,62403,128,8,62756:0:0:0:0:
192,192,62403,1,0,0:0:0:0:
320,192,62403,1,0,0:0:0:0:
320,192,62580,1,2,0:0:0:0:
448,192,62580,128,0,62756:0:0:0:0:
192,192,62756,128,0,62932:0:0:0:0:
64,192,62932,1,2,0:0:0:0:
448,192,62932,128,0,63285:0:0:0:0:
64,192,63109,1,8,0:0:0:0:
320,192,63109,1,0,0:0:0:0:
192,192,63285,128,2,63638:0:0:0:0:
320,192,63285,128,0,63462:0:0:0:0:
64,192,63638,1,2,0:0:0:0:
320,192,63638,128,0,63815:0:0:0:0:
64,192,63815,128,8,63991:0:0:0:0:
192,192,63815,1,0,0:0:0:0:
448,192,63815,128,0,64168:0:0:0:0:
320,192,63991,1,2,0:0:0:0:
64,192,64168,128,8,64344:0:0:0:0:
192,192,64168,1,0,0:0:0:0:
320,192,64344,1,2,0:0:0:0:
448,192,64344,1,0,0:0:0:0:
192,192,64432,1,0,0:0:0:0:
64,192,64521,1,8,0:0:0:0:
320,192,64521,128,0,64697:0:0:0:0:
448,192,64521,1,0,0:0:0:0:
192,192,64697,128,0,64874:0:0:0:0:
64,192,64874,128,2,65050:0:0:0:0:
320,192,64874,128,4,65050:0:0:0:0:
448,192,64874,128,0,65227:0:0:0:0:
64,192,65227,128,8,65580:0:0:0:0:
192,192,65227,1,0,0:0:0:0:
320,192,65227,1,0,0:0:0:0:
320,192,65403,128,8,65580:0:0:0:0:
448,192,65403,1,0,0:0:0:0:
192,192,65580,128,0,65756:0:0:0:0:
320,192,65756,128,2,66109:0:0:0:0:
448,192,65756,1,0,0:0:0:0:
64,192,65932,1,8,0:0:0:0:
448,192,65932,1,0,0:0:0:0:
64,192,66109,128,2,66462:0:0:0:0:
192,192,66109,128,0,66285:0:0:0:0:
448,192,66285,1,0,0:0:0:0:
192,192,66462,128,2,66638:0:0:0:0:
320,192,66462,1,0,0:0:0:0:
64,192,66638,1,8,0:0:0:0:
320,192,66638,1,0,0:0:0:0:
448,192,66638,128,0,66815:0:0:0:0:
192,192,66815,128,0,66991:0:0:0:0:
64,192,66991,1,2,0:0:0:0:
448,192,66991,128,0,67344:0:0:0:0:
64,192,67168,128,2,67344:0:0:0:0:
320,192,67168,1,0,0:0:0:0:
192,192,67344,1,8,0:0:0:0:
320,192,67344,128,0,67521:0:0:0:0:
192,192,67521,128,0,67697:0:0:0:0:
64,192,67697,128,2,68050:0:0:0:0:
320,192,67697,1,4,0:0:0:0:
448,192,67697,128,0,67874:0:0:0:0:
192,192,67874,1,0,0:0:0:0:
320,192,68050,128,8,68227:0:0:0:0:
448,192,68050,1,0,0:0:0:0:
64,192,68227,1,2,0:0:0:0:
192,192,68227,128,4,68580:0:0:0:0:
448,192,68227,128,0,68403:0:0:0:0:
320,192,68580,128,2,68756:0:0:0:0:
448,192,68580,1,0,0:0:0:0:
64,192,68756,1,8,0:0:0:0:
192,192,68756,128,0,68932:0:0:0:0:
64,192,68932,128,2,69109:0:0:0:0:
320,192,68932,128,4,69285:0:0:0:0:
448,192,68932,1,0,0:0:0:0:
64,192,69285,1,2,0:0:0:0:
192,192,69285,128,0,69462:0:0:0:0:
64,192,69462,128,8,69815:0:0:0:0:
320,192,69462,1,4,0:0:0:0:
448,192,69462,128,0,69638:0:0:0:0:
192,192,69638,128,0,69815:0:0:0:0:
320,192,69815,1,8,0:0:0:0:
448,192,69815,128,0,69991:0:0:0:0:
64,192,69991,1,2,0:0:0:0:
192,192,69991,1,0,0:0:0:0:
320,192,70080,1,2,0:0:0:0:
64,192,70168,128,8,70344:0:0:0:0:
192,192,70168,1,4,0:0:0:0:
448,192,70168,1,0,0:0:0:0:
320,192,70344,1,0,0:0:0:0:
64,192,70521,1,0,0:0:0:0:
192,192,70874,1,0,0:0:0:0:
192,192,71050,1,0,0:0:0:0:
320,192,71403,1,0,0:0:0:0:
192,192,71580,1,0,0:0:0:0:
320,192,71756,1,0,0:0:0:0:
448,192,72109,1,0,0:0:0:0:
320,192,72285,1,0,0:0:0:0:
320,192,72462,1,0,0:0:0:0:
64,192,72638,128,0,73227:0:0:0:0:
192,192,72638,1,0,0:0:0:0:
320,192,73227,1,0,0:0:0:0:
192,192,73285,1,0,0:0:0:0:
448,192,73344,128,0,74050:0:0:0:0:
192,192,74050,1,0,0:0:0:0:
320,192,74227,1,0,0:0:0:0:
320,192,74403,128,0,74756:0:0:0:0:
64,192,74756,128,2,74932:0:0:0:0:
192,192,74756,1,4,0:0:0:0:
448,192,74756,128,0,74932:0:0:0:0:
320,192,74932,1,2,0:0:0:0:
192,192,75021,1,0,0:0:0:0:
64,192,75109,1,8,0:0:0:0:
320,192,75109,128,0,75285:0:0:0:0:
64,192,75285,1,2,0:0:0:0:
192,192,75285,128,4,75638:0:0:0:0:
448,192,75285,128,0,75462:0:0:0:0:
320,192,75638,128,2,75815:0:0:0:0:
448,192,75638,1,0,0:0:0:0:
64,192,75815,1,8,0:0:0:0:
448,192,75815,128,0,75991:0:0:0:0:
64,192,75991,128,2,76168:0:0:0:0:
192,192,75991,1,4,0:0:0:0:
320,192,75991,128,0,76344:0:0:0:0:
64,192,76344,1,2,0:0:0:0:
192,192,76344,128,0,76521:0:0:0:0:
64,192,76521,128,8,76874:0:0:0:0:
320,192,76521,128,0,76697:0:0:0:0:
448,192,76521,1,0,0:0:0:0:
448,192,76697,128,0,76874:0:0:0:0:
192,192,76874,128,8,77050:0:0:0:0:
320,192,76874,1,0,0:0:0:0:
320,192,77050,1,2,0:0:0:0:
448,192,77050,1,0,0:0:0:0:
64,192,77227,1,8,0:0:0:0:
192,192,77227,1,0,0:0:0:0:
448,192,77227,1,0,0:0:0:0:
64,192,77403,128,2,77580:0:0:0:0:
320,192,77403,128,4,77756:0:0:0:0:
448,192,77403,1,0,0:0:0:0:
64,192,77756,1,2,0:0:0:0:
192,192,77756,128,0,77932:0:0:0:0:
64,192,77932,1,8,0:0:0:0:
320,192,77932,1,0,0:0:0:0:
448,192,77932,128,0,78109:0:0:0:0:
192,192,78109,1,2,0:0:0:0:
320,192,78109,1,0,0:0:0:0:
64,192,78285,1,0,0:0:0:70:Tom1.wav
192,192,78285,1,0,0:0:0:0:
320,192,78374,1,0,0:0:0:70:Tom1.wav
64,192,78462,1,0,0:0:0:70:Tom2.wav
448,192,78462,1,0,0:0:0:0:
192,192,78550,1,2,0:0:0:0:
64,192,78638,1,8,0:0:0:0:
320,192,78638,1,4,0:0:0:0:
448,192,78638,1,0,0:0:0:0:
64,192,78815,1,8,0:0:0:0:
192,192,78815,1,0,0:0:0:0:
320,192,78903,1,8,0:0:0:0:
64,192,78991,128,4,79168:0:0:0:0:
192,192,78991,1,2,0:0:0:0:
448,192,78991,128,0,79344:0:0:0:0:
320,192,79168,128,0,79344:0:0:0:0:
64,192,79344,1,8,0:0:0:0:
192,192,79344,128,0,79697:0:0:0:0:
320,192,79521,128,0,79697:0:0:0:0:
64,192,79697,1,8,0:0:0:0:
448,192,79697,128,0,80050:0:0:0:0:
64,192,79874,128,2,80050:0:0:0:0:
192,192,79874,1,0,0:0:0:0:
192,192,80050,1,8,0:0:0:0:
320,192,80050,1,0,0:0:0:0:
320,192,80227,128,2,80403:0:0:0:0:
448,192,80227,1,0,0:0:0:0:
64,192,80403,128,2,80580:0:0:0:0:
192,192,80403,1,4,0:0:0:0:
448,192,80403,128,0,80756:0:0:0:0:
192,192,80580,128,0,80756:0:0:0:0:
64,192,80756,1,8,0:0:0:0:
320,192,80756,128,0,80933:0:0:0:0:
64,192,80933,128,2,81286:0:0:0:0:
192,192,80933,128,4,81109:0:0:0:0:
448,192,80933,128,0,81109:0:0:0:0:
320,192,81286,1,2,0:0:0:0:
448,192,81286,128,0,81462:0:0:0:0:
64,192,81462,1,8,0:0:0:0:
192,192,81462,128,0,81639:0:0:0:0:
320,192,81462,128,0,81815:0:0:0:0:
64,192,81815,128,2,82168:0:0:0:0:
192,192,81815,1,4,0:0:0:0:
448,192,81815,128,0,81992:0:0:0:0:
192,192,81992,128,0,82168:0:0:0:0:
320,192,82168,128,8,82521:0:0:0:0:
448,192,82168,1,0,0:0:0:0:
192,192,82344,128,0,82521:0:0:0:0:
64,192,82521,128,8,82874:0:0:0:0:
448,192,82521,1,0,0:0:0:0:
320,192,82697,1,2,0:0:0:0:
448,192,82697,128,0,82874:0:0:0:0:
192,192,82874,1,8,0:0:0:0:
320,192,82874,1,0,0:0:0:0:
64,192,83050,1,2,0:0:0:0:
192,192,83050,128,0,83227:0:0:0:0:
64,192,83227,128,2,83403:0:0:0:0:
320,192,83227,128,4,83403:0:0:0:0:
448,192,83227,128,0,83580:0:0:0:0:
64,192,83580,128,8,83756:0:0:0:0:
192,192,83580,128,0,83933:0:0:0:0:
320,192,83580,1,0,0:0:0:0:
320,192,83756,128,2,83933:0:0:0:0:
448,192,83756,1,4,0:0:0:0:
64,192,84109,1,2,0:0:0:0:
320,192,84109,128,0,84462:0:0:0:0:
448,192,84109,128,0,84286:0:0:0:0:
64,192,84286,128,8,84462:0:0:0:0:
192,192,84286,1,0,0:0:0:0:
192,192,84462,128,2,84639:0:0:0:0:
448,192,84462,1,0,0:0:0:0:
64,192,84639,128,4,84815:0:0:0:0:
320,192,84639,128,8,84815:0:0:0:0:
448,192,84639,128,0,84815:0:0:0:0:
64,192,84992,128,8,85168:0:0:0:0:
192,192,84992,128,0,85168:0:0:0:0:
448,192,84992,1,0,0:0:0:0:
64,192,85344,1,8,0:0:0:0:
192,192,85344,128,0,85521:0:0:0:0:
448,192,85344,128,0,85521:0:0:0:0:
320,192,85521,1,2,0:0:0:0:
64,192,85697,1,8,0:0:0:0:
192,192,85697,128,0,85874:0:0:0:0:
448,192,85697,128,0,85874:0:0:0:0:
320,192,85874,1,2,0:0:0:0:
64,192,86050,128,8,86227:0:0:0:0:
192,192,86050,128,4,86227:0:0:0:0:
448,192,86050,128,0,86227:0:0:0:0:
64,192,86403,1,8,0:0:0:0:
320,192,86403,128,0,86580:0:0:0:0:
448,192,86403,128,0,86580:0:0:0:0:
64,192,86756,128,8,86933:0:0:0:0:
320,192,86756,128,0,86933:0:0:0:0:
448,192,86756,1,0,0:0:0:0:
192,192,86933,1,2,0:0:0:0:
64,192,87109,128,8,87286:0:0:0:0:
320,192,87109,128,0,87286:0:0:0:0:
448,192,87109,1,0,0:0:0:0:
192,192,87286,1,2,0:0:0:0:
64,192,87462,128,8,87639:0:0:0:0:
320,192,87462,128,4,87639:0:0:0:0:
448,192,87462,128,0,87639:0:0:0:0:
64,192,87815,128,8,87992:0:0:0:0:
192,192,87815,128,0,87992:0:0:0:0:
448,192,87815,128,0,87992:0:0:0:0:
320,192,87992,1,2,0:0:0:0:
64,192,88168,128,8,88344:0:0:0:0:
192,192,88168,128,0,88344:0:0:0:0:
448,192,88168,128,0,88344:0:0:0:0:
320,192,88344,1,2,0:0:0:0:
64,192,88521,128,8,88697:0:0:0:0:
192,192,88521,128,0,88697:0:0:0:0:
448,192,88521,128,0,88697:0:0:0:0:
320,192,88697,1,2,0:0:0:0:
64,192,88874,128,8,89050:0:0:0:0:
192,192,88874,1,4,0:0:0:0:
448,192,88874,1,0,0:0:0:0:
320,192,89050,1,2,0:0:0:0:
448,192,89050,1,0,0:0:0:0:
192,192,89139,1,2,0:0:0:0:
64,192,89227,1,8,0:0:0:0:
320,192,89227,1,0,0:0:0:0:
448,192,89227,128,0,89403:0:0:0:0:
192,192,89403,1,2,0:0:0:0:
320,192,89403,1,0,0:0:0:0:
64,192,89580,1,8,0:0:0:0:
192,192,89580,1,0,0:0:0:0:
448,192,89580,1,0,0:0:0:0:
320,192,89668,1,0,0:0:0:0:
64,192,89756,1,0,0:0:0:70:Tom1.wav
448,192,89756,1,0,0:0:0:0:
192,192,89844,1,0,0:0:0:0:
320,192,89933,1,0,0:0:0:70:Tom2.wav
448,192,89933,1,0,0:0:0:0:
64,192,90021,1,0,0:0:0:0:
192,192,90109,1,0,0:0:0:70:Tom3.wav
320,192,90109,1,0,0:0:0:0:
448,192,90197,1,0,0:0:0:0:
64,192,90286,1,2,0:0:0:0:
192,192,90286,1,0,0:0:0:0:
320,192,90462,1,0,0:0:0:0:
448,192,90815,1,0,0:0:0:0:
320,192,90992,1,0,0:0:0:0:
192,192,91168,1,0,0:0:0:0:
64,192,91344,1,0,0:0:0:0:
448,192,91521,1,0,0:0:0:0:
64,192,91874,1,0,0:0:0:0:
448,192,91874,1,0,0:0:0:0:
64,192,92050,128,0,93109:0:0:0:0:
448,192,92050,128,0,93109:0:0:0:0:
