osu file format v14

[General]
AudioFilename: audio.ogg
AudioLeadIn: 0
PreviewTime: 47491
Countdown: 0
SampleSet: Drum
StackLeniency: 0.7
Mode: 3
LetterboxInBreaks: 0
SpecialStyle: 0
WidescreenStoryboard: 1

[Editor]
Bookmarks: 1345,14050,22521,33815,59227,78991
DistanceSpacing: 1.4
BeatDivisor: 4
GridSize: 16
TimelineZoom: 1.6

[Metadata]
Title:Ashita Genki ni Naare! (Cut Ver.)
TitleUnicode:あした元気になぁれ!(Cut Ver.)
Artist:Chino (CV: Inori Minase)
ArtistUnicode:チノ (CV: 水瀬いのり)
Creator:Muse Dash
Version:DH's Normal
Source:ご注文はうさぎですか??
Tags:dudehacker Drum-hitnormal ML-ysg ごちうさ Gochiusa かふうちの 香風智乃 キャラクターソング Kafū Kafuu character song short Gochuumon wa Usagi Desu ka? Is the Order a Rabbit? チマメ隊 Chimame-tai chimame march GNCA-1500 Koi 芳文社 Houbunsha pop jpop j-pop anime Japanese
BeatmapID:3505827
BeatmapSetID:1710155

[Difficulty]
HPDrainRate:6.6
CircleSize:4
OverallDifficulty:6
ApproachRate:5
SliderMultiplier:1.4
SliderTickRate:1

[Events]
//Background and Video events
0,0,"94544106_p0.jpg",0,0
//Break Periods
//Storyboard Layer 0 (Background)
//Storyboard Layer 1 (Fail)
//Storyboard Layer 2 (Pass)
//Storyboard Layer 3 (Foreground)
//Storyboard Layer 4 (Overlay)
//Storyboard Sound Samples

[TimingPoints]
1345,352.941176470588,4,3,1,70,1,0
14050,352.941176470588,4,3,1,70,1,0
22521,352.941176470588,4,3,1,70,1,0
47933,352.941176470588,4,3,1,70,1,1
70521,-100,4,3,1,70,0,0
74756,-100,4,3,1,70,0,1
78992,352.941176470588,4,3,1,70,1,0

[HitObjects]
320,192,1345,5,0,0:0:0:0:
192,192,1521,1,0,0:0:0:0:
320,192,1697,1,0,0:0:0:30:LR_Clap Normal.wav
64,192,2050,1,0,0:0:0:0:
448,192,2227,1,0,0:0:0:0:
64,192,2403,1,0,0:0:0:30:LR_Clap Normal.wav
192,192,2756,1,0,0:0:0:0:
448,192,2933,1,0,0:0:0:0:
192,192,3109,1,0,0:0:0:30:LR_Clap Normal.wav
320,192,3462,1,0,0:0:0:0:
64,192,3639,1,0,0:0:0:0:
320,192,3815,1,0,0:0:0:30:LR_Clap Normal.wav
64,192,4168,1,0,0:0:0:0:
448,192,4344,1,0,0:0:0:0:
64,192,4521,1,0,0:0:0:30:LR_Clap Normal.wav
320,192,4874,1,0,0:0:0:0:
192,192,5050,1,0,0:0:0:0:
320,192,5227,1,0,0:0:0:30:LR_Clap Normal.wav
448,192,5580,1,0,0:0:0:0:
192,192,5756,1,0,0:0:0:0:
448,192,5933,1,0,0:0:0:30:LR_Clap Normal.wav
64,192,6286,1,0,0:0:0:0:
320,192,6462,1,0,0:0:0:0:
64,192,6639,1,0,0:0:0:30:LR_Clap Normal.wav
448,192,6992,1,0,0:0:0:0:
320,192,7168,1,0,0:0:0:0:
448,192,7344,1,0,0:0:0:30:LR_Clap Normal.wav
64,192,7697,1,0,0:0:0:0:
192,192,7874,1,0,0:0:0:0:
64,192,8050,1,0,0:0:0:30:LR_Clap Normal.wav
320,192,8403,1,0,0:0:0:0:
64,192,8580,1,0,0:0:0:0:
320,192,8756,1,0,0:0:0:30:LR_Clap Normal.wav
192,192,9109,1,0,0:0:0:0:
448,192,9286,1,0,0:0:0:0:
192,192,9462,1,0,0:0:0:30:LR_Clap Normal.wav
320,192,9815,1,2,0:0:0:0:
448,192,9815,1,0,0:0:0:70:Tom1.wav
64,192,9992,1,2,0:0:0:0:
192,192,9992,1,0,0:0:0:70:Tom1.wav
320,192,10344,128,2,10697:0:0:0:0:
448,192,10344,1,4,0:0:0:0:
64,192,10697,1,8,0:0:0:0:
192,192,10697,1,0,0:0:0:0:
64,192,11050,1,4,0:0:0:0:
192,192,11050,128,0,11403:0:0:0:0:
64,192,11403,1,2,0:0:0:0:
320,192,11580,1,8,0:0:0:0:
448,192,11580,1,0,0:0:0:0:
64,192,11933,1,8,0:0:0:0:
192,192,11933,1,0,0:0:0:0:
320,192,12109,1,2,0:0:0:0:
64,192,12286,1,8,0:0:0:0:
192,192,12286,1,0,0:0:0:0:
320,192,12462,1,2,0:0:0:0:
448,192,12462,128,4,12815:0:0:0:0:
192,192,12815,1,2,0:0:0:0:
320,192,12992,1,8,0:0:0:0:
448,192,12992,1,0,0:0:0:0:
64,192,13344,1,0,0:0:0:70:Tom1.wav
448,192,13344,1,0,0:0:0:0:
320,192,13521,1,0,0:0:0:70:Tom2.wav
64,192,13697,128,8,14050:0:0:0:0:
192,192,13697,1,0,0:0:0:0:
320,192,14050,1,4,0:0:0:0:
448,192,14050,1,2,0:0:0:0:
192,192,14226,1,0,0:0:0:0:
64,192,14402,1,8,0:0:0:0:
320,192,14579,1,0,0:0:0:0:
192,192,14755,1,8,0:0:0:0:
64,192,14932,1,2,0:0:0:0:
448,192,15285,1,2,0:0:0:0:
64,192,15461,1,2,0:0:0:0:
192,192,15461,1,4,0:0:0:0:
320,192,15638,1,0,0:0:0:0:
448,192,15814,1,8,0:0:0:0:
64,192,15991,128,2,16344:0:0:0:0:
192,192,15991,1,4,0:0:0:0:
320,192,16344,1,2,0:0:0:0:
192,192,16520,1,8,0:0:0:0:
64,192,16873,1,2,0:0:0:0:
448,192,16873,1,4,0:0:0:0:
320,192,17050,1,0,0:0:0:0:
192,192,17226,1,8,0:0:0:0:
448,192,17402,1,0,0:0:0:0:
320,192,17579,1,8,0:0:0:0:
192,192,17755,1,2,0:0:0:0:
448,192,18108,1,2,0:0:0:0:
64,192,18285,128,2,18638:0:0:0:0:
192,192,18285,1,4,0:0:0:0:
320,192,18638,1,8,0:0:0:0:
64,192,18814,1,2,0:0:0:0:
192,192,18814,1,4,0:0:0:0:
448,192,19167,128,2,19520:0:0:0:0:
320,192,19520,1,2,0:0:0:0:
64,192,19697,1,2,0:0:0:0:
192,192,19697,1,4,0:0:0:0:
320,192,20049,1,8,0:0:0:0:
448,192,20049,1,0,0:0:0:0:
64,192,20402,1,8,0:0:0:0:
448,192,20402,1,0,0:0:0:0:
64,192,20755,1,8,0:0:0:0:
192,192,20755,1,0,0:0:0:0:
320,192,21108,1,8,0:0:0:0:
448,192,21108,1,0,0:0:0:70:Tom2.wav
64,192,21285,1,8,0:0:0:0:
192,192,21285,1,0,0:0:0:70:Tom3.wav
320,192,21638,1,2,0:0:0:0:
448,192,21638,128,0,21991:0:0:0:0:
64,192,21991,1,0,0:0:0:70:Tom1.wav
320,192,22167,1,0,0:0:0:70:Tom2.wav
192,192,22344,1,0,0:0:0:0:
64,192,22520,1,8,0:0:0:0:
448,192,22520,1,0,0:0:0:0:
64,192,22697,1,8,0:0:0:0:
448,192,22697,1,0,0:0:0:0:
192,192,23138,1,0,0:0:0:70:RimShot.wav
192,192,23579,1,0,0:0:0:70:RimShot.wav
320,192,23756,1,2,0:0:0:0:
448,192,23756,128,8,24109:0:0:0:0:
64,192,24109,1,0,0:0:0:70:Tom1.wav
320,192,24285,1,0,0:0:0:70:Tom2.wav
64,192,24638,1,2,0:0:0:0:
192,192,24638,1,8,0:0:0:0:
320,192,24991,128,2,25344:0:0:0:0:
448,192,24991,1,8,0:0:0:0:
64,192,25344,1,8,0:0:0:0:
192,192,25344,1,0,0:0:0:0:
64,192,25521,1,8,0:0:0:0:
192,192,25521,1,0,0:0:0:0:
320,192,25962,1,0,0:0:0:70:RimShot.wav
320,192,26403,1,0,0:0:0:70:RimShot.wav
64,192,26579,128,8,26932:0:0:0:0:
192,192,26579,1,2,0:0:0:0:
320,192,26932,1,8,0:0:0:0:
448,192,26932,1,0,0:0:0:70:Tom1.wav
64,192,27109,1,8,0:0:0:0:
192,192,27109,1,0,0:0:0:70:Tom2.wav
320,192,27462,1,0,0:0:0:70:Tom2.wav
448,192,27462,1,0,0:0:0:0:
64,192,27815,1,0,0:0:0:70:Tom3.wav
192,192,27815,128,0,28168:0:0:0:0:
448,192,28168,1,0,0:0:0:0:
320,192,28344,1,0,0:0:0:0:
64,192,28520,1,0,0:0:0:30:LR_Clap Normal.wav
192,192,28697,1,0,0:0:0:30:LR_Clap Normal.wav
320,192,28873,1,0,0:0:0:0:
448,192,29050,1,0,0:0:0:0:
64,192,29226,1,0,0:0:0:30:LR_Clap Normal.wav
320,192,29579,1,0,0:0:0:0:
192,192,29756,1,0,0:0:0:0:
64,192,29932,1,0,0:0:0:30:LR_Clap Normal.wav
448,192,30109,1,0,0:0:0:30:LR_Clap Normal.wav
320,192,30285,1,0,0:0:0:0:
192,192,30462,1,0,0:0:0:0:
320,192,30638,1,0,0:0:0:30:LR_Clap Normal.wav
64,192,30991,1,0,0:0:0:70:Tom1.wav
448,192,30991,1,0,0:0:0:0:
192,192,31256,1,0,0:0:0:70:Tom2.wav
320,192,31520,1,0,0:0:0:70:Tom3.wav
64,192,31697,1,8,0:0:0:70:Tom1.wav
192,192,31697,1,0,0:0:0:0:
448,192,31962,1,0,0:0:0:70:Tom2.wav
192,192,32226,1,0,0:0:0:70:Tom3.wav
320,192,32403,1,8,0:0:0:0:
448,192,32403,1,0,0:0:0:0:
192,192,32756,1,8,0:0:0:0:
320,192,32756,1,0,0:0:0:0:
64,192,33109,1,8,0:0:0:0:
192,192,33109,1,0,0:0:0:0:
320,192,33815,1,2,0:0:0:0:
448,192,33815,128,4,34520:0:0:0:0:
64,192,34520,1,8,0:0:0:0:
192,192,34520,1,0,0:0:0:0:
64,192,35050,1,2,0:0:0:0:
320,192,35226,1,2,0:0:0:0:
192,192,35579,1,2,0:0:0:0:
64,192,35932,128,8,36638:0:0:0:0:
448,192,35932,1,0,0:0:0:0:
320,192,36638,1,2,0:0:0:0:
320,192,36991,1,2,0:0:0:0:
64,192,37344,1,8,0:0:0:0:
192,192,37344,128,0,38050:0:0:0:0:
448,192,37873,1,8,0:0:0:0:
320,192,38050,1,2,0:0:0:0:
64,192,38226,1,8,0:0:0:0:
448,192,38403,1,2,0:0:0:0:
64,192,38756,1,8,0:0:0:0:
192,192,38756,1,0,0:0:0:0:
320,192,39109,1,8,0:0:0:0:
448,192,39109,1,4,0:0:0:0:
64,192,39462,128,4,40873:0:0:0:0:
192,192,39462,1,2,0:0:0:0:
448,192,39991,1,0,0:0:0:0:
320,192,40168,1,2,0:0:0:0:
448,192,40697,1,0,0:0:0:0:
192,192,40873,128,2,42285:0:0:0:0:
64,192,41403,1,2,0:0:0:0:
320,192,41579,1,0,0:0:0:0:
64,192,42109,1,0,0:0:0:0:
320,192,42285,128,4,43697:0:0:0:0:
448,192,42285,1,8,0:0:0:0:
192,192,42815,1,8,0:0:0:0:
64,192,42991,1,2,0:0:0:0:
448,192,43344,1,12,0:0:0:0:
192,192,43697,1,2,0:0:0:0:
64,192,43873,1,8,0:0:0:0:
448,192,43873,128,4,44403:0:0:0:0:
64,192,44403,1,8,0:0:0:0:
192,192,44403,1,4,0:0:0:0:
320,192,44579,1,2,0:0:0:0:
192,192,44756,1,8,0:0:0:0:
64,192,44932,1,2,0:0:0:0:
320,192,45109,1,8,0:0:0:0:
448,192,45109,1,4,0:0:0:0:
64,192,45638,1,8,0:0:0:0:
192,192,45638,1,4,0:0:0:0:
192,192,46168,1,8,0:0:0:0:
320,192,46168,1,0,0:0:0:0:
64,192,46520,1,8,0:0:0:0:
448,192,46520,1,0,0:0:0:0:
320,192,46697,1,0,0:0:0:0:
192,192,46873,1,0,0:0:0:0:
64,192,47050,1,0,0:0:0:0:
448,192,47226,128,0,47579:0:0:0:0:
64,192,47579,1,8,0:0:0:0:
192,192,47756,1,8,0:0:0:0:
320,192,47932,1,2,0:0:0:0:
448,192,47932,1,4,0:0:0:0:
64,192,48285,1,8,0:0:0:0:
192,192,48285,1,0,0:0:0:0:
320,192,48462,128,8,48815:0:0:0:0:
448,192,48462,1,0,0:0:0:0:
64,192,48815,1,2,0:0:0:0:
192,192,48815,1,0,0:0:0:0:
320,192,49168,1,2,0:0:0:0:
448,192,49168,1,0,0:0:0:0:
320,192,49521,1,2,0:0:0:0:
448,192,49521,1,0,0:0:0:0:
64,192,49697,128,8,50050:0:0:0:0:
192,192,49697,1,0,0:0:0:0:
320,192,50050,1,2,0:0:0:0:
448,192,50050,1,0,0:0:0:0:
192,192,50227,1,2,0:0:0:0:
320,192,50403,1,8,0:0:0:0:
192,192,50580,1,0,0:0:0:0:
64,192,50756,1,2,0:0:0:0:
448,192,50756,1,4,0:0:0:0:
320,192,51109,1,8,0:0:0:0:
448,192,51109,1,0,0:0:0:0:
64,192,51285,1,2,0:0:0:0:
192,192,51285,128,0,51638:0:0:0:0:
320,192,51638,1,2,0:0:0:0:
448,192,51638,1,0,0:0:0:0:
320,192,51991,128,2,52344:0:0:0:0:
448,192,51991,1,0,0:0:0:0:
64,192,52344,1,2,0:0:0:0:
192,192,52344,1,0,0:0:0:0:
320,192,52521,1,8,0:0:0:0:
448,192,52521,128,0,52874:0:0:0:0:
64,192,52874,1,2,0:0:0:0:
192,192,53050,1,2,0:0:0:0:
320,192,53227,1,8,0:0:0:0:
448,192,53403,1,0,0:0:0:0:
64,192,53580,1,2,0:0:0:0:
192,192,53580,1,4,0:0:0:0:
320,192,53933,1,8,0:0:0:0:
448,192,53933,1,0,0:0:0:0:
64,192,54109,1,8,0:0:0:0:
192,192,54109,128,0,54462:0:0:0:0:
320,192,54462,1,2,0:0:0:0:
448,192,54462,1,0,0:0:0:0:
320,192,54815,1,2,0:0:0:0:
448,192,54815,128,0,55168:0:0:0:0:
192,192,55168,1,2,0:0:0:0:
320,192,55344,1,8,0:0:0:0:
64,192,55521,1,0,0:0:0:0:
448,192,55697,1,2,0:0:0:0:
192,192,55874,1,2,0:0:0:0:
320,192,56050,128,8,56403:0:0:0:0:
448,192,56050,1,0,0:0:0:0:
64,192,56403,1,2,0:0:0:0:
192,192,56403,1,4,0:0:0:0:
448,192,56580,1,0,0:0:0:0:
320,192,56932,1,2,0:0:0:0:
192,192,57109,1,0,0:0:0:0:
64,192,57285,1,2,0:0:0:0:
320,192,57638,1,2,0:0:0:0:
448,192,57638,128,4,57991:0:0:0:0:
64,192,57991,1,2,0:0:0:0:
320,192,58168,1,8,0:0:0:0:
192,192,58344,1,2,0:0:0:0:
320,192,58521,1,8,0:0:0:0:
448,192,58521,1,0,0:0:0:0:
64,192,58874,1,12,0:0:0:0:
320,192,59050,1,0,0:0:0:0:
64,192,59227,1,2,0:0:0:0:
192,192,59227,1,4,0:0:0:0:
320,192,59580,1,8,0:0:0:0:
448,192,59580,1,0,0:0:0:0:
64,192,59756,1,8,0:0:0:0:
192,192,59756,128,0,60109:0:0:0:0:
320,192,60109,1,2,0:0:0:0:
448,192,60109,1,0,0:0:0:0:
64,192,60462,1,2,0:0:0:0:
192,192,60462,1,0,0:0:0:0:
64,192,60815,1,2,0:0:0:0:
192,192,60815,1,0,0:0:0:0:
320,192,60991,1,8,0:0:0:0:
448,192,60991,128,0,61344:0:0:0:0:
64,192,61344,1,2,0:0:0:0:
192,192,61344,1,0,0:0:0:0:
320,192,61521,1,2,0:0:0:0:
192,192,61697,1,8,0:0:0:0:
320,192,61874,1,0,0:0:0:0:
64,192,62050,1,2,0:0:0:0:
448,192,62050,1,4,0:0:0:0:
64,192,62403,1,8,0:0:0:0:
192,192,62403,1,0,0:0:0:0:
320,192,62580,128,2,62932:0:0:0:0:
448,192,62580,1,0,0:0:0:0:
64,192,62932,1,2,0:0:0:0:
192,192,62932,1,0,0:0:0:0:
64,192,63285,1,2,0:0:0:0:
192,192,63285,128,0,63638:0:0:0:0:
320,192,63638,1,2,0:0:0:0:
448,192,63638,1,0,0:0:0:0:
64,192,63815,128,8,64168:0:0:0:0:
192,192,63815,1,0,0:0:0:0:
448,192,64168,1,8,0:0:0:0:
320,192,64344,1,2,0:0:0:0:
192,192,64521,1,8,0:0:0:0:
64,192,64697,1,0,0:0:0:0:
320,192,64874,1,2,0:0:0:0:
448,192,64874,1,4,0:0:0:0:
64,192,65227,1,8,0:0:0:0:
192,192,65227,1,0,0:0:0:0:
320,192,65403,128,8,65756:0:0:0:0:
448,192,65403,1,0,0:0:0:0:
64,192,65756,1,2,0:0:0:0:
192,192,65756,1,0,0:0:0:0:
64,192,66109,128,2,66462:0:0:0:0:
192,192,66109,1,0,0:0:0:0:
320,192,66462,1,2,0:0:0:0:
448,192,66462,1,0,0:0:0:0:
64,192,66638,1,8,0:0:0:0:
192,192,66638,1,0,0:0:0:0:
320,192,66815,1,0,0:0:0:0:
448,192,66991,1,2,0:0:0:0:
64,192,67168,1,2,0:0:0:0:
192,192,67344,128,8,67697:0:0:0:0:
320,192,67344,1,0,0:0:0:0:
64,192,67697,1,2,0:0:0:0:
448,192,67697,1,4,0:0:0:0:
64,192,68050,1,8,0:0:0:0:
192,192,68050,1,0,0:0:0:0:
320,192,68227,128,2,68580:0:0:0:0:
448,192,68227,1,4,0:0:0:0:
64,192,68580,1,2,0:0:0:0:
192,192,68580,1,0,0:0:0:0:
64,192,68932,1,2,0:0:0:0:
448,192,68932,128,4,69285:0:0:0:0:
192,192,69285,1,2,0:0:0:0:
320,192,69462,128,8,69815:0:0:0:0:
448,192,69462,1,4,0:0:0:0:
64,192,69815,1,8,0:0:0:0:
192,192,69815,128,0,70168:0:0:0:0:
64,192,70168,128,8,70521:0:0:0:0:
448,192,70168,1,4,0:0:0:0:
320,192,70521,1,0,0:0:0:0:
320,192,70874,1,0,0:0:0:0:
192,192,71050,1,0,0:0:0:0:
448,192,71403,1,0,0:0:0:0:
64,192,71756,1,0,0:0:0:0:
320,192,72109,1,0,0:0:0:0:
192,192,72285,1,0,0:0:0:0:
320,192,72462,1,0,0:0:0:0:
448,192,72638,128,0,74050:0:0:0:0:
192,192,74403,1,0,0:0:0:0:
64,192,74756,1,2,0:0:0:0:
320,192,74756,1,4,0:0:0:0:
64,192,74932,1,2,0:0:0:0:
448,192,75109,1,8,0:0:0:0:
64,192,75285,1,2,0:0:0:0:
192,192,75285,128,4,75638:0:0:0:0:
320,192,75638,1,2,0:0:0:0:
448,192,75638,1,0,0:0:0:0:
64,192,75991,128,2,76344:0:0:0:0:
192,192,75991,1,4,0:0:0:0:
448,192,76344,1,2,0:0:0:0:
192,192,76521,1,8,0:0:0:0:
320,192,76697,1,0,0:0:0:0:
64,192,76874,1,8,0:0:0:0:
448,192,76874,128,0,77227:0:0:0:0:
64,192,77227,1,8,0:0:0:0:
192,192,77227,1,0,0:0:0:0:
320,192,77403,128,2,77756:0:0:0:0:
448,192,77403,1,4,0:0:0:0:
64,192,77756,1,2,0:0:0:0:
320,192,77932,1,8,0:0:0:0:
448,192,77932,1,0,0:0:0:0:
64,192,78285,1,0,0:0:0:70:Tom1.wav
192,192,78285,128,0,78638:0:0:0:0:
320,192,78638,1,8,0:0:0:0:
448,192,78638,128,4,78991:0:0:0:0:
64,192,78991,1,6,0:0:0:0:
192,192,79168,1,0,0:0:0:0:
320,192,79344,1,8,0:0:0:0:
64,192,79521,1,0,0:0:0:0:
192,192,79697,1,8,0:0:0:0:
320,192,79874,1,2,0:0:0:0:
64,192,80227,1,2,0:0:0:0:
320,192,80403,1,2,0:0:0:0:
448,192,80403,1,4,0:0:0:0:
192,192,80580,1,0,0:0:0:0:
64,192,80756,1,8,0:0:0:0:
320,192,80933,1,2,0:0:0:0:
448,192,80933,128,4,81286:0:0:0:0:
64,192,81286,1,2,0:0:0:0:
320,192,81462,1,8,0:0:0:0:
64,192,81815,1,2,0:0:0:0:
192,192,81815,1,4,0:0:0:0:
320,192,81992,1,0,0:0:0:0:
448,192,82168,1,8,0:0:0:0:
192,192,82344,1,0,0:0:0:0:
320,192,82521,1,8,0:0:0:0:
448,192,82697,1,2,0:0:0:0:
320,192,83050,1,2,0:0:0:0:
64,192,83227,128,2,83580:0:0:0:0:
192,192,83227,1,4,0:0:0:0:
320,192,83580,1,8,0:0:0:0:
64,192,83756,1,2,0:0:0:0:
192,192,83756,1,4,0:0:0:0:
448,192,84109,128,2,84462:0:0:0:0:
320,192,84462,1,2,0:0:0:0:
64,192,84639,1,4,0:0:0:0:
192,192,84639,1,8,0:0:0:0:
320,192,84992,1,8,0:0:0:0:
448,192,84992,1,0,0:0:0:0:
64,192,85344,1,8,0:0:0:0:
448,192,85344,1,0,0:0:0:0:
64,192,85697,1,8,0:0:0:0:
192,192,85697,1,0,0:0:0:0:
320,192,86050,1,8,0:0:0:0:
448,192,86050,1,4,0:0:0:0:
64,192,86403,1,8,0:0:0:0:
320,192,86403,1,0,0:0:0:0:
192,192,86756,1,8,0:0:0:0:
448,192,86756,1,0,0:0:0:0:
320,192,87109,1,8,0:0:0:0:
448,192,87109,1,0,0:0:0:0:
64,192,87462,1,8,0:0:0:0:
320,192,87462,1,4,0:0:0:0:
64,192,87815,1,8,0:0:0:0:
192,192,87815,1,0,0:0:0:0:
192,192,88168,1,8,0:0:0:0:
448,192,88168,1,0,0:0:0:0:
320,192,88521,1,8,0:0:0:0:
448,192,88521,1,0,0:0:0:0:
64,192,88874,128,8,89580:0:0:0:0:
192,192,88874,1,4,0:0:0:0:
320,192,89580,1,8,0:0:0:0:
448,192,89580,128,0,90286:0:0:0:0:
64,192,90286,1,2,0:0:0:0:
192,192,90462,1,0,0:0:0:0:
320,192,90815,1,0,0:0:0:0:
192,192,90992,1,0,0:0:0:0:
64,192,91168,1,0,0:0:0:0:
448,192,91344,1,0,0:0:0:0:
320,192,91521,1,0,0:0:0:0:
192,192,91874,1,0,0:0:0:0:
192,192,92050,1,0,0:0:0:0:
