osu file format v14

[General]
AudioFilename: audio.mp3
AudioLeadIn: 0
PreviewTime: 87568
Countdown: 0
SampleSet: Soft
StackLeniency: 0.4
Mode: 0
LetterboxInBreaks: 0
EpilepsyWarning: 1
WidescreenStoryboard: 1

[Editor]
Bookmarks: 88318,145918,191660,246517
DistanceSpacing: 0.8
BeatDivisor: 12
GridSize: 4
TimelineZoom: 3.999998

[Metadata]
Title:I Got That Tune (Tha Trickaz Remix)
TitleUnicode:I Got That Tune (Tha Trickaz Remix)
Artist:Chinese Man
ArtistUnicode:Chinese Man
Creator:toybot
Version:Funk
Source:
Tags:glitch hop kuro usagi
BeatmapID:1665528
BeatmapSetID:793027

[Difficulty]
HPDrainRate:5
CircleSize:4.2
OverallDifficulty:8.5
ApproachRate:9.5
SliderMultiplier:2
SliderTickRate:1

[Events]
//Background and Video events
0,0,"china.jpg",0,0
//Break Periods
//Storyboard Layer 0 (Background)
//Storyboard Layer 1 (Fail)
//Storyboard Layer 2 (Pass)
//Storyboard Layer 3 (Foreground)
//Storyboard Sound Samples

[TimingPoints]
114,428.571428571429,4,2,1,40,1,0
114,-200,4,2,1,40,0,0
971,-80,4,2,1,40,0,0
1399,-200,4,2,1,40,0,0
2685,-333.333333333333,4,2,1,40,0,0
3114,-200,4,2,1,40,0,0
4399,-80,4,2,1,40,0,0
5685,-117.647058823529,4,2,1,40,0,0
6542,-133.333333333333,4,2,1,40,0,0
12542,-133.333333333333,4,2,1,40,0,0
12971,-80,4,2,1,40,0,0
13399,-400,4,2,1,70,0,0
13828,-133.333333333333,4,2,1,60,0,0
15114,-100,4,2,1,60,0,0
20685,-66.6666666666667,4,2,1,60,0,0
21328,-200,4,2,1,60,0,0
21542,-66.6666666666667,4,2,1,60,0,0
23042,-200,4,2,1,60,0,0
23256,-66.6666666666667,4,2,1,60,0,0
23685,-100,4,2,1,60,0,0
25828,-71.4285714285714,4,2,1,60,0,0
26685,-125,4,2,1,60,0,0
27542,-66.6666666666667,4,2,1,60,0,0
32685,-83.3333333333333,4,2,1,60,0,0
34399,-66.6666666666667,4,2,1,60,0,0
34828,-200,4,2,1,60,0,0
35256,-66.6666666666667,4,2,1,60,0,0
36542,-200,4,2,1,60,0,0
36971,-66.6666666666667,4,2,1,60,0,0
37828,-100,4,2,1,60,0,0
39542,-125,4,2,1,60,0,0
41256,-125,4,2,1,50,0,0
55828,419.58041958042,4,2,1,60,1,0
55828,-100,4,2,1,60,0,0
56667,413.793103448276,4,2,1,60,1,0
58322,410.958904109589,4,2,1,60,1,0
59965,405.405405405405,4,2,1,60,1,0
60775,392.156862745098,4,2,1,60,1,0
62343,387.096774193548,4,2,1,60,1,0
63891,379.746835443038,4,2,1,60,1,0
65409,372.670807453416,4,2,1,60,1,0
66899,365.853658536585,4,2,1,60,1,0
68362,359.281437125748,4,2,1,60,1,0
69799,352.941176470588,4,2,1,60,1,0
71210,346.820809248555,4,2,1,60,1,0
72597,340.909090909091,4,2,1,60,1,0
73960,335.195530726257,4,2,1,60,1,0
75300,329.67032967033,4,2,1,60,1,0
76618,324.324324324324,4,2,1,60,1,0
77915,320.855614973262,4,2,1,60,1,0
79198,315.789473684211,4,2,1,60,1,0
80461,309.278350515464,4,2,1,60,1,0
81698,304.568527918782,4,2,1,60,1,0
82297,303.030303030303,4,2,1,60,1,0
82903,-90.9090909090909,4,2,1,60,0,0
83506,300,4,2,1,60,1,0
83506,-100,4,2,1,60,0,0
83509,300,4,2,1,60,1,0
85918,-200,4,2,1,60,0,0
87118,-200,4,2,1,70,0,0
88231,-200,4,2,1,5,0,0
88314,300,4,2,1,80,1,1
88314,-66.6666666666667,4,2,1,80,0,1
89809,-100,4,2,1,80,0,1
90109,-66.6666666666667,4,2,1,80,0,1
90709,-100,4,2,1,80,0,1
91609,-76.9230769230769,4,2,1,80,0,1
91909,-133.333333333333,4,2,1,80,0,1
93109,-66.6666666666667,4,2,1,80,0,1
94159,-133.333333333333,4,2,1,80,0,1
94909,-66.6666666666667,4,2,1,80,0,1
95514,-66.6666666666667,4,2,1,80,0,0
97759,-100,4,2,1,80,0,0
97914,-66.6666666666667,4,2,1,80,0,1
99409,-100,4,2,1,80,0,1
99709,-66.6666666666667,4,2,1,80,0,1
100309,-100,4,2,1,80,0,1
101209,-76.9230769230769,4,2,1,80,0,1
101509,-133.333333333333,4,2,1,80,0,1
102709,-66.6666666666667,4,2,1,80,0,1
103909,-133.333333333333,4,2,1,80,0,1
105114,-133.333333333333,4,2,1,80,0,0
106909,-200,4,2,1,80,0,0
107514,-71.4285714285714,4,2,1,80,0,1
108409,-100,4,2,1,80,0,1
109309,-66.6666666666667,4,2,1,80,0,1
109909,-76.9230769230769,4,2,1,80,0,1
112309,-100,4,2,1,80,0,1
112909,-66.6666666666667,4,2,1,80,0,1
113209,-76.9230769230769,4,2,1,80,0,1
113509,-100,4,2,1,80,0,1
114109,-66.6666666666667,4,2,1,80,0,1
114714,-66.6666666666667,4,2,1,80,0,0
116509,-83.3333333333333,4,2,1,80,0,0
116809,-66.6666666666667,4,2,1,60,0,0
117114,-71.4285714285714,4,2,1,80,0,1
118009,-100,4,2,1,80,0,1
118909,-66.6666666666667,4,2,1,80,0,1
119509,-76.9230769230769,4,2,1,80,0,1
120709,-62.5,4,2,1,80,0,1
121009,-71.4285714285714,4,2,1,80,0,1
121309,-100,4,2,1,80,0,1
121609,-133.333333333333,4,2,1,80,0,1
122809,-90.9090909090909,4,2,1,80,0,1
123109,-133.333333333333,4,2,1,80,0,1
123709,-300.0003000003,4,2,1,80,0,1
124314,-200,4,2,1,80,0,0
126714,-62.5,4,2,1,80,0,1
127609,-111.111111111111,4,2,1,80,0,1
127909,-50,4,2,1,80,0,1
127984,-50,4,2,1,5,0,1
128059,-50,4,2,1,80,0,1
128134,-50,4,2,1,5,0,1
128209,-60.00000000024,4,2,1,80,0,1
128284,-60.00000000024,4,2,1,5,0,1
128359,-60.00000000024,4,2,1,80,0,1
128434,-60.00000000024,4,2,1,5,0,1
128509,-75.0000000000187,4,2,1,80,0,1
128584,-75.0000000000187,4,2,1,5,0,1
128659,-75.0000000000187,4,2,1,80,0,1
128734,-75.0000000000187,4,2,1,5,0,1
128809,-200,4,2,1,60,0,1
128884,-200,4,2,1,5,0,1
128959,-200,4,2,1,60,0,1
129034,-200,4,2,1,5,0,1
129109,-100,4,2,1,80,0,1
129709,-76.9230769230769,4,2,1,80,0,1
130309,-100,4,2,1,80,0,1
130909,-133.333333333333,4,2,1,80,0,1
131509,-76.9230769230769,4,2,1,80,0,1
132784,-76.9230769230769,4,2,1,5,0,1
132859,-76.9230769230769,4,2,1,80,0,1
132934,-76.9230769230769,4,2,1,5,0,1
133009,-76.9230769230769,4,2,1,80,0,1
133084,-76.9230769230769,4,2,1,5,0,1
133159,-76.9230769230769,4,2,1,80,0,1
133234,-76.9230769230769,4,2,1,5,0,1
133309,-62.5,4,2,1,80,0,1
133914,-111.111111111111,4,2,1,80,0,0
136009,-66.6666666666667,4,2,1,80,0,0
136159,-100,4,2,1,80,0,0
136314,-71.4285714285714,4,2,1,80,0,1
137509,-55.5555555555556,4,2,1,80,0,1
137584,-55.5555555555556,4,2,1,5,0,1
137659,-66.6666666666667,4,2,1,80,0,1
137734,-66.6666666666667,4,2,1,5,0,1
137809,-66.6666666666667,4,2,1,80,0,1
137884,-66.6666666666667,4,2,1,5,0,1
137959,-100,4,2,1,70,0,1
138034,-100,4,2,1,5,0,1
138109,-100,4,2,1,70,0,1
138184,-100,4,2,1,5,0,1
138259,-100,4,2,1,70,0,1
138334,-100,4,2,1,5,0,1
138409,-52.6315789473684,4,2,1,70,0,1
138709,-66.6666666666667,4,2,1,80,0,1
139309,-58.8235294117647,4,2,1,80,0,1
139609,-133.333333333333,4,2,1,80,0,1
139909,-100,4,2,1,80,0,1
140509,-133.333333333333,4,2,1,80,0,1
141109,-66.6666666666667,4,2,1,80,0,1
142009,-76.9230769230769,4,2,1,80,0,1
142384,-76.9230769230769,4,2,1,5,0,1
142459,-76.9230769230769,4,2,1,80,0,1
142534,-76.9230769230769,4,2,1,5,0,1
142609,-76.9230769230769,4,2,1,80,0,1
142684,-76.9230769230769,4,2,1,5,0,1
142759,-76.9230769230769,4,2,1,80,0,1
142834,-76.9230769230769,4,2,1,5,0,1
142909,-76.9230769230769,4,2,1,80,0,1
143514,-111.111111111111,4,2,1,80,0,0
145309,-119.047619047619,4,2,1,80,0,0
145909,-200,4,2,1,70,0,0
146209,-200,4,2,1,50,0,0
155518,303.030303030303,4,2,1,50,1,0
155518,-200,4,2,1,50,0,0
156730,309.278350515464,4,2,1,50,1,0
156730,-200,4,2,1,50,0,0
157967,322.58064516129,4,2,1,50,1,0
157967,-200,4,2,1,50,0,0
158289,319.148936170213,4,2,1,50,1,0
158927,322.58064516129,4,2,1,50,1,0
159252,327.868852459016,4,2,1,50,1,0
159252,-200,4,2,1,50,0,0
159907,331.491712707182,4,2,1,50,1,0
160569,-200,4,2,1,50,0,0
161232,340.909090909091,4,2,1,50,1,0
161232,-200,4,2,1,50,0,0
162595,346.820809248555,4,2,1,50,1,0
162941,342.857142857143,4,2,1,50,1,0
162941,-200,4,2,1,50,0,0
163283,348.837209302326,4,2,1,50,1,0
163283,-200,4,2,1,50,0,0
164329,352.941176470588,4,2,1,50,1,0
165034,-200,4,2,1,50,0,0
166093,-200,4,2,1,60,0,0
166799,355.029585798817,4,2,1,60,1,0
167509,361.44578313253,4,2,1,60,1,0
168593,372.670807453416,4,2,1,60,1,0
171201,-200,4,2,1,60,0,0
172692,382.165605095541,4,2,1,60,1,0
173838,389.61038961039,4,2,1,60,1,0
176175,394.736842105263,4,2,1,60,1,0
177753,402.684563758389,4,2,1,60,1,0
178155,-200,4,2,1,60,0,0
178558,408.163265306122,4,2,1,60,1,0
179782,-200,4,2,1,60,0,0
180190,-100,4,2,1,60,0,0
181006,416.666666666667,4,2,1,60,1,0
181422,-200,4,2,1,60,0,0
181839,-100,4,2,1,60,0,0
182672,422.535211267606,4,2,1,60,1,0
183094,-200,4,2,1,60,0,0
183517,-100,4,2,1,60,0,0
184362,430.10752688172,4,2,1,60,1,0
184792,429.338103756708,4,2,1,60,1,0
188226,428.571428571429,4,2,1,60,1,0
189940,-83.3333333333333,4,2,1,60,0,0
190047,-83.3333333333333,4,2,1,5,0,0
190797,-83.3333333333333,4,2,1,60,0,0
191654,-100,4,2,1,80,0,1
191976,-50,4,2,1,80,0,1
192351,-50,4,2,1,5,0,1
192404,-50,4,2,1,80,0,1
192458,-50,4,2,1,5,0,1
192511,-50,4,2,1,80,0,1
192565,-50,4,2,1,5,0,1
192618,-50,4,2,1,80,0,1
192672,-50,4,2,1,5,0,1
192726,-100,4,2,1,80,0,1
192940,-50,4,2,1,80,0,1
193368,-100,4,2,1,80,0,1
194440,-66.6666666666667,4,2,1,80,0,1
194761,-100,4,2,1,80,0,1
195404,-50,4,2,1,80,0,1
196797,-66.6666666666667,4,2,1,80,0,0
197333,-133.333333333333,4,2,1,80,0,0
197654,-76.9230769230769,4,2,1,80,0,0
198511,-100,4,2,1,80,0,1
198833,-50,4,2,1,80,0,1
199208,-50,4,2,1,5,0,1
199261,-50,4,2,1,80,0,1
199315,-50,4,2,1,5,0,1
199368,-50,4,2,1,80,0,1
199422,-50,4,2,1,5,0,1
199476,-50,4,2,1,80,0,1
199529,-50,4,2,1,5,0,1
199583,-100,4,2,1,80,0,1
199797,-50,4,2,1,80,0,1
200226,-100,4,2,1,80,0,1
201297,-66.6666666666667,4,2,1,80,0,1
201618,-100,4,2,1,80,0,1
202261,-50,4,2,1,80,0,1
203226,-66.6666666666667,4,2,1,80,0,1
203654,-66.6666666666667,4,2,1,80,0,0
204083,-133.333333333333,4,2,1,80,0,0
204511,-76.9230769230769,4,2,1,80,0,0
205368,-66.6666666666667,4,2,1,80,0,1
205690,-57.1428571428571,4,2,1,80,0,1
207726,-100,4,2,1,80,0,1
208154,-66.6666666666667,4,2,1,80,0,1
208476,-100,4,2,1,80,0,1
208797,-66.6666666666667,4,2,1,80,0,1
209118,-57.1428571428571,4,2,1,80,0,1
210083,-52.6315789473684,4,2,1,80,0,1
210511,-66.6666666666667,4,2,1,80,0,0
210940,-133.333333333333,4,2,1,80,0,0
211368,-76.9230769230769,4,2,1,80,0,0
212226,-66.6666666666667,4,2,1,80,0,1
212547,-57.1428571428571,4,2,1,80,0,1
212868,-100,4,2,1,80,0,1
213511,-66.6666666666667,4,2,1,80,0,1
214208,-66.6666666666667,4,2,1,5,0,1
214261,-66.6666666666667,4,2,1,75,0,1
214315,-66.6666666666667,4,2,1,5,0,1
214368,-66.6666666666667,4,2,1,70,0,1
214422,-66.6666666666667,4,2,1,5,0,1
214476,-66.6666666666667,4,2,1,65,0,1
214529,-66.6666666666667,4,2,1,5,0,1
214583,-66.6666666666667,4,2,1,60,0,1
214797,-66.6666666666667,4,2,1,80,0,1
215333,-100,4,2,1,80,0,1
215654,-66.6666666666667,4,2,1,80,0,1
215976,-57.1428571428571,4,2,1,80,0,1
216297,-100,4,2,1,80,0,1
216940,-66.6666666666667,4,2,1,80,0,1
217368,-60.6060606060606,4,2,1,80,0,0
217690,-66.6666666666667,4,2,1,80,0,0
218226,-80,4,2,1,80,0,0
219083,-50,4,2,1,80,0,1
219726,-66.6666666666667,4,2,1,80,0,1
219940,-50,4,2,1,80,0,1
219993,-50,4,2,1,5,0,1
220047,-50,4,2,1,80,0,1
220101,-50,4,2,1,5,0,1
220154,-50,4,2,1,80,0,1
220208,-50,4,2,1,5,0,1
220261,-50,4,2,1,80,0,1
220315,-50,4,2,1,5,0,1
220368,-50,4,2,1,80,0,1
220422,-50,4,2,1,5,0,1
220476,-50,4,2,1,80,0,1
220529,-50,4,2,1,5,0,1
220583,-40,4,2,1,80,0,1
220797,-100,4,2,1,80,0,1
221654,-133.333333333333,4,2,1,80,0,1
221868,-50,4,2,1,80,0,1
222190,-66.6666666666667,4,2,1,80,0,1
222511,-45.4545454545455,4,2,1,80,0,1
223154,-62.5,4,2,1,80,0,1
223368,-45.4545454545455,4,2,1,80,0,1
223422,-45.4545454545455,4,2,1,5,0,1
223476,-45.4545454545455,4,2,1,80,0,1
223529,-45.4545454545455,4,2,1,5,0,1
223583,-45.4545454545455,4,2,1,80,0,1
223636,-45.4545454545455,4,2,1,5,0,1
223690,-45.4545454545455,4,2,1,80,0,1
223743,-45.4545454545455,4,2,1,5,0,1
223797,-45.4545454545455,4,2,1,80,0,1
224226,-100,4,2,1,80,0,0
225511,-66.6666666666667,4,2,1,80,0,0
225940,-50,4,2,1,80,0,1
226583,-66.6666666666667,4,2,1,80,0,1
226797,-50,4,2,1,80,0,1
226851,-50,4,2,1,5,0,1
226904,-50,4,2,1,80,0,1
226958,-50,4,2,1,5,0,1
227011,-50,4,2,1,80,0,1
227065,-50,4,2,1,5,0,1
227118,-50,4,2,1,80,0,1
227172,-50,4,2,1,5,0,1
227226,-50,4,2,1,80,0,1
227279,-50,4,2,1,5,0,1
227333,-50,4,2,1,80,0,1
227386,-50,4,2,1,5,0,1
227440,-40,4,2,1,80,0,1
227654,-100,4,2,1,80,0,1
228726,-50,4,2,1,80,0,1
229047,-66.6666666666667,4,2,1,80,0,1
229368,-45.4545454545455,4,2,1,80,0,1
230011,-62.5,4,2,1,80,0,1
230226,-50,4,2,1,80,0,1
230279,-50,4,2,1,5,0,1
230333,-50,4,2,1,80,0,1
230386,-50,4,2,1,5,0,1
230440,-50,4,2,1,80,0,1
230493,-50,4,2,1,5,0,1
230547,-50,4,2,1,80,0,1
230601,-50,4,2,1,5,0,1
230654,-45.4545454545455,4,2,1,80,0,1
231083,-100,4,2,1,80,0,0
231726,-83.3333333333333,4,2,1,80,0,0
232797,-50,4,2,1,80,0,1
233118,-66.6666666666667,4,2,1,80,0,1
233976,-50,4,2,1,80,0,1
234511,-76.9230769230769,4,2,1,80,0,1
235154,-100,4,2,1,80,0,1
235583,-50,4,2,1,80,0,1
235904,-66.6666666666667,4,2,1,80,0,1
236226,-50,4,2,1,80,0,1
236547,-66.6666666666667,4,2,1,80,0,1
237940,-66.6666666666667,4,2,1,80,0,0
238583,-133.333333333333,4,2,1,80,0,0
238797,-66.6666666666667,4,2,1,80,0,0
239226,-300.000000003,4,2,1,80,0,0
239654,-45.4545454545455,4,2,1,80,0,1
239976,-55.5555555555556,4,2,1,80,0,1
240297,-100,4,2,1,80,0,1
240511,-66.6666666666667,4,2,1,80,0,1
240833,-50,4,2,1,80,0,1
241368,-76.9230769230769,4,2,1,80,0,1
242011,-100,4,2,1,80,0,1
242440,-66.6666666666667,4,2,1,80,0,1
242761,-100,4,2,1,80,0,1
243083,-111.111111111111,4,2,1,60,0,0
246083,-66.6666666666667,4,2,1,50,0,0
246136,-66.6666666666667,4,2,1,5,0,0
246190,-50,4,2,1,60,0,0
246243,-50,4,2,1,5,0,0
246297,-40,4,2,1,70,0,0
246351,-40,4,2,1,5,0,0
246404,-33.3333333333333,4,2,1,80,0,0
246458,-33.3333333333333,4,2,1,5,0,0
246511,-66.6666666666667,4,2,1,60,0,1
246618,-66.6666666666667,4,2,1,60,0,0
251654,-83.3333333333333,4,2,1,60,0,0
253368,-66.6666666666667,4,2,1,60,0,0
253797,-200,4,2,1,60,0,0
254226,-66.6666666666667,4,2,1,60,0,0
255511,-200,4,2,1,60,0,0
255940,-66.6666666666667,4,2,1,60,0,0
256797,-200,4,2,1,60,0,0
262797,-80,4,2,1,60,0,0
263118,-80,4,2,1,5,0,0
263226,-80,4,2,1,60,0,0
263279,-80,4,2,1,5,0,0
263654,-80,4,2,1,60,0,0
263708,-80,4,2,1,5,0,0
263868,-133.333333333333,4,2,1,60,0,0
265368,-100,4,2,1,60,0,0
266226,-133.333333333333,4,2,1,60,0,0
267083,-200,4,2,1,60,0,0
271368,-133.333333333333,4,2,1,60,0,0
273511,-400,4,2,1,60,0,0
274154,-200,4,2,1,30,0,0
286368,-333.333333333333,4,2,1,30,0,0
287258,428.571428571429,4,2,1,30,1,0
287258,-333.333333333333,4,2,1,30,0,0
287686,-333.333333333333,4,2,1,20,0,0
288088,428.571428571429,4,2,1,20,1,0
288088,-250,4,2,1,20,0,0
289373,428.571428571429,4,2,1,20,1,0
289373,-250,4,2,1,20,0,0
291493,436.363636363636,4,2,1,20,1,0
291493,-250,4,2,1,20,0,0
292801,416.666666666667,4,2,1,20,1,0
292801,-250,4,2,1,20,0,0
294537,428.571428571429,4,2,1,20,1,0
294537,-250,4,2,1,20,0,0
295394,461.538461538462,4,2,1,20,1,0
295394,-250,4,2,1,20,0,0
296251,428.571428571429,4,2,1,20,1,0
296251,-250,4,2,1,20,0,0
297965,416.666666666667,4,2,1,20,1,0
297965,-250,4,2,1,20,0,0
298822,428.571428571429,4,2,1,20,1,0
298822,-250,4,2,1,20,0,0
299679,428.571428571429,4,2,1,20,1,0
299679,-250,4,2,1,20,0,0
300323,-250,4,2,1,15,0,0
300752,-250,4,2,1,12,0,0
301393,-333.333333333333,4,2,1,20,0,0
301823,-333.333333333333,4,2,1,18,0,0
302252,-333.333333333333,4,2,1,16,0,0
302680,-333.333333333333,4,2,1,14,0,0
303109,-333.333333333333,4,2,1,12,0,0
303537,-333.333333333333,4,2,1,10,0,0
303966,-333.333333333333,4,2,1,8,0,0
304394,-333.333333333333,4,2,1,6,0,0
304823,-333.333333333333,4,2,1,5,0,0

[Colours]
Combo1 : 130,0,130
Combo2 : 212,212,212
Combo3 : 255,147,255
Combo4 : 0,247,62
Combo5 : 174,0,0
Combo6 : 119,119,119
Combo7 : 96,255,175
Combo8 : 236,0,148

[HitObjects]
452,117,399,5,0,0:0:0:0:
437,108,542,2,0,P|404:101|374:114,1,66.6666666666667
365,128,971,2,0,B|305:80|196:158|309:201|328:103|206:105,1,166.666666666667,2|0,0:0|0:0,0:0:0:0:
242,103,1399,2,0,P|209:96|179:109,1,66.6666666666667
167,99,1828,1,0,0:0:0:0:
58,245,2114,53,0,0:0:0:0:
73,236,2257,2,0,P|105:229|135:242,1,66.6666666666667
145,322,2685,2,0,B|126:326|126:326|108:317,1,39.9999987792969,2|0,0:0|0:0,0:0:0:0:
135,242,3114,2,0,P|167:235|197:248,1,66.6666666666667,2|0,0:0|0:0,0:0:0:0:
209,261,3543,1,0,0:0:0:0:
311,344,3828,53,0,0:0:0:0:
327,353,3971,2,0,P|362:359|400:336,1,66.6666666666667
398,333,4399,2,0,B|422:296|407:193|314:270|394:281|435:263,1,166.666666666667,2|0,0:0|0:0,0:0:0:0:
447,253,4828,2,0,B|423:216|438:113|531:190|451:201|410:183,1,166.666666666667,2|0,0:0|0:0,0:0:0:0:
365,117,5256,54,0,B|406:107|419:56|419:56|419:108|489:148,1,166.666666666667,2|0,0:0|0:0,0:0:0:0:
496,58,5685,2,0,P|417:81|342:44,1,170.000003242493,2|0,0:0|0:0,0:0:0:0:
168,148,6542,2,0,P|122:128|74:138,1,100.000003814697
118,237,6971,54,0,P|114:201|104:235,1,100.000003814697,2|0,0:0|0:0,0:0:0:0:
104,235,7399,2,0,B|176:217|167:275|262:253,1,150.000005722046,0|2,0:0|0:0,0:0:0:0:
381,51,8114,1,0,0:0:0:0:
367,40,8256,2,0,P|345:94|370:154,1,100.000003814697
373,128,8685,54,0,P|395:182|370:242,1,100.000003814697,2|0,0:0|0:0,0:0:0:0:
395,238,9114,2,0,P|332:219|329:284,1,150.000005722046,0|2,0:0|0:0,0:0:0:0:
138,259,9971,2,0,P|174:237|175:281,1,100.000003814697
256,320,10399,53,2,0:0:0:0:
256,80,10685,1,0,0:0:0:0:
256,64,10828,1,0,0:0:0:0:
256,304,11256,53,2,0:0:0:0:
256,96,11685,1,0,0:0:0:0:
256,288,12114,1,2,0:0:0:0:
256,112,12542,54,0,P|228:155|238:215,1,100.000003814697,2|0,0:1|0:0,0:0:0:0:
394,181,12971,2,0,B|426:198|442:142|366:99|302:182,1,166.666666666667,2|0,0:1|0:0,0:0:0:0:
256,288,13399,38,0,L|260:322,1,33.3333333333333,8|0,0:0|0:0,0:0:0:0:
346,362,13828,21,0,3:0:0:0:
356,276,14042,1,0,0:0:0:0:
356,276,14149,1,0,0:0:0:0:
356,276,14256,1,0,0:0:0:0:
366,190,14471,1,0,0:0:0:0:
376,104,14685,1,8,0:0:0:0:
376,104,14900,1,0,0:0:0:0:
204,160,15114,54,0,L|154:168,1,50,0|0,3:0|0:0,0:0:0:0:
168,245,15328,2,0,L|217:236,1,50
386,18,15542,53,0,3:0:0:0:
376,104,15756,1,0,0:0:0:0:
376,104,15864,1,0,0:0:0:0:
376,104,15971,1,0,0:0:0:0:
366,190,16185,1,0,0:0:0:0:
356,276,16399,1,8,0:0:0:0:
356,276,16614,1,0,0:0:0:0:
158,108,16828,54,0,L|147:60,1,50,2|0,3:2|0:0,0:0:0:0:
68,82,17042,2,0,L|80:131,1,50,2|0,3:2|0:0,0:0:0:0:
165,285,17256,53,0,3:0:0:0:
96,223,17471,1,0,0:0:0:0:
96,223,17578,1,0,0:0:0:0:
96,223,17685,1,0,0:0:0:0:
184,196,17899,1,0,0:0:0:0:
255,263,18114,1,8,0:0:0:0:
255,263,18328,1,0,0:0:0:0:
432,87,18542,54,0,P|409:94|384:95,1,50,0|0,3:0|0:0,0:0:0:0:
447,173,18756,2,0,P|422:174|399:182,1,50
223,52,18971,53,0,3:0:0:0:
279,129,19185,1,0,0:0:0:0:
279,129,19292,1,0,0:0:0:0:
279,129,19399,1,0,0:0:0:0:
244,219,19614,1,0,0:0:0:0:
188,142,19828,1,8,0:0:0:0:
188,142,20042,1,0,0:0:0:0:
398,357,20256,54,0,P|374:349|349:348,1,50,2|0,3:1|0:0,0:0:0:0:
412,270,20470,2,0,P|387:268|363:261,1,50,2|0,3:1|0:0,0:0:0:0:
143,317,20685,54,0,P|209:284|282:294,1,150.000005722046,2|0,3:1|0:0,0:0:0:0:
263,207,21006,2,0,B|226:223|206:253|206:253|213:212|196:179,1,150.000005722046,2|0,0:1|0:0,0:0:0:0:
250,105,21328,54,0,L|258:152,1,25,2|0,0:1|0:0,0:0:0:0:
296,199,21542,54,0,L|309:32,1,150.000005722046,8|0,0:0|0:0,0:0:0:0:
346,124,21864,1,2,0:1:0:0:
254,129,21971,2,0,L|174:140,1,75.0000028610231,0|0,3:0|0:0,0:0:0:0:
105,264,22185,53,0,0:0:0:0:
128,268,22292,1,0,0:0:0:0:
48,319,22399,54,0,L|197:305,1,150.000005722046,2|0,3:1|0:0,0:0:0:0:
254,129,22721,2,0,B|179:117|179:117|153:186,1,150.000005722046,2|0,0:1|0:0,0:0:0:0:
241,233,23042,54,0,L|238:209,1,25
153,187,23256,54,0,B|333:153|333:153|318:175|308:213,1,225.000008583069,8|0,0:0|0:0,0:0:0:0:
472,198,23685,54,0,P|473:223|477:248,1,50,2|0,3:1|0:0,0:0:0:0:
396,259,23899,2,0,P|394:234|391:210,1,50,2|0,3:1|0:0,0:0:0:0:
447,65,24114,53,0,3:2:0:0:
364,82,24328,1,2,0:0:0:0:
281,99,24542,1,2,0:0:0:0:
91,129,24756,53,2,0:3:0:0:
156,70,24971,2,0,P|127:136|149:239,1,150,2|0,0:3|0:0,0:0:0:0:
203,251,25399,54,0,P|211:227|211:202,1,50,2|0,0:0|0:0,0:0:0:0:
78,50,25614,1,0,0:0:0:0:
67,313,25828,53,2,0:0:0:0:
67,313,26042,2,0,P|106:295|154:300,1,69.9999978637696,2|0,0:3|0:0,0:0:0:0:
322,346,26256,2,0,B|271:328|250:269|250:269|250:332|198:372,1,209.999993591309,2|0,0:3|0:0,0:0:0:0:
132,294,26685,54,0,P|156:256|154:301,1,120,2|0,0:1|0:0,0:0:0:0:
120,373,27114,54,0,L|89:377,2,20,2|0|0,0:3|0:0|0:0,0:0:0:0:
302,348,27328,2,0,L|333:344,2,20,2|0|0,0:3|0:0|0:0,0:0:0:0:
212,359,27542,53,0,3:0:0:0:
115,120,27756,53,0,0:0:0:0:
202,103,27971,1,0,0:0:0:0:
173,186,28185,1,0,0:0:0:0:
28,106,28399,54,0,B|77:106|117:69|117:69|108:93|114:119,1,150.000005722046,10|0,0:0|0:0,0:0:0:0:
268,74,28721,2,0,P|231:79|201:102,1,75.0000028610231,2|0,0:0|3:0,0:0:0:0:
204,267,28935,1,0,0:0:0:0:
204,267,29042,2,0,B|179:224|127:208|127:208|153:203|172:185,1,150.000005722046,2|0,0:0|3:0,0:0:0:0:
408,108,29471,53,0,0:0:0:0:
393,194,29685,1,0,0:0:0:0:
378,280,29899,1,0,0:0:0:0:
408,107,30114,54,0,P|333:52|323:144,1,225.000008583069,10|0,0:0|0:0,0:0:0:0:
393,194,30542,2,0,L|472:182,1,75.0000028610231,2|0,3:2|0:0,0:0:0:0:
378,280,30756,2,0,L|457:268,1,75.0000028610231,2|0,3:2|0:0,0:0:0:0:
120,130,30971,53,0,3:0:0:0:
220,263,31185,53,0,0:0:0:0:
295,217,31399,1,0,0:0:0:0:
218,176,31614,1,0,0:0:0:0:
220,263,31828,54,0,B|230:304|216:340|216:340|236:305|291:291,1,150.000005722046,10|0,0:0|0:0,0:0:0:0:
218,176,32149,1,0,0:0:0:0:
218,176,32256,2,0,B|199:166|189:149|189:149|196:168|183:193,1,75.0000028610231,2|0,3:2|0:0,0:0:0:0:
295,217,32471,2,0,B|312:205|331:205|331:205|312:202|296:178,1,75.0000028610231,2|0,0:0|0:0,0:0:0:0:
147,299,32685,54,0,P|226:288|313:350,2,179.999994506836,0|2|2,3:0|0:0|0:0,0:0:0:0:
29,343,33542,2,0,B|49:378|69:330|59:290|30:261,1,119.999996337891,10|2,0:0|0:1,0:0:0:0:
67,191,33864,1,0,0:0:0:0:
14,124,33971,54,0,P|21:155|27:192,1,59.9999981689454,2|0,3:2|0:0,0:0:0:0:
147,299,34185,2,0,P|139:267|134:231,1,59.9999981689454,2|0,3:2|0:0,0:0:0:0:
330,42,34399,54,0,B|220:31|220:31|202:149,1,225.000008583069,2|0,3:1|0:0,0:0:0:0:
282,164,34828,2,0,L|287:114,1,50,2|0,0:0|0:0,0:0:0:0:
124,91,35256,54,0,B|114:172|114:172|124:192|124:192|107:321,1,225.000008583069,8|0,0:0|0:0,0:0:0:0:
176,357,35685,2,0,B|205:336|205:336|187:293,1,75.0000028610231,0|0,3:0|0:0,0:0:0:0:
91,172,35899,53,2,0:0:0:0:
68,179,36006,1,2,0:0:0:0:
32,259,36114,54,0,P|92:208|241:215,1,225.000008583069,2|0,3:1|0:0,0:0:0:0:
310,188,36542,2,0,P|312:164|290:154,1,50,2|0,0:0|0:0,0:0:0:0:
216,290,36971,54,0,P|252:295|281:273,1,75.0000028610231,8|0,0:0|0:0,0:0:0:0:
171,158,37185,2,0,P|148:186|152:222,1,75.0000028610231
232,210,37399,53,2,3:2:0:0:
380,124,37614,1,0,3:0:0:0:
376,140,37721,1,0,0:0:0:0:
384,220,37828,54,0,P|339:211|301:112,2,150,0|0|2,3:0|0:0|0:3,0:0:0:0:
344,56,38685,2,0,P|277:88|202:90,1,150,2|0,0:3|0:0,0:0:0:0:
129,70,39114,1,2,0:3:0:0:
231,226,39328,1,0,0:0:0:0:
53,252,39542,54,0,P|87:212|128:214,1,80,2|2,0:3|0:3,0:0:0:0:
282,280,39971,2,0,B|200:253|213:310|122:288,2,160,2|2|0,0:3|0:3|0:0,0:0:0:0:
472,354,41256,37,4,3:2:0:0:
461,280,41899,1,2,0:3:0:0:
461,280,42114,1,2,0:3:0:0:
450,206,42542,1,2,0:3:0:0:
439,132,43185,1,2,0:3:0:0:
439,132,43399,1,2,0:3:0:0:
428,58,43828,1,2,0:3:0:0:
428,58,44471,5,2,0:3:0:0:
406,52,44578,1,2,0:3:0:0:
329,29,44685,101,4,0:0:0:0:
340,103,45328,1,2,0:3:0:0:
340,103,45543,1,2,0:3:0:0:
351,177,45971,1,2,0:3:0:0:
362,251,46614,1,2,0:3:0:0:
362,251,46828,1,2,0:3:0:0:
373,325,47257,1,2,0:3:0:0:
373,325,47685,6,0,P|368:345|368:364,1,40,2|0,0:0|0:0,0:0:0:0:
283,356,47899,2,0,P|287:335|287:316,1,40,2|0,0:0|0:0,0:0:0:0:
118,184,48114,101,4,0:0:0:0:
204,196,48756,1,2,0:3:0:0:
204,196,48971,1,2,0:3:0:0:
290,208,49399,1,2,0:3:0:0:
395,65,49828,5,4,0:0:0:0:
313,83,50042,1,2,0:3:0:0:
313,83,50256,1,2,0:3:0:0:
231,101,50685,1,2,0:3:0:0:
231,101,51328,101,2,0:3:0:0:
226,80,51435,1,2,0:3:0:0:
206,4,51542,5,4,0:0:0:0:
178,172,52185,1,2,0:3:0:0:
178,172,52399,1,2,0:3:0:0:
346,200,52828,1,2,0:3:0:0:
192,88,53256,101,4,0:0:0:0:
178,172,53471,1,2,0:3:0:0:
261,186,53685,1,2,0:3:0:0:
275,102,54114,6,0,P|192:111|107:121,1,160,4|2,0:0|0:0,0:0:0:0:
33,131,54756,1,0,0:3:0:0:
358,91,54971,101,4,3:2:0:0:
358,91,55399,1,0,0:0:0:0:
408,209,55614,1,2,0:3:0:0:
443,120,55828,2,0,P|369:125|318:177,1,150,8|0,0:1|0:0,0:0:0:0:
242,167,56247,2,0,P|276:202|284:251,1,100,2|0,0:3|0:0,0:0:0:0:
85,342,56667,5,8,0:1:0:0:
129,219,56873,1,2,0:3:0:0:
52,263,57080,2,0,P|124:264|170:321,1,150,2|0,0:3|0:0,0:0:0:0:
319,296,57494,102,0,P|300:357|251:317,2,150,8|0|2,0:1|0:0|0:3,0:0:0:0:
272,220,58218,1,2,0:3:0:0:
267,242,58322,5,8,0:1:0:0:
267,242,58732,1,0,0:0:0:0:
403,231,58938,1,2,0:3:0:0:
339,313,59143,2,0,P|366:249|335:168,1,150,8|0,0:1|0:0,0:0:0:0:
358,101,59554,2,0,P|310:94|276:129,1,100,2|0,0:3|0:0,0:0:0:0:
227,283,59965,101,8,0:1:0:0:
140,273,60167,1,2,0:3:0:0:
53,263,60370,2,0,B|56:207|56:207|45:185|45:185|48:104,1,150,2|0,0:3|0:0,0:0:0:0:
129,57,60775,2,0,L|126:156,1,100,8|0,0:1|0:0,0:0:0:0:
276,279,61167,6,0,L|220:282,1,50,2|0,0:0|0:0,0:0:0:0:
223,199,61363,2,0,L|272:195,1,50,2|0,0:0|0:0,0:0:0:0:
446,216,61559,101,8,3:1:0:0:
446,216,61951,1,0,0:0:0:0:
291,300,62147,1,2,0:3:0:0:
375,335,62343,2,0,B|391:251|344:272|365:172,1,150,8|0,0:1|0:0,0:0:0:0:
408,117,62730,2,0,P|373:152|327:171,1,100,2|0,0:3|0:0,0:0:0:0:
206,41,63117,5,8,0:1:0:0:
174,159,63310,1,2,0:3:0:0:
259,113,63504,2,0,P|216:80|102:89,1,150,2|0,0:3|0:0,0:0:0:0:
91,268,63891,102,0,P|89:216|79:168,1,100,8|0,0:1|0:0,0:0:0:0:
174,159,64175,2,0,P|176:211|185:258,1,100
146,352,64460,1,2,0:3:0:0:
122,348,64555,1,2,0:3:0:0:
42,338,64650,5,12,0:1:0:0:
270,287,65030,1,0,0:0:0:0:
104,260,65220,1,2,0:3:0:0:
305,370,65409,2,0,P|293:323|339:221,1,150,8|0,0:1|0:0,0:0:0:0:
384,174,65781,2,0,P|412:213|403:261,1,100,2|0,0:3|0:0,0:0:0:0:
166,188,66154,102,0,L|176:118,1,50,12|0,0:1|0:0,0:0:0:0:
261,103,66340,2,0,L|253:152,1,50,2|0,0:3|0:0,0:0:0:0:
128,256,66527,2,0,B|122:205|122:205|101:176|101:176|92:103,1,150,2|0,0:3|0:0,0:0:0:0:
62,42,66899,2,0,B|105:18|105:18|143:53,1,100,12|0,0:1|0:0,0:0:0:0:
54,290,67264,6,0,P|52:265|47:231,1,50,2|0,0:0|0:0,0:0:0:0:
187,120,67447,2,0,P|188:144|194:179,1,50,2|0,0:0|0:0,0:0:0:0:
238,339,67630,102,0,L|136:349,2,100,12|0|0,3:1|0:0|0:0,0:0:0:0:
314,285,68179,1,2,0:3:0:0:
395,236,68362,2,0,B|404:261|404:261|394:338,1,100,8|0,0:1|0:0,0:0:0:0:
238,339,68721,2,0,B|228:312|228:312|238:235,1,100,2|0,0:3|0:0,0:0:0:0:
314,285,69080,5,8,0:1:0:0:
211,118,69260,2,0,L|198:185,1,50,2|0,0:3|0:0,0:0:0:0:
151,233,69439,2,0,B|128:214|128:214|120:131,1,100,2|0,0:3|0:0,0:0:0:0:
260,40,69799,2,0,B|290:65|290:65|301:175,2,150,8|0|2,0:1|0:0|0:3,0:0:0:0:
171,59,70416,1,2,0:3:0:0:
186,75,70504,102,0,L|76:61,1,100,8|0,0:1|0:0,0:0:0:0:
202,187,70857,2,0,L|301:174,1,100,0|2,0:0|0:3,0:0:0:0:
38,134,71210,2,0,B|64:166|64:166|46:289,1,150,8|0,0:1|0:0,0:0:0:0:
48,273,71556,1,2,0:3:0:0:
119,98,71730,1,0,0:0:0:0:
175,297,71903,6,0,B|153:313|153:313|137:229,2,100,8|2|2,0:1|0:3|0:3,0:0:0:0:
182,169,72423,1,0,0:0:0:0:
73,342,72597,2,0,B|179:320|152:379|271:355,1,200,8|0,0:1|0:0,0:0:0:0:
414,169,73278,102,0,L|307:187,2,100,8|0|0,3:1|0:0|0:0,0:0:0:0:
468,245,73790,1,2,0:3:0:0:
246,131,73960,2,0,B|224:163|224:163|233:245,1,100,8|0,0:1|0:0,0:0:0:0:
363,360,74295,2,0,B|341:328|341:328|350:246,1,100,2|0,0:3|0:0,0:0:0:0:
477,103,74630,5,8,0:1:0:0:
316,186,74797,1,2,0:3:0:0:
477,103,74965,2,0,L|378:118,1,100,2|0,0:3|0:0,0:0:0:0:
316,186,75300,2,0,B|340:142|340:142|316:45,2,150,8|0|2,0:1|0:0|0:3,0:0:0:0:
245,244,75876,1,2,0:3:0:0:
238,226,75959,102,0,P|198:201|132:208,2,100,8|0|0,0:1|0:0|0:0,0:0:0:0:
317,363,76453,1,2,0:3:0:0:
316,186,76618,2,0,B|326:218|326:218|315:283,1,100,8|0,0:1|0:0,0:0:0:0:
83,354,76942,2,0,B|72:289|72:289|82:256,1,100,2|0,0:3|0:0,0:0:0:0:
169,51,77266,5,8,0:1:0:0:
186,165,77428,1,2,0:3:0:0:
203,279,77590,2,0,L|212:174,1,100,2|0,0:3|0:0,0:0:0:0:
65,72,77915,2,0,B|16:34|16:34|42:182,1,200,8|0,0:1|0:0,0:0:0:0:
347,280,78556,102,0,L|450:264,1,100,8|0,3:1|0:0,0:0:0:0:
380,195,78877,1,8,0:1:0:0:
410,352,79037,1,2,0:3:0:0:
280,339,79198,2,0,B|254:322|254:322|176:314,1,100,8|0,0:1|0:0,0:0:0:0:
94,240,79513,2,0,B|68:257|68:257|-10:265,1,100,8|0,0:1|0:0,0:0:0:0:
23,93,79829,5,8,0:1:0:0:
202,111,79987,1,2,0:3:0:0:
108,44,80145,2,0,L|117:155,1,100,8|0,0:1|0:0,0:0:0:0:
52,265,80461,2,0,B|81:234|81:234|201:211,1,150,8|0,0:1|0:0,0:0:0:0:
186,213,80770,1,8,0:1:0:0:
126,368,80924,2,0,L|129:318,1,50,2|0,0:3|0:3,0:3:0:0:
32,164,81079,101,8,0:1:0:0:
227,324,81234,1,0,0:0:0:0:
294,101,81388,2,0,B|272:121|272:121|187:109,1,100,8|2,0:1|0:3,0:0:0:0:
114,73,81698,2,0,L|128:194,1,100,8|0,0:1|0:0,0:0:0:0:
227,324,82002,2,0,L|238:224,1,100,8|0,0:1|0:0,0:0:0:0:
422,151,82297,6,0,B|395:145|376:129|376:129|364:163|336:173,2,100,8|2|8,0:1|0:3|0:1,0:0:0:0:
294,101,82751,1,0,0:0:0:0:
400,225,82903,2,0,P|396:144|443:62,1,165.000005035401,8|0,0:1|0:0,0:0:0:0:
500,29,83206,2,0,P|510:54|511:85,3,55.0000016784668,8|0|2|2,0:1|0:0|0:3|0:3,0:0:0:0:
501,160,83509,101,8,3:1:0:0:
294,101,83659,1,8,0:1:0:0:
501,160,83809,1,8,0:1:0:0:
305,247,83959,1,8,0:1:0:0:
401,126,84109,5,8,0:1:0:0:
401,126,84184,1,0,0:0:0:0:
401,126,84259,2,0,B|389:157|389:157|401:226,1,100,8|8,0:1|0:1,0:0:0:0:
236,348,84559,2,0,L|223:287,1,50,8|0,0:1|0:0,0:0:0:0:
92,197,84709,101,8,0:1:0:0:
305,247,84859,1,8,0:1:0:0:
92,197,85009,1,8,0:1:0:0:
294,101,85159,1,8,0:1:0:0:
194,218,85309,6,0,P|197:193|203:166,1,50,8|0,0:1|0:0,0:0:0:0:
68,52,85459,2,0,P|64:76|59:104,1,50,8|0,0:1|0:0,0:0:0:0:
277,191,85609,2,0,P|280:166|286:139,1,50,8|0,0:1|0:0,0:0:0:0:
151,25,85759,2,0,P|147:49|142:77,1,50,8|0,0:1|0:0,0:0:0:0:
262,276,85909,101,4,0:0:0:0:
256,192,85984,12,4,87109,0:0:0:0:
256,192,87184,12,0,88234,0:0:0:0:
53,305,88314,22,0,B|72:98|72:98|88:164|139:187,1,300.000011444092,4|0,3:2|0:0,0:0:0:0:
240,73,88764,2,0,P|237:110|244:147,1,75.0000028610231,0|0,3:0|0:0,0:0:0:0:
148,314,88914,6,0,B|162:155|162:155|174:205|213:223,1,225.000008583069,8|0,0:3|0:0,0:0:0:0:
228,285,89214,1,0,3:0:0:0:
397,140,89364,37,0,0:0:0:0:
397,140,89439,1,0,0:0:0:0:
397,140,89514,2,0,P|352:156|316:158,1,75.0000028610231,2|0,0:3|0:0,0:0:0:0:
228,285,89664,2,0,P|262:271|299:266,1,75.0000028610231,2|0,0:3|0:0,0:0:0:0:
483,333,89814,54,0,B|439:291|460:224|460:224|485:263,1,150,0|0,3:0|0:0,0:0:0:0:
477,250,90114,70,2,B|450:197|430:229|430:229|453:214|405:186|381:217|381:217|409:198|349:167|325:207|325:207|356:187|310:156|219:168|157:295|348:344|299:263,1,450.000017166138,8|0,0:3|0:1,0:1:0:0:
366,343,90714,54,0,B|394:278|342:224|342:224|390:213|402:174,1,200,0|0,3:0|0:0,0:0:0:0:
346,102,91164,2,0,P|331:122|329:147,1,50,0|0,3:0|0:0,0:0:0:0:
472,215,91314,38,0,B|491:167|454:126|454:126|492:115|501:90,1,150,8|0,0:3|0:0,0:0:0:0:
437,45,91614,2,2,B|409:47|385:38|385:38|362:47|350:70|350:70|323:55|304:39|304:39|282:58|254:65,1,194.999991073609,0|0,3:0|0:0,0:1:0:0:
166,102,91914,54,0,P|161:145|161:176,1,75.0000028610231
78,185,92139,1,0,0:0:0:0:
84,173,92214,2,0,P|88:130|88:99,1,75.0000028610231,0|0,3:0|0:0,0:0:0:0:
119,256,92514,6,0,L|132:31,1,225.000008583069,8|0,0:3|0:0,0:0:0:0:
132,31,93114,38,0,B|256:35|285:174|235:185|166:183|198:83|300:82,1,300.000011444092,4|0,3:2|0:0,0:0:0:0:
231,229,93564,2,0,P|193:226|162:206,1,75.0000028610231,0|0,3:0|0:0,0:0:0:0:
329,37,93714,2,0,P|345:71|343:108,1,75.0000028610231,8|0,0:0|0:0,0:0:0:0:
307,180,93864,1,0,0:0:0:0:
141,127,94014,53,0,0:0:0:0:
177,305,94164,1,0,0:0:0:0:
185,312,94239,1,0,0:0:0:0:
193,319,94314,6,0,L|274:327,1,75.0000028610231
343,300,94539,1,0,0:0:0:0:
412,338,94614,2,0,L|486:345,1,75.0000028610231,0|0,3:0|0:0,0:0:0:0:
478,95,94914,54,2,B|429:70|427:108|427:108|440:84|384:82|379:121|379:121|394:91|326:93|325:140|325:140|342:107|287:102|213:157|220:298|411:248|326:129,1,525.000020027161,8|0,0:3|0:0,0:1:0:0:
283,47,95514,69,8,0:1:0:0:
197,37,95964,1,2,0:3:0:0:
197,37,96114,1,8,0:1:0:0:
111,27,96414,1,2,0:3:0:0:
227,205,96714,53,8,0:1:0:0:
313,195,96864,1,2,0:3:0:0:
313,195,97014,1,2,0:3:0:0:
399,185,97314,1,8,0:1:0:0:
96,128,97614,86,0,L|90:85,2,37.5000014305115
55,199,97764,2,0,L|59:224,2,25
14,103,97914,54,0,B|56:39|56:39|152:58|152:58|164:53|164:53|174:62|174:62|283:83,1,300.000011444092,4|0,3:2|0:0,0:0:0:0:
158,281,98364,2,0,B|139:263|139:263|132:214,1,75.0000028610231,0|0,3:0|0:0,0:0:0:0:
64,175,98514,6,0,B|95:127|95:127|167:141|167:141|184:144|184:144|265:160,1,225.000008583069,8|0,0:3|0:0,0:0:0:0:
339,174,98814,1,0,3:0:0:0:
296,313,98964,37,0,0:0:0:0:
296,313,99039,1,0,0:0:0:0:
296,313,99114,2,0,P|293:274|275:232,1,75.0000028610231,2|0,0:3|0:0,0:0:0:0:
408,115,99264,2,0,P|411:154|429:196,1,75.0000028610231,2|0,0:3|0:0,0:0:0:0:
211,294,99414,54,0,B|182:267|95:270|97:306|138:329|136:256,1,150,0|0,3:0|0:0,0:0:0:0:
180,195,99714,70,2,B|199:167|164:113|134:79|96:99|66:117|65:154|95:182|103:183|103:183|109:176|111:136|83:109|51:120|3:135|7:181|24:253|72:250,1,450.000017166138,8|0,0:3|0:0,0:1:0:0:
280,351,100314,54,0,P|291:267|210:293,1,200,0|0,3:0|0:0,0:0:0:0:
210,293,100764,2,0,P|234:285|249:266,1,50,0|0,3:0|0:0,0:0:0:0:
253,174,100914,38,0,P|203:134|196:209,1,150,8|0,0:3|0:0,0:0:0:0:
317,224,101214,2,2,B|347:166|306:99|306:99|331:144|380:142,1,194.999991073609,0|0,3:0|0:0,0:1:0:0:
377,63,101514,54,0,P|414:60|451:52,1,75.0000028610231
480,142,101739,1,0,0:0:0:0:
467,134,101814,2,0,P|429:137|393:145,1,75.0000028610231,0|0,3:0|0:0,0:0:0:0:
208,256,102114,6,0,B|181:246|181:246|179:196|223:161|306:173|306:259,1,225.000008583069,8|0,0:3|0:0,0:0:0:0:
139,345,102714,38,0,B|117:324|87:333|87:333|103:313|103:313|82:90,1,300.000011444092,4|0,3:2|0:0,0:0:0:0:
11,210,103164,2,0,P|15:245|19:284,1,75.0000028610231,0|0,3:0|0:0,0:0:0:0:
180,263,103314,2,0,P|175:227|171:188,1,75.0000028610231,8|0,0:3|0:0,0:0:0:0:
0,132,103464,1,0,0:0:0:0:
165,112,103614,53,0,3:0:0:0:
85,346,103764,1,0,0:0:0:0:
97,343,103839,1,0,0:0:0:0:
109,340,103914,6,0,P|146:343|183:351,1,75.0000028610231
255,377,104139,1,0,0:0:0:0:
329,352,104214,2,0,P|365:344|403:340,1,75.0000028610231,0|0,3:0|0:0,0:0:0:0:
358,236,104514,54,0,B|271:258|271:258|257:295|257:295|241:258|241:258|152:233,1,262.500010013581,8|0,0:3|0:0,0:0:0:0:
72,218,105114,69,8,0:1:0:0:
64,124,105564,1,2,0:3:0:0:
64,124,105714,1,8,0:1:0:0:
56,30,106014,1,2,0:3:0:0:
222,156,106314,53,8,0:1:0:0:
214,250,106464,1,2,0:3:0:0:
214,250,106614,1,2,0:3:0:0:
206,344,106914,2,0,B|225:346|260:341|236:284|211:311|248:369|292:370|332:329|338:284|314:262,1,175,2|0,0:0|0:0,0:0:0:0:
400,277,107514,86,0,P|394:242|372:216,1,69.9999978637696,4|0,3:2|0:0,0:0:0:0:
319,74,107664,2,0,P|346:174|322:275,1,209.999993591309
256,320,107964,1,0,3:0:0:0:
163,109,108114,54,0,B|194:93|194:93|228:97,1,69.9999978637696,8|0,0:3|0:0,0:0:0:0:
227,82,108264,2,0,B|192:77|192:77|161:93,1,69.9999978637696
166,205,108414,6,0,B|207:175|207:175|274:194,1,100,2|0,0:0|0:0,0:0:0:0:
439,87,108714,38,0,P|376:104|318:73,2,133.333333333333,0|2|2,3:0|0:3|0:3,0:0:0:0:
484,289,109314,6,2,B|405:223|302:274|302:274|339:306|340:353|340:353|393:302|369:216|322:158|239:216,1,525.000020027161,8|0,0:3|0:0,0:1:0:0:
196,347,109914,38,0,B|226:356|226:356|257:342,1,64.9999970245363,0|0,3:0|0:0,0:0:0:0:
225,83,110064,2,0,B|255:196|195:166|220:274,1,194.999991073609
220,274,110364,1,0,3:0:0:0:
154,139,110514,6,0,B|20:105|20:105|59:136|74:177,1,194.999991073609,8|0,0:3|0:0,0:0:0:0:
295,227,110814,2,0,B|379:205|379:205|354:225|345:250,1,129.999994049073,0|0,3:0|0:0,0:0:0:0:
320,313,111039,1,0,0:0:0:0:
327,330,111114,38,0,P|329:291|339:237,1,64.9999970245363,2|0,0:3|0:0,0:0:0:0:
213,201,111264,2,0,P|211:240|201:294,1,64.9999970245363,2|0,0:3|0:0,0:0:0:0:
349,127,111414,54,0,B|295:95|234:135|268:182|315:162|303:79|203:82,1,194.999991073609,0|0,3:0|0:0,0:0:0:0:
24,62,111714,6,0,B|64:-9|236:1|299:106|180:237|94:162|63:79|160:-4|243:-10,1,454.999979171754,8|0,0:3|0:0,0:0:0:0:
224,83,112314,38,0,P|192:150|196:224,2,150,4|0|0,3:2|0:0|3:0,0:0:0:0:
289,32,112839,1,0,0:0:0:0:
289,32,112914,54,0,B|311:64|311:64|303:99,1,75.0000028610231,8|0,0:3|0:0,0:0:0:0:
160,129,113064,2,0,B|138:97|138:97|145:61,1,75.0000028610231
402,124,113214,6,0,P|320:75|224:82,1,194.999991073609,2|0,0:0|0:0,0:0:0:0:
103,182,113514,38,0,L|116:34,2,133.333333333333,0|2|2,3:0|0:3|0:3,0:0:0:0:
331,240,114114,6,2,B|259:184|149:255|149:255|189:225|187:176|187:176|240:227|216:313|169:371|86:313,1,525.000020027161,8|0,0:3|0:0,0:1:0:0:
68,259,114714,69,8,0:1:0:0:
189,286,115164,1,2,0:3:0:0:
189,286,115314,1,8,0:1:0:0:
310,313,115614,1,2,0:3:0:0:
431,81,115914,53,8,0:1:0:0:
310,108,116064,1,2,0:3:0:0:
310,108,116214,1,2,0:3:0:0:
189,135,116514,2,0,B|186:120|170:102|170:102|225:124|244:197|197:248,1,179.999994506836,8|0,0:1|0:0,0:0:0:0:
155,266,116814,22,0,P|143:249|140:222,6,37.5000014305115
215,220,117114,6,0,P|253:221|281:238,1,69.9999978637696,4|0,3:2|0:0,0:0:0:0:
376,236,117264,2,0,P|280:212|232:297,1,209.999993591309
238,376,117564,1,0,3:0:0:0:
474,282,117714,38,0,B|439:284|439:284|393:312,1,69.9999978637696,8|0,0:3|0:0,0:0:0:0:
416,323,117864,2,0,B|445:304|445:304|480:302,1,69.9999978637696
464,209,118014,54,0,B|415:204|415:204|368:242,1,100,2|0,0:0|0:0,0:0:0:0:
157,326,118314,6,0,B|141:282|141:282|166:199,2,133.333333333333,0|2|2,3:0|0:3|0:3,0:0:0:0:
94,184,118914,54,2,B|107:124|174:100|227:121|241:176|241:202|241:202|299:229|339:197|339:197|276:171|249:278,1,450.000017166138,8|0,0:3|0:0,0:1:0:0:
376,349,119514,102,0,B|402:325|402:325|410:272,1,64.9999970245363,0|0,3:0|0:0,0:0:0:0:
330,112,119664,2,0,P|292:199|328:287,1,194.999991073609
406,295,119964,1,0,3:0:0:0:
387,50,120114,54,0,P|466:71|414:135,1,194.999991073609,8|0,0:3|0:0,0:0:0:0:
415,135,120414,2,0,P|438:79|384:50,1,129.999994049073,0|0,3:0|0:0,0:0:0:0:
245,69,120639,1,0,0:0:0:0:
256,87,120714,6,0,P|291:107|331:112,1,80,2|0,0:3|0:0,0:0:0:0:
479,191,120864,2,0,P|444:210|404:215,1,80,2|0,0:3|0:0,0:0:0:0:
150,245,121014,2,0,B|189:254|218:225|218:225|257:299|342:285,1,209.999993591309,0|0,3:0|0:0,0:0:0:0:
329,112,121314,38,0,B|308:84|280:104|280:104|307:208,1,150,8|0,0:3|0:0,0:0:0:0:
328,286,121614,2,0,L|318:379,1,75
319,360,121914,54,0,B|275:355|275:355|255:366|255:366|161:355,1,150.000005722046,8|0,0:1|0:0,0:0:0:0:
407,372,122364,1,2,0:3:0:0:
335,226,122514,6,0,B|351:247|352:277|352:277|354:248|372:225,1,112.500004291535,8|0,0:1|0:0,0:0:0:0:
430,280,122814,2,0,P|351:258|270:274,1,165.000005035401,2|0,0:3|0:0,0:0:0:0:
207,321,123114,37,8,0:1:0:0:
134,191,123264,1,0,0:0:0:0:
151,196,123339,1,0,0:0:0:0:
168,194,123414,1,2,0:3:0:0:
77,310,123564,1,0,0:0:0:0:
166,115,123714,6,2,P|164:79|152:112,1,99.999898274843,8|0,0:1|0:0,0:1:0:0:
153,113,124314,69,8,0:1:0:0:
275,93,124764,1,2,0:3:0:0:
275,93,124914,1,8,0:1:0:0:
397,73,125214,1,2,0:3:0:0:
364,340,125514,53,8,0:1:0:0:
242,320,125664,1,2,0:3:0:0:
242,320,125814,1,2,0:3:0:0:
120,300,126114,2,0,B|110:330|128:342|128:342|159:296|106:266|138:205,1,175,2|0,0:3|0:0,0:0:0:0:
149,75,126714,22,0,B|116:169|26:201|13:50|102:50|177:232|270:109,1,320,4|0,3:2|0:0,0:0:0:0:
363,297,127164,2,0,B|396:203|486:171|499:322|410:322|335:140|242:263,1,320,4|0,3:2|0:0,0:0:0:0:
126,197,127614,6,0,L|135:299,1,89.9999972534181
139,293,127839,1,0,0:0:0:0:
144,298,127914,38,0,P|192:324|251:299,1,100,2|0,0:3|0:0,0:0:0:0:
176,346,128064,2,0,P|224:338|255:299,1,100,2|0,0:3|0:0,0:0:0:0:
215,50,128214,54,0,P|175:74|168:129,1,83.3333333333333,2|0,0:3|0:0,0:0:0:0:
156,52,128364,2,0,P|143:90|160:127,1,83.3333333333333,2|0,0:3|0:0,0:0:0:0:
406,235,128514,6,0,P|404:196|367:168,1,66.6666666666667,2|0,0:3|0:0,0:0:0:0:
428,194,128664,2,0,P|405:170|372:167,1,66.6666666666667,2|0,0:3|0:0,0:0:0:0:
211,194,128814,54,0,P|216:211|216:226,1,25,4|0,0:3|0:0,0:0:0:0:
297,199,128964,2,0,P|292:182|292:167,1,25,4|0,0:3|0:0,0:0:0:0:
180,296,129114,102,0,P|265:241|365:267,1,200,0|0,3:0|0:0,0:0:0:0:
434,144,129564,2,0,B|406:143|406:143|377:162,1,50,0|0,3:0|0:0,0:0:0:0:
411,338,129714,54,0,B|401:365|401:365|443:347|466:278|426:213,1,194.999991073609,8|0,0:0|0:0,0:0:0:0:
434,144,130014,2,0,P|471:196|479:275,1,129.999994049073,0|0,3:0|0:0,0:0:0:0:
197,238,130314,6,0,P|196:189|216:144,1,100
293,148,130539,1,0,0:0:0:0:
298,162,130614,2,0,P|299:212|279:257,1,100,0|0,3:0|0:0,0:0:0:0:
51,22,130914,38,0,B|83:40|126:27|126:27|164:41|176:71|176:71|209:52|229:34|229:34|254:47|267:95,1,262.500010013581,8|0,0:3|0:0,0:0:0:0:
293,148,131514,54,0,P|363:73|260:74,1,259.999988098145,4|0,3:2|0:0,0:0:0:0:
386,96,131964,2,0,P|381:65|361:39,1,64.9999970245363,0|0,3:0|0:0,0:0:0:0:
214,139,132114,6,0,P|246:213|292:147,1,194.999991073609,8|0,0:3|0:0,0:0:0:0:
260,73,132414,1,0,3:0:0:0:
433,233,132564,37,0,0:0:0:0:
433,233,132639,1,0,0:0:0:0:
433,233,132714,2,0,P|396:232|368:226,1,64.9999970245363,2|0,0:3|0:0,0:0:0:0:
336,335,132864,2,0,P|303:334|271:341,1,64.9999970245363,2|0,0:3|0:0,0:0:0:0:
230,212,133014,54,0,P|193:213|165:219,1,64.9999970245363,0|0,3:0|0:0,0:0:0:0:
150,356,133164,2,0,P|117:356|85:349,1,64.9999970245363,2|0,0:3|0:0,0:0:0:0:
28,235,133314,70,2,B|-2:161|83:108|138:165|124:234|124:234|110:313|170:357|243:310|211:233|211:233|187:160|253:164|265:210|216:214,1,560,8|0,0:0|0:0,0:1:0:0:
229,211,133914,69,2,0:3:0:0:
155,11,134364,1,2,0:3:0:0:
155,11,134514,1,2,0:3:0:0:
365,47,134814,1,2,0:3:0:0:
204,106,135114,53,0,0:0:0:0:
257,42,135264,1,2,0:3:0:0:
257,42,135414,1,2,0:3:0:0:
286,120,135714,1,2,0:3:0:0:
286,120,136014,38,0,L|335:113,2,37.5000014305115
373,223,136164,2,0,L|348:218,2,25
233,280,136314,38,0,B|208:293|198:319|198:319|191:247|233:189|233:189|196:151|206:89,1,279.999991455078,4|0,3:2|0:0,0:0:0:0:
374,224,136764,2,0,P|347:202|312:196,1,69.9999978637696,0|0,3:0|0:0,0:0:0:0:
138,192,136914,54,0,P|236:205|286:120,1,209.999993591309,8|0,0:3|0:0,0:0:0:0:
259,40,137214,1,0,3:0:0:0:
504,85,137364,5,0,0:0:0:0:
504,85,137439,1,0,0:0:0:0:
504,85,137514,2,0,L|400:101,1,89.9999972534181,2|0,0:3|0:0,0:0:0:0:
409,13,137664,2,0,P|369:23|313:30,1,75.0000028610231,2|0,0:3|0:0,0:0:0:0:
433,198,137814,2,0,P|396:192|358:190,1,75.0000028610231,2|0,3:0|0:0,0:0:0:0:
259,40,137964,38,0,P|228:39|195:36,1,50,2|0,0:3|0:0,0:0:0:0:
284,205,138114,2,0,P|253:211|219:225,1,50,10|0,0:3|0:0,0:0:0:0:
335,112,138264,2,0,L|285:118,1,50,2|0,0:3|0:0,0:0:0:0:
75,141,138414,6,2,B|50:123|67:60|135:57|157:113|157:113|131:203|131:203|143:185|159:181,1,284.999992389679,4|0,0:3|0:0,0:1:0:0:
42,237,138714,38,0,B|139:213|135:281|237:260|237:260|162:254|133:332,1,300.000011444092,0|0,3:0|0:0,0:0:0:0:
225,367,139164,2,0,P|229:339|211:360,1,75.0000028610231,0|0,3:0|0:0,0:0:0:0:
233,174,139314,6,0,B|174:118|118:185|118:185|173:252|137:348,1,255.000004863739,8|0,0:3|0:0,0:0:0:0:
79,298,139614,2,0,P|78:258|56:222,1,75.0000028610231,0|0,3:0|0:0,0:0:0:0:
213,79,139914,38,0,P|212:128|232:173,1,100
309,169,140139,1,0,0:0:0:0:
314,155,140214,2,0,P|315:105|295:60,1,100,0|0,3:0|0:0,0:0:0:0:
201,249,140514,54,0,B|222:190|302:172|366:210|366:210|356:258,1,225.000008583069,8|0,0:3|0:0,0:0:0:0:
326,352,141114,6,0,B|382:292|440:324|440:324|358:351|358:237|256:283,1,300.000011444092,4|0,3:2|0:0,0:0:0:0:
354,166,141564,2,0,L|359:241,1,75.0000028610231,0|0,3:0|0:0,0:0:0:0:
244,345,141714,38,0,B|250:265|250:265|247:252|247:252|253:238|253:238|261:101,1,225.000008583069,8|0,0:3|0:0,0:0:0:0:
298,56,142014,2,0,P|251:99|187:101,1,129.999994049073,0|0,3:0|0:0,0:0:0:0:
181,97,142239,1,0,0:0:0:0:
175,93,142314,54,0,P|185:62|185:30,1,64.9999970245363,2|0,0:3|0:0,0:0:0:0:
74,38,142464,2,0,P|88:67|90:100,1,64.9999970245363,2|0,0:3|0:0,0:0:0:0:
174,282,142614,6,0,P|184:312|184:344,1,64.9999970245363,2|0,3:0|0:0,0:0:0:0:
73,336,142764,2,0,P|87:307|90:275,1,64.9999970245363,2|0,0:3|0:0,0:0:0:0:
297,155,142914,54,2,B|329:147|379:189|379:189|450:280|576:182|441:103|379:189|379:189|326:242|257:215,1,454.999979171754,8|0,0:3|0:0,0:1:0:0:
229,196,143514,69,2,0:3:0:0:
422,68,143964,1,2,0:3:0:0:
422,68,144114,1,2,0:3:0:0:
434,298,144414,1,2,0:3:0:0:
324,129,144714,53,0,0:0:0:0:
330,247,144864,1,2,0:3:0:0:
429,182,145014,1,2,0:3:0:0:
429,182,145314,86,0,B|324:130|324:130|331:247|331:247|421:188,1,335.999989746094,0|4,0:0|3:2,0:0:0:0:
110,51,146214,86,0,L|35:58,1,66.6666666666667
181,97,146514,2,0,P|190:138|170:202,2,100,2|2|0,0:0|0:0|0:0,0:0:0:0:
110,333,147414,54,0,L|39:328,1,66.6666666666667
181,289,147714,2,0,P|190:248|170:184,1,100,2|2,0:0|0:0,0:0:0:0:
82,241,148214,2,0,P|96:250|113:244,1,33.3333333333333,0|2,0:0|0:0,0:0:0:0:
402,333,148614,54,0,L|472:328,1,66.6666666666667
336,192,148914,2,0,P|322:240|331:289,2,100,2|2|0,0:0|0:0|0:0,0:0:0:0:
402,51,149714,54,0,L|442:53,1,33.3333333333333,0|2,0:0|0:0,0:0:0:0:
346,202,150014,1,0,0:0:0:0:
336,191,150114,2,0,P|322:143|331:95,1,100,2|0,0:0|0:0,0:0:0:0:
405,161,150614,1,0,0:0:0:0:
405,161,150714,54,0,P|419:123|400:157,1,100,2|0,0:0|0:0,0:0:0:0:
107,160,151314,2,0,P|77:135|116:137,1,100,2|0,0:0|0:0,0:0:0:0:
303,270,151914,2,0,B|267:276|257:288|257:288|246:276|193:265,2,100,2|0|2,0:0|0:0|0:0,0:0:0:0:
226,199,152814,2,0,B|257:209|257:209|290:198,1,66.6666666666667
158,219,153114,54,0,L|42:230,1,100,2|0,0:0|0:0,0:0:0:0:
453,228,153714,2,0,L|354:219,1,100,2|0,0:0|0:0,0:0:0:0:
256,47,154314,2,0,L|256:114,1,66.6666666666667,2|0,0:0|0:0,0:0:0:0:
256,192,154614,53,4,0:3:0:0:
256,352,154814,1,0,0:0:0:0:
256,336,154914,2,0,L|256:270,1,66.6666666666667,4|0,0:3|0:0,0:0:0:0:
256,192,155214,1,4,0:3:0:0:
453,49,155518,53,4,0:0:0:0:
453,49,155821,2,0,P|455:79|463:122,1,66.6666666666667
340,145,156124,2,0,P|335:99|379:85,1,100,2|2,0:1|0:0,0:0:0:0:
378,299,156730,54,0,P|335:284|340:238,1,100
458,285,157245,2,0,P|454:310|453:328,1,33.3333333333333,0|2,0:0|0:1,0:0:0:0:
57,345,157657,2,0,P|55:320|47:274,1,66.6666666666667,2|0,0:0|0:0,0:0:0:0:
171,238,157967,54,0,P|176:284|133:299,1,100
99,222,158501,1,0,0:0:0:0:
99,222,158608,1,2,0:1:0:0:
413,222,158927,1,2,0:0:0:0:
99,222,159252,54,0,L|168:232,1,66.6666666666667
413,222,159579,2,0,L|341:233,1,66.6666666666667
256,192,159907,1,2,0:1:0:0:
272,272,160238,53,2,0:0:0:0:
240,112,160459,1,0,0:0:0:0:
240,112,160569,54,0,P|188:107|128:96,1,100,2|0,0:0|0:0,0:0:0:0:
272,272,161232,2,0,P|323:276|384:288,1,100,2|0,0:1|0:0,0:0:0:0:
427,161,161800,1,0,0:0:0:0:
415,152,161913,54,0,P|383:152|367:216,2,100,2|0|2,0:0|0:0|0:1,0:0:0:0:
64,95,162941,2,0,P|73:127|77:160,1,66.6666666666667
97,232,163283,2,0,P|129:232|145:168,1,100,2|0,0:0|0:0,0:0:0:0:
149,175,163980,53,2,0:1:0:0:
256,192,164329,1,2,0:0:0:0:
363,209,164681,1,2,0:0:0:0:
428,88,164917,53,0,0:0:0:0:
417,77,165034,2,0,P|381:83|327:90,1,66.6666666666667,4|0,0:3|0:0,0:0:0:0:
339,103,165387,2,0,P|310:65|261:64,1,100,4|4,0:3|0:3,0:0:0:0:
179,216,165976,1,0,0:0:0:0:
160,140,166093,5,4,3:2:0:0:
177,143,166623,1,2,0:3:0:0:
194,146,166799,1,8,0:1:0:0:
211,149,167154,1,2,0:3:0:0:
228,152,167509,1,8,0:1:0:0:
245,155,167689,1,2,0:3:0:0:
262,158,167870,1,2,0:3:0:0:
279,161,168231,1,8,0:1:0:0:
279,161,168779,101,0,0:0:0:0:
275,142,168872,1,0,0:0:0:0:
266,71,168965,5,8,3:1:0:0:
249,74,169524,1,2,0:3:0:0:
232,77,169711,1,8,0:1:0:0:
215,80,170083,1,2,0:3:0:0:
198,83,170456,1,8,0:1:0:0:
181,86,170642,1,2,0:3:0:0:
164,89,170829,1,2,0:3:0:0:
147,91,171201,2,0,P|118:159|139:230,1,150,8|0,0:1|0:0,0:0:0:0:
212,235,171947,101,8,3:1:0:0:
209,211,172506,1,2,0:3:0:0:
199,188,172692,1,8,0:1:0:0:
181,171,173074,1,2,0:3:0:0:
159,160,173456,1,8,0:1:0:0:
134,157,173647,1,2,0:3:0:0:
110,163,173838,1,2,0:3:0:0:
89,176,174227,1,8,0:1:0:0:
89,176,174812,5,0,0:0:0:0:
91,195,174909,1,0,0:0:0:0:
99,266,175006,101,12,3:1:0:0:
124,269,175591,1,2,0:3:0:0:
147,280,175786,1,8,0:1:0:0:
164,298,176175,1,2,0:3:0:0:
200,368,176569,5,12,0:1:0:0:
257,317,176767,1,2,0:3:0:0:
279,307,176964,1,2,0:3:0:0:
349,332,177359,101,12,0:1:0:0:
329,314,177753,1,0,0:0:0:0:
303,306,177954,1,0,0:0:0:0:
199,371,178155,6,0,L|124:377,1,75,12|2,3:1|0:3,0:0:0:0:
108,371,178558,2,0,P|91:326|115:283,1,100,8|2,0:1|0:3,0:0:0:0:
182,242,178966,1,8,3:1:0:0:
196,244,179068,1,2,0:3:0:0:
210,245,179170,1,2,0:3:0:0:
113,204,179374,1,8,0:1:0:0:
313,178,179782,102,0,L|387:186,1,75,8|2,3:1|0:3,0:0:0:0:
404,180,180190,2,0,P|419:133|395:90,1,100,8|2,0:1|0:3,0:0:0:0:
330,51,180598,2,0,P|319:29|322:0,1,50,8|0,3:1|0:3,0:0:0:0:
399,13,180802,1,2,0:3:0:0:
396,91,181006,2,0,P|324:81|274:133,1,150,8|0,0:1|0:0,0:0:0:0:
250,219,181422,6,0,L|259:298,1,75,8|2,3:1|0:3,0:0:0:0:
250,306,181839,2,0,P|202:312|169:277,1,100,8|2,0:1|0:3,0:0:0:0:
166,193,182256,1,8,3:1:0:0:
168,178,182360,1,2,0:3:0:0:
170,163,182464,1,2,0:3:0:0:
96,243,182672,1,8,0:1:0:0:
311,61,183094,102,0,L|302:135,1,75,8|2,3:1|0:3,0:0:0:0:
311,148,183517,2,0,P|358:154|391:119,1,100,8|2,0:1|0:3,0:0:0:0:
395,35,183939,2,0,P|390:18|356:0,1,50,8|2,3:1|0:3,0:0:0:0:
467,84,184150,1,2,0:3:0:0:
391,119,184362,2,0,P|348:177|370:246,1,150,8|0,0:1|0:0,0:0:0:0:
426,188,184792,5,10,0:1:0:0:
306,143,185006,1,8,0:1:0:0:
185,173,185221,1,8,0:1:0:0:
101,267,185436,1,8,0:1:0:0:
162,47,185650,101,10,0:1:0:0:
185,173,185865,1,8,0:1:0:0:
272,262,186080,1,8,0:1:0:0:
394,287,186294,1,8,0:1:0:0:
176,344,186509,5,10,0:1:0:0:
273,263,186724,1,8,0:1:0:0:
306,143,186938,1,8,0:1:0:0:
267,23,187153,1,8,0:1:0:0:
136,169,187368,102,0,P|166:166|194:178,1,50,10|0,0:1|0:0,0:0:0:0:
295,306,187582,2,0,P|277:280|272:249,1,50,8|0,0:1|0:0,0:0:0:0:
334,103,187797,2,0,P|320:129|296:148,1,50,8|0,0:1|0:0,0:0:0:0:
254,194,188012,1,8,0:1:0:0:
197,39,188226,85,10,0:1:0:0:
196,48,188333,1,8,0:1:0:0:
260,118,188440,53,10,0:1:0:0:
252,117,188547,1,8,0:1:0:0:
183,180,188654,5,10,0:1:0:0:
184,172,188761,1,8,0:1:0:0:
122,103,188869,53,10,0:1:0:0:
129,104,188976,1,8,0:1:0:0:
272,44,189082,101,10,0:1:0:0:
281,37,189189,1,8,0:1:0:0:
257,193,189297,53,10,0:1:0:0:
264,202,189404,1,8,0:1:0:0:
109,178,189511,5,10,0:1:0:0:
100,185,189618,1,8,0:1:0:0:
124,30,189726,53,10,0:1:0:0:
116,20,189833,1,8,0:1:0:0:
190,120,189940,102,0,P|200:99|182:112,1,59.9999981689454,6|0,3:1|0:0,0:0:0:0:
87,312,190797,85,2,0:0:0:0:
168,322,190940,53,2,0:0:0:0:
248,331,191083,53,2,0:0:0:0:
330,342,191226,54,0,B|368:308|403:322|403:322|373:336|312:305,1,159.999995117188,2|0,0:0|0:0,0:0:0:0:
248,331,191654,22,0,P|202:321|193:275,1,100,4|0,3:2|0:0,0:0:0:0:
194,274,191976,2,0,P|170:353|249:331,1,200,4|0,3:2|0:0,0:0:0:0:
270,256,192297,6,0,L|344:268,1,50,2|0,0:3|0:0,0:0:0:0:
360,252,192404,2,0,L|286:264,1,50,2|0,0:3|0:0,0:0:0:0:
257,181,192511,38,0,L|331:193,1,50,10|0,0:3|0:0,0:0:0:0:
347,176,192618,2,0,L|273:188,1,50,2|0,0:3|0:0,0:0:0:0:
244,104,192726,54,0,P|239:68|262:29,1,75,2|0,0:3|0:0,0:0:0:0:
256,35,192940,70,2,B|289:119|182:211|96:141|96:141|122:153|164:131,1,300,0|0,3:0|0:0,0:1:0:0:
125,71,193368,70,0,P|119:41|124:9,1,50,0|0,3:0|0:0,0:0:0:0:
213,233,193583,2,0,P|219:203|214:171,1,50
125,71,193797,2,0,P|95:60|56:61,1,50
213,233,194011,2,0,P|243:222|282:223,1,50
443,96,194226,53,8,0:3:0:0:
448,115,194333,1,0,0:0:0:0:
411,175,194440,38,0,L|427:-9,1,150.000005722046,4|0,3:2|0:0,0:0:0:0:
334,189,194761,2,0,L|345:77,1,100,0|0,3:0|0:0,0:0:0:0:
257,203,195083,38,0,P|212:216|179:174,1,100,4|0,3:2|0:0,0:0:0:0:
179,180,195404,2,0,P|198:260|257:202,1,200,4|0,3:2|0:0,0:0:0:0:
238,123,195726,53,0,0:0:0:0:
234,105,195833,1,0,0:0:0:0:
254,27,195940,1,8,0:3:0:0:
334,21,196047,1,0,0:0:0:0:
363,95,196154,1,0,0:0:0:0:
302,147,196261,1,0,0:0:0:0:
234,105,196368,6,2,B|156:61|114:137|114:137|133:173|133:173|126:214|126:214|139:246|139:246|130:324,1,300,0|0,3:0|0:0,0:1:0:0:
114,359,196797,6,0,P|151:360|183:343,1,75.0000028610231,0|0,3:0|0:0,0:0:0:0:
285,359,197011,2,0,P|305:327|306:290,1,75.0000028610231
208,211,197226,53,0,0:0:0:0:
208,211,197333,2,0,L|203:173,2,37.5000014305115,0|0|0,0:0|3:0|0:0,0:0:0:0:
294,358,197654,54,0,P|314:326|315:289,1,64.9999970245363,8|0,0:3|0:0,0:0:0:0:
393,218,197868,2,0,P|375:184|343:165,1,64.9999970245363
324,46,198083,54,0,B|253:37|253:37|209:76|209:76|237:51|269:53|288:67,1,194.999991073609,2|0,3:2|0:0,0:0:0:0:
259,129,198511,86,0,L|358:140,1,100,4|0,3:2|0:0,0:0:0:0:
358,140,198833,2,0,B|317:179|317:179|299:219|299:219|290:175|290:175|238:97,1,200,4|0,3:2|0:0,0:0:0:0:
195,70,199154,54,0,P|173:72|142:109,1,50,2|0,0:3|0:0,0:0:0:0:
94,87,199261,2,0,P|116:89|147:126,1,50,2|0,0:3|0:0,0:0:0:0:
247,151,199368,6,0,P|227:140|181:152,1,50,10|0,0:3|0:0,0:0:0:0:
93,192,199476,2,0,P|115:180|140:181,1,50,2|0,0:3|0:0,0:0:0:0:
238,277,199583,38,0,P|234:241|209:212,1,75,2|0,0:3|0:0,0:0:0:0:
210,213,199797,6,2,B|237:328|383:310|415:200|336:173|250:248|366:318,1,300,0|0,3:0|0:0,0:1:0:0:
399,330,200226,70,0,P|431:320|465:332,1,50,0|0,3:0|0:0,0:0:0:0:
297,155,200440,2,0,L|303:89,1,50
399,330,200654,2,0,L|403:379,1,50
297,155,200868,2,0,P|272:156|249:147,1,50
472,66,201083,53,8,0:3:0:0:
475,85,201190,1,0,0:0:0:0:
507,151,201297,22,0,P|458:102|375:97,1,150.000005722046,4|0,3:2|0:0,0:0:0:0:
475,85,201618,2,0,P|418:78|370:107,1,100,0|0,3:0|0:0,0:0:0:0:
322,227,201940,6,0,L|333:326,1,100,4|0,3:2|0:0,0:0:0:0:
333,326,202262,2,0,B|372:285|372:285|412:267|412:267|368:258|368:258|290:206,1,200,4|0,3:2|0:0,0:0:0:0:
256,286,202583,37,0,0:0:0:0:
238,278,202690,1,0,0:0:0:0:
161,306,202797,1,8,0:3:0:0:
98,253,202904,1,0,0:0:0:0:
112,172,203011,1,0,0:0:0:0:
189,144,203118,1,0,0:0:0:0:
252,196,203226,54,2,B|309:221|372:174|372:174|306:195|270:154,1,225.000008583069,0|0,3:0|0:0,0:1:0:0:
308,37,203654,22,0,P|326:69|327:107,1,75.0000028610231,8|0,0:1|0:0,0:0:0:0:
170,213,203868,2,0,P|170:175|188:143,1,75.0000028610231
228,70,204083,53,0,0:0:0:0:
228,70,204190,2,0,L|222:23,2,37.5000014305115,0|8|0,0:0|0:1|0:0,0:0:0:0:
266,237,204511,53,8,0:1:0:0:
280,163,204618,1,2,0:3:0:0:
336,211,204726,53,0,0:0:0:0:
210,191,204833,1,2,0:3:0:0:
336,211,204940,70,0,L|391:217,2,32.4999985122681,8|0|2,0:1|0:0|0:3,0:0:0:0:
210,191,205154,2,0,L|139:182,1,64.9999970245363,4|2,0:3|0:3,0:0:0:0:
381,141,205368,86,0,L|469:119,2,75.0000028610231,4|0|0,3:2|0:0|0:0,0:0:0:0:
210,191,205690,2,0,B|89:219|89:219|130:225|153:242,1,175.00000166893,4|0,3:2|0:0,0:0:0:0:
308,208,206011,37,0,0:0:0:0:
283,125,206118,1,0,0:0:0:0:
262,274,206226,54,0,B|301:291|301:291|353:281,1,87.500000834465,8|0,0:3|0:0,0:0:0:0:
393,119,206440,2,0,P|379:137|379:178,1,43.7500004172325,2|0,0:0|0:0,0:0:0:0:
308,208,206547,2,0,P|304:121|350:48,1,175.00000166893,2|0,0:1|0:0,0:0:0:0:
393,119,206868,6,0,P|379:137|379:178,1,43.7500004172325,2|0,0:1|0:0,0:0:0:0:
230,93,206976,2,0,P|243:76|248:54,1,43.7500004172325,2|0,0:1|0:0,0:0:0:0:
455,68,207083,38,0,P|470:108|465:151,1,87.500000834465,0|0,3:0|0:0,0:0:0:0:
308,208,207297,1,2,0:0:0:0:
393,119,207404,2,0,B|305:84|314:155|218:126,1,175.00000166893,2|0,0:1|0:0,0:0:0:0:
148,133,207726,54,0,P|147:109|157:86,1,50,0|0,3:0|0:0,0:0:0:0:
294,99,207940,2,0,P|301:122|297:147,1,50,8|0,0:3|0:0,0:0:0:0:
215,277,208154,6,0,L|223:128,1,150.000005722046,4|0,0:0|0:0,0:0:0:0:
290,247,208476,2,0,L|296:148,1,100,2|0,0:0|0:0,0:0:0:0:
429,248,208797,38,0,P|403:222|367:219,2,75.0000028610231,4|0|0,3:2|0:0|0:0,0:0:0:0:
479,136,209118,2,0,P|397:141|366:217,1,175.00000166893,4|0,3:2|0:0,0:0:0:0:
442,324,209440,53,0,0:0:0:0:
504,217,209547,1,0,0:0:0:0:
442,324,209654,2,0,B|385:339|385:339|338:308|338:308|258:312,1,175.00000166893,8|2,0:3|0:0,0:0:0:0:
94,351,209976,2,0,L|149:358,1,43.7500004172325,2|0,0:1|0:0,0:0:0:0:
218,361,210083,6,0,B|183:303|212:264|247:220|216:158|216:158|190:195|220:243,1,284.999992389679,0|0,3:0|0:0,0:0:0:0:
278,310,210511,6,0,P|307:288|344:284,1,75.0000028610231,0|0,3:0|0:0,0:0:0:0:
435,217,210726,2,0,P|406:193|369:188,1,75.0000028610231
249,225,210940,53,0,0:0:0:0:
249,225,211047,2,0,L|211:227,2,37.5000014305115,0|0|0,0:0|3:0|0:0,0:0:0:0:
439,206,211368,54,0,P|413:186|381:180,1,64.9999970245363,8|0,0:3|0:0,0:0:0:0:
258,135,211583,2,0,P|283:115|315:109,1,64.9999970245363
409,2,211797,54,0,B|421:-12|452:-3|436:44|370:15|370:15|325:51|260:16,1,194.999991073609,2|0,0:0|0:0,0:0:0:0:
131,89,212226,86,0,B|126:122|90:122|90:122|150:138|148:199,1,150.000005722046,4|0,3:2|0:0,0:0:0:0:
75,194,212547,2,0,P|148:159|223:231,1,175.00000166893,4|0,3:2|0:0,0:0:0:0:
276,255,212868,54,0,P|261:275|209:283,1,75
211,79,213083,5,8,0:0:0:0:
279,118,213190,1,0,0:0:0:0:
354,90,213297,2,0,L|347:57,1,25,2|2,0:1|0:3,0:0:0:0:
380,96,213404,2,0,L|373:63,1,25,2|2,0:3|0:3,0:0:0:0:
406,102,213511,38,0,B|509:81|509:81|478:101|480:138,1,150.000005722046,2|2,3:1|0:0,0:0:0:0:
361,205,213833,1,2,0:1:0:0:
434,245,213940,2,0,P|432:206|438:155,1,75.0000028610231,2|0,3:1|0:0,0:0:0:0:
257,54,214154,54,0,P|264:72|266:91,1,37.5000014305115,2|0,0:3|0:0,0:0:0:0:
288,121,214261,2,0,P|281:138|279:157,1,37.5000014305115,2|0,0:3|0:0,0:0:0:0:
261,190,214368,6,0,P|257:213|252:227,1,37.5000014305115,2|0,0:3|0:0,0:0:0:0:
285,259,214476,2,0,P|289:282|294:296,1,37.5000014305115,2|0,0:3|0:0,0:0:0:0:
262,330,214583,38,0,P|233:308|197:302,1,75.0000028610231,2|0,3:0|0:0,0:0:0:0:
69,322,214797,53,8,0:3:0:0:
86,327,214904,1,0,0:0:0:0:
138,379,215011,6,0,P|111:331|141:223,1,150.000005722046,4|0,0:0|0:0,0:0:0:0:
86,327,215333,2,0,P|93:278|125:240,1,100,2|0,0:0|0:0,0:0:0:0:
230,184,215654,38,0,B|197:189|197:225|197:225|181:165|120:167,1,150.000005722046,4|0,3:2|0:0,0:0:0:0:
125,240,215976,2,0,P|160:167|88:92,1,175.00000166893,4|0,3:2|0:0,0:0:0:0:
76,34,216297,54,0,P|54:46|43:112,1,75
134,167,216511,5,8,0:3:0:0:
210,145,216618,1,0,0:0:0:0:
275,188,216726,2,0,L|283:232,1,25,2|2,0:1|0:3,0:0:0:0:
305,192,216833,2,0,L|313:236,1,25,2|2,0:3|3:0,0:0:0:0:
335,196,216940,38,2,B|380:210|417:183|417:183|426:258|426:258|396:289|412:337,1,225.000008583069,0|0,3:0|0:0,0:1:0:0:
479,309,217368,86,0,P|397:290|317:335,1,165.000001573563,8|2,0:1|0:3,0:0:0:0:
194,242,217690,2,0,P|207:304|262:271,1,150.000005722046,2|2,0:3|0:3,0:0:0:0:
287,132,218011,2,0,P|260:156|257:193,1,75.0000028610231,8|0,0:1|0:0,0:0:0:0:
390,246,218226,54,0,P|374:210|331:196,2,83.3333333333333,8|2|2,0:1|0:3|0:3,0:0:0:0:
431,158,218654,2,0,B|341:132|351:231|250:190,1,187.5,2|0,0:3|0:0,0:0:0:0:
71,126,219083,22,0,P|86:45|147:100,1,200,4|0,3:2|0:0,0:0:0:0:
147,283,219404,2,0,P|86:338|71:257,1,200,4|0,3:2|0:0,0:0:0:0:
147,180,219726,6,2,B|198:171|204:208|261:191,1,112.500004291535,4|0,0:3|0:0,0:0:0:0:
277,176,219940,54,0,P|282:146|269:114,1,50,2|0,0:3|0:0,0:0:0:0:
219,66,220047,2,0,P|242:85|276:90,1,50,2|0,0:3|0:0,0:0:0:0:
342,70,220154,2,0,P|313:80|292:107,1,50,2|0,0:3|0:0,0:0:0:0:
231,99,220261,6,0,P|254:106|279:103,1,50,2|0,0:3|0:0,0:0:0:0:
307,63,220368,2,0,P|288:79|278:102,1,50,2|0,0:3|0:0,0:0:0:0:
298,145,220476,2,0,P|292:120|277:100,1,50,2|0,0:3|0:0,0:0:0:0:
170,51,220583,102,0,B|117:27|38:112|20:43|101:-8|106:108,1,187.5,4|0,0:3|0:0,0:0:0:0:
118,81,220797,70,0,P|148:86|169:108,1,50,0|0,3:0|0:0,0:0:0:0:
242,278,221011,2,0,P|220:256|216:226,1,50
257,45,221226,2,0,P|261:75|247:101,1,50,2|0,0:0|0:0,0:0:0:0:
107,224,221440,2,0,P|121:197|148:183,1,50
289,181,221654,53,8,0:3:0:0:
306,187,221761,1,0,0:0:0:0:
229,231,221868,86,0,B|368:216|368:216|335:228|314:280,1,200,4|0,3:2|0:0,0:0:0:0:
494,299,222190,2,0,B|392:288|392:288|417:296|432:334,1,150.000005722046,0|0,3:0|0:0,0:0:0:0:
363,353,222511,54,0,P|391:248|357:145,1,220.000006713867,4|0,3:2|0:0,0:0:0:0:
432,248,222833,2,0,P|395:145|308:80,1,220.000006713867,4|0,3:2|0:0,0:0:0:0:
139,121,223154,6,0,P|141:175|195:179,1,120
207,171,223368,54,0,P|214:140|191:101,1,55.0000016784668,10|0,0:3|0:0,0:0:0:0:
230,144,223476,2,0,P|217:114|176:95,1,55.0000016784668,2|0,0:3|0:0,0:0:0:0:
71,134,223583,6,0,P|83:104|124:85,1,55.0000016784668,2|0,0:3|0:0,0:0:0:0:
67,98,223690,2,0,P|93:80|138:89,1,55.0000016784668,2|0,0:3|0:0,0:0:0:0:
202,255,223797,102,2,B|144:255|124:203|124:203|90:231|37:220|37:220|127:258|82:360,1,330.000010070801,0|0,3:0|0:0,0:1:0:0:
22,298,224226,69,0,3:0:0:0:
126,44,224440,2,0,P|151:86|151:135,1,100
34,104,224761,2,0,P|58:101|82:109,1,50,0|0,0:0|3:0,0:0:0:0:
200,194,224976,1,0,0:0:0:0:
216,182,225083,53,8,0:3:0:0:
330,111,225297,1,0,0:0:0:0:
425,195,225511,2,0,P|399:286|326:224,1,225.000008583069,0|0,3:0|0:0,0:0:0:0:
439,174,225940,86,0,P|459:243|351:302,1,200,4|0,3:2|0:0,0:0:0:0:
362,148,226261,2,0,P|411:96|516:160,1,200,4|0,3:2|0:0,0:0:0:0:
378,230,226583,54,0,B|324:215|333:259|257:237,1,112.500004291535,4|0,0:3|0:0,0:0:0:0:
264,225,226797,70,0,L|273:159,1,50,10|0,0:3|0:0,0:0:0:0:
264,93,226904,2,0,L|270:142,1,50,2|0,0:3|0:0,0:0:0:0:
177,218,227011,6,0,L|183:168,1,50,2|0,0:3|0:0,0:0:0:0:
176,104,227118,2,0,L|182:153,1,50,2|0,0:3|0:0,0:0:0:0:
90,209,227226,102,0,L|96:159,1,50,2|0,3:0|0:0,0:0:0:0:
89,110,227333,2,0,L|95:159,1,50,2|0,0:3|0:0,0:0:0:0:
96,160,227440,6,0,B|43:136|-36:221|-54:152|27:101|32:217,1,187.5,4|0,0:3|0:0,0:0:0:0:
182,153,227654,54,0,P|207:158|231:150,1,50,0|0,3:0|0:0,0:0:0:0:
47,292,227868,2,0,P|29:274|6:266,1,50
237,258,228083,2,0,P|240:282|254:302,1,50,2|0,0:0|0:0,0:0:0:0:
63,173,228297,2,0,P|74:151|74:126,1,50
153,344,228511,53,8,0:3:0:0:
145,361,228618,1,0,0:0:0:0:
77,308,228726,38,0,B|189:289|149:364|283:340,1,200,4|0,3:2|0:0,0:0:0:0:
361,243,229047,2,0,B|279:229|308:283|211:266,1,150.000005722046,0|0,3:0|0:0,0:0:0:0:
346,319,229368,38,0,B|388:367|478:322|469:256|469:256|441:261|427:300,1,220.000006713867,4|0,3:2|0:0,0:0:0:0:
372,144,229690,2,0,B|309:156|303:256|365:282|365:282|374:255|347:223,1,220.000006713867,4|0,3:2|0:0,0:0:0:0:
436,103,230011,54,0,P|408:52|351:52,1,120,4|0,0:3|0:0,0:0:0:0:
342,62,230226,70,0,P|317:65|293:58,1,50,10|0,0:3|0:0,0:0:0:0:
318,87,230333,2,0,P|296:74|282:53,1,50,2|0,0:3|0:0,0:0:0:0:
173,127,230440,6,0,P|194:114|207:93,1,50,2|0,0:3|0:0,0:0:0:0:
207,130,230547,2,0,P|215:106|212:82,1,50,2|0,0:3|0:0,0:0:0:0:
284,160,230654,102,2,B|238:193|232:155|232:155|245:179|186:178|183:145|183:145|199:172|141:171|131:134|131:134|147:156|90:166|79:122|79:122|100:153|47:159|14:119,1,385.000011749268,0|0,3:0|0:0,0:1:0:0:
32,135,231083,70,0,L|26:72,1,50,8|0,0:1|0:0,0:0:0:0:
86,248,231297,1,2,0:3:0:0:
92,233,231404,2,0,L|98:170,1,50,2|0,0:3|0:0,0:0:0:0:
26,361,231618,1,2,0:3:0:0:
20,345,231726,54,0,L|11:268,1,59.9999981689454,8|0,0:1|0:0,0:0:0:0:
181,148,231940,2,0,L|174:207,1,59.9999981689454,8|0,0:1|0:0,0:0:0:0:
109,364,232154,1,2,0:3:0:0:
175,328,232261,1,2,0:3:0:0:
243,359,232368,54,0,L|295:365,2,29.9999990844727,8|0|0,0:1|0:0|0:0,0:0:0:0:
118,280,232583,2,0,L|98:249,2,29.9999990844727,2|0|0,0:3|0:0|0:0,0:0:0:0:
335,315,232797,102,0,B|409:325|409:325|431:180,1,200,4|0,3:2|0:0,0:0:0:0:
281,85,233118,2,0,B|345:76|345:76|360:193,1,150.000005722046,0|0,3:0|0:0,0:0:0:0:
331,235,233440,2,0,P|292:226|245:222,1,75.0000028610231
61,159,233654,38,0,P|97:163|145:138,1,75.0000028610231,8|0,0:3|0:0,0:0:0:0:
171,68,233868,1,2,0:0:0:0:
17,100,233976,54,0,B|128:88|89:162|241:142,1,200,2|0,0:1|0:0,0:0:0:0:
273,13,234297,2,0,P|202:5|176:86,1,150,2|0,0:1|0:0,0:0:0:0:
189,61,234511,6,0,P|221:61|251:74,1,64.9999970245363,0|0,3:0|0:0,0:0:0:0:
283,182,234726,1,2,0:0:0:0:
206,145,234833,38,0,P|269:105|339:116,1,129.999994049073,2|2,0:0|0:0,0:0:0:0:
380,60,235154,2,0,P|395:88|395:106,1,50,0|0,3:0|0:0,0:0:0:0:
321,269,235368,53,8,0:0:0:0:
324,247,235476,1,0,0:0:0:0:
283,182,235583,6,0,P|299:237|210:357,1,200,2|0,0:1|0:0,0:0:0:0:
94,149,235904,2,0,P|155:109|225:128,1,150.000005722046,2|0,0:1|0:0,0:0:0:0:
228,350,236226,38,0,B|155:395|76:339|76:339|108:343|142:320,1,200,6|0,3:1|0:0,0:0:0:0:
234,270,236547,2,0,P|297:303|304:375,1,150.000005722046,0|0,3:0|0:0,0:0:0:0:
161,279,236868,2,0,L|149:181,1,75.0000028610231
232,49,237083,53,8,0:3:0:0:
287,104,237190,1,2,0:1:0:0:
214,143,237297,1,2,0:1:0:0:
161,80,237404,1,2,0:1:0:0:
287,104,237511,6,0,B|434:75|434:75|387:98|382:153,1,225.000008583069,4|0,0:3|0:0,0:0:0:0:
460,142,237940,6,0,P|424:86|435:-14,1,150.000005722046,2|0,3:2|0:0,0:0:0:0:
443,280,238261,2,0,P|428:208|460:142,1,150.000005722046,2|0,0:0|0:0,0:0:0:0:
494,39,238583,54,0,P|493:57|499:75,1,37.5000014305115,2|0,3:2|0:0,0:0:0:0:
499,75,238797,54,0,B|341:52|341:52|329:122,1,225.000008583069,8|0,0:3|0:0,0:0:0:0:
411,188,239226,54,0,L|404:139,1,50,2|0,0:1|0:0,0:0:0:0:
434,348,239654,86,0,B|441:307|403:267|403:267|447:273|501:231|483:164,1,220.000006713867,4|0,3:2|0:0,0:0:0:0:
441,76,239976,2,0,P|356:84|339:169,1,179.999994506836,0|0,3:0|0:0,0:0:0:0:
411,188,240297,2,0,L|404:138,1,50
277,27,240511,54,0,P|295:59|298:96,1,75.0000028610231,8|0,0:0|0:0,0:0:0:0:
218,188,240726,1,2,0:0:0:0:
224,85,240833,6,0,P|286:146|274:273,1,200,2|2,0:1|0:0,0:0:0:0:
121,309,241154,2,0,B|150:305|168:254|168:254|149:309|182:331,1,150,2|0,0:1|0:0,0:0:0:0:
302,276,241368,38,0,L|237:284,1,64.9999970245363,0|0,3:0|0:0,0:0:0:0:
94,239,241583,1,2,0:0:0:0:
154,180,241690,54,0,L|222:189,1,64.9999970245363,2|0,0:0|0:0,0:0:0:0:
371,337,241904,1,2,0:0:0:0:
300,293,242011,6,0,L|237:302,1,50,0|0,3:0|0:0,0:0:0:0:
163,165,242226,2,0,L|226:174,1,50,8|0,0:3|0:0,0:0:0:0:
445,95,242440,38,0,P|397:101|388:203,1,150.000005722046,2|0,0:1|0:0,0:0:0:0:
384,197,242761,2,0,P|387:161|341:116,1,100,2|0,0:1|0:0,0:0:0:0:
267,72,243083,85,8,0:1:0:0:
162,80,243726,1,8,0:1:0:0:
162,80,243940,1,8,0:1:0:0:
57,88,244368,1,8,0:1:0:0:
245,312,244797,53,2,0:3:0:0:
350,304,245012,1,8,0:1:0:0:
455,296,245226,1,8,0:1:0:0:
452,310,245333,1,2,0:3:0:0:
450,325,245440,2,0,L|441:378,1,44.999998626709,2|0,0:3|0:0,0:0:0:0:
470,216,245654,53,8,0:1:0:0:
470,216,245868,1,2,0:3:0:0:
472,201,245976,1,2,0:3:0:0:
475,187,246083,86,0,L|481:149,1,37.5000014305115,2|0,0:0|0:0,0:0:0:0:
400,126,246190,6,0,L|389:183,1,50,2|0,0:0|0:0,0:0:0:0:
309,165,246297,38,0,L|323:93,1,62.5,2|0,0:0|0:0,0:0:0:0:
239,81,246404,6,0,L|225:156,1,75.0000028610231,2|0,0:0|0:0,0:0:0:0:
140,172,246511,21,0,3:0:0:0:
140,172,246726,53,0,0:0:0:0:
226,155,246940,1,0,0:0:0:0:
169,89,247154,1,0,0:0:0:0:
86,240,247368,54,0,B|110:197|98:144|98:144|114:164|140:172,1,150.000005722046,10|0,0:0|0:0,0:0:0:0:
296,168,247690,2,0,P|258:170|225:154,1,75.0000028610231,2|0,0:0|3:0,0:0:0:0:
137,8,247904,1,0,0:0:0:0:
137,8,248011,2,0,B|162:51|214:67|214:67|188:72|169:89,1,150.000005722046,2|0,0:0|3:0,0:0:0:0:
85,239,248440,53,0,0:0:0:0:
175,253,248654,1,0,0:0:0:0:
265,267,248868,1,0,0:0:0:0:
84,239,249083,54,0,P|54:148|142:176,1,225.000008583069,10|0,0:0|0:0,0:0:0:0:
175,253,249511,2,0,P|168:295|166:327,1,75.0000028610231,2|0,3:2|0:0,0:0:0:0:
265,266,249726,2,0,P|258:302|255:340,1,75.0000028610231,2|0,3:2|0:0,0:0:0:0:
253,93,249940,53,0,3:0:0:0:
334,222,250154,53,0,0:0:0:0:
334,132,250368,1,0,0:0:0:0:
258,179,250583,1,0,0:0:0:0:
334,222,250797,54,0,B|348:265|325:293|325:293|301:259|250:263,1,150.000005722046,10|2,0:0|0:3,0:0:0:0:
334,132,251118,1,2,0:3:0:0:
334,132,251226,2,0,B|342:110|359:107|359:107|358:128|379:142,1,75.0000028610231,2|0,3:2|0:0,0:0:0:0:
258,179,251440,2,0,B|235:182|223:169|223:169|242:159|244:134,1,75.0000028610231,2|0,0:0|0:0,0:0:0:0:
416,310,251654,54,0,P|329:298|256:347,2,179.999994506836,0|2|2,3:0|0:0|0:0,0:0:0:0:
492,225,252511,2,0,B|534:205|528:244|474:264|435:220,1,119.999996337891,10|2,0:0|0:1,0:0:0:0:
409,152,252833,1,0,0:0:0:0:
483,120,252940,54,0,P|454:128|424:130,1,59.9999981689454,2|0,3:2|0:0,0:0:0:0:
350,205,253154,2,0,P|321:196|291:194,1,59.9999981689454,2|0,3:2|0:0,0:0:0:0:
216,112,253368,54,0,B|106:96|119:192|-1:157,1,225.000008583069,2|0,3:1|0:0,0:0:0:0:
28,90,253797,2,0,P|56:92|74:80,1,50,2|0,0:0|0:0,0:0:0:0:
214,184,254226,54,0,P|146:243|235:259,1,225.000008583069,8|0,0:0|0:0,0:0:0:0:
287,155,254654,2,0,P|275:120|240:114,1,75.0000028610231,0|0,3:0|0:0,0:0:0:0:
116,219,254868,53,2,0:0:0:0:
111,247,254976,1,2,0:0:0:0:
43,204,255083,54,0,P|95:185|238:265,1,225.000008583069,2|0,3:1|0:0,0:0:0:0:
253,333,255511,2,0,P|230:341|208:330,1,50,2|0,0:0|0:0,0:0:0:0:
277,196,255940,54,0,P|304:220|312:256,1,75.0000028610231,8|0,0:0|0:0,0:0:0:0:
158,248,256154,2,0,P|173:207|208:185,1,75.0000028610231,2|0,0:0|0:0,0:0:0:0:
235,258,256368,53,2,3:2:0:0:
272,104,256583,1,0,3:0:0:0:
284,116,256690,1,0,0:0:0:0:
357,144,256797,54,0,L|438:138,1,75,0|2,3:0|0:0,0:0:0:0:
431,138,257440,1,2,0:3:0:0:
431,138,257654,1,2,0:3:0:0:
422,238,258083,1,2,0:3:0:0:
413,338,258511,1,2,0:3:0:0:
256,192,258618,12,0,260226,0:0:0:0:
344,100,261511,6,0,L|348:49,1,50,2|0,3:0|0:0,0:0:0:0:
326,274,261940,1,4,3:0:0:0:
326,274,262797,22,0,B|287:259|220:266|175:343|246:367|216:281,1,187.5,2|0,0:0|0:0,0:0:0:0:
395,318,263226,86,0,L|437:313,1,31.25,8|0,0:0|0:0,0:0:0:0:
194,119,263654,38,0,L|150:115,1,31.25,4|0,3:2|0:0,0:0:0:0:
270,77,263868,53,0,0:0:0:0:
277,94,263976,1,0,0:0:0:0:
279,112,264083,1,0,0:0:0:0:
257,191,264297,1,0,0:0:0:0:
335,219,264511,2,0,P|298:218|265:235,1,75.0000028610231,8|0,0:0|0:0,0:0:0:0:
78,279,264940,6,0,P|113:286|129:319,1,75.0000028610231,0|0,3:0|0:0,0:0:0:0:
129,319,265368,38,0,P|108:279|114:214,1,100,0|0,3:0|0:0,0:0:0:0:
219,305,265797,2,0,P|216:259|249:203,1,100
113,88,266226,54,0,B|145:93|159:118|159:118|167:88|205:69,1,112.500004291535,8|0,0:0|0:0,0:0:0:0:
265,132,266654,2,0,L|229:141,1,37.5000014305115,2|0,3:2|0:0,0:0:0:0:
372,105,266868,2,0,L|335:113,1,37.5000014305115,2|0,3:2|0:0,0:0:0:0:
448,85,267083,6,0,L|457:10,2,75.0000028610231,2|2|2,3:1|0:0|0:0,0:0:0:0:
287,253,267940,2,0,L|297:329,1,75,8|0,0:0|0:0,0:0:0:0:
351,378,268368,38,0,P|367:359|370:334,1,50,2|0,3:1|0:0,0:0:0:0:
287,253,268690,1,0,0:0:0:0:
267,251,268797,54,0,L|190:240,2,75,2|2|2,3:1|0:0|0:0,0:0:0:0:
468,142,269654,2,0,P|475:126|478:89,1,50,8|2,0:0|0:0,0:0:0:0:
370,128,270083,2,0,P|372:103|365:79,1,50,2|0,3:2|3:0,0:0:0:0:
365,79,270404,1,0,0:0:0:0:
365,79,270511,5,0,3:0:0:0:
276,75,270726,1,2,0:0:0:0:
186,70,270940,1,2,0:0:0:0:
96,241,271154,37,2,0:3:0:0:
149,178,271368,2,0,P|141:233|160:285,1,112.500004291535,2|0,0:3|0:0,0:0:0:0:
225,320,271797,2,0,P|233:296|231:275,2,37.5000014305115,2|0|0,0:3|0:0|0:0,0:0:0:0:
29,355,272226,53,0,0:0:0:0:
18,276,272440,1,2,0:3:0:0:
29,355,272654,2,0,P|75:330|90:298,1,75.0000028610231,2|0,0:3|0:0,0:0:0:0:
160,285,273083,2,0,P|152:233|127:208,1,75.0000028610231,2|0,0:3|0:0,0:0:0:0:
73,122,273511,38,0,L|76:171,1,50,0|4,0:0|0:0,0:0:0:0:
201,312,274154,53,0,0:0:0:0:
247,252,274368,2,0,P|269:240|293:241,1,50
363,276,274797,2,0,P|399:278|435:233,1,75
445,258,275226,2,0,L|430:143,1,100,2|2,0:0|0:0,0:0:0:0:
325,227,275868,53,0,0:0:0:0:
279,167,276082,2,0,P|256:155|232:156,1,50
163,191,276511,1,0,0:0:0:0:
163,191,276726,1,0,0:0:0:0:
99,142,276940,2,0,L|111:34,1,100,2|2,0:0|0:0,0:0:0:0:
216,28,277583,53,0,0:0:0:0:
280,70,277797,2,0,P|312:71|341:50,1,50
388,109,278226,2,0,P|432:86|480:96,1,100,0|2,0:0|0:0,0:0:0:0:
444,163,278868,1,0,0:0:0:0:
496,260,279083,54,0,L|507:312,1,50,2|0,0:0|0:0,0:0:0:0:
410,266,279511,2,0,L|408:326,1,50
330,354,279940,2,0,P|293:322|234:325,1,100
170,354,280583,1,0,0:0:0:0:
80,261,280797,53,0,0:0:0:0:
192,242,281226,1,2,0:0:0:0:
120,155,281654,53,0,0:0:0:0:
106,139,281868,1,0,0:0:0:0:
192,242,282083,1,2,0:0:0:0:
232,137,282511,53,0,0:0:0:0:
192,242,282940,1,2,0:0:0:0:
303,225,283368,53,0,0:0:0:0:
303,225,283797,1,2,0:0:0:0:
323,220,284011,1,0,0:0:0:0:
192,241,284226,54,0,P|167:236|150:219,1,50,2|0,0:0|0:0,0:0:0:0:
160,137,284654,1,0,0:0:0:0:
352,137,285083,1,2,0:0:0:0:
144,137,285511,53,0,0:0:0:0:
368,137,285940,1,2,0:0:0:0:
256,192,286368,6,0,P|236:188|222:176,1,29.9999990844727,2|0,0:1|0:0,0:0:0:0:
256,191,286797,2,0,P|269:176|287:167,1,29.9999990844727,2|0,0:1|0:0,0:0:0:0:
256,192,287258,102,0,P|264:218|259:250,1,59.9999981689454,2|0,0:0|0:0,0:0:0:0:
100,291,288089,53,0,0:0:0:0:
128,214,288517,1,2,0:0:0:0:
48,227,288945,2,0,P|24:196|29:158,1,80,2|0,0:0|0:0,0:0:0:0:
185,59,289801,53,0,0:0:0:0:
157,136,290230,1,2,0:0:0:0:
236,122,290658,2,0,P|260:153|256:192,1,80,2|0,0:0|0:0,0:0:0:0:
212,268,291493,53,0,0:0:0:0:
300,268,291929,2,0,L|366:258,2,60,2|0|0,0:0|0:0|0:0,0:0:0:0:
212,268,292801,2,0,L|132:256,2,80,0|2|2,0:0|0:0|0:0,0:0:0:0:
375,173,294051,54,0,P|385:157|387:137,1,40,0|2,0:0|0:0,0:0:0:0:
460,104,294537,54,0,P|458:74|441:49,2,60,2|2|2,0:3|0:0|0:0,0:0:0:0:
387,136,295394,2,0,P|366:101|325:86,1,80,2|0,0:3|0:0,0:0:0:0:
460,280,296251,54,0,P|458:309|423:351,1,80,2|2,0:3|0:0,0:0:0:0:
427,348,296893,1,0,0:0:0:0:
387,248,297109,2,0,P|366:283|325:298,1,80,2|2,0:3|0:0,0:0:0:0:
256,288,297752,1,0,0:0:0:0:
256,213,297965,54,0,L|256:165,1,40,2|2,0:3|0:0,0:0:0:0:
144,192,298590,1,2,0:0:0:0:
368,192,299036,2,0,P|392:184|416:184,2,40,2|0|0,0:0|0:0|0:0,0:0:0:0:
143,191,299679,2,0,P|125:185|105:183,1,40,2|0,0:0|0:0,0:0:0:0:
105,183,300107,53,0,0:0:0:0:
165,115,300322,1,0,0:0:0:0:
248,108,300536,1,0,0:0:0:0:
308,152,300750,1,0,0:0:0:0:
326,201,300964,1,0,0:0:0:0:
322,234,301179,1,0,0:0:0:0:
314,252,301393,54,0,B|276:248|233:279|254:365|336:350|350:304|350:304|316:114|316:114|341:171|384:177,1,479.999985351563,2|0,0:3|0:0,0:0:0:0:
