osu file format v14

[General]
AudioFilename: Wa.mp3
AudioLeadIn: 0
PreviewTime: -1
Countdown: 1
SampleSet: Soft
StackLeniency: 0.7
Mode: 0
LetterboxInBreaks: 1
WidescreenStoryboard: 0

[Editor]
Bookmarks: 14102,26655,54953,68570,81761,94953,123038,136655,149208,177506,191123,204314,217506,244527,272825,287506
DistanceSpacing: 1
BeatDivisor: 4
GridSize: 8
TimelineZoom: 1

[Metadata]
Title:Fa Cai Fa Fu Zhong Guo Nian
TitleUnicode:发财发福中国年
Artist:Chinese Baby
ArtistUnicode:中国娃娃
Creator:lkx_Shore
Version:Collab
Source:喔!喔!喔-大信唱片
Tags:Hordon Regraz
BeatmapID:649111
BeatmapSetID:287736

[Difficulty]
HPDrainRate:7
CircleSize:4
OverallDifficulty:7.2
ApproachRate:8.4
SliderMultiplier:1.79999990463257
SliderTickRate:1

[Events]
//Background and Video events
//Break Periods
2,12599,27029
2,68663,94263
//Storyboard Layer 0 (Background)
//Storyboard Layer 1 (Fail)
//Storyboard Layer 2 (Pass)
//Storyboard Layer 3 (Foreground)
//Storyboard Sound Samples

[TimingPoints]
485,425.531914893617,4,2,0,60,1,0
7719,-100,4,2,0,45,0,0
8144,-100,4,2,0,30,0,0
8570,-100,4,2,0,20,0,0
10272,-100,4,2,0,10,0,0
10697,-100,4,2,0,20,0,0
11123,-100,4,2,0,30,0,0
11974,-100,4,2,0,45,0,0
12399,-100,4,2,0,60,0,0
27719,-100,4,2,0,60,0,1
27825,-100,4,2,0,60,0,0
41336,-100,4,2,0,60,0,1
41442,-100,4,2,0,60,0,0
54953,-100,4,2,0,80,0,0
56867,-200,4,2,0,60,0,0
58357,-100,4,2,0,60,0,0
60272,-200,4,2,0,60,0,0
61761,-100,4,2,0,80,0,0
61974,-100,4,2,0,60,0,0
63038,-100,4,2,0,60,0,0
63676,-200,4,2,0,60,0,0
65165,-100,4,2,0,60,0,0
68463,-100,4,2,0,5,0,0
68570,-100,4,2,0,60,0,1
68676,-100,4,2,0,60,0,0
82187,-100,4,2,0,60,0,1
82293,-100,4,2,0,60,0,0
94953,-200,4,2,0,60,0,0
95804,-100,4,2,0,60,0,1
109314,-100,4,2,0,60,0,0
109421,-100,4,2,0,60,0,1
123038,-100,4,2,0,60,0,0
150272,-100,4,2,0,60,0,1
150378,-100,4,2,0,60,0,0
163889,-100,4,2,0,60,0,1
163995,-100,4,2,0,60,0,0
177506,-100,4,2,0,60,0,1
177612,-100,4,2,0,60,0,0
191123,-100,4,2,0,60,0,1
191229,-100,4,2,0,60,0,0
204740,-100,4,2,0,60,0,1
204846,-100,4,2,0,60,0,0
218357,-100,4,2,0,60,0,1
231867,-100,4,2,0,60,0,0
231974,-100,4,2,0,60,0,1
245591,-100,4,2,0,60,0,0
259208,-100,4,2,0,60,0,1
259314,-100,4,2,0,60,0,0
272825,-100,4,2,0,60,0,1
272931,-100,4,2,0,60,0,0

[HitObjects]
96,272,485,5,0,1:0:0:0:
424,288,804,2,0,L|296:248,1,134.999992847443,0|0,1:0|1:0,0:0:0:0:
86,286,1336,1,0,1:0:0:0:
424,304,1655,2,0,L|334:205,1,134.999992847443,0|0,1:0|1:0,0:0:0:0:
88,304,2187,5,0,1:0:0:0:
416,320,2506,2,0,L|387:189,1,134.999992847443,0|0,1:0|1:0,0:0:0:0:
96,320,3038,1,0,1:0:0:0:
136,304,3144,2,0,P|208:304|248:320,1,89.9999952316283,0|0,1:0|1:0,0:0:0:0:
32,264,3676,1,4,1:3:0:0:
344,312,3889,5,0,1:0:0:0:
344,312,4208,2,0,P|368:272|360:176,1,134.999992847443,0|0,1:0|1:0,0:0:0:0:
264,232,4740,1,0,1:0:0:0:
264,232,5059,2,0,P|240:192|248:96,1,134.999992847443,0|0,1:0|1:0,0:0:0:0:
344,152,5591,5,0,1:0:0:0:
344,152,5910,2,0,P|368:192|360:288,1,134.999992847443,0|0,1:0|1:0,0:0:0:0:
288,320,6442,2,0,L|224:336,1,44.9999976158142,0|0,1:0|1:0,0:0:0:0:
200,344,6655,1,2,0:0:0:0:
144,272,6867,1,0,0:0:0:0:
192,200,7080,1,2,0:0:0:0:
280,224,7293,5,4,0:0:0:0:
368,232,7719,1,4,0:0:0:0:
400,144,8144,1,4,0:0:0:0:
328,88,8570,1,4,0:0:0:0:
256,136,8995,1,4,0:0:0:0:
256,192,9102,12,4,10272,0:0:0:0:
65,238,10697,5,4,0:0:0:0:
96,280,11123,1,4,0:0:0:0:
184,304,11548,1,4,0:0:0:0:
304,264,11974,1,4,0:0:0:0:
376,96,12399,1,4,0:0:0:0:
55,308,27719,6,0,P|120:319|165:296,1,89.9999952316285
196,240,28144,1,0,0:0:0:0:
301,334,28357,1,0,0:0:0:0:
323,336,28463,1,0,0:0:0:0:
345,339,28569,1,0,0:0:0:0:
405,272,28782,1,0,0:0:0:0:
487,308,28995,2,0,P|492:248|471:208,1,89.9999952316285
405,94,29421,6,0,P|391:136|399:180,1,89.9999952316285
476,143,29846,1,0,0:0:0:0:
336,231,30059,1,0,0:0:0:0:
313,233,30165,1,0,0:0:0:0:
291,235,30271,1,0,0:0:0:0:
203,215,30484,2,0,P|135:209|97:236,2,89.9999952316285
168,310,31123,6,0,L|157:109,1,179.999990463257
290,54,31761,1,0,0:0:0:0:
281,191,31974,2,0,P|302:234|292:279,1,89.9999952316285
116,360,32399,2,0,P|94:316|104:271,1,89.9999952316285
284,270,32825,5,0,0:0:0:0:
76,207,33038,1,0,0:0:0:0:
244,342,33250,1,0,0:0:0:0:
143,171,33463,1,0,0:0:0:0:
352,221,33676,2,0,L|394:224,4,29.9999984105428
424,251,34102,1,0,0:0:0:0:
470,107,34314,1,0,0:0:0:0:
474,312,34527,6,0,P|412:304|367:330,1,89.9999952316285
186,287,34953,2,0,P|143:298|99:288,1,89.9999952316285
279,45,35378,2,0,L|272:147,1,89.9999952316285
302,165,35697,1,0,0:0:0:0:
302,165,35804,2,0,L|317:274,1,89.9999952316285
80,324,36229,6,0,P|147:338|200:333,1,89.9999952316285
153,161,36655,2,0,P|159:107|81:45,1,134.999992847443
69,60,37080,1,0,0:0:0:0:
259,102,37293,1,0,0:0:0:0:
44,106,37506,1,0,0:0:0:0:
243,59,37719,1,0,0:0:0:0:
166,239,37931,6,0,P|163:317|183:358,1,89.9999952316285
358,151,38357,2,0,P|361:73|341:32,1,89.9999952316285
328,298,38782,2,0,L|456:321,1,89.9999952316285
165,95,39208,2,0,L|37:118,1,89.9999952316285
51,285,39633,5,0,0:0:0:0:
83,254,39739,1,0,0:0:0:0:
126,243,39845,1,0,0:0:0:0:
170,254,39952,1,0,0:0:0:0:
209,284,40059,1,0,0:0:0:0:
249,319,40165,1,0,0:0:0:0:
300,334,40271,1,0,0:0:0:0:
353,327,40378,1,0,0:0:0:0:
399,299,40484,5,0,0:0:0:0:
395,107,40697,1,0,0:0:0:0:
478,323,40910,1,0,0:0:0:0:
340,167,41123,1,0,0:0:0:0:
473,128,41336,6,0,P|467:71|436:39,1,89.9999952316285
225,99,41761,2,0,L|369:82,1,134.999992847443
395,108,42187,1,0,0:0:0:0:
231,260,42399,2,0,P|172:273|107:262,1,89.9999952316285
70,167,42825,1,0,0:0:0:0:
331,67,43038,6,0,L|335:185,1,89.9999952316285
295,310,43463,1,0,0:0:0:0:
94,262,43676,1,0,0:0:0:0:
136,250,43782,1,0,0:0:0:0:
179,262,43888,1,0,0:0:0:0:
385,313,44102,2,0,P|340:315|295:309,1,89.9999952316285
486,287,44527,1,0,0:0:0:0:
419,215,44740,6,0,P|422:155|451:118,1,89.9999952316285
419,215,45165,2,0,P|320:158|269:175,1,134.999992847443
271,187,45591,1,0,0:0:0:0:
123,293,45804,1,0,0:0:0:0:
198,155,46016,1,0,0:0:0:0:
190,338,46229,1,0,0:0:0:0:
73,234,46442,6,0,P|47:281|57:328,1,89.9999952316285
236,216,46867,2,0,L|241:117,1,89.9999952316285
283,324,47293,2,0,L|323:327,4,29.9999984105428
245,335,47719,1,0,0:0:0:0:
333,192,47931,1,0,0:0:0:0:
143,273,48144,6,0,P|84:290|31:284,1,89.9999952316285
211,84,48570,2,0,L|210:203,1,89.9999952316285
365,271,48995,2,0,P|424:288|477:282,1,89.9999952316285
297,82,49421,2,0,L|298:201,1,89.9999952316285
178,299,49846,6,0,P|94:241|40:264,1,134.999992847443
37,274,50272,1,0,0:0:0:0:
237,358,50484,1,0,0:0:0:0:
428,308,50697,2,0,P|441:249|438:212,1,89.9999952316285
290,82,51123,2,0,L|200:89,1,89.9999952316285
146,232,51548,5,0,0:0:0:0:
102,133,51761,1,0,0:0:0:0:
201,90,51974,1,0,0:0:0:0:
244,188,52187,1,0,0:0:0:0:
401,310,52399,1,0,0:0:0:0:
445,211,52612,1,0,0:0:0:0:
346,168,52825,1,0,0:0:0:0:
303,266,53038,1,0,0:0:0:0:
77,197,53250,5,0,0:0:0:0:
118,181,53356,1,0,0:0:0:0:
161,191,53462,1,0,0:0:0:0:
191,224,53569,1,0,0:0:0:0:
196,268,53676,2,0,L|195:332,3,44.9999976158143
237,339,54102,1,0,0:0:0:0:
279,354,54208,1,0,0:0:0:0:
323,352,54314,5,0,0:0:0:0:
364,333,54421,1,0,0:0:0:0:
395,304,54527,5,0,0:0:0:0:
80,288,54740,1,0,0:0:0:0:
80,288,54846,1,0,0:0:0:0:
80,288,54953,6,0,L|128:272,1,44.9999976158143,4|0,1:2|0:0,0:0:0:0:
272,256,55165,2,0,L|248:304,1,44.9999976158143,2|0,0:0|0:0,0:0:0:0:
160,344,55378,1,2,0:0:0:0:
56,120,55591,1,2,0:0:0:0:
72,128,55662,1,0,0:0:0:0:
88,136,55733,1,0,0:0:0:0:
104,144,55804,1,0,0:0:0:0:
192,128,56016,1,2,0:0:0:0:
304,56,56229,1,0,0:0:0:0:
328,144,56442,1,2,0:0:0:0:
192,128,56655,5,0,0:0:0:0:
192,128,56867,2,0,L|216:40,2,89.9999952316285,2|2|2,0:0|0:0|0:0,0:0:0:0:
136,336,58144,5,2,0:0:0:0:
224,320,58357,2,0,B|287:301|336:338|336:338|304:347,1,134.999992847443
208,224,58995,1,2,0:0:0:0:
224,232,59066,1,0,0:0:0:0:
240,240,59137,1,0,0:0:0:0:
256,248,59208,1,0,0:0:0:0:
192,312,59421,1,2,0:0:0:0:
32,280,59633,1,0,0:0:0:0:
96,344,59846,1,2,0:0:0:0:
288,352,60059,5,0,0:0:0:0:
288,352,60272,2,0,L|384:344,1,89.9999952316285,2|2,0:0|0:0,0:0:0:0:
448,248,61123,2,0,L|352:240,1,89.9999952316285,2|2,0:0|0:0,0:0:0:0:
64,40,61761,2,0,L|112:48,1,44.9999976158143,4|0,1:2|0:0,0:0:0:0:
248,88,61974,2,0,L|200:104,1,44.9999976158143
112,136,62187,1,2,0:0:0:0:
368,168,62399,1,2,0:0:0:0:
352,160,62470,1,0,0:0:0:0:
332,156,62541,1,0,0:0:0:0:
312,156,62612,1,0,0:0:0:0:
240,208,62825,1,2,0:0:0:0:
64,216,63038,2,0,P|108:213|152:232,1,89.9999952316285,0|2,0:0|0:0,0:0:0:0:
312,272,63463,5,0,0:0:0:0:
312,272,63676,2,0,L|296:360,2,89.9999952316285,2|2|2,0:0|0:0|0:0,0:0:0:0:
448,88,64953,1,2,0:0:0:0:
360,120,65165,6,0,B|304:112|280:64|280:64|328:56,1,134.999992847443,0|2,0:0|0:0,0:0:0:0:
440,224,65804,1,2,0:0:0:0:
420,224,65875,1,0,0:0:0:0:
400,232,65945,1,0,0:0:0:0:
388,248,66016,1,0,0:0:0:0:
376,336,66229,1,2,0:0:0:0:
232,240,66442,1,0,0:0:0:0:
280,328,66655,1,2,0:0:0:0:
104,320,66867,5,0,0:0:0:0:
192,368,67080,1,2,0:0:0:0:
256,192,67187,12,0,68463,0:0:0:0:
208,304,94953,6,0,P|160:288|112:296,1,89.9999952316285,2|0,0:0|0:0,0:0:0:0:
121,292,95804,6,0,P|160:240|160:160,1,134.999992847443,4|0,1:2|1:0,0:0:0:0:
144,136,96229,1,8,1:0:0:0:
64,96,96442,1,0,1:0:0:0:
88,232,96655,2,0,P|128:248|192:248,1,89.9999952316285,2|0,1:2|0:0,0:0:0:0:
344,192,97080,2,0,P|304:176|240:176,1,89.9999952316285,8|0,1:0|0:0,0:0:0:0:
288,304,97506,6,0,P|368:328|440:312,1,134.999992847443,4|0,1:2|1:0,0:0:0:0:
456,296,97931,1,8,1:0:0:0:
480,208,98144,1,0,1:0:0:0:
312,40,98357,2,0,P|296:88|296:128,1,89.9999952316285,2|0,1:2|0:0,0:0:0:0:
400,232,98782,2,0,P|416:184|416:144,1,89.9999952316285,8|0,1:0|1:0,0:0:0:0:
128,200,99208,6,0,P|176:216|216:216,1,89.9999952316285,2|0,1:2|0:0,0:0:0:0:
344,80,99633,2,0,P|296:64|256:64,1,89.9999952316285,8|0,1:0|1:0,0:0:0:0:
72,272,100059,2,0,P|136:272|200:248,1,89.9999952316285,2|0,1:2|0:0,0:0:0:0:
224,352,100485,2,0,P|269:306|297:244,1,89.9999952316285,8|0,1:0|1:0,0:0:0:0:
376,320,100910,6,0,L|424:192,1,134.999992847443,4|0,1:2|1:0,0:0:0:0:
440,152,101336,1,8,1:0:0:0:
496,240,101548,1,0,1:0:0:0:
312,248,101761,2,0,L|216:256,1,89.9999952316285,2|0,1:2|0:0,0:0:0:0:
48,192,102187,2,0,L|137:184,1,89.9999952316285,8|0,1:0|1:0,0:0:0:0:
137,184,102612,6,0,P|184:232|184:296,1,134.999992847443,4|0,1:2|1:0,0:0:0:0:
168,336,103038,1,8,1:0:0:0:
88,368,103250,1,0,1:0:0:0:
208,248,103463,2,0,P|256:248|304:272,1,89.9999952316285,2|0,1:2|0:0,0:0:0:0:
440,360,103889,2,0,P|392:360|344:336,1,89.9999952316285,8|0,1:0|1:0,0:0:0:0:
488,208,104314,6,0,P|504:272|472:336,1,134.999992847443,4|0,1:2|1:0,0:0:0:0:
440,360,104740,1,8,1:0:0:0:
352,360,104953,1,0,1:0:0:0:
352,360,105165,2,0,L|320:272,1,89.9999952316285,2|0,1:2|0:0,0:0:0:0:
192,208,105591,2,0,L|222:292,1,89.9999952316285,2|0,1:2|1:0,0:0:0:0:
432,232,106016,6,0,P|432:184|408:144,1,89.9999952316285,4|0,1:2|0:0,0:0:0:0:
240,80,106442,2,0,P|240:128|264:168,1,89.9999952316285,8|0,1:0|1:0,0:0:0:0:
472,184,106867,2,0,P|459:137|426:105,1,89.9999952316285,2|0,1:2|0:0,0:0:0:0:
320,200,107293,2,0,L|232:216,1,89.9999952316285,8|0,1:0|1:0,0:0:0:0:
64,248,107719,5,4,1:2:0:0:
136,304,107931,1,0,1:0:0:0:
172,332,108038,1,0,1:0:0:0:
216,332,108144,1,0,1:0:0:0:
256,312,108250,1,0,1:0:0:0:
280,272,108357,1,0,1:0:0:0:
324,260,108463,1,0,1:0:0:0:
368,264,108570,1,0,1:0:0:0:
404,288,108676,1,0,1:0:0:0:
424,328,108782,1,0,1:0:0:0:
396,364,108889,1,0,1:0:0:0:
352,372,108995,1,0,1:0:0:0:
352,372,109208,5,0,1:0:0:0:
368,312,109314,1,0,1:0:0:0:
384,256,109421,1,4,1:2:0:0:
328,72,109633,1,2,1:2:0:0:
328,72,109740,1,0,0:0:0:0:
328,72,109846,1,8,1:0:0:0:
352,160,110059,1,2,1:2:0:0:
296,232,110272,2,0,P|240:248|192:240,1,89.9999952316285,0|2,1:0|1:2,0:0:0:0:
136,200,110697,2,0,L|96:112,1,89.9999952316285,8|2,1:0|1:2,0:0:0:0:
56,256,111123,5,4,1:2:0:0:
120,320,111336,1,2,1:2:0:0:
160,304,111442,1,0,0:0:0:0:
200,288,111548,1,8,1:0:0:0:
272,344,111761,1,2,1:2:0:0:
360,344,111974,2,0,P|408:336|448:312,1,89.9999952316285,2|0,1:2|0:0,0:0:0:0:
400,192,112399,2,0,P|352:200|312:224,1,89.9999952316285,2|0,1:2|1:0,0:0:0:0:
