osu file format v14

[General]
AudioFilename: emeraldwaters.mp3
AudioLeadIn: 0
PreviewTime: 44688
Countdown: 0
SampleSet: Normal
StackLeniency: 0.7
Mode: 0
LetterboxInBreaks: 0
WidescreenStoryboard: 0

[Editor]
DistanceSpacing: 1
BeatDivisor: 4
GridSize: 32
TimelineZoom: 1.8

[Metadata]
Title:Emerald Waters (Zazu Remix)
TitleUnicode:Emerald Waters (Zazu Remix)
Artist:Chinensis
ArtistUnicode:Chinensis
Creator:TTL
Version:Normal
Source:
Tags:
BeatmapID:1752282
BeatmapSetID:836677

[Difficulty]
HPDrainRate:4
CircleSize:3
OverallDifficulty:4
ApproachRate:4
SliderMultiplier:0.999999999999999
SliderTickRate:1

[Events]
//Background and Video events
0,0,"normalbg.jpg",0,0
//Break Periods
//Storyboard Layer 0 (Background)
//Storyboard Layer 1 (Fail)
//Storyboard Layer 2 (Pass)
//Storyboard Layer 3 (Foreground)
//Storyboard Sound Samples

[TimingPoints]
218,352.941176470588,4,2,0,100,1,0
25576,-100,4,2,0,100,0,0
45341,-100,4,2,0,20,0,0
62282,-100,4,2,0,20,0,0
62988,-100,4,2,0,20,0,0
79047,-100,4,2,0,20,0,0
81517,-100,4,1,0,49,0,0
86282,-100,4,1,0,72,0,0
87694,-100,4,1,0,100,0,0
89106,-100,4,1,0,7,0,0
90517,-100,4,1,0,20,0,0

[Colours]
Combo1 : 166,255,255
Combo2 : 0,128,128
Combo3 : 128,0,0

[HitObjects]
445,86,45394,6,0,P|377:109|286:118,1,150
199,115,46453,1,0,0:0:0:0:
122,178,46806,6,0,P|210:216|264:190,1,150
355,192,47865,1,0,0:0:0:0:
360,291,48217,6,0,P|295:279|254:210,1,150
291,65,49276,1,0,0:0:0:0:
194,92,49629,6,0,P|141:115|135:119,1,50
106,82,49982,2,0,L|74:127,1,50
27,114,50335,2,0,P|35:173|67:208,1,99.9999999999999
150,246,51041,6,0,P|221:235|254:202,1,99.9999999999999
304,140,51747,2,0,P|233:129|200:96,1,99.9999999999999
170,75,52276,1,0,0:0:0:0:
113,214,52806,2,0,P|165:231|327:222,1,200
319,127,53865,5,0,0:0:0:0:
175,89,54394,2,0,P|126:96|81:198,1,150
89,275,55276,1,0,0:0:0:0:
214,192,55806,2,0,P|295:152|355:136,1,150
402,135,56512,5,0,0:0:0:0:
402,135,56688,2,0,L|396:197,1,50
392,234,57041,1,0,0:0:0:0:
357,269,57217,6,0,P|292:283|246:278,1,99.9999999999999
160,262,57923,1,0,0:0:0:0:
182,164,58276,1,0,0:0:0:0:
281,155,58629,2,0,P|350:167|348:255,1,150
327,331,59512,6,0,P|266:305|208:246,1,150
149,108,60570,1,0,0:0:0:0:
248,115,60923,5,0,0:0:0:0:
248,115,61100,2,0,P|307:158|326:237,1,150
238,276,61982,1,0,0:0:0:0:
145,313,62335,6,0,P|138:274|220:226,1,150
265,248,63041,2,0,P|226:278|174:206,1,150
258,94,64100,1,0,0:0:0:0:
426,202,64806,5,0,0:0:0:0:
331,234,65159,2,0,P|321:181|390:109,1,150
229,96,66217,1,0,0:0:0:0:
130,111,66570,2,0,P|116:186|121:264,1,150
250,333,67629,1,0,0:0:0:0:
349,330,67982,6,0,L|345:273,1,50
341,179,68512,1,0,0:0:0:0:
272,105,68865,1,0,0:0:0:0:
241,199,69217,1,0,0:0:0:0:
172,126,69570,1,0,0:0:0:0:
139,220,69923,2,0,P|183:285|250:307,1,150
348,307,70806,5,0,0:0:0:0:
336,157,71335,1,0,0:0:0:0:
225,55,71865,1,0,0:0:0:0:
225,55,72217,5,0,0:0:0:0:
132,172,72746,1,0,0:0:0:0:
277,204,73276,1,0,0:0:0:0:
376,208,73629,6,0,P|365:167|313:115,1,99.9999999999999
232,155,74335,2,0,P|241:216|271:261,1,99.9999999999999
288,290,74865,1,0,0:0:0:0:
328,319,75041,2,0,P|345:278|338:214,1,99.9999999999999
299,27,76100,6,0,L|248:49,1,50
206,65,76453,1,0,0:0:0:0:
68,124,76982,1,0,0:0:0:0:
187,215,77512,1,0,0:0:0:0:
286,204,77865,5,0,0:0:0:0:
411,122,78394,1,0,0:0:0:0:
423,271,78923,1,0,0:0:0:0:
423,271,79100,6,0,L|372:287,1,50
280,316,79629,1,0,0:0:0:0:
280,316,79806,2,0,L|251:208,1,99.9999999999999
228,122,80512,2,0,L|115:148,1,99.9999999999999
33,168,81217,1,0,0:0:0:0:
147,282,81747,5,8,0:0:0:0:
247,283,82100,2,0,L|195:196,1,99.9999999999999,2|8,0:0|0:0,0:0:0:0:
293,175,82806,2,0,L|241:88,1,99.9999999999999,4|8,0:0|0:0,0:0:0:0:
144,111,83512,2,0,L|196:198,1,99.9999999999999,2|8,0:0|0:0,0:0:0:0:
98,219,84218,2,0,L|150:306,1,99.9999999999999,4|8,0:0|0:0,0:0:0:0:
249,301,84923,6,0,L|338:241,1,99.9999999999999,8|8,0:0|0:0,0:0:0:0:
274,162,85629,2,8,L|209:78,1,99.9999999999999
122,126,86335,2,8,L|34:181,1,99.9999999999999
82,268,87041,1,8,0:0:0:0:
82,268,87394,1,8,0:0:0:0:
149,342,87747,5,8,0:0:0:0:
149,342,87923,1,6,0:0:0:0:
149,342,88100,2,0,L|201:299,1,50,8|6,0:0|0:0,0:0:0:0:
227,279,88453,2,0,L|236:343,2,50,8|6|12,0:0|0:0|0:0,0:0:0:0:
221,229,88982,1,6,0:0:0:0:
215,179,89159,2,0,B|208:112|208:112|295:98,2,150
227,279,90570,5,14,0:0:0:0:
