osu file format v14

[General]
AudioFilename: audio.mp3
AudioLeadIn: 0
PreviewTime: 47184
Countdown: 0
SampleSet: Normal
StackLeniency: 0.7
Mode: 0
LetterboxInBreaks: 0
WidescreenStoryboard: 0

[Editor]
Bookmarks: 58199,82105,82691
DistanceSpacing: 1.2
BeatDivisor: 8
GridSize: 8
TimelineZoom: 2.200001

[Metadata]
Title:wa! Moon! dass! cry! (TV size)
TitleUnicode:wa! Moon! dass! cry! (TV size)
Artist:Chinatsu Akasaki, Aki Toyosaki, Haruka Tomatsu
ArtistUnicode:Chinatsu Akasaki, Aki Toyosaki, Haruka Tomatsu
Creator:Eqeminiv
Version:nie! Wiem! co! robie!
Source:
Tags:
BeatmapID:2169365
BeatmapSetID:1037672

[Difficulty]
HPDrainRate:6
CircleSize:4.5
OverallDifficulty:6
ApproachRate:9.1
SliderMultiplier:2.1
SliderTickRate:1

[Events]
//Background and Video events
//Break Periods
//Storyboard Layer 0 (Background)
//Storyboard Layer 1 (Fail)
//Storyboard Layer 2 (Pass)
//Storyboard Layer 3 (Foreground)
//Storyboard Layer 4 (Overlay)
//Storyboard Sound Samples

[TimingPoints]
309,468.75,4,1,0,100,1,0
9684,-125,4,1,0,100,0,0
11559,-83.3333333333333,4,1,0,100,0,0
13434,-125,4,1,0,100,0,0
15309,-83.3333333333333,4,1,0,100,0,0
16949,-100,4,1,0,100,0,0
18824,-125,4,1,0,100,0,0
20934,-100,4,1,0,100,0,0
21871,-125,4,1,0,100,0,0
22340,-83.3333333333333,4,1,0,100,0,0
23043,-66.6666666666667,4,1,0,100,0,0
24684,-86.9565217391304,4,1,0,100,0,0
25152,-76.9230769230769,4,1,0,100,0,0
26559,-125,4,1,0,100,0,0
28199,-500,4,1,0,100,0,0
28434,-83.3333333333333,4,1,0,100,0,0
29137,-100,4,1,0,100,0,0
30074,-55.5555555555556,4,1,0,100,0,0
30777,-66.6666666666667,4,1,0,100,0,0
32184,-86.9565217391304,4,1,0,100,0,0
32652,-76.9230769230769,4,1,0,100,0,0
34059,-100,4,1,0,100,0,0
34996,-125,4,1,0,100,0,0
35699,-100,4,1,0,100,0,0
36637,-71.4285714285714,4,1,0,100,0,0
37809,-133.333333333333,4,1,0,100,0,0
47184,-66.6666666666667,4,1,0,100,0,0
49059,-100,4,1,0,100,0,0
50934,-66.6666666666667,4,1,0,100,0,0
53980,-76.9230769230769,4,1,0,100,0,0
54215,-133.333333333333,4,1,0,100,0,0
56324,-100,4,1,0,100,0,0
58434,-66.6666666666667,4,1,0,100,0,0
61480,-100,4,1,0,100,0,0
65934,-83.3333333333333,4,1,0,100,0,0
66880,-125,4,1,0,100,0,0
67809,-100,4,1,0,100,0,0
68746,-83.3333333333333,4,1,0,100,0,0
69684,-125,4,1,0,100,0,0
70621,-100,4,1,0,100,0,0
71559,-66.6666666666667,4,1,0,100,0,0
76485,-83.3333333333333,4,1,0,100,0,0
77418,-100,4,1,0,100,0,0
77887,-125,4,1,0,100,0,0
78355,-83.3333333333333,4,1,0,100,0,0
78824,-66.6666666666667,4,1,0,100,0,0
82105,-125,4,1,0,100,0,0
82809,-66.6666666666667,4,1,0,100,0,0
83980,-100,4,1,0,100,0,0
84918,-125,4,1,0,100,0,0
85387,-66.6666666666667,4,1,0,100,0,0

[HitObjects]
125,274,309,6,0,P|152:228|201:204,3,105
196,204,1481,5,0,0:0:0:0:
412,86,1715,6,0,L|352:21,1,52.5
317,153,1950,2,0,L|234:144,1,52.5
195,55,2184,2,0,P|120:86|93:150,3,105
165,133,3356,5,0,0:0:0:0:
288,280,3590,5,0,0:0:0:0:
288,280,3708,1,0,0:0:0:0:
363,271,3825,2,0,P|390:252|410:224,1,52.5
423,203,4059,2,0,P|443:140|421:96,3,105
429,106,5231,5,0,0:0:0:0:
414,210,5465,6,0,L|389:275,1,52.5
286,197,5700,2,0,L|218:210,1,52.5
278,329,5934,2,0,P|204:314|178:265,3,105
212,81,7106,6,0,L|229:121,1,26.25
242,212,7575,5,0,0:0:0:0:
45,152,7809,5,0,0:0:0:0:
57,183,7926,1,0,0:0:0:0:
77,221,8044,2,0,L|134:192,1,52.5
19,259,8278,2,0,P|61:292|127:269,1,105
223,85,8747,2,0,L|213:111,1,26.25
225,220,8981,1,0,0:0:0:0:
354,88,9215,2,0,P|400:170|394:189,1,105
386,287,9684,5,0,0:0:0:0:
353,293,9801,2,0,L|255:307,1,84
147,253,10153,1,0,0:0:0:0:
158,228,10270,1,0,0:0:0:0:
199,146,10387,2,0,L|247:138,1,42
392,119,10621,2,0,P|425:160|452:225,1,84
454,224,10973,1,0,0:0:0:0:
454,224,11090,2,0,P|429:182|421:115,1,84
245,106,11559,5,0,0:0:0:0:
263,42,11676,1,0,0:0:0:0:
201,54,11793,2,0,L|115:74,1,62.9999980773926
104,170,12144,1,0,0:0:0:0:
265,160,12379,1,0,0:0:0:0:
265,160,12496,2,0,L|288:223,1,62.9999980773926
269,306,12730,2,0,L|183:337,1,62.9999980773926
90,269,12965,2,0,L|215:229,1,125.999996154785
218,122,13434,5,0,0:0:0:0:
257,129,13551,1,0,0:0:0:0:
297,139,13668,1,0,0:0:0:0:
333,149,13785,2,0,L|239:202,1,84
212,216,14137,1,0,0:0:0:0:
252,226,14254,1,0,0:0:0:0:
353,252,14371,6,0,L|398:241,1,42
432,225,14605,1,0,0:0:0:0:
439,181,14723,1,0,0:0:0:0:
446,141,14840,2,0,L|395:108,1,42
328,154,15074,2,0,P|301:151|269:127,1,42
214,257,15309,6,0,P|192:205|128:180,1,125.999996154785
55,57,15660,2,0,L|95:124,1,62.9999980773926
198,43,15894,2,0,L|357:34,1,125.999996154785
322,199,16246,6,0,P|281:202|216:180,1,62.9999980773926
339,90,16598,1,0,0:0:0:0:
368,93,16715,2,0,P|419:122|443:191,1,125.999996154785
244,178,17184,6,0,L|163:167,1,52.5
120,239,17418,2,0,L|184:249,1,52.5
260,266,17652,1,0,0:0:0:0:
278,307,17769,1,0,0:0:0:0:
298,354,17887,2,0,L|345:324,1,52.5
414,241,18121,1,0,0:0:0:0:
415,198,18238,1,0,0:0:0:0:
326,76,18473,1,0,0:0:0:0:
285,87,18590,2,0,P|221:74|186:25,1,105
158,253,19059,6,0,L|218:232,1,42
332,262,19293,2,0,L|273:283,1,42
255,290,19527,1,0,0:0:0:0:
215,304,19644,1,0,0:0:0:0:
159,211,19879,1,0,0:0:0:0:
256,169,19996,2,0,L|317:147,1,42
192,125,20230,2,0,L|269:98,1,42
137,81,20465,1,0,0:0:0:0:
384,65,20699,1,0,0:0:0:0:
419,175,20934,6,0,L|416:275,1,52.5
351,139,21168,2,0,L|348:239,1,52.5
275,123,21402,2,0,L|160:115,1,105
75,275,21871,1,0,0:0:0:0:
97,224,21988,1,0,0:0:0:0:
112,264,22105,1,0,0:0:0:0:
73,243,22223,1,0,0:0:0:0:
55,169,22340,5,0,0:0:0:0:
61,39,22574,2,0,L|190:49,1,125.999996154785
331,89,23043,5,0,0:0:0:0:
331,89,23277,2,0,P|339:172|338:253,1,157.500006008148
136,264,23746,2,0,P|237:258|303:260,1,157.500006008148
125,55,24215,2,0,P|128:145|125:224,1,157.500006008148
372,52,24684,2,0,P|228:48|201:50,1,120.750002303124
319,138,25152,2,0,P|254:151|192:207,1,136.499993751526
365,213,25621,2,0,P|327:272|344:364,2,136.499993751526
442,300,26324,1,0,0:0:0:0:
303,138,26559,5,0,0:0:0:0:
264,142,26676,2,0,L|219:149,1,42
219,225,26910,1,0,0:0:0:0:
179,226,27027,1,0,0:0:0:0:
141,231,27144,2,0,L|90:238,1,42
63,147,27379,1,0,0:0:0:0:
79,109,27496,1,0,0:0:0:0:
95,75,27613,1,0,0:0:0:0:
112,40,27730,2,0,P|166:29|207:29,1,84
441,170,28199,6,0,L|424:178,1,10.5
344,263,28434,5,0,0:0:0:0:
299,268,28551,1,0,0:0:0:0:
279,190,28668,2,0,P|301:138|282:65,1,125.999996154785
432,63,29137,5,0,0:0:0:0:
392,66,29254,1,0,0:0:0:0:
354,77,29371,1,0,0:0:0:0:
323,92,29488,1,0,0:0:0:0:
236,42,29605,5,0,0:0:0:0:
202,72,29840,1,0,0:0:0:0:
290,335,30074,6,0,P|193:330|96:306,1,188.999994232178
22,97,30543,1,0,0:0:0:0:
80,149,30777,6,0,L|208:259,1,157.500006008148
270,141,31246,2,0,L|139:31,1,157.500006008148
163,164,31715,2,0,L|46:288,1,157.500006008148
252,204,32184,2,0,L|370:84,1,120.750002303124
330,264,32652,2,0,P|244:322|169:306,1,136.499993751526
198,107,33121,2,0,L|76:229,2,136.499993751526
344,175,33824,1,0,0:0:0:0:
89,248,34059,5,0,0:0:0:0:
114,210,34176,1,0,0:0:0:0:
144,171,34293,1,0,0:0:0:0:
171,129,34410,1,0,0:0:0:0:
219,54,34527,5,0,0:0:0:0:
255,81,34644,1,0,0:0:0:0:
291,108,34761,1,0,0:0:0:0:
325,133,34878,1,0,0:0:0:0:
394,194,34996,5,0,0:0:0:0:
345,224,35113,1,0,0:0:0:0:
386,267,35230,1,0,0:0:0:0:
344,307,35348,1,0,0:0:0:0:
370,362,35465,1,0,0:0:0:0:
50,97,35699,6,0,P|47:130|61:168,1,52.5
63,296,35934,2,0,L|130:282,1,52.5
257,189,36168,2,0,L|228:83,1,105
61,120,36637,6,0,L|116:102,1,36.749998878479
87,155,36754,2,0,L|142:137,1,36.749998878479
126,190,36871,2,0,L|181:172,1,36.749998878479
161,217,36988,2,0,L|216:199,1,36.749998878479
202,231,37105,2,0,L|257:213,1,36.749998878479
241,241,37222,2,0,L|296:223,1,36.749998878479
291,255,37340,2,0,P|319:140|170:105,1,293.999991027832
94,194,38277,5,0,0:0:0:0:
281,266,38746,1,0,0:0:0:0:
460,136,39098,1,0,0:0:0:0:
87,188,39449,1,0,0:0:0:0:
256,64,39684,1,0,0:0:0:0:
426,160,40152,1,0,0:0:0:0:
112,291,40621,5,0,0:0:0:0:
261,120,40973,1,0,0:0:0:0:
379,289,41324,1,0,0:0:0:0:
395,57,41559,2,0,L|393:169,1,78.7500030040742
440,197,42027,5,0,0:0:0:0:
216,308,42496,1,0,0:0:0:0:
73,194,42848,1,0,0:0:0:0:
435,186,43199,1,0,0:0:0:0:
262,60,43434,1,0,0:0:0:0:
88,173,43902,1,0,0:0:0:0:
263,192,44137,1,0,0:0:0:0:
403,79,44371,1,0,0:0:0:0:
423,265,44723,1,0,0:0:0:0:
271,302,45074,1,0,0:0:0:0:
271,302,45309,2,0,L|175:294,1,78.7500030040742
106,117,45777,5,0,0:0:0:0:
121,43,45894,2,0,B|159:29|195:31,1,39.3750015020371
217,78,46129,1,0,0:0:0:0:
252,75,46246,1,0,0:0:0:0:
292,86,46363,1,0,0:0:0:0:
327,104,46480,1,0,0:0:0:0:
355,128,46598,1,0,0:0:0:0:
380,154,46715,2,0,P|409:202|412:231,1,78.7500030040742
306,280,47184,6,0,L|213:270,1,78.7500030040742
245,140,47535,1,0,0:0:0:0:
186,128,47652,1,0,0:0:0:0:
132,102,47769,1,0,0:0:0:0:
76,72,47887,1,0,0:0:0:0:
35,26,48004,1,0,0:0:0:0:
32,75,48121,6,0,L|37:129,1,39.3750015020371
54,283,48355,1,0,0:0:0:0:
38,155,48590,1,0,0:0:0:0:
59,343,48824,1,0,0:0:0:0:
394,69,49059,6,0,L|419:108,1,26.25
346,278,49527,2,0,L|306:280,1,26.25
142,103,49762,2,0,L|173:132,1,26.25
128,287,49996,2,0,L|115:351,2,52.5
76,70,50465,2,0,L|201:75,1,105
215,291,50934,6,0,L|272:211,1,78.7500030040742
361,75,51168,1,0,0:0:0:0:
435,312,51402,1,0,0:0:0:0:
160,191,51637,2,0,P|152:122|194:45,1,157.500006008148
406,204,52105,6,0,L|491:200,1,78.7500030040742
192,120,52340,1,0,0:0:0:0:
468,39,52574,1,0,0:0:0:0:
176,37,52809,6,0,P|123:52|105:84,1,78.7500030040742
25,259,53043,1,0,0:0:0:0:
312,149,53277,1,0,0:0:0:0:
280,351,53512,2,0,P|215:325|156:236,1,157.500006008148
64,284,53980,6,0,L|78:202,1,68.2499968757631
247,175,54215,2,0,L|237:235,1,39.3750015020371
431,188,54449,2,0,L|421:248,1,39.3750015020371
431,188,54684,6,0,P|484:165|540:165,1,78.7500030040742
277,351,55152,1,0,0:0:0:0:
431,188,55387,2,0,L|427:135,1,39.3750015020371
431,188,55621,6,0,P|388:216|340:225,1,78.7500030040742
244,85,56090,1,0,0:0:0:0:
112,296,56324,6,0,P|54:301|25:295,1,52.5
67,121,56559,1,0,0:0:0:0:
197,271,56793,1,0,0:0:0:0:
200,55,57027,2,0,B|259:46|319:59|318:59,1,105
379,270,57496,2,0,P|411:223|429:160,2,105
197,171,58199,1,0,0:0:0:0:
421,40,58434,6,0,P|444:95|447:173,1,78.7500030040742
439,275,58668,1,0,0:0:0:0:
273,71,58902,1,0,0:0:0:0:
179,297,59137,2,0,P|115:237|90:153,1,157.500006008148
314,133,59605,5,0,0:0:0:0:
341,166,59723,1,0,0:0:0:0:
286,173,59840,2,0,P|306:280|368:304,1,157.500006008148
114,324,60309,6,0,P|81:240|81:191,1,78.7500030040742
65,64,60543,1,0,0:0:0:0:
298,126,60777,1,0,0:0:0:0:
437,353,61012,2,0,P|479:280|489:178,1,157.500006008148
162,200,61480,6,0,P|198:192|259:191,1,52.5
155,52,61715,2,0,P|191:44|252:43,1,52.5
214,191,61949,2,0,P|302:181|356:186,1,105
452,60,62418,5,0,0:0:0:0:
439,246,62652,1,0,0:0:0:0:
288,50,62887,6,0,L|276:123,1,52.5
344,115,63121,2,0,L|325:243,1,105
305,308,63473,5,0,0:0:0:0:
305,308,63590,1,0,0:0:0:0:
79,158,63824,5,0,0:0:0:0:
186,76,64059,1,0,0:0:0:0:
226,65,64176,1,0,0:0:0:0:
267,61,64293,1,0,0:0:0:0:
315,68,64410,1,0,0:0:0:0:
362,90,64527,1,0,0:0:0:0:
398,125,64644,1,0,0:0:0:0:
407,169,64762,6,0,L|361:182,1,26.25
154,222,64996,1,0,0:0:0:0:
339,190,65231,1,0,0:0:0:0:
108,232,65465,1,0,0:0:0:0:
191,48,65699,5,0,0:0:0:0:
426,63,65934,6,0,L|501:75,1,62.9999980773926
417,335,66285,1,0,0:0:0:0:
417,335,66402,2,0,P|325:334|286:308,1,125.999996154785
70,73,66871,5,0,0:0:0:0:
99,81,66988,2,0,L|153:93,1,42
231,106,67223,1,0,0:0:0:0:
248,82,67340,1,0,0:0:0:0:
269,112,67457,1,0,0:0:0:0:
293,68,67574,2,0,P|326:56|343:57,1,42
448,101,67809,5,0,0:0:0:0:
437,137,67926,1,0,0:0:0:0:
419,173,68043,1,0,0:0:0:0:
392,207,68160,1,0,0:0:0:0:
357,237,68277,2,0,P|327:251|249:251,1,105
54,89,68746,6,0,L|72:161,1,62.9999980773926
247,288,68980,2,0,L|232:238,2,31.4999990386963
414,74,69215,1,0,0:0:0:0:
195,159,69449,1,0,0:0:0:0:
372,256,69684,5,0,0:0:0:0:
346,225,69801,1,0,0:0:0:0:
336,258,69918,1,0,0:0:0:0:
302,229,70035,1,0,0:0:0:0:
68,194,70269,1,0,0:0:0:0:
68,194,70387,2,0,P|45:155|56:125,1,42
234,60,70621,5,0,0:0:0:0:
226,103,70738,1,0,0:0:0:0:
227,141,70855,1,0,0:0:0:0:
237,182,70973,1,0,0:0:0:0:
249,213,71090,2,0,B|276:290|332:295,1,105
445,113,71559,5,0,0:0:0:0:
445,113,71676,1,0,0:0:0:0:
364,91,71793,2,0,L|270:68,1,78.7500030040742
111,28,72027,1,0,0:0:0:0:
197,339,72262,1,0,0:0:0:0:
256,192,72496,12,0,73199,0:0:0:0:
302,190,73434,6,0,L|176:201,1,78.7500030040742
14,219,73668,1,0,0:0:0:0:
141,12,73902,1,0,0:0:0:0:
178,308,74137,2,0,L|351:293,1,157.500006008148
398,65,74605,6,0,P|351:73|319:84,1,78.7500030040742
148,170,74840,1,0,0:0:0:0:
423,212,75074,1,0,0:0:0:0:
423,212,75191,1,0,0:0:0:0:
434,150,75309,6,0,L|323:111,1,78.7500030040742
139,23,75543,1,0,0:0:0:0:
117,268,75777,1,0,0:0:0:0:
423,212,76012,2,0,L|261:240,1,157.500006008148
259,102,76480,6,0,P|303:58|332:48,1,78.7500030040742
410,48,76715,2,0,P|395:98|411:149,1,62.9999980773926
420,240,76949,1,0,0:0:0:0:
246,279,77184,1,0,0:0:0:0:
83,173,77418,6,0,P|102:183|130:233,1,52.5
109,26,77652,1,0,0:0:0:0:
429,173,77887,6,0,P|410:183|383:228,1,42
403,26,78121,1,0,0:0:0:0:
249,60,78355,6,0,L|248:138,1,62.9999980773926
248,281,78590,1,0,0:0:0:0:
247,163,78824,6,0,L|408:129,1,157.500006008148
238,35,79293,1,0,0:0:0:0:
191,40,79410,1,0,0:0:0:0:
146,47,79527,1,0,0:0:0:0:
180,255,79762,1,0,0:0:0:0:
180,255,79996,2,0,L|341:228,2,157.500006008148
448,208,80699,5,0,0:0:0:0:
217,37,80934,6,0,P|199:114|242:150,1,78.7500030040742
289,309,81168,1,0,0:0:0:0:
436,142,81402,1,0,0:0:0:0:
147,183,81637,2,0,P|70:209|25:285,1,157.500006008148
255,331,82105,5,0,0:0:0:0:
255,331,82223,1,0,0:0:0:0:
361,318,82340,2,0,P|387:309|408:282,1,42
324,93,82574,2,0,P|283:117|264:117,1,42
23,46,82809,6,0,P|115:77|128:112,1,78.7500030040742
232,210,83043,1,0,0:0:0:0:
412,50,83277,1,0,0:0:0:0:
437,233,83512,2,0,P|391:319|305:343,1,157.500006008148
126,346,83980,5,0,0:0:0:0:
91,329,84098,1,0,0:0:0:0:
66,294,84215,1,0,0:0:0:0:
52,256,84332,1,0,0:0:0:0:
45,215,84449,2,0,P|119:247|158:225,1,105
299,160,84918,6,0,L|249:151,2,42
479,189,85387,5,0,0:0:0:0:
331,317,85621,1,0,0:0:0:0:
259,311,85738,1,0,0:0:0:0:
192,284,85855,1,0,0:0:0:0:
131,242,85973,1,0,0:0:0:0:
77,171,86090,2,0,P|43:86|59:20,1,157.500006008148
259,46,86559,5,0,0:0:0:0:
374,121,86793,1,0,0:0:0:0:
232,171,87027,1,0,0:0:0:0:
296,117,87262,1,0,0:0:0:0:
256,192,87496,12,0,88199,0:0:0:0:
257,193,88434,6,0,L|256:122,8,39.3750015020371
