osu file format v14

[General]
AudioFilename: audio.mp3
AudioLeadIn: 0
PreviewTime: 29511
Countdown: 0
SampleSet: None
StackLeniency: 0.7
Mode: 0
LetterboxInBreaks: 0
WidescreenStoryboard: 1

[Editor]
Bookmarks: 7358,7819
DistanceSpacing: 1.2
BeatDivisor: 4
GridSize: 32
TimelineZoom: 1.5

[Metadata]
Title:Exceptional (TV Size)
TitleUnicode:Exceptional (TV Size)
Artist:China Anne McClain
ArtistUnicode:China Anne McClain
Creator:Wikozo
Version:Nedsing's Normal
Source:A.N.T. Farm
Tags:disney channel ant natural talent
BeatmapID:1350762
BeatmapSetID:629081

[Difficulty]
HPDrainRate:3
CircleSize:3.5
OverallDifficulty:3
ApproachRate:4
SliderMultiplier:0.9
SliderTickRate:1

[Events]
//Background and Video events
0,0,"BG.jpg",0,0
Video,1180,"A.N.T. Farm - Season 3 - Theme Song.avi"
//Break Periods
//Storyboard Layer 0 (Background)
//Storyboard Layer 1 (Fail)
//Storyboard Layer 2 (Pass)
//Storyboard Layer 3 (Foreground)
//Storyboard Sound Samples

[TimingPoints]
435,461.538461538462,4,2,1,60,1,0
29973,-100,4,2,1,60,0,1
44577,461.538461538462,4,2,1,60,1,0
44577,-100,4,2,1,60,0,0

[Colours]
Combo1 : 128,0,128
Combo2 : 214,182,3
Combo3 : 255,79,79
Combo4 : 0,255,255

[HitObjects]
256,192,3319,12,0,5511,0:0:0:0:
206,169,7358,6,0,P|290:143|333:67,1,180
243,59,8742,2,0,P|159:85|117:162,1,180
140,267,10127,1,0,0:0:0:0:
245,255,10589,1,0,0:0:0:0:
275,358,11050,1,0,0:0:0:0:
435,321,11511,5,8,0:0:0:0:
345,256,11973,1,8,0:0:0:0:
446,210,12435,1,8,0:0:0:0:
356,145,12896,2,0,L|316:55,3,90,10|0|10|0,0:0|0:0|0:0|0:0,0:0:0:0:
226,8,14742,1,0,0:0:0:0:
136,68,15204,6,0,P|83:155|142:319,1,270,8|0,0:0|0:0,0:0:0:0:
197,224,17050,2,0,P|318:174|436:231,1,270,8|0,0:0|0:0,0:0:0:0:
457,337,18896,5,12,0:0:0:0:
360,289,19358,1,12,0:0:0:0:
263,241,19819,1,12,0:0:0:0:
166,193,20281,2,0,L|82:146,3,90,10|0|10|0,0:0|0:0|0:0|0:0,0:0:0:0:
35,81,22127,6,0,L|138:65,1,90
230,49,23050,1,8,0:0:0:0:
336,35,23511,2,0,L|310:136,1,90
284,226,24434,1,0,0:0:0:0:
260,331,24896,2,0,L|361:305,1,90,8|0,0:0|0:0,0:0:0:0:
451,279,25819,1,0,0:0:0:0:
414,177,26281,6,0,L|326:154,1,90,8|0,0:0|0:0,0:0:0:0:
223,125,27204,1,0,0:0:0:0:
99,98,27665,2,0,L|125:198,1,90,0|8,0:0|0:0,0:0:0:0:
151,289,28588,1,8,0:0:0:0:
273,260,29050,2,0,L|374:234,1,90,8|8,0:0|0:0,0:0:0:0:
464,208,29973,5,10,0:0:0:0:
425,87,30435,1,8,0:0:0:0:
311,31,30896,1,8,0:0:0:0:
184,34,31358,1,10,0:0:0:0:
68,84,31819,1,8,0:0:0:0:
33,205,32281,2,0,L|25:310,2,90
141,345,33665,6,0,L|241:304,1,90,8|0,0:0|0:0,0:0:0:0:
339,260,34588,1,0,0:0:0:0:
136,249,35050,2,0,L|236:208,1,90,0|8,0:0|0:0,0:0:0:0:
334,164,35973,1,0,0:0:0:0:
135,146,36435,2,0,L|235:105,1,90,8|0,0:0|0:0,0:0:0:0:
320,64,37358,5,10,0:0:0:0:
433,136,37819,1,8,0:0:0:0:
424,261,38281,1,10,0:0:0:0:
314,323,38742,1,8,0:0:0:0:
190,299,39204,1,10,0:0:0:0:
129,188,39665,2,0,L|135:98,2,90
194,295,41050,6,0,L|300:315,1,90,8|0,0:0|0:0,0:0:0:0:
406,331,41973,1,0,0:0:0:0:
242,211,42435,2,0,L|348:231,1,90,0|8,0:0|0:0,0:0:0:0:
454,248,43358,1,0,0:0:0:0:
296,125,43820,2,0,L|402:145,1,90,8|0,0:0|0:0,0:0:0:0:
