osu file format v14

[General]
AudioFilename: audio.mp3
AudioLeadIn: 0
PreviewTime: 29511
Countdown: 0
SampleSet: Soft
StackLeniency: 0.7
Mode: 0
LetterboxInBreaks: 0
WidescreenStoryboard: 0

[Editor]
Bookmarks: 5973,6896,7358,22588
DistanceSpacing: 1
BeatDivisor: 4
GridSize: 4
TimelineZoom: 1.5

[Metadata]
Title:Exceptional (TV Size)
TitleUnicode:Exceptional (TV Size)
Artist:China Anne McClain
ArtistUnicode:China Anne McClain
Creator:Wikozo
Version:Hard
Source:A.N.T. Farm
Tags:disney channel ant natural talent
BeatmapID:1327893
BeatmapSetID:629081

[Difficulty]
HPDrainRate:6
CircleSize:4
OverallDifficulty:7
ApproachRate:8
SliderMultiplier:1.6
SliderTickRate:2

[Events]
//Background and Video events
0,0,"BG.jpg",0,0
Video,1180,"A.N.T. Farm - Season 3 - Theme Song.avi"
//Break Periods
//Storyboard Layer 0 (Background)
//Storyboard Layer 1 (Fail)
//Storyboard Layer 2 (Pass)
//Storyboard Layer 3 (Foreground)
//Storyboard Sound Samples

[TimingPoints]
435,461.538461538462,4,2,1,60,1,0
29973,-100,4,2,1,60,0,1
44577,461.538461538462,4,2,1,60,1,0
44577,-100,4,2,1,60,0,0

[Colours]
Combo1 : 128,0,128
Combo2 : 214,182,3
Combo3 : 255,79,79
Combo4 : 0,255,255

[HitObjects]
256,192,5973,12,8,6896,0:0:0:0:
112,132,7358,6,4,L|200:100,1,80
236,40,7819,2,2,L|272:136,1,80
336,152,8281,2,2,P|292:192|248:192,1,80
192,200,8742,1,8,0:0:0:0:
96,232,9204,6,2,P|164:276|256:284,2,160
192,200,10588,1,8,0:0:0:0:
128,164,11050,2,8,P|188:120|264:188,1,160
364,276,11973,1,8,0:0:0:0:
428,228,12204,1,8,0:0:0:0:
456,152,12435,1,8,0:0:0:0:
296,80,12896,5,4,0:0:0:0:
272,108,13127,1,4,0:0:0:0:
252,76,13358,1,4,0:0:0:0:
324,60,13588,5,4,0:0:0:0:
268,148,13819,1,4,0:0:0:0:
220,56,14050,1,4,0:0:0:0:
192,96,14281,1,4,0:0:0:0:
168,136,14511,1,4,0:0:0:0:
80,220,14742,6,4,P|144:240|184:232,1,80
140,320,15204,2,4,P|196:312|236:288,1,80
224,384,15665,2,2,P|268:360|280:244,1,160
216,116,16588,5,8,0:0:0:0:
152,68,16819,1,8,0:0:0:0:
228,40,17050,2,2,P|288:88|280:164,1,160
408,260,17973,1,8,0:0:0:0:
380,336,18204,5,4,0:0:0:0:
340,344,18319,1,4,0:0:0:0:
300,336,18435,1,4,0:0:0:0:
264,260,18665,1,8,0:0:0:0:
192,296,18896,6,8,P|192:228|276:184,1,160
424,184,19819,1,0,0:0:0:0:
324,60,20281,6,2,L|240:44,2,80
400,80,20973,1,8,0:0:0:0:
476,100,21204,2,2,L|580:128,2,80
400,80,21896,5,8,0:0:0:0:
380,156,22127,1,8,0:0:0:0:
452,188,22358,2,4,P|384:236|308:128,1,240
148,160,23511,5,8,0:0:0:0:
156,240,23742,1,8,0:0:0:0:
164,320,23973,1,8,0:0:0:0:
244,328,24204,2,4,P|180:396|80:320,1,240
20,172,25358,5,8,0:0:0:0:
44,96,25588,1,8,0:0:0:0:
124,80,25819,1,8,0:0:0:0:
100,156,26050,2,4,P|168:156|176:12,1,240
336,60,27204,6,6,P|408:48|356:212,1,320
384,136,28358,1,8,0:0:0:0:
308,152,28588,1,8,0:0:0:0:
232,172,28819,1,8,0:0:0:0:
156,192,29050,5,4,0:0:0:0:
136,204,29165,1,4,0:0:0:0:
120,224,29281,1,4,0:0:0:0:
108,244,29396,1,4,0:0:0:0:
100,268,29511,1,4,0:0:0:0:
152,316,29742,1,4,0:0:0:0:
328,336,29973,6,2,L|392:268,1,80
456,248,30435,2,2,L|476:160,1,80
488,92,30896,2,4,P|444:72|340:132,1,160
316,188,31588,1,8,0:0:0:0:
236,176,31819,2,4,P|264:244|348:268,1,160
420,260,32511,1,8,0:0:0:0:
264,332,32973,5,4,0:0:0:0:
264,332,33088,1,4,0:0:0:0:
264,332,33204,1,4,0:0:0:0:
188,356,33435,1,8,0:0:0:0:
108,348,33665,6,4,P|64:336|36:296,1,80
108,268,34127,2,8,P|120:224|176:196,1,80
192,268,34588,2,8,P|236:260|276:284,1,80
220,340,35050,2,8,P|256:368|276:400,1,80
400,276,35511,6,4,P|344:264|324:236,1,80
388,196,35973,2,8,P|380:152|400:120,1,80
464,168,36435,2,8,P|500:144|556:156,1,80
508,232,36896,2,8,P|548:256|572:296,1,80
492,308,37358,5,8,0:0:0:0:
368,380,37819,1,8,0:0:0:0:
404,224,38281,1,8,0:0:0:0:
448,380,38742,1,8,0:0:0:0:
308,304,39204,1,8,0:0:0:0:
152,344,39665,2,8,L|128:252,1,80
276,196,40358,5,4,0:0:0:0:
276,196,40473,1,4,0:0:0:0:
276,196,40588,1,4,0:0:0:0:
344,156,40819,1,8,0:0:0:0:
416,40,41050,6,8,L|456:128,1,80
480,188,41511,2,8,L|480:284,1,80
424,324,41973,2,8,L|352:380,1,80
280,368,42435,2,8,L|176:320,1,80
264,280,42896,6,4,L|308:204,1,80
228,184,43358,2,8,L|228:84,1,80
160,60,43819,2,8,L|104:120,1,80
144,188,44281,2,8,L|144:288,1,80
