osu file format v14

[General]
AudioFilename: Exceptional.mp3
AudioLeadIn: 0
PreviewTime: 29606
Countdown: 0
SampleSet: Drum
StackLeniency: 0.4
Mode: 0
LetterboxInBreaks: 0
WidescreenStoryboard: 1

[Editor]
Bookmarks: 7209
DistanceSpacing: 1.1
BeatDivisor: 4
GridSize: 8
TimelineZoom: 1.1

[Metadata]
Title:Exceptional (TV Size)
TitleUnicode:Exceptional (TV Size)
Artist:China Anne McClain
ArtistUnicode:China Anne McClain
Creator:AJT
Version:Mk's Hard
Source:A.N.T. Farm
Tags:ant advanced natural talent opening disney channel english pop mkguh aistre alphabet venax bloggle sisters lauryn sierra mccormick jake short stefanie scott carlon jeffery aedin mincks chyna parks olive fletcher angus cameron lexi
BeatmapID:1714398
BeatmapSetID:814676

[Difficulty]
HPDrainRate:4.5
CircleSize:4.5
OverallDifficulty:6.5
ApproachRate:6.5
SliderMultiplier:1.8
SliderTickRate:2

[Events]
//Background and Video events
0,0,"bg.png",0,0
//Break Periods
//Storyboard Layer 0 (Background)
//Storyboard Layer 1 (Fail)
//Storyboard Layer 2 (Pass)
//Storyboard Layer 3 (Foreground)
//Storyboard Layer 4 (Overlay)
//Storyboard Sound Samples

[TimingPoints]
-1539,461.538461538462,4,2,1,30,1,0
7683,461.538461538462,4,2,1,30,1,0
7740,-100,4,2,1,5,0,0
7798,-100,4,2,1,50,0,0
7914,-100,4,2,1,50,0,0
9009,-100,4,2,1,5,0,0
9067,-100,4,2,1,50,0,0
9240,-100,4,2,1,5,0,0
9298,-100,4,2,1,50,0,0
10914,-133.333333333333,4,2,1,50,0,0
10971,-133.333333333333,4,2,1,5,0,0
11029,-133.333333333333,4,2,1,50,0,0
15068,-133.333333333333,4,2,1,60,0,0
17433,-133.333333333333,4,3,1,5,0,0
17491,-133.333333333333,4,3,1,60,0,0
28164,-133.333333333333,4,3,1,5,0,0
28221,-133.333333333333,4,3,1,60,0,0
28395,-133.333333333333,4,3,1,5,0,0
28453,-133.333333333333,4,3,1,60,0,0
28626,-133.333333333333,4,3,1,5,0,0
28683,-133.333333333333,4,3,1,60,0,0
28856,-133.333333333333,4,3,1,5,0,0
28914,-133.333333333333,4,3,1,60,0,0
29837,-83.3333333333333,4,3,1,75,0,0
33240,-83.3333333333333,4,3,1,5,0,0
33298,-83.3333333333333,4,3,1,75,0,0
40625,-83.3333333333333,4,3,1,5,0,0
40683,-83.3333333333333,4,3,1,75,0,0
44611,464.2166344294,4,2,1,30,1,0
45534,-100,4,2,1,5,0,0
45998,-100,4,2,1,30,0,0
47158,-100,4,2,1,5,0,0
47855,-100,4,2,1,30,0,0
48087,-111.111111111111,4,2,1,30,0,0
49247,-111.111111111111,4,2,1,5,0,0
49712,-111.111111111111,4,2,1,30,0,0
51104,-111.111111111111,4,2,1,5,0,0
53890,-111.111111111111,4,2,1,5,0,0

[Colours]
Combo1 : 145,145,145
Combo2 : 255,26,26
Combo3 : 0,236,236
Combo4 : 234,234,0

[HitObjects]
145,32,7230,5,2,0:0:0:0:
219,32,7461,1,2,0:0:0:0:
293,32,7683,1,2,0:0:0:0:
367,32,7914,1,2,0:0:0:0:
328,96,8145,1,10,0:0:0:0:
256,96,8376,1,2,0:0:0:0:
184,96,8606,1,2,0:0:0:0:
145,352,9068,5,10,0:0:0:0:
219,352,9299,1,2,0:0:0:0:
293,352,9529,1,2,0:0:0:0:
367,352,9760,1,2,0:0:0:0:
328,288,9991,1,10,0:0:0:0:
256,288,10222,1,2,0:0:0:0:
184,288,10453,1,2,0:0:0:0:
72,192,10914,6,0,L|72:104,1,67.5000000000002,10|2,0:0|0:0,0:0:0:0:
72,192,11376,2,0,L|144:192,1,67.5000000000002,8|0,0:3|0:0,0:0:0:0:
72,192,11837,2,0,L|72:272,1,67.5000000000002,8|0,0:3|0:0,0:0:0:0:
72,192,12299,2,0,L|-8:192,2,67.5000000000002,8|0|8,0:3|0:0|0:3,0:0:0:0:
112,48,13222,5,8,0:3:0:0:
184,48,13453,1,8,0:3:0:0:
184,120,13683,1,8,0:3:0:0:
256,120,13914,1,8,0:3:0:0:
400,48,14145,1,8,0:3:0:0:
328,48,14376,1,8,0:3:0:0:
328,120,14606,1,8,0:3:0:0:
256,120,14837,1,8,0:3:0:0:
216,184,15068,6,0,L|216:272,1,67.5000000000002,4|0,0:2|0:0,0:0:0:0:
296,251,15529,2,0,L|296:184,1,67.5000000000002,0|0,1:0|0:0,0:0:0:0:
192,320,15991,2,0,B|224:328|256:312|256:312|288:328|328:320,1,135,8|2,0:3|1:2,0:0:0:0:
296,251,16683,1,10,0:3:0:0:
216,251,16914,5,4,0:3:0:0:
168,192,17145,1,0,0:0:0:0:
216,136,17376,1,0,1:0:0:0:
168,80,17606,1,0,0:0:0:0:
112,136,17837,2,0,L|32:136,1,67.5000000000002,4|10,0:3|0:0,0:0:0:0:
44,248,18299,2,0,L|112:248,1,67.5000000000002,2|2,1:2|0:2,0:0:0:0:
256,192,18760,5,10,0:3:0:0:
328,192,18991,1,2,0:2:0:0:
400,192,19222,1,2,1:2:0:0:
400,264,19453,1,0,0:0:0:0:
400,336,19683,2,0,L|312:336,2,67.5000000000002,10|0|2,0:3|0:0|1:2,0:0:0:0:
472,336,20376,1,10,0:3:0:0:
472,264,20606,6,0,L|472:176,1,67.5000000000002,4|2,0:3|0:2,0:0:0:0:
472,120,21068,1,0,1:0:0:0:
400,120,21299,1,2,0:2:0:0:
328,120,21529,2,0,L|232:120,1,67.5000000000002,4|2,0:3|0:0,0:0:0:0:
184,120,21991,1,2,1:2:0:0:
184,48,22222,1,10,0:3:0:0:
112,48,22453,6,0,B|56:48|56:48|40:64|40:64|-24:64,2,135,4|0|4,0:3|1:0|0:3,0:0:0:0:
184,48,23606,1,2,0:0:0:0:
256,48,23837,1,2,1:2:0:0:
328,48,24068,1,10,0:3:0:0:
400,48,24299,2,0,B|456:48|456:48|472:64|472:64|536:64,2,135,4|0|4,0:3|1:0|0:3,0:0:0:0:
328,48,25453,1,2,0:0:0:0:
328,120,25683,1,2,1:2:0:0:
400,120,25914,1,10,0:0:0:0:
400,192,26145,5,4,0:3:0:0:
400,192,26376,1,0,0:0:0:0:
456,240,26606,1,0,1:0:0:0:
456,240,26837,1,0,0:0:0:0:
400,288,27068,1,4,0:3:0:0:
400,288,27299,1,2,0:0:0:0:
456,336,27529,1,2,1:2:0:0:
456,336,27760,1,10,0:0:0:0:
328,288,27991,6,0,L|288:360,1,67.5000000000002,10|4,3:0|0:3,0:0:0:0:
216,347,28453,2,0,L|184:288,1,67.5000000000002,10|4,3:0|0:3,0:0:0:0:
222,224,28914,2,0,L|294:224,2,67.5000000000002,10|4|10,3:0|0:3|3:0,0:0:0:0:
154,193,29606,1,8,0:3:0:0:
154,74,29837,6,0,B|213:51|255:77|249:92|291:122|360:95,1,216,4|2,3:2|1:2,0:0:0:0:
426,193,30529,1,0,0:0:0:0:
360,289,30760,2,0,B|291:262|249:292|255:307|213:333|154:310,1,216,4|2,0:3|1:2,0:0:0:0:
33,105,31683,6,0,P|87:192|33:279,2,216,4|2|4,0:3|1:2|0:3,0:0:0:0:
120,24,32837,1,4,0:3:0:0:
210,100,33068,1,0,1:0:0:0:
301,24,33299,1,8,0:3:0:0:
384,104,33529,5,6,0:3:0:0:
504,104,33760,1,0,0:0:0:0:
384,120,33991,1,0,1:0:0:0:
504,120,34222,2,0,L|504:8,2,108,0|4|4,0:0|0:3|0:3,0:0:0:0:
447,192,34914,1,0,1:0:0:0:
447,192,35145,1,0,0:0:0:0:
384,280,35375,5,6,0:3:0:0:
504,280,35606,1,0,0:0:0:0:
384,264,35837,1,0,1:0:0:0:
504,264,36068,2,0,L|504:376,2,108,0|4|4,0:0|0:3|0:3,0:0:0:0:
447,192,36760,1,0,1:0:0:0:
504,264,36990,1,0,0:0:0:0:
358,311,37222,6,0,B|299:334|257:308|263:293|221:263|152:290,1,216,4|0,0:2|1:0,0:0:0:0:
86,192,37914,1,0,0:0:0:0:
152,96,38145,2,0,B|221:123|263:93|257:78|299:52|358:75,1,216,4|0,0:3|1:0,0:0:0:0:
478,279,39068,6,0,P|424:192|478:105,2,216,4|0|4,0:3|1:0|0:3,0:0:0:0:
388,357,40222,1,4,0:3:0:0:
291,288,40453,1,0,1:0:0:0:
195,357,40683,1,8,0:3:0:0:
80,289,40914,5,6,0:3:0:0:
147,191,41145,1,0,0:0:0:0:
80,93,41376,1,0,1:0:0:0:
147,191,41606,2,0,L|254:192,2,108,0|4|4,0:0|0:3|0:3,0:0:0:0:
261,199,42299,1,0,1:0:0:0:
261,199,42529,1,0,0:0:0:0:
432,289,42760,5,10,2:3:0:0:
432,289,42991,1,4,3:3:0:0:
360,193,43222,1,10,3:0:0:0:
360,193,43453,1,4,3:3:0:0:
432,95,43683,1,10,3:0:0:0:
432,95,43914,1,4,3:3:0:0:
498,193,44145,1,10,3:0:0:0:
498,193,44376,1,4,3:3:0:0:
431,289,44611,6,0,P|275:321|256:162,1,360,6|0,3:2|0:0,0:0:0:0:
82,289,46003,1,2,2:0:0:0:
82,289,46235,2,0,P|238:321|257:162,1,360,2|0,2:0|0:0,0:0:0:0:
81,71,47860,5,2,2:0:0:0:
81,71,48092,2,0,B|121:-5|277:3|109:143|405:143|237:3|393:-5|433:71,1,405,2|0,2:0|0:0,0:0:0:0:
431,313,49717,1,2,2:0:0:0:
431,313,49949,2,0,B|391:389|235:381|403:241|107:241|275:381|119:389|79:313,1,405,2|0,2:0|0:0,0:0:0:0:
256,192,51226,12,0,55287,2:0:0:0:
