osu file format v14

[General]
AudioFilename: Exceptional.mp3
AudioLeadIn: 0
PreviewTime: 29606
Countdown: 0
SampleSet: Drum
StackLeniency: 0.4
Mode: 0
LetterboxInBreaks: 0
WidescreenStoryboard: 1

[Editor]
DistanceSpacing: 1
BeatDivisor: 4
GridSize: 32
TimelineZoom: 1.9

[Metadata]
Title:Exceptional (TV Size)
TitleUnicode:Exceptional (TV Size)
Artist:China Anne McClain
ArtistUnicode:China Anne McClain
Creator:AJT
Version:Easy
Source:A.N.T. Farm
Tags:ant advanced natural talent opening disney channel english pop mkguh aistre alphabet venax bloggle sisters lauryn sierra mccormick jake short stefanie scott carlon jeffery aedin mincks chyna parks olive fletcher angus cameron lexi
BeatmapID:2523389
BeatmapSetID:814676

[Difficulty]
HPDrainRate:3
CircleSize:2
OverallDifficulty:2
ApproachRate:3
SliderMultiplier:1
SliderTickRate:1

[Events]
//Background and Video events
0,0,"bg.png",0,0
//Break Periods
//Storyboard Layer 0 (Background)
//Storyboard Layer 1 (Fail)
//Storyboard Layer 2 (Pass)
//Storyboard Layer 3 (Foreground)
//Storyboard Layer 4 (Overlay)
//Storyboard Sound Samples

[TimingPoints]
-1539,461.538461538462,4,2,1,30,1,0
7683,461.538461538462,4,2,1,30,1,0
7740,-100,4,2,1,5,0,0
7798,-100,4,2,1,50,0,0
9009,-100,4,2,1,5,0,0
9067,-100,4,2,1,50,0,0
9240,-100,4,2,1,5,0,0
9298,-100,4,2,1,50,0,0
10971,-100,4,2,1,5,0,0
11029,-100,4,2,1,50,0,0
15068,-100,4,2,1,60,0,0
17433,-100,4,3,1,5,0,0
17491,-100,4,3,1,60,0,0
28164,-100,4,3,1,5,0,0
28222,-100,4,3,1,60,0,0
28395,-100,4,3,1,5,0,0
28453,-100,4,3,1,60,0,0
28626,-100,4,3,1,5,0,0
28683,-100,4,3,1,60,0,0
28856,-100,4,3,1,5,0,0
28914,-100,4,3,1,60,0,0
29721,-100,4,3,1,60,0,1
29837,-100,4,3,1,75,0,1
33240,-100,4,3,1,5,0,1
33298,-100,4,3,1,75,0,1
40625,-100,4,3,1,5,0,1
40683,-100,4,3,1,75,0,1
44611,464.2166344294,4,2,1,30,1,0
53890,-100,4,2,1,5,0,0

[Colours]
Combo1 : 255,179,217
Combo2 : 0,255,255
Combo3 : 255,128,0
Combo4 : 255,0,0
Combo5 : 255,255,0
Combo6 : 0,128,255
Combo7 : 0,87,130
Combo8 : 255,128,192

[HitObjects]
19,28,307,6,0,P|155:62|331:42,1,300,2|2,0:0|0:0,0:0:0:0:
362,53,1922,2,0,P|462:142|324:237,1,350,2|2,0:0|0:0,0:0:0:0:
278,218,3768,2,0,P|176:103|87:231,1,350,2|2,0:0|0:0,0:0:0:0:
93,274,5614,1,2,0:0:0:0:
485,221,7683,6,0,P|497:270|485:319,2,100,2|10|2,0:0|0:0|0:0,0:0:0:0:
389,190,9068,1,10,0:0:0:0:
427,97,9529,2,0,P|377:88|314:117,1,100,2|10,0:0|0:0,0:0:0:0:
281,190,10453,2,0,P|233:205|184:192,1,100,2|10,0:0|0:0,0:0:0:0:
95,147,11376,5,8,0:3:0:0:
32,225,11837,1,8,0:3:0:0:
62,320,12299,1,8,0:3:0:0:
152,362,12760,1,8,0:3:0:0:
204,276,13222,2,0,P|252:261|301:274,1,100,8|8,0:3|0:3,0:0:0:0:
337,365,14145,2,0,P|385:380|434:367,1,100,8|8,0:3|0:3,0:0:0:0:
507,301,15068,5,4,0:2:0:0:
443,224,15529,1,0,1:0:0:0:
498,140,15991,2,0,P|515:92|488:36,1,100,8|2,0:3|1:2,0:0:0:0:
402,21,16914,1,4,0:3:0:0:
304,45,17376,1,0,1:0:0:0:
206,23,17837,2,0,P|154:10|104:20,1,100,4|2,0:3|1:2,0:0:0:0:
13,46,18760,6,0,P|-2:99|10:150,1,100,10|2,0:3|1:2,0:0:0:0:
24,240,19683,1,10,0:3:0:0:
103,300,20145,1,2,1:2:0:0:
197,332,20606,2,0,P|245:321|293:335,1,100,4|0,0:3|1:0,0:0:0:0:
392,335,21529,1,4,0:3:0:0:
475,280,21991,1,2,1:2:0:0:
424,193,22453,5,4,0:3:0:0:
480,110,22914,1,0,1:0:0:0:
419,29,23376,2,0,P|371:18|323:32,1,100,4|2,0:3|1:2,0:0:0:0:
261,110,24299,1,4,0:3:0:0:
262,209,24760,1,0,1:0:0:0:
188,276,25222,1,4,0:3:0:0:
90,295,25683,1,2,1:2:0:0:
2,245,26145,6,0,P|-9:197|5:149,1,100,4|0,0:3|1:0,0:0:0:0:
51,60,27068,2,0,P|99:49|147:63,1,100,4|2,0:3|1:2,0:0:0:0:
223,126,27991,5,10,3:0:0:0:
283,46,28453,1,10,3:0:0:0:
382,44,28914,1,10,3:0:0:0:
469,93,29376,1,10,3:0:0:0:
501,187,29837,6,0,P|501:236|477:279,1,100,4|2,3:2|1:2,0:0:0:0:
402,346,30760,2,0,P|355:332|307:343,1,100,4|2,0:3|1:2,0:0:0:0:
228,281,31683,2,0,P|242:234|231:186,2,100,4|2|4,0:3|1:2|0:3,0:0:0:0:
140,329,33068,1,0,1:0:0:0:
63,264,33529,6,0,P|50:216|61:168,1,100,6|0,0:3|1:0,0:0:0:0:
114,83,34453,2,0,P|163:72|210:85,1,100,4|0,0:3|1:0,0:0:0:0:
248,177,35376,1,6,0:3:0:0:
312,253,35837,1,0,1:0:0:0:
409,275,36299,1,4,0:3:0:0:
489,216,36760,1,0,1:0:0:0:
448,124,37222,6,0,P|400:111|352:122,1,100,4|0,0:2|1:0,0:0:0:0:
307,211,38145,1,4,0:3:0:0:
205,211,38606,1,0,1:0:0:0:
153,125,39068,2,0,P|105:111|57:122,2,100,4|0|4,0:3|1:0|0:3,0:0:0:0:
241,78,40453,1,0,1:0:0:0:
335,45,40914,6,0,P|383:55|430:42,1,100,6|0,0:3|1:0,0:0:0:0:
494,118,41837,2,0,P|504:166|491:213,1,100,4|0,0:3|1:0,0:0:0:0:
422,287,42760,1,10,2:3:0:0:
325,314,43222,1,10,3:0:0:0:
229,288,43683,1,10,3:0:0:0:
186,197,44145,1,10,3:0:0:0:
261,132,44611,6,0,P|229:12|70:47,1,300,6|2,3:2|2:0,0:0:0:0:
49,69,46235,2,0,P|29:237|177:337,1,350,2|2,2:0|2:0,0:0:0:0:
209,321,48092,2,0,P|287:198|370:330,1,350,2|2,2:0|2:0,0:0:0:0:
360,369,49949,1,2,2:0:0:0:
256,192,50181,12,0,55287,2:0:0:0:
