osu file format v14

[General]
AudioFilename: Exceptional.mp3
AudioLeadIn: 0
PreviewTime: 29606
Countdown: 0
SampleSet: Soft
StackLeniency: 0.4
Mode: 0
LetterboxInBreaks: 0
WidescreenStoryboard: 1

[Editor]
DistanceSpacing: 0.6
BeatDivisor: 4
GridSize: 16
TimelineZoom: 1.9

[Metadata]
Title:Exceptional (TV Size)
TitleUnicode:Exceptional (TV Size)
Artist:China Anne McClain
ArtistUnicode:China Anne McClain
Creator:AJT
Version:Aistre's Exceptional
Source:A.N.T. Farm
Tags:ant advanced natural talent opening disney channel english pop mkguh aistre alphabet venax bloggle sisters lauryn sierra mccormick jake short stefanie scott carlon jeffery aedin mincks chyna parks olive fletcher angus cameron lexi
BeatmapID:2518170
BeatmapSetID:814676

[Difficulty]
HPDrainRate:5
CircleSize:4.2
OverallDifficulty:8.3
ApproachRate:8.7
SliderMultiplier:2.7
SliderTickRate:1

[Events]
//Background and Video events
0,0,"bg.png",0,0
//Break Periods
//Storyboard Layer 0 (Background)
//Storyboard Layer 1 (Fail)
//Storyboard Layer 2 (Pass)
//Storyboard Layer 3 (Foreground)
//Storyboard Layer 4 (Overlay)
//Storyboard Sound Samples

[TimingPoints]
-1539,461.538461538462,4,2,1,30,1,0
6299,-71.4285714285714,4,2,1,30,0,0
6760,-71.4285714285714,4,2,1,5,0,0
7222,-71.4285714285714,4,2,1,30,0,0
7683,461.538461538462,4,2,1,30,1,0
7683,-142.857142857143,4,2,1,30,0,0
7740,-142.857142857143,4,2,1,5,0,0
7798,-142.857142857143,4,2,1,50,0,0
7856,-142.857142857143,4,2,1,5,0,0
7914,-142.857142857143,4,2,1,50,0,0
8087,-142.857142857143,4,2,1,5,0,0
8145,-142.857142857143,4,2,1,50,0,0
8318,-142.857142857143,4,2,1,5,0,0
8376,-142.857142857143,4,2,1,50,0,0
8549,-142.857142857143,4,2,1,5,0,0
8606,-80,4,2,1,50,0,0
9009,-80,4,2,1,5,0,0
9067,-80,4,2,1,50,0,0
9240,-80,4,2,1,5,0,0
9298,-80,4,2,1,50,0,0
9529,-142.857142857143,4,2,1,50,0,0
9702,-142.857142857143,4,2,1,5,0,0
9760,-142.857142857143,4,2,1,50,0,0
9933,-142.857142857143,4,2,1,5,0,0
9991,-142.857142857143,4,2,1,50,0,0
10164,-142.857142857143,4,2,1,5,0,0
10222,-142.857142857143,4,2,1,50,0,0
10395,-142.857142857143,4,2,1,5,0,0
10453,-80,4,2,1,50,0,0
10971,-80,4,2,1,5,0,0
11029,-80,4,2,1,50,0,0
11606,-117.647058823529,4,2,1,50,0,0
11721,-117.647058823529,4,2,1,5,0,0
11837,-117.647058823529,4,2,1,50,0,0
12183,-117.647058823529,4,2,1,5,0,0
12299,-117.647058823529,4,2,1,50,0,0
12644,-117.647058823529,4,2,1,5,0,0
12760,-117.647058823529,4,2,1,50,0,0
13106,-117.647058823529,4,2,1,5,0,0
13222,-117.647058823529,4,2,1,50,0,0
15068,-100,4,2,1,60,0,0
17433,-100,4,3,1,5,0,0
17491,-100,4,3,1,60,0,0
17837,-133.333333333333,4,3,1,60,0,0
17952,-133.333333333333,4,3,1,5,0,0
18068,-133.333333333333,4,3,1,60,0,0
18183,-133.333333333333,4,3,1,5,0,0
18299,-133.333333333333,4,3,1,60,0,0
18414,-133.333333333333,4,3,1,5,0,0
18529,-133.333333333333,4,3,1,60,0,0
18644,-133.333333333333,4,3,1,5,0,0
18760,-133.333333333333,4,3,1,60,0,0
21644,-133.333333333333,4,3,1,5,0,0
21760,-133.333333333333,4,3,1,60,0,0
21875,-133.333333333333,4,3,1,5,0,0
21991,-66.6666666666667,4,3,1,60,0,0
22453,-83.3333333333333,4,3,1,60,0,0
23606,-133.333333333333,4,3,1,60,0,0
23721,-133.333333333333,4,3,1,5,0,0
23837,-100,4,3,1,60,0,0
23952,-100,4,3,1,5,0,0
24068,-80,4,3,1,60,0,0
24183,-80,4,3,1,5,0,0
24299,-83.3333333333333,4,3,1,60,0,0
25453,-133.333333333333,4,3,1,60,0,0
25568,-133.333333333333,4,3,1,5,0,0
25683,-100,4,3,1,60,0,0
25798,-100,4,3,1,5,0,0
25914,-80,4,3,1,60,0,0
26029,-80,4,3,1,5,0,0
26145,-100,4,3,1,60,0,0
28164,-100,4,3,1,5,0,0
28222,-100,4,3,1,60,0,0
28395,-100,4,3,1,5,0,0
28453,-100,4,3,1,60,0,0
28626,-100,4,3,1,5,0,0
28683,-100,4,3,1,60,0,0
28856,-100,4,3,1,5,0,0
28914,-66.6666666666667,4,3,1,60,0,0
29087,-66.6666666666667,4,3,1,5,0,0
29145,-66.6666666666667,4,3,1,60,0,0
29318,-66.6666666666667,4,3,1,5,0,0
29376,-66.6666666666667,4,3,1,60,0,0
29549,-66.6666666666667,4,3,1,5,0,0
29606,-66.6666666666667,4,3,1,60,0,0
29779,-66.6666666666667,4,3,1,5,0,0
29837,-100,4,3,1,75,0,0
30299,-71.4285714285714,4,3,1,75,0,0
31222,-57.1428571428571,4,3,1,75,0,0
31683,-71.4285714285714,4,3,1,75,0,0
32145,-50,4,3,1,75,0,0
32606,-66.6666666666667,4,3,1,75,0,0
33240,-66.6666666666667,4,3,1,5,0,0
33298,-66.6666666666667,4,3,1,75,0,0
33529,-57.1428571428571,4,3,1,75,0,0
33702,-57.1428571428571,4,3,1,5,0,0
33760,-57.1428571428571,4,3,1,75,0,0
33933,-57.1428571428571,4,3,1,5,0,0
33991,-133.333333333333,4,3,1,75,0,0
34683,-100,4,3,1,75,0,0
35376,-57.1428571428571,4,3,1,75,0,0
35549,-57.1428571428571,4,3,1,5,0,0
35606,-57.1428571428571,4,3,1,75,0,0
35779,-57.1428571428571,4,3,1,5,0,0
35837,-66.6666666666667,4,3,1,75,0,0
36299,-100,4,3,1,75,0,0
37683,-71.4285714285714,4,3,1,75,0,0
38606,-57.1428571428571,4,3,1,75,0,0
39068,-71.4285714285714,4,3,1,75,0,0
39529,-50,4,3,1,75,0,0
39991,-66.6666666666667,4,3,1,75,0,0
40625,-66.6666666666667,4,3,1,5,0,0
40683,-66.6666666666667,4,3,1,75,0,0
40914,-57.1428571428571,4,3,1,75,0,0
41087,-57.1428571428571,4,3,1,5,0,0
41145,-57.1428571428571,4,3,1,75,0,0
41318,-57.1428571428571,4,3,1,5,0,0
41376,-133.333333333333,4,3,1,75,0,0
42068,-100,4,3,1,75,0,0
42760,-57.1428571428571,4,3,1,75,0,0
43222,-66.6666666666667,4,3,1,75,0,0
43683,-100,4,3,1,75,0,0
44611,464.2166344294,4,2,1,30,1,0
53890,-100,4,2,1,5,0,0

[Colours]
Combo1 : 255,179,217
Combo2 : 0,255,255
Combo3 : 255,128,0
Combo4 : 255,0,0
Combo5 : 255,255,0
Combo6 : 0,128,255
Combo7 : 0,87,130
Combo8 : 255,128,192

[HitObjects]
256,192,307,5,2,0:0:0:0:
256,192,1691,1,2,0:0:0:0:
256,192,1922,1,2,0:0:0:0:
512,192,3537,5,2,0:0:0:0:
512,192,3768,1,2,0:0:0:0:
0,192,5384,5,2,0:0:0:0:
0,192,5614,1,2,0:0:0:0:
244,2,6307,6,0,P|269:218|255:402,1,378,6|0,0:0|0:0,0:0:0:0:
244,2,7230,1,2,0:0:0:0:
244,2,7461,1,2,0:0:0:0:
402,315,7683,6,0,P|410:262|428:246,1,70.8749999999999,2|0,0:0|0:0,0:0:0:0:
406,178,7914,2,0,P|398:231|380:247,1,70.8749999999999,2|0,0:0|0:0,0:0:0:0:
335,244,8145,2,0,P|388:252|404:270,1,70.8749999999999,10|0,0:0|0:0,0:0:0:0:
472,248,8376,2,0,P|419:240|403:222,1,70.8749999999999,2|0,0:0|0:0,0:0:0:0:
404,249,8606,6,0,P|407:186|398:69,1,168.75,2|0,0:0|0:0,0:0:0:0:
483,361,9068,1,10,0:0:0:0:
483,361,9299,1,2,0:0:0:0:
145,109,9529,6,0,P|137:162|119:178,1,70.8749999999999,2|0,0:0|0:0,0:0:0:0:
141,246,9760,2,0,P|149:193|167:177,1,70.8749999999999,2|0,0:0|0:0,0:0:0:0:
212,180,9991,2,0,P|159:172|143:154,1,70.8749999999999,10|0,0:0|0:0,0:0:0:0:
75,176,10222,2,0,P|128:184|144:202,1,70.8749999999999,2|0,0:0|0:0,0:0:0:0:
165,341,10453,6,0,P|144:230|147:165,1,168.75,2|0,0:0|0:0,0:0:0:0:
46,365,10914,1,10,0:0:0:0:
46,365,11145,1,2,0:0:0:0:
126,54,11376,5,8,0:3:0:0:
126,54,11606,2,0,P|136:82|147:117,1,57.3750000000002
386,54,11837,5,8,0:3:0:0:
386,54,12068,2,0,P|376:82|365:117,1,57.3750000000002
256,320,12299,5,8,0:3:0:0:
203,199,12529,2,0,P|157:189|123:187,1,57.3750000000002
256,320,12760,5,8,0:3:0:0:
309,199,12991,2,0,P|355:189|389:187,1,57.3750000000002
384,352,13222,5,8,0:3:0:0:
416,64,13453,1,8,0:3:0:0:
128,32,13683,1,8,0:3:0:0:
96,320,13914,1,8,0:3:0:0:
351,229,14145,5,8,0:3:0:0:
293,96,14376,1,8,0:3:0:0:
160,154,14606,1,8,0:3:0:0:
218,287,14837,1,8,0:3:0:0:
282,199,15068,6,0,B|262:164|262:164|227:184|227:184|247:218|247:218|270:205,1,135,4|0,0:2|0:0,0:0:0:0:
364,366,15529,1,0,1:0:0:0:
430,170,15760,1,0,0:0:0:0:
478,246,15991,1,8,0:3:0:0:
478,246,16222,1,6,0:3:0:0:
434,316,16453,1,2,1:2:0:0:
348,122,16683,1,10,0:3:0:0:
153,236,16914,6,0,P|73:211|12:211,1,135,4|0,0:3|0:0,0:0:0:0:
153,147,17376,2,0,P|89:170|22:174,1,135,0|0,1:0|0:0,0:0:0:0:
489,174,17837,6,0,P|456:172|424:161,1,50.6250000000001,4|0,0:3|0:0,0:0:0:0:
489,209,18068,2,0,P|456:211|424:222,1,50.6250000000001,10|0,0:0|0:0,0:0:0:0:
247,178,18299,2,0,P|280:176|312:164,1,50.6250000000001,2|0,1:2|0:0,0:0:0:0:
247,213,18529,2,0,P|280:214|312:226,1,50.6250000000001,2|0,0:2|0:0,0:0:0:0:
437,96,18760,5,10,0:3:0:0:
362,349,18991,1,2,0:2:0:0:
308,98,19222,1,2,1:2:0:0:
370,198,19683,5,10,0:3:0:0:
193,344,19914,1,0,0:0:0:0:
137,285,20145,2,0,B|76:280|102:313|23:305,1,101.25,2|10,1:2|0:3,0:0:0:0:
154,49,20606,5,4,0:3:0:0:
192,159,20837,1,2,0:2:0:0:
131,67,21068,2,0,B|136:128|103:102|111:181,1,101.25,0|2,1:0|0:2,0:0:0:0:
358,335,21529,6,0,P|369:303|369:276,1,50.6250000000001,4|0,0:3|0:0,0:0:0:0:
320,225,21760,2,0,P|322:250|331:273,1,50.6250000000001,2|0,0:0|0:0,0:0:0:0:
381,317,21991,6,0,B|371:199|435:249|419:96,1,202.5,2|10,1:2|0:3,0:0:0:0:
32,76,22453,6,0,B|18:21|92:-29|214:39|57:231,1,324,4|0,0:3|1:0,0:0:0:0:
127,311,23145,1,0,0:0:0:0:
127,311,23260,1,0,0:0:0:0:
127,311,23376,1,4,0:3:0:0:
32,76,23606,6,0,L|124:90,1,50.6250000000001,2|0,0:0|0:0,0:0:0:0:
195,157,23837,2,0,L|287:171,1,67.5,2|0,1:2|0:0,0:0:0:0:
386,261,24068,2,0,L|478:275,1,84.375,10|0,0:3|0:0,0:0:0:0:
480,76,24299,6,0,B|494:21|420:-29|298:39|455:231,1,324,4|0,0:3|1:0,0:0:0:0:
377,350,24991,1,0,0:0:0:0:
402,308,25106,1,0,0:0:0:0:
386,261,25222,1,4,0:3:0:0:
480,76,25453,6,0,L|388:90,1,50.6250000000001,2|0,0:0|0:0,0:0:0:0:
317,157,25683,2,0,L|225:171,1,67.5,2|0,1:2|0:0,0:0:0:0:
126,261,25914,2,0,L|34:275,1,84.375,10|0,0:0|0:0,0:0:0:0:
134,248,26145,6,0,P|72:222|-9:241,1,135,4|0,0:3|0:0,0:0:0:0:
356,154,26606,2,0,P|418:128|499:147,1,135,0|0,1:0|0:0,0:0:0:0:
134,136,27068,6,0,P|72:162|-9:143,1,135,4|2,0:3|0:0,0:0:0:0:
356,230,27529,2,0,P|418:256|499:237,1,135,2|10,1:2|0:0,0:0:0:0:
187,349,27991,6,0,P|173:292|128:254,1,101.25,10|0,3:0|0:0,0:0:0:0:
130,254,28222,2,0,P|187:240|225:195,1,101.25,4|0,0:3|0:0,0:0:0:0:
228,199,28453,2,0,P|242:256|287:294,1,101.25,10|0,3:0|0:0,0:0:0:0:
285,294,28683,2,0,P|228:308|190:353,1,101.25,4|0,0:3|0:0,0:0:0:0:
198,336,28914,6,0,P|218:239|179:181,1,151.875,10|0,3:0|0:0,0:0:0:0:
170,165,29145,2,0,P|267:184|325:145,1,151.875,4|0,0:3|0:0,0:0:0:0:
341,136,29376,2,0,P|321:233|360:291,1,151.875,10|0,3:0|0:0,0:0:0:0:
370,307,29606,2,0,P|272:287|214:326,1,151.875,8|0,0:3|0:0,0:0:0:0:
229,310,29837,6,0,P|220:187|228:97,1,202.5,4|0,3:2|0:0,0:0:0:0:
98,55,30299,2,0,P|75:104|194:143,1,189,2|0,1:2|0:0,0:0:0:0:
363,168,30645,5,0,0:0:0:0:
293,22,30760,2,0,P|304:70|308:120,1,94.5,4|0,0:3|0:0,0:0:0:0:
371,353,30991,2,0,P|375:305|385:259,1,94.5,4|0,0:3|0:0,0:0:0:0:
394,238,31222,2,0,P|201:278|33:293,1,354.375,2|0,1:2|0:0,0:0:0:0:
111,212,31683,6,0,B|247:185|204:366|365:325,1,283.5,4|0,0:3|0:0,0:0:0:0:
240,209,32145,2,0,P|227:291|225:365,2,135,2|0|0,1:2|0:0|0:0,0:0:0:0:
298,1,32491,1,0,0:0:0:0:
186,43,32606,6,0,L|75:66,1,101.25,4|0,0:3|0:0,0:0:0:0:
320,215,32837,2,0,L|431:238,1,101.25,4|0,0:3|0:0,0:0:0:0:
80,376,33068,5,0,1:0:0:0:
186,43,33299,1,8,0:3:0:0:
484,91,33529,6,0,B|400:69|400:157|308:121,1,177.1875,6|0,0:3|0:0,0:0:0:0:
317,124,33760,2,0,B|399:91|399:179|483:157,1,177.1875
391,223,33991,2,0,P|403:153|376:6,1,202.500000000001,0|4,1:0|0:3,0:0:0:0:
333,271,34683,6,0,P|311:248|314:206,1,67.5,4|0,0:3|0:0,0:0:0:0:
403,298,34914,2,0,P|394:328|356:346,1,67.5,0|0,1:0|0:0,0:0:0:0:
391,223,35145,2,0,P|421:215|456:239,1,67.5
266,371,35376,6,0,B|288:287|200:287|236:195,1,177.1875,6|0,0:3|0:0,0:0:0:0:
233,204,35606,2,0,B|266:286|178:286|200:370,1,177.1875
134,278,35837,2,0,P|204:290|351:263,1,202.5,0|0,1:0|0:0,0:0:0:0:
86,220,36183,1,0,0:0:0:0:
86,220,36299,6,0,P|109:198|151:201,1,67.5,4|0,0:3|0:0,0:0:0:0:
59,290,36529,2,0,P|28:281|10:243,1,67.5,4|0,0:3|0:0,0:0:0:0:
134,278,36760,2,0,P|141:308|117:343,1,67.5,0|0,1:0|0:0,0:0:0:0:
125,338,36991,1,8,0:3:0:0:
67,18,37222,6,0,P|79:94|85:233,1,202.5,4|0,0:2|0:0,0:0:0:0:
295,339,37683,2,0,P|314:282|210:267,1,189,0|0,1:0|0:0,0:0:0:0:
214,339,38029,1,0,0:0:0:0:
368,378,38145,6,0,P|425:356|470:347,1,94.5,4|0,0:3|0:0,0:0:0:0:
215,259,38376,2,0,P|169:247|125:229,1,94.5,4|0,0:3|0:0,0:0:0:0:
97,211,38606,6,0,P|216:160|445:149,1,354.375,0|0,1:0|0:0,0:0:0:0:
372,66,39068,6,0,B|235:93|317:227|173:259,1,283.5,4|0,0:3|0:0,0:0:0:0:
229,106,39529,2,0,P|300:147|334:199,2,135,0|0|0,1:0|0:0|0:0,0:0:0:0:
13,213,39876,1,0,0:0:0:0:
79,111,39991,6,0,P|89:145|97:218,1,101.25,4|0,0:3|0:0,0:0:0:0:
216,375,40222,2,0,P|220:324|233:275,1,101.25,4|0,0:3|0:0,0:0:0:0:
372,66,40453,5,0,1:0:0:0:
102,319,40683,1,8,0:3:0:0:
234,58,40914,6,0,B|273:54|325:91|282:120|330:158|386:157,1,177.1875,6|0,0:3|0:0,0:0:0:0:
236,164,41145,2,0,B|275:166|323:128|280:99|332:62|372:66,1,177.1875
312,212,41376,2,0,P|307:117|310:-3,1,202.500000000001,0|4,1:0|0:3,0:0:0:0:
396,315,42068,6,0,P|423:302|476:290,1,67.5,4|0,0:3|0:0,0:0:0:0:
293,355,42299,2,0,P|320:368|373:380,1,67.5,0|0,1:0|0:0,0:0:0:0:
48,253,42529,2,0,P|75:240|128:228,1,67.5
99,348,42760,6,0,P|110:284|112:226,1,118.125,10|0,2:3|0:0,0:0:0:0:
413,36,42991,2,0,P|402:100|400:158,1,118.125,4|0,3:3|0:0,0:0:0:0:
100,35,43222,6,0,P|164:46|222:48,1,101.25,10|0,3:0|0:0,0:0:0:0:
412,349,43453,2,0,P|348:338|290:336,1,101.25,4|0,3:3|0:0,0:0:0:0:
203,298,43683,6,0,P|195:259|206:220,1,67.5,10|0,3:0|0:0,0:0:0:0:
309,86,43914,2,0,P|317:125|306:164,1,67.5,4|0,3:3|0:0,0:0:0:0:
362,245,44145,2,0,P|323:253|284:242,1,67.5,10|0,3:0|0:0,0:0:0:0:
150,139,44376,2,0,P|189:131|228:142,1,67.5,4|0,3:3|0:0,0:0:0:0:
256,192,44611,5,6,3:2:0:0:
256,192,46003,5,2,2:0:0:0:
256,192,46235,1,2,2:0:0:0:
257,384,47860,5,2,2:0:0:0:
257,384,48092,1,2,2:0:0:0:
257,0,49717,5,2,2:0:0:0:
257,0,49949,1,2,2:0:0:0:
256,192,50645,12,0,55287,2:0:0:0:
