osu file format v14

[General]
AudioFilename: audio.mp3
AudioLeadIn: 0
PreviewTime: 94285
Countdown: 0
SampleSet: Soft
StackLeniency: 1
Mode: 3
LetterboxInBreaks: 0
SpecialStyle: 0
WidescreenStoryboard: 0

[Editor]
DistanceSpacing: 1
BeatDivisor: 8
GridSize: 8
TimelineZoom: 1.7

[Metadata]
Title:Undertale (Chime Remix)
TitleUnicode:Undertale (Chime Remix)
Artist:Chime
ArtistUnicode:Chime
Creator:SourToast
Version:True Pacifist
Source:Undertale
Tags:Soundtrack Determination Soul Melodic Dubstep Heart Marathon Toby Fox
BeatmapID:976440
BeatmapSetID:455546

[Difficulty]
HPDrainRate:8.4
CircleSize:4
OverallDifficulty:8.2
ApproachRate:5
SliderMultiplier:1.4
SliderTickRate:1

[Events]
//Background and Video events
0,0,"maxresdefault.jpg",0,0
//Break Periods
//Storyboard Layer 0 (Background)
//Storyboard Layer 1 (Fail)
//Storyboard Layer 2 (Pass)
//Storyboard Layer 3 (Foreground)
//Storyboard Layer 4 (Overlay)
//Storyboard Sound Samples

[TimingPoints]
0,428.571428571429,4,2,0,30,1,0
25928,-1000,4,2,0,30,0,0
26678,-500,4,2,0,30,0,0
26785,-333.333333333333,4,2,0,30,0,0
26892,-250,4,2,0,30,0,0
27000,-200,4,2,0,30,0,0
27107,-166.666666666667,4,2,0,30,0,0
27214,-142.857142857143,4,2,0,30,0,0
27321,-125,4,2,0,30,0,0
27428,-111.111111111111,4,2,0,30,0,0
27857,-108.695652173913,4,2,0,30,0,0
28285,-105.263157894737,4,2,0,30,0,0
28714,-102.040816326531,4,2,0,30,0,0
29142,-100,4,2,0,30,0,0
29571,-98.0392156862745,4,2,0,30,0,0
30000,-95.2380952380952,4,2,0,30,0,0
30428,-92.5925925925926,4,2,0,30,0,0
30857,-90.9090909090909,4,2,0,30,0,0
31285,-92.5925925925926,4,2,0,30,0,0
31714,-95.2380952380952,4,2,0,30,0,0
32142,-98.0392156862745,4,2,0,30,0,0
32571,-100,4,2,0,30,0,0
33000,-102.040816326531,4,2,0,30,0,0
33428,-105.263157894737,4,2,0,30,0,0
33857,-108.695652173913,4,2,0,30,0,0
34285,-111.111111111111,4,2,0,30,0,0
34714,-108.695652173913,4,2,0,30,0,0
35142,-105.263157894737,4,2,0,30,0,0
35571,-102.040816326531,4,2,0,30,0,0
36000,-100,4,2,0,30,0,0
36428,-98.0392156862745,4,2,0,30,0,0
36857,-95.2380952380952,4,2,0,30,0,0
37285,-92.5925925925926,4,2,0,30,0,0
37714,-90.9090909090909,4,2,0,30,0,0
38571,-93.4579439252336,4,2,0,30,0,0
39428,-96.1538461538461,4,2,0,30,0,0
40285,-100,4,2,0,30,0,0
41142,-100,4,2,0,30,0,1
41571,-400,4,2,0,30,0,1
41607,-83.3333333333333,4,2,0,30,0,1
41642,-400,4,2,0,30,0,1
41678,-83.3333333333333,4,2,0,30,0,1
41714,-400,4,2,0,30,0,1
41750,-83.3333333333333,4,2,0,30,0,1
41785,-100,4,2,0,30,0,1
42428,-400,4,2,0,30,0,1
42464,-83.3333333333333,4,2,0,30,0,1
42500,-400,4,2,0,30,0,1
42535,-83.3333333333333,4,2,0,30,0,1
42571,-400,4,2,0,30,0,1
42607,-83.3333333333333,4,2,0,30,0,1
42642,-100,4,2,0,30,0,1
43285,-400,4,2,0,30,0,1
43321,-83.3333333333333,4,2,0,30,0,1
43357,-400,4,2,0,30,0,1
43392,-83.3333333333333,4,2,0,30,0,1
43428,-400,4,2,0,30,0,1
43464,-83.3333333333333,4,2,0,30,0,1
43500,-100,4,2,0,30,0,1
44142,-400,4,2,0,30,0,1
44178,-83.3333333333333,4,2,0,30,0,1
44214,-400,4,2,0,30,0,1
44250,-83.3333333333333,4,2,0,30,0,1
44285,-400,4,2,0,30,0,1
44321,-83.3333333333333,4,2,0,30,0,1
44357,-100,4,2,0,30,0,1
45000,-400,4,2,0,30,0,1
45035,-83.3333333333333,4,2,0,30,0,1
45071,-400,4,2,0,30,0,1
45107,-83.3333333333333,4,2,0,30,0,1
45142,-400,4,2,0,30,0,1
45178,-100,4,2,0,30,0,1
45857,-400,4,2,0,30,0,1
45892,-83.3333333333333,4,2,0,30,0,1
45928,-400,4,2,0,30,0,1
45964,-83.3333333333333,4,2,0,30,0,1
46000,-400,4,2,0,30,0,1
46035,-83.3333333333333,4,2,0,30,0,1
46071,-100,4,2,0,30,0,1
46714,-400,4,2,0,30,0,1
46750,-83.3333333333333,4,2,0,30,0,1
46785,-400,4,2,0,30,0,1
46821,-83.3333333333333,4,2,0,30,0,1
46857,-400,4,2,0,30,0,1
46892,-83.3333333333333,4,2,0,30,0,1
46928,-100,4,2,0,30,0,1
47571,-400,4,2,0,30,0,1
47607,-83.3333333333333,4,2,0,30,0,1
47642,-400,4,2,0,30,0,1
47678,-83.3333333333333,4,2,0,30,0,1
47714,-400,4,2,0,30,0,1
47750,-83.3333333333333,4,2,0,30,0,1
47785,-100,4,2,0,30,0,1
48428,-400,4,2,0,30,0,1
48464,-83.3333333333333,4,2,0,30,0,1
48500,-400,4,2,0,30,0,1
48535,-83.3333333333333,4,2,0,30,0,1
48571,-400,4,2,0,30,0,1
48607,-83.3333333333333,4,2,0,30,0,1
48642,-100,4,2,0,30,0,1
49285,-400,4,2,0,30,0,1
49321,-83.3333333333333,4,2,0,30,0,1
49357,-400,4,2,0,30,0,1
49392,-83.3333333333333,4,2,0,30,0,1
49428,-400,4,2,0,30,0,1
49464,-83.3333333333333,4,2,0,30,0,1
49500,-100,4,2,0,30,0,1
50142,-400,4,2,0,30,0,1
50178,-83.3333333333333,4,2,0,30,0,1
50214,-400,4,2,0,30,0,1
50250,-83.3333333333333,4,2,0,30,0,1
50285,-400,4,2,0,30,0,1
50321,-83.3333333333333,4,2,0,30,0,1
50357,-100,4,2,0,30,0,1
51000,-400,4,2,0,30,0,1
51035,-83.3333333333333,4,2,0,30,0,1
51071,-400,4,2,0,30,0,1
51107,-83.3333333333333,4,2,0,30,0,1
51142,-400,4,2,0,30,0,1
51178,-83.3333333333333,4,2,0,30,0,1
51214,-100,4,2,0,30,0,1
51857,-400,4,2,0,30,0,1
51892,-83.3333333333333,4,2,0,30,0,1
51928,-400,4,2,0,30,0,1
51964,-83.3333333333333,4,2,0,30,0,1
52000,-400,4,2,0,30,0,1
52035,-83.3333333333333,4,2,0,30,0,1
52071,-100,4,2,0,30,0,1
52714,-400,4,2,0,30,0,1
52750,-83.3333333333333,4,2,0,30,0,1
52785,-400,4,2,0,30,0,1
52821,-83.3333333333333,4,2,0,30,0,1
52857,-400,4,2,0,30,0,1
52892,-83.3333333333333,4,2,0,30,0,1
52928,-100,4,2,0,30,0,1
53142,-100,4,2,0,30,0,0
54857,-133.333333333333,4,2,0,30,0,0
68357,-131.578947368421,4,2,0,30,0,0
68410,-129.87012987013,4,2,0,30,0,0
68464,-128.205128205128,4,2,0,30,0,0
68517,-126.582278481013,4,2,0,30,0,0
68571,-125,4,2,0,30,0,0
89142,-123.456790123457,4,2,0,30,0,0
89357,-121.951219512195,4,2,0,30,0,0
89571,-120.481927710843,4,2,0,30,0,0
89785,-119.047619047619,4,2,0,30,0,0
90000,-117.647058823529,4,2,0,30,0,0
90214,-116.279069767442,4,2,0,30,0,0
90428,-114.942528735632,4,2,0,30,0,0
90642,-113.636363636364,4,2,0,30,0,0
90857,-112.359550561798,4,2,0,30,0,0
91071,-111.111111111111,4,2,0,30,0,0
91285,-109.89010989011,4,2,0,30,0,0
91500,-108.695652173913,4,2,0,30,0,0
91714,-107.52688172043,4,2,0,30,0,0
91928,-106.382978723404,4,2,0,30,0,0
92142,-105.263157894737,4,2,0,30,0,0
92357,-104.166666666667,4,2,0,30,0,0
92571,-103.092783505155,4,2,0,30,0,0
92785,-102.040816326531,4,2,0,30,0,0
93000,-101.010101010101,4,2,0,30,0,0
93214,-100,4,2,0,30,0,0
95571,-500,4,2,0,30,0,0
95607,-83.3333333333333,4,2,0,30,0,0
95678,-500,4,2,0,30,0,0
95714,-83.3333333333333,4,2,0,30,0,0
95785,-500,4,2,0,30,0,0
95821,-83.3333333333333,4,2,0,30,0,0
95892,-500,4,2,0,30,0,0
95928,-100,4,2,0,30,0,0
96000,-100,4,2,0,30,0,1
99642,-133.333333333333,4,2,0,30,0,1
99750,-90.9090909090909,4,2,0,30,0,1
100071,-100,4,2,0,30,0,1
105857,-86.9565217391304,4,2,0,30,0,1
106285,-100,4,2,0,30,0,1
108000,-86.9565217391304,4,2,0,30,0,1
108428,-125,4,2,0,30,0,1
108535,-86.9565217391304,4,2,0,30,0,1
108857,-100,4,2,0,30,0,1
109285,-500,4,2,0,30,0,1
109321,-83.3333333333333,4,2,0,30,0,1
109392,-500,4,2,0,30,0,1
109428,-83.3333333333333,4,2,0,30,0,1
109500,-500,4,2,0,30,0,1
109535,-83.3333333333333,4,2,0,30,0,1
109607,-100,4,2,0,30,0,1
113357,-133.333333333333,4,2,0,30,0,1
113464,-90.9090909090909,4,2,0,30,0,1
113785,-100,4,2,0,30,0,1
119571,-86.9565217391304,4,2,0,30,0,1
120000,-125,4,2,0,30,0,1
120107,-86.9565217391304,4,2,0,30,0,1
120428,-125,4,2,0,30,0,1
120535,-86.9565217391304,4,2,0,30,0,1
120857,-100,4,2,0,30,0,1
123428,-100,4,2,0,30,0,0
137142,-100,4,2,0,30,0,1
149142,-100,4,2,0,30,0,0
150428,-500,4,2,0,30,0,0
150464,-83.3333333333333,4,2,0,30,0,0
150535,-500,4,2,0,30,0,0
150571,-83.3333333333333,4,2,0,30,0,0
150642,-500,4,2,0,30,0,0
150678,-83.3333333333333,4,2,0,30,0,0
150750,-500,4,2,0,30,0,0
150785,-100,4,2,0,30,0,0
150857,-86.9565217391304,4,2,0,30,0,1
151714,-100,4,2,0,30,0,1
154285,-86.9565217391304,4,2,0,30,0,1
155142,-100,4,2,0,30,0,1
157714,-86.9565217391304,4,2,0,30,0,1
158571,-100,4,2,0,30,0,1
161142,-86.9565217391304,4,2,0,30,0,1
162000,-100,4,2,0,30,0,1
164785,-83.3333333333333,4,2,0,30,0,1
165428,-100,4,2,0,30,0,1
168000,-86.9565217391304,4,2,0,30,0,1
168857,-100,4,2,0,30,0,1
171428,-86.9565217391304,4,2,0,30,0,1
172285,-100,4,2,0,30,0,1
174857,-125,4,2,0,30,0,0
174964,-86.9565217391304,4,2,0,30,0,0
175285,-125,4,2,0,30,0,0
175392,-86.9565217391304,4,2,0,30,0,0
175714,-125,4,2,0,30,0,0
175821,-86.9565217391304,4,2,0,30,0,0
176785,-100,4,2,0,30,0,0
178285,-100,4,2,0,30,0,0
178714,-102.040816326531,4,2,0,30,0,0
179142,-103.092783505155,4,2,0,30,0,0
179571,-105.263157894737,4,2,0,30,0,0
180000,-106.382978723404,4,2,0,30,0,0
180428,-108.695652173913,4,2,0,30,0,0
180857,-109.89010989011,4,2,0,30,0,0
181285,-112.359550561798,4,2,0,30,0,0
181714,-113.636363636364,4,2,0,30,0,0
182142,-116.279069767442,4,2,0,30,0,0
182571,-117.647058823529,4,2,0,30,0,0
183000,-120.481927710843,4,2,0,30,0,0
183428,-121.951219512195,4,2,0,30,0,0
183857,-125,4,2,0,30,0,0
184285,-126.582278481013,4,2,0,30,0,0
184714,-129.87012987013,4,2,0,30,0,0
185142,-131.578947368421,4,2,0,30,0,0
226285,-129.87012987013,4,2,0,30,0,0
226500,-128.205128205128,4,2,0,30,0,0
226714,-126.582278481013,4,2,0,30,0,0
226928,-125,4,2,0,30,0,0
227142,-123.456790123457,4,2,0,30,0,0
227357,-121.951219512195,4,2,0,30,0,0
227571,-120.481927710843,4,2,0,30,0,0
227785,-119.047619047619,4,2,0,30,0,0
228000,-117.647058823529,4,2,0,30,0,0
228214,-116.279069767442,4,2,0,30,0,0
228428,-114.942528735632,4,2,0,30,0,0
228642,-113.636363636364,4,2,0,30,0,0
228857,-112.359550561798,4,2,0,30,0,0
229071,-111.111111111111,4,2,0,30,0,0
229285,-109.89010989011,4,2,0,30,0,0
229500,-108.695652173913,4,2,0,30,0,0
229714,-107.52688172043,4,2,0,30,0,0
229928,-106.382978723404,4,2,0,30,0,0
230142,-105.263157894737,4,2,0,30,0,0
230357,-104.166666666667,4,2,0,30,0,0
230571,-103.092783505155,4,2,0,30,0,0
230785,-102.040816326531,4,2,0,30,0,0
231000,-101.010101010101,4,2,0,30,0,0
231214,-100,4,2,0,30,0,0
232714,-500,4,2,0,30,0,0
232750,-83.3333333333333,4,2,0,30,0,0
232821,-500,4,2,0,30,0,0
232857,-83.3333333333333,4,2,0,30,0,0
232928,-500,4,2,0,30,0,0
232964,-83.3333333333333,4,2,0,30,0,0
233035,-500,4,2,0,30,0,0
233071,-100,4,2,0,30,0,0
233142,-100,4,2,0,30,0,1
236785,-133.333333333333,4,2,0,30,0,1
236892,-90.9090909090909,4,2,0,30,0,1
237214,-100,4,2,0,30,0,1
243000,-86.9565217391304,4,2,0,30,0,1
243428,-100,4,2,0,30,0,1
245142,-86.9565217391304,4,2,0,30,0,1
245571,-125,4,2,0,30,0,1
245678,-86.9565217391304,4,2,0,30,0,1
246000,-100,4,2,0,30,0,1
246428,-500,4,2,0,30,0,1
246464,-83.3333333333333,4,2,0,30,0,1
246535,-500,4,2,0,30,0,1
246571,-83.3333333333333,4,2,0,30,0,1
246642,-500,4,2,0,30,0,1
246678,-83.3333333333333,4,2,0,30,0,1
246750,-500,4,2,0,30,0,1
246785,-100,4,2,0,30,0,1
250500,-133.333333333333,4,2,0,30,0,1
250607,-90.9090909090909,4,2,0,30,0,1
250928,-100,4,2,0,30,0,1
256714,-86.9565217391304,4,2,0,30,0,1
257142,-125,4,2,0,30,0,1
257250,-86.9565217391304,4,2,0,30,0,1
257571,-125,4,2,0,30,0,1
257678,-86.9565217391304,4,2,0,30,0,1
258000,-100,4,2,0,30,0,1
260142,-100,4,2,0,30,0,1
260196,-101.010101010101,4,2,0,30,0,1
260250,-102.040816326531,4,2,0,30,0,1
260303,-104.166666666667,4,2,0,30,0,1
260357,-105.263157894737,4,2,0,30,0,1
260410,-106.382978723404,4,2,0,30,0,1
260464,-108.695652173913,4,2,0,30,0,1
260517,-109.89010989011,4,2,0,30,0,1
260571,-111.111111111111,4,2,0,30,0,0
261000,-109.89010989011,4,2,0,30,0,0
261428,-108.695652173913,4,2,0,30,0,0
261857,-106.382978723404,4,2,0,30,0,0
262285,-105.263157894737,4,2,0,30,0,0
262714,-104.166666666667,4,2,0,30,0,0
263142,-102.040816326531,4,2,0,30,0,0
263571,-101.010101010101,4,2,0,30,0,0
264000,-100,4,2,0,30,0,0
264428,-101.010101010101,4,2,0,30,0,0
264857,-102.040816326531,4,2,0,30,0,0
265285,-104.166666666667,4,2,0,30,0,0
265714,-105.263157894737,4,2,0,30,0,0
266142,-106.382978723404,4,2,0,30,0,0
266571,-108.695652173913,4,2,0,30,0,0
267000,-109.89010989011,4,2,0,30,0,0
267428,-111.111111111111,4,2,0,30,0,0
267857,-109.89010989011,4,2,0,30,0,0
268285,-108.695652173913,4,2,0,30,0,0
268714,-106.382978723404,4,2,0,30,0,0
269142,-105.263157894737,4,2,0,30,0,0
269571,-104.166666666667,4,2,0,30,0,0
270000,-102.040816326531,4,2,0,30,0,0
270428,-101.010101010101,4,2,0,30,0,0
270857,-100,4,2,0,30,0,0
271285,-101.010101010101,4,2,0,30,0,0
271714,-102.040816326531,4,2,0,30,0,0
272142,-104.166666666667,4,2,0,30,0,0
272571,-105.263157894737,4,2,0,30,0,0
273000,-106.382978723404,4,2,0,30,0,0
273428,-108.695652173913,4,2,0,30,0,0
273857,-109.89010989011,4,2,0,30,0,0
274285,-111.111111111111,4,2,0,30,0,1
274392,-109.89010989011,4,2,0,30,0,1
274500,-108.695652173913,4,2,0,30,0,1
274607,-107.52688172043,4,2,0,30,0,1
274714,-106.382978723404,4,2,0,30,0,1
274821,-105.263157894737,4,2,0,30,0,1
274928,-104.166666666667,4,2,0,30,0,1
275035,-103.092783505155,4,2,0,30,0,1
275142,-102.040816326531,4,2,0,30,0,1
275250,-101.010101010101,4,2,0,30,0,1
275357,-100,4,2,0,30,0,1
286285,-100,4,2,0,30,0,0
287571,-500,4,2,0,30,0,0
287607,-83.3333333333333,4,2,0,30,0,0
287678,-500,4,2,0,30,0,0
287714,-83.3333333333333,4,2,0,30,0,0
287785,-500,4,2,0,30,0,0
287821,-83.3333333333333,4,2,0,30,0,0
287892,-500,4,2,0,30,0,0
287928,-100,4,2,0,30,0,0
288000,-86.9565217391304,4,2,0,30,0,1
288857,-100,4,2,0,30,0,1
291428,-86.9565217391304,4,2,0,30,0,1
292285,-100,4,2,0,30,0,1
294857,-86.9565217391304,4,2,0,30,0,1
295714,-100,4,2,0,30,0,1
298285,-86.9565217391304,4,2,0,30,0,1
299142,-100,4,2,0,30,0,1
301928,-83.3333333333333,4,2,0,30,0,1
302571,-100,4,2,0,30,0,1
305142,-86.9565217391304,4,2,0,30,0,1
306000,-100,4,2,0,30,0,1
308571,-86.9565217391304,4,2,0,30,0,1
309428,-100,4,2,0,30,0,1
312000,-125,4,2,0,30,0,0
312107,-86.9565217391304,4,2,0,30,0,0
312428,-125,4,2,0,30,0,0
312535,-86.9565217391304,4,2,0,30,0,0
312857,-100,4,2,0,30,0,0

[HitObjects]
64,192,0,5,0,0:0:0:0:
320,192,214,1,0,0:0:0:0:
192,192,428,1,0,0:0:0:0:
320,192,642,1,0,0:0:0:0:
64,192,857,1,0,0:0:0:0:
448,192,1071,1,0,0:0:0:0:
320,192,1178,1,0,0:0:0:0:
64,192,1500,1,0,0:0:0:0:
320,192,1928,1,0,0:0:0:0:
192,192,2142,1,0,0:0:0:0:
448,192,2357,1,0,0:0:0:0:
64,192,2571,1,0,0:0:0:0:
320,192,2785,1,0,0:0:0:0:
192,192,2892,1,0,0:0:0:0:
320,192,3214,1,0,0:0:0:0:
64,192,3428,1,0,0:0:0:0:
448,192,3642,1,0,0:0:0:0:
192,192,3857,1,0,0:0:0:0:
64,192,4071,1,0,0:0:0:0:
320,192,4285,1,0,0:0:0:0:
64,192,4500,1,0,0:0:0:0:
192,192,4607,1,0,0:0:0:0:
448,192,4928,1,0,0:0:0:0:
64,192,5357,1,0,0:0:0:0:
320,192,5571,1,0,0:0:0:0:
192,192,5785,1,0,0:0:0:0:
448,192,6000,1,0,0:0:0:0:
64,192,6214,1,0,0:0:0:0:
192,192,6321,1,0,0:0:0:0:
64,192,6642,1,0,0:0:0:0:
448,192,6857,1,0,0:0:0:0:
320,192,7071,1,0,0:0:0:0:
448,192,7285,1,0,0:0:0:0:
64,192,7500,1,0,0:0:0:0:
320,192,7714,1,0,0:0:0:0:
64,192,7928,1,0,0:0:0:0:
192,192,8035,1,0,0:0:0:0:
448,192,8357,1,0,0:0:0:0:
64,192,8785,1,0,0:0:0:0:
320,192,9000,1,0,0:0:0:0:
192,192,9214,1,0,0:0:0:0:
64,192,9428,1,0,0:0:0:0:
320,192,9642,1,0,0:0:0:0:
192,192,9750,1,0,0:0:0:0:
448,192,10071,1,0,0:0:0:0:
64,192,10285,1,0,0:0:0:0:
192,192,10500,1,0,0:0:0:0:
320,192,10714,1,0,0:0:0:0:
448,192,10928,1,0,0:0:0:0:
64,192,11142,1,0,0:0:0:0:
320,192,11357,1,0,0:0:0:0:
192,192,11464,1,0,0:0:0:0:
320,192,11785,1,0,0:0:0:0:
64,192,12214,1,0,0:0:0:0:
192,192,12428,1,0,0:0:0:0:
448,192,12642,1,0,0:0:0:0:
192,192,12857,1,0,0:0:0:0:
320,192,13071,1,0,0:0:0:0:
64,192,13178,1,0,0:0:0:0:
448,192,13500,1,0,0:0:0:0:
64,192,13714,128,0,13928:0:3:0:0:
320,192,13714,1,2,0:2:0:0:
192,192,13928,128,0,14142:0:0:0:0:
448,192,13928,1,0,0:0:0:0:
448,192,14142,128,0,14357:0:0:0:0:
64,192,14142,1,0,0:0:0:0:
192,192,14357,128,0,14571:0:0:0:0:
320,192,14357,1,0,0:0:0:0:
320,192,14571,1,8,0:0:0:0:
64,192,14571,128,0,16928:0:0:0:0:
192,192,14785,1,0,0:0:0:0:
320,192,14892,1,0,0:0:0:0:
192,192,15214,1,0,0:0:0:0:
448,192,15428,1,2,0:0:0:0:
320,192,15642,1,0,0:0:0:0:
448,192,15857,1,0,0:0:0:0:
320,192,16071,1,0,0:0:0:0:
192,192,16285,1,0,0:0:0:0:
448,192,16285,1,8,0:0:0:0:
320,192,16500,1,0,0:0:0:0:
192,192,16607,1,0,0:0:0:0:
320,192,16928,128,0,17142:0:0:0:0:
192,192,17142,128,2,18000:0:0:0:0:
448,192,17357,1,0,0:0:0:0:
320,192,17571,1,0,0:0:0:0:
320,192,17785,1,0,0:0:0:0:
448,192,18000,128,0,18857:0:0:0:0:
64,192,18000,1,8,0:0:0:0:
320,192,18214,1,0,0:0:0:0:
192,192,18321,1,0,0:0:0:0:
192,192,18642,1,0,0:0:0:0:
320,192,18857,128,0,19714:0:0:0:0:
64,192,18857,1,2,0:0:0:0:
192,192,19071,1,0,0:0:0:0:
448,192,19285,1,0,0:0:0:0:
64,192,19500,1,0,0:0:0:0:
64,192,19714,128,0,20571:0:0:0:0:
448,192,19714,1,8,0:0:0:0:
192,192,19928,1,0,0:0:0:0:
320,192,20035,1,0,0:0:0:0:
448,192,20357,1,0,0:0:0:0:
320,192,20571,128,0,21000:0:0:0:0:
448,192,20571,1,2,0:0:0:0:
192,192,20785,1,0,0:0:0:0:
448,192,21000,128,0,22285:0:0:0:0:
64,192,21214,1,0,0:0:0:0:
192,192,21428,1,8,0:0:0:0:
320,192,21428,1,0,0:0:0:0:
64,192,21642,1,0,0:0:0:0:
192,192,21750,1,0,0:0:0:0:
64,192,22071,1,0,0:0:0:0:
64,192,22285,128,0,23571:0:0:0:0:
320,192,22285,1,2,0:0:0:0:
192,192,22500,1,0,0:0:0:0:
448,192,22714,1,0,0:0:0:0:
320,192,22928,1,0,0:0:0:0:
192,192,23142,1,8,0:0:0:0:
320,192,23142,1,0,0:0:0:0:
448,192,23357,1,0,0:0:0:0:
192,192,23464,1,0,0:0:0:0:
320,192,23571,128,0,24000:0:0:0:0:
192,192,23785,1,0,0:0:0:0:
448,192,24000,128,0,25285:0:0:0:0:
64,192,24000,1,2,0:0:0:0:
192,192,24214,1,0,0:0:0:0:
192,192,24428,1,0,0:0:0:0:
64,192,24642,1,0,0:0:0:0:
192,192,24857,1,8,0:0:0:0:
320,192,24857,1,0,0:0:0:0:
320,192,25071,1,0,0:0:0:0:
192,192,25178,1,0,0:0:0:0:
64,192,25285,128,0,25500:0:0:0:0:
192,192,25500,128,0,25714:0:0:0:0:
448,192,25714,1,2,0:0:0:0:
320,192,25785,1,2,0:0:0:0:
448,192,25857,1,2,0:0:0:0:
64,192,27428,1,2,0:3:0:0:
320,192,27428,1,0,0:3:0:0:
448,192,27428,1,0,0:3:0:0:
192,192,27428,128,0,30857:0:0:0:0:
448,192,27642,1,0,0:0:0:0:
64,192,27857,1,0,0:0:0:0:
320,192,28071,1,0,0:0:0:0:
320,192,28285,1,0,3:0:0:0:
448,192,28285,1,0,3:0:0:0:
64,192,28500,1,0,0:0:0:0:
320,192,28607,1,0,0:0:0:0:
64,192,28928,1,0,0:0:0:0:
320,192,29142,1,0,0:3:0:0:
448,192,29142,1,4,0:3:0:0:
64,192,29357,1,0,0:0:0:0:
448,192,29571,1,0,0:0:0:0:
320,192,29785,1,0,0:0:0:0:
64,192,30000,1,0,3:0:0:0:
448,192,30000,1,0,3:0:0:0:
320,192,30214,1,0,0:0:0:0:
64,192,30321,1,0,0:0:0:0:
320,192,30642,1,0,0:0:0:0:
448,192,30857,128,0,34285:3:0:0:0:
64,192,30857,1,4,0:3:0:0:
320,192,31071,1,0,0:0:0:0:
192,192,31285,1,0,0:0:0:0:
64,192,31500,1,0,0:0:0:0:
64,192,31714,1,0,3:0:0:0:
192,192,31714,1,0,3:0:0:0:
320,192,31928,1,0,0:0:0:0:
192,192,32035,1,0,0:0:0:0:
64,192,32357,1,0,0:0:0:0:
320,192,32571,1,4,0:3:0:0:
192,192,32571,1,0,0:0:0:0:
64,192,32785,1,0,0:0:0:0:
192,192,33000,1,0,0:0:0:0:
320,192,33214,1,0,0:0:0:0:
64,192,33428,1,0,3:0:0:0:
320,192,33428,1,0,3:0:0:0:
192,192,33750,1,0,0:0:0:0:
320,192,34071,1,0,0:0:0:0:
64,192,34285,128,0,37714:0:0:0:0:
192,192,34285,1,4,0:3:0:0:
320,192,34500,1,0,0:0:0:0:
448,192,34714,1,0,0:0:0:0:
320,192,34928,1,0,0:0:0:0:
192,192,35142,1,0,3:0:0:0:
448,192,35142,1,0,3:0:0:0:
320,192,35357,1,0,0:0:0:0:
192,192,35464,1,0,0:0:0:0:
448,192,35785,1,0,0:0:0:0:
320,192,36000,1,4,0:3:0:0:
448,192,36000,1,0,0:0:0:0:
192,192,36214,1,0,0:0:0:0:
320,192,36428,1,0,0:0:0:0:
192,192,36642,1,0,0:0:0:0:
192,192,36857,1,0,3:0:0:0:
320,192,36857,1,0,3:0:0:0:
448,192,37071,1,0,0:0:0:0:
320,192,37178,1,0,0:0:0:0:
192,192,37285,1,0,0:0:0:0:
448,192,37285,1,4,0:0:0:0:
320,192,37500,1,0,0:0:0:0:
320,192,37714,128,0,40285:0:0:0:0:
448,192,37714,1,4,0:3:0:0:
192,192,37928,1,0,0:0:0:0:
448,192,38142,1,0,0:0:0:0:
64,192,38357,1,0,0:0:0:0:
192,192,38571,1,0,3:0:0:0:
448,192,38571,1,0,3:0:0:0:
64,192,38785,1,0,0:0:0:0:
192,192,38892,1,0,0:0:0:0:
64,192,39214,1,0,0:0:0:0:
64,192,39428,1,0,0:0:0:0:
192,192,39428,1,4,0:3:0:0:
448,192,39642,1,0,0:0:0:0:
64,192,39857,1,0,0:0:0:0:
192,192,40071,5,0,0:0:0:0:
64,192,40285,5,0,3:0:0:0:
448,192,40285,1,0,3:0:0:0:
192,192,40500,1,0,0:0:0:0:
448,192,40607,1,0,0:0:0:0:
64,192,40821,1,0,0:0:0:0:
320,192,40928,1,0,0:0:0:0:
64,192,41142,5,4,0:3:0:0:
192,192,41142,1,0,0:3:0:0:
448,192,41142,1,0,0:0:0:0:
192,192,41357,1,0,0:0:0:0:
448,192,41571,1,0,0:0:0:0:
192,192,41642,1,0,0:0:0:0:
448,192,41714,1,0,0:0:0:0:
64,192,41785,1,0,0:0:0:0:
64,192,42000,1,2,3:0:0:0:
192,192,42000,1,0,3:0:0:0:
320,192,42000,1,0,0:0:0:0:
448,192,42214,1,0,0:0:0:0:
192,192,42428,1,0,0:0:0:0:
320,192,42500,1,0,0:0:0:0:
192,192,42571,1,0,0:0:0:0:
64,192,42642,1,0,0:0:0:0:
320,192,42857,1,0,0:3:0:0:
448,192,42857,1,4,0:3:0:0:
192,192,43071,1,0,0:0:0:0:
320,192,43285,1,0,0:0:0:0:
64,192,43357,1,0,0:0:0:0:
320,192,43428,1,0,0:0:0:0:
192,192,43500,1,0,0:0:0:0:
64,192,43714,1,2,0:3:0:0:
192,192,43714,1,0,0:3:0:0:
320,192,43714,1,0,0:0:0:0:
320,192,43928,1,0,0:0:0:0:
64,192,44142,1,0,0:0:0:0:
192,192,44214,1,0,0:0:0:0:
64,192,44285,1,0,0:0:0:0:
448,192,44357,1,0,0:0:0:0:
320,192,44571,1,0,0:3:0:0:
448,192,44571,1,4,0:3:0:0:
64,192,44785,1,0,0:0:0:0:
320,192,45000,1,0,0:0:0:0:
448,192,45071,1,0,0:0:0:0:
320,192,45142,1,0,0:0:0:0:
192,192,45214,1,0,0:0:0:0:
64,192,45428,1,2,0:3:0:0:
192,192,45428,1,0,0:3:0:0:
448,192,45428,1,0,0:0:0:0:
320,192,45642,1,0,0:0:0:0:
448,192,45857,1,0,0:0:0:0:
64,192,45928,1,0,0:0:0:0:
448,192,46000,1,0,0:0:0:0:
192,192,46071,1,0,0:0:0:0:
64,192,46285,1,4,0:3:0:0:
192,192,46285,1,0,0:3:0:0:
320,192,46500,1,0,0:0:0:0:
320,192,46714,1,0,0:0:0:0:
192,192,46785,1,0,0:0:0:0:
320,192,46857,1,0,0:0:0:0:
64,192,46928,1,0,0:0:0:0:
192,192,47142,1,0,0:0:0:0:
320,192,47142,1,0,0:3:0:0:
448,192,47142,1,2,0:3:0:0:
192,192,47357,1,0,0:0:0:0:
64,192,47571,1,0,0:0:0:0:
320,192,47642,1,0,0:0:0:0:
64,192,47714,1,0,0:0:0:0:
448,192,47785,1,0,0:0:0:0:
320,192,48000,1,0,0:3:0:0:
448,192,48000,1,4,0:3:0:0:
64,192,48214,1,0,0:0:0:0:
192,192,48428,1,0,0:0:0:0:
448,192,48500,1,0,0:0:0:0:
192,192,48571,1,0,0:0:0:0:
320,192,48642,1,0,0:0:0:0:
64,192,48857,1,2,0:3:0:0:
192,192,48857,1,0,0:3:0:0:
320,192,48857,1,0,0:0:0:0:
448,192,49071,1,0,0:0:0:0:
64,192,49285,1,0,0:0:0:0:
320,192,49357,1,0,0:0:0:0:
192,192,49428,1,0,0:0:0:0:
320,192,49500,1,0,0:0:0:0:
320,192,49714,1,0,0:3:0:0:
448,192,49714,1,4,0:3:0:0:
64,192,49928,1,0,0:0:0:0:
320,192,50142,1,0,0:0:0:0:
192,192,50214,1,0,0:0:0:0:
320,192,50285,1,0,0:0:0:0:
448,192,50357,1,0,0:0:0:0:
64,192,50571,1,2,0:3:0:0:
192,192,50571,1,0,0:3:0:0:
320,192,50571,1,0,0:0:0:0:
192,192,50785,1,0,0:0:0:0:
64,192,51000,1,0,0:0:0:0:
320,192,51071,1,0,0:0:0:0:
64,192,51142,1,0,0:0:0:0:
448,192,51214,1,0,0:0:0:0:
320,192,51428,1,0,0:3:0:0:
192,192,51428,1,4,0:3:0:0:
320,192,51642,1,0,0:0:0:0:
192,192,51857,1,0,0:0:0:0:
64,192,51928,1,0,0:0:0:0:
192,192,52000,1,0,0:0:0:0:
448,192,52071,1,0,0:0:0:0:
64,192,52285,1,0,0:0:0:0:
320,192,52285,1,0,0:3:0:0:
448,192,52285,1,2,0:3:0:0:
192,192,52500,1,0,0:0:0:0:
320,192,52714,1,0,0:0:0:0:
64,192,52785,1,0,0:0:0:0:
320,192,52857,1,0,0:0:0:0:
448,192,52928,1,0,0:0:0:0:
64,192,53142,1,4,0:3:0:0:
192,192,53142,1,0,0:3:0:0:
320,192,53142,1,0,0:0:0:0:
448,192,53357,1,0,0:0:0:0:
320,192,53571,1,0,0:0:0:0:
192,192,53785,1,0,0:0:0:0:
448,192,54000,1,0,0:0:0:0:
320,192,54214,1,0,0:0:0:0:
192,192,54428,1,0,0:0:0:0:
64,192,54642,1,0,0:0:0:0:
320,192,54857,1,0,0:0:0:0:
448,192,54857,128,0,55714:0:0:0:0:
320,192,55714,128,0,56142:0:0:0:0:
64,192,56142,128,0,56571:0:0:0:0:
320,192,56571,128,0,57000:0:0:0:0:
192,192,57000,128,0,57428:0:0:0:0:
64,192,57428,128,0,57857:0:0:0:0:
192,192,57857,128,0,58285:0:0:0:0:
448,192,58285,128,0,59142:0:0:0:0:
320,192,58285,1,0,0:0:0:0:
192,192,59142,128,0,59785:0:0:0:0:
448,192,59785,128,0,59892:0:0:0:0:
320,192,59892,128,0,60000:0:0:0:0:
64,192,60000,128,0,61714:0:0:0:0:
192,192,60000,1,0,0:0:0:0:
320,192,61714,1,0,0:0:0:0:
448,192,61714,128,0,62571:0:0:0:0:
192,192,62571,128,0,63000:0:0:0:0:
320,192,63000,128,0,63428:0:0:0:0:
64,192,63428,128,0,63857:0:0:0:0:
192,192,63857,128,0,64285:0:0:0:0:
448,192,64285,128,0,64714:0:0:0:0:
320,192,64714,128,0,65142:0:0:0:0:
64,192,65142,128,0,66000:0:0:0:0:
448,192,65142,1,0,0:0:0:0:
448,192,66000,128,0,66857:0:0:0:0:
320,192,66857,1,0,0:0:0:0:
192,192,66857,128,0,67285:0:0:0:0:
448,192,67285,128,0,67714:0:0:0:0:
64,192,67714,128,0,68142:0:0:0:0:
192,192,67714,1,0,0:0:0:0:
320,192,68142,128,0,68571:0:0:0:0:
448,192,68571,128,0,69428:0:0:0:0:
64,192,68571,128,8,69000:0:0:0:0:
192,192,69000,128,0,69428:0:0:0:0:
64,192,69428,128,2,69857:0:0:0:0:
448,192,69857,128,0,70285:0:0:0:0:
64,192,70285,128,0,70714:0:0:0:0:
320,192,70285,1,0,0:0:0:0:
320,192,70714,128,0,71142:0:0:0:0:
448,192,71142,128,2,71571:0:0:0:0:
64,192,71142,1,0,0:0:0:0:
64,192,71571,128,0,72000:0:0:0:0:
448,192,72000,128,0,72857:0:0:0:0:
320,192,72000,128,0,72428:0:0:0:0:
64,192,72428,128,0,72857:0:0:0:0:
192,192,72857,128,2,73500:0:0:0:0:
448,192,73500,128,0,73607:0:0:0:0:
320,192,73607,128,0,73714:0:0:0:0:
64,192,73714,128,0,75428:0:0:0:0:
192,192,73714,128,0,74142:0:0:0:0:
448,192,74142,128,0,74571:0:0:0:0:
320,192,74571,128,2,75000:0:0:0:0:
448,192,75000,128,0,75428:0:0:0:0:
320,192,75428,128,0,76285:0:0:0:0:
448,192,76285,128,2,76714:0:0:0:0:
64,192,76285,1,0,0:0:0:0:
192,192,76714,128,0,77142:0:0:0:0:
320,192,77142,128,0,77571:0:0:0:0:
64,192,77142,1,0,0:0:0:0:
192,192,77571,128,0,78000:0:0:0:0:
64,192,78000,128,2,78428:0:0:0:0:
320,192,78000,1,0,0:0:0:0:
320,192,78428,128,0,78857:0:0:0:0:
64,192,78857,128,0,79714:0:0:0:0:
448,192,78857,1,0,0:0:0:0:
320,192,79714,128,0,80571:0:0:0:0:
448,192,79714,1,2,0:0:0:0:
64,192,80571,1,0,0:0:0:0:
448,192,80571,128,0,81000:0:0:0:0:
320,192,81000,128,0,81428:0:0:0:0:
192,192,81428,128,0,81857:0:0:0:0:
64,192,81428,1,2,0:0:0:0:
448,192,81857,128,0,82285:0:0:0:0:
64,192,82285,1,0,0:0:0:0:
192,192,82285,1,4,0:3:0:0:
320,192,82357,1,0,0:0:0:0:
448,192,82428,1,0,0:0:0:0:
192,192,82500,1,0,0:0:0:0:
320,192,82714,1,0,0:0:0:0:
64,192,82928,1,0,0:0:0:0:
448,192,83142,1,0,0:0:0:0:
64,192,83357,1,0,0:0:0:0:
320,192,83464,1,0,0:0:0:0:
192,192,83785,1,0,0:0:0:0:
192,192,84214,1,0,0:0:0:0:
448,192,84428,1,0,0:0:0:0:
320,192,84642,1,0,0:0:0:0:
448,192,84857,1,0,0:0:0:0:
64,192,85071,1,0,0:0:0:0:
192,192,85178,1,0,0:0:0:0:
448,192,85500,1,0,0:0:0:0:
64,192,85714,1,0,0:0:0:0:
320,192,85928,1,0,0:0:0:0:
192,192,86142,1,0,0:0:0:0:
448,192,86357,1,0,0:0:0:0:
64,192,86571,1,0,0:0:0:0:
320,192,86785,1,0,0:0:0:0:
192,192,86892,1,0,0:0:0:0:
448,192,87214,1,0,0:0:0:0:
64,192,87642,1,0,0:0:0:0:
192,192,87857,1,0,0:0:0:0:
448,192,88071,1,0,0:0:0:0:
192,192,88285,1,0,0:0:0:0:
320,192,88607,1,0,0:0:0:0:
64,192,88928,1,0,0:0:0:0:
320,192,89142,1,0,0:0:0:0:
448,192,89142,1,0,0:0:0:0:
192,192,89250,1,0,0:0:0:0:
64,192,89250,1,0,0:0:0:0:
320,192,89357,1,0,0:0:0:0:
64,192,89464,1,0,0:0:0:0:
320,192,89571,1,0,0:0:0:0:
448,192,89571,1,0,0:0:0:0:
64,192,89678,1,0,0:0:0:0:
192,192,89678,1,0,0:0:0:0:
448,192,89785,1,0,0:0:0:0:
320,192,89892,1,0,0:0:0:0:
64,192,90000,1,0,0:0:0:0:
192,192,90000,1,0,0:0:0:0:
320,192,90107,1,0,0:0:0:0:
448,192,90107,1,0,0:0:0:0:
64,192,90214,1,0,0:0:0:0:
320,192,90321,1,0,0:0:0:0:
64,192,90428,1,0,0:0:0:0:
192,192,90428,1,0,0:0:0:0:
320,192,90535,1,0,0:0:0:0:
448,192,90535,1,0,0:0:0:0:
192,192,90642,1,0,0:0:0:0:
64,192,90750,1,0,0:0:0:0:
448,192,90857,1,0,0:0:0:0:
320,192,90857,1,0,0:0:0:0:
64,192,90964,1,0,0:0:0:0:
192,192,90964,1,0,0:0:0:0:
448,192,91071,1,0,0:0:0:0:
320,192,91178,1,0,0:0:0:0:
192,192,91285,1,0,0:0:0:0:
64,192,91285,1,0,0:0:0:0:
320,192,91392,1,0,0:0:0:0:
448,192,91392,1,0,0:0:0:0:
64,192,91500,1,0,0:0:0:0:
320,192,91607,1,0,0:0:0:0:
64,192,91714,1,0,0:0:0:0:
192,192,91714,1,0,0:0:0:0:
320,192,91821,1,0,0:0:0:0:
448,192,91821,1,0,0:0:0:0:
64,192,91928,1,0,0:0:0:0:
192,192,92035,1,0,0:0:0:0:
320,192,92142,1,0,0:0:0:0:
448,192,92142,1,0,0:0:0:0:
64,192,92250,1,0,0:0:0:0:
192,192,92250,1,0,0:0:0:0:
320,192,92357,1,0,0:0:0:0:
192,192,92464,1,0,0:0:0:0:
320,192,92571,1,0,0:0:0:0:
448,192,92571,1,0,0:0:0:0:
64,192,92678,1,0,0:0:0:0:
192,192,92678,1,0,0:0:0:0:
448,192,92785,1,0,0:0:0:0:
192,192,92892,1,0,0:0:0:0:
320,192,93000,1,0,0:0:0:0:
448,192,93000,1,0,0:0:0:0:
64,192,93107,1,0,0:0:0:0:
192,192,93107,1,0,0:0:0:0:
320,192,93214,1,0,0:0:0:0:
448,192,93321,1,0,0:0:0:0:
64,192,93428,1,0,0:0:0:0:
192,192,93428,1,0,0:0:0:0:
320,192,93535,1,0,0:0:0:0:
448,192,93535,1,0,0:0:0:0:
64,192,93642,1,0,0:0:0:0:
192,192,93750,1,0,0:0:0:0:
448,192,93857,1,0,0:0:0:0:
320,192,93857,1,0,0:0:0:0:
64,192,93964,1,0,0:0:0:0:
192,192,93964,1,0,0:0:0:0:
320,192,94071,1,0,0:0:0:0:
448,192,94178,1,0,0:0:0:0:
64,192,94285,5,4,3:0:0:0:
192,192,94285,1,0,3:0:0:0:
320,192,94285,1,0,3:0:0:0:
64,192,94392,1,4,3:0:0:0:
192,192,94392,1,0,3:0:0:0:
448,192,94500,1,0,3:0:0:0:
192,192,94607,1,0,3:0:0:0:
320,192,94714,1,0,3:0:0:0:
448,192,94714,1,4,3:0:0:0:
320,192,94821,1,0,3:0:0:0:
448,192,94821,1,4,3:0:0:0:
192,192,94928,1,0,3:0:0:0:
64,192,95035,1,0,3:0:0:0:
320,192,95142,1,0,3:0:0:0:
448,192,95142,1,4,3:0:0:0:
192,192,95142,1,0,0:0:0:0:
64,192,95250,1,0,3:0:0:0:
192,192,95357,1,0,3:0:0:0:
448,192,95464,1,0,3:0:0:0:
64,192,95571,1,2,0:0:0:0:
64,192,95678,1,2,0:0:0:0:
64,192,95785,1,2,0:0:0:0:
64,192,95892,1,2,0:0:0:0:
192,192,96000,1,0,3:0:0:0:
320,192,96000,1,0,3:0:0:0:
448,192,96000,128,0,97607:3:0:0:0:
320,192,96857,128,0,97607:0:0:0:0:
64,192,96857,1,8,0:0:0:0:
64,192,97714,1,0,0:0:0:0:
192,192,97767,1,0,0:0:0:0:
320,192,97821,1,0,0:0:0:0:
448,192,97875,1,0,0:0:0:0:
64,192,97928,1,0,3:0:0:0:
192,192,97928,128,0,98571:3:0:0:0:
448,192,98571,1,0,0:0:0:0:
64,192,98571,1,8,0:0:0:0:
320,192,99053,1,0,0:0:0:0:
192,192,99107,1,0,0:0:0:0:
64,192,99160,1,0,0:0:0:0:
448,192,99214,1,0,0:0:0:0:
320,192,99267,1,0,0:0:0:0:
192,192,99321,1,0,0:0:0:0:
64,192,99375,1,0,0:0:0:0:
448,192,99428,1,0,3:0:0:0:
320,192,99428,128,0,99642:0:0:0:0:
64,192,99857,1,0,3:0:0:0:
192,192,99857,1,0,3:0:0:0:
448,192,99857,128,0,100071:0:0:0:0:
320,192,100285,1,8,0:0:0:0:
448,192,100285,1,0,0:0:0:0:
64,192,100285,128,0,101035:0:0:0:0:
448,192,101142,1,0,0:0:0:0:
320,192,101196,1,0,0:0:0:0:
192,192,101250,1,0,0:0:0:0:
64,192,101303,1,0,0:0:0:0:
448,192,101357,1,0,0:0:0:0:
320,192,101410,1,0,0:0:0:0:
64,192,101464,1,0,0:0:0:0:
192,192,101517,1,0,0:0:0:0:
448,192,101571,1,0,3:0:0:0:
320,192,101571,128,0,102000:3:0:0:0:
192,192,102000,1,8,0:0:0:0:
448,192,102000,1,0,0:0:0:0:
64,192,102000,128,0,102857:0:0:0:0:
192,192,102214,1,0,0:0:0:0:
320,192,102267,1,0,0:0:0:0:
448,192,102321,1,0,0:0:0:0:
192,192,102375,1,0,0:0:0:0:
320,192,102428,1,0,0:0:0:0:
448,192,102482,1,0,0:0:0:0:
192,192,102535,1,0,0:0:0:0:
320,192,102589,1,0,0:0:0:0:
448,192,102642,1,0,0:0:0:0:
320,192,102696,1,0,0:0:0:0:
192,192,102750,1,0,0:0:0:0:
448,192,102857,128,0,103714:3:0:0:0:
320,192,102857,128,0,103285:3:0:0:0:
192,192,103714,128,8,104571:0:0:0:0:
320,192,103714,128,0,104142:0:0:0:0:
448,192,104571,1,0,0:0:0:0:
320,192,104625,1,0,0:0:0:0:
64,192,104678,1,0,0:0:0:0:
192,192,104732,1,0,0:0:0:0:
320,192,104785,1,0,3:0:0:0:
448,192,104785,128,0,105428:3:0:0:0:
64,192,105428,1,8,0:0:0:0:
192,192,105428,1,0,0:0:0:0:
192,192,105857,1,0,0:0:0:0:
64,192,106285,1,0,3:0:0:0:
192,192,106285,1,0,3:0:0:0:
320,192,106285,1,0,3:0:0:0:
448,192,106392,1,0,0:0:0:0:
192,192,106500,1,0,0:0:0:0:
320,192,106607,1,0,0:0:0:0:
64,192,106714,1,0,3:0:0:0:
192,192,106714,1,0,3:0:0:0:
448,192,106714,1,0,3:0:0:0:
320,192,106821,1,0,0:0:0:0:
192,192,106928,1,0,0:0:0:0:
64,192,107035,1,0,0:0:0:0:
192,192,107142,1,0,0:0:0:0:
448,192,107142,1,8,0:0:0:0:
320,192,107142,1,0,0:0:0:0:
64,192,107250,1,0,0:0:0:0:
320,192,107357,1,0,0:0:0:0:
192,192,107464,1,0,0:0:0:0:
448,192,107571,1,0,0:0:0:0:
320,192,107678,1,0,0:0:0:0:
64,192,107785,1,0,0:0:0:0:
192,192,107892,1,0,0:0:0:0:
448,192,108000,128,0,108428:0:0:0:0:
64,192,108428,1,0,3:0:0:0:
320,192,108428,128,0,108857:3:0:0:0:
64,192,108857,128,8,109285:0:3:0:0:
192,192,108857,1,0,0:3:0:0:
448,192,108857,1,0,0:0:0:0:
320,192,109285,1,2,0:0:0:0:
320,192,109392,1,2,0:0:0:0:
320,192,109500,1,2,0:0:0:0:
320,192,109607,1,2,0:0:0:0:
192,192,109714,1,0,3:0:0:0:
64,192,109714,128,0,110571:3:0:0:0:
448,192,109714,128,0,110142:0:0:0:0:
320,192,110571,128,8,111428:0:0:0:0:
192,192,110571,128,0,111000:0:0:0:0:
64,192,111428,1,0,0:0:0:0:
448,192,111482,1,0,0:0:0:0:
192,192,111535,1,0,0:0:0:0:
320,192,111589,1,0,0:0:0:0:
64,192,111642,128,0,112285:3:0:0:0:
448,192,111642,1,0,0:0:0:0:
448,192,112285,1,8,0:0:0:0:
192,192,112285,128,0,112660:0:0:0:0:
192,192,112821,1,0,0:0:0:0:
64,192,112875,1,0,0:0:0:0:
448,192,112928,1,0,0:0:0:0:
320,192,112982,1,0,0:0:0:0:
192,192,113035,1,0,0:0:0:0:
64,192,113089,1,0,0:0:0:0:
448,192,113142,1,0,3:0:0:0:
192,192,113142,1,0,0:0:0:0:
320,192,113142,1,0,3:0:0:0:
192,192,113571,1,0,3:0:0:0:
320,192,113571,1,0,3:0:0:0:
64,192,113571,1,0,0:0:0:0:
64,192,114000,1,0,0:0:0:0:
448,192,114000,1,8,0:0:0:0:
320,192,114000,128,0,114803:0:0:0:0:
64,192,114857,1,0,0:0:0:0:
192,192,114910,1,0,0:0:0:0:
64,192,114964,1,0,0:0:0:0:
448,192,115017,1,0,0:0:0:0:
320,192,115071,1,0,0:0:0:0:
64,192,115125,1,0,0:0:0:0:
192,192,115178,1,0,0:0:0:0:
320,192,115232,1,0,0:0:0:0:
64,192,115285,1,0,3:0:0:0:
448,192,115285,1,0,3:0:0:0:
448,192,115714,128,8,116571:0:0:0:0:
320,192,115714,1,0,0:0:0:0:
192,192,115767,1,0,0:0:0:0:
64,192,115821,1,0,0:0:0:0:
320,192,115875,1,0,0:0:0:0:
192,192,115928,1,0,0:0:0:0:
64,192,115982,1,0,0:0:0:0:
320,192,116035,1,0,0:0:0:0:
192,192,116089,1,0,0:0:0:0:
64,192,116142,1,0,0:0:0:0:
320,192,116196,1,0,0:0:0:0:
192,192,116250,1,0,0:0:0:0:
64,192,116303,1,0,0:0:0:0:
320,192,116357,1,0,0:0:0:0:
192,192,116410,1,0,0:0:0:0:
320,192,116464,1,0,0:0:0:0:
64,192,116571,128,0,117428:3:0:0:0:
192,192,116571,1,0,3:0:0:0:
192,192,117428,1,0,0:0:0:0:
448,192,117428,128,8,118232:0:0:0:0:
64,192,118285,1,0,0:0:0:0:
192,192,118339,1,0,0:0:0:0:
320,192,118392,1,0,0:0:0:0:
448,192,118446,1,0,0:0:0:0:
64,192,118500,1,0,3:3:0:0:
192,192,118500,1,0,0:3:0:0:
64,192,119142,1,0,0:0:0:0:
192,192,119142,1,0,0:0:0:0:
448,192,119142,1,8,0:0:0:0:
320,192,119571,1,0,0:0:0:0:
64,192,120000,1,0,3:0:0:0:
320,192,120000,1,0,3:0:0:0:
448,192,120000,1,0,3:0:0:0:
192,192,120428,1,0,3:0:0:0:
320,192,120428,1,0,3:0:0:0:
448,192,120428,1,0,3:0:0:0:
64,192,120857,1,8,0:0:0:0:
192,192,120857,1,0,0:0:0:0:
448,192,120857,1,0,0:0:0:0:
320,192,120857,128,0,121714:0:0:0:0:
448,192,121714,128,0,122571:0:0:0:0:
64,192,121714,1,0,0:0:0:0:
64,192,122142,1,0,3:0:0:0:
192,192,122142,1,0,3:0:0:0:
64,192,122571,128,0,123428:0:0:0:0:
192,192,122678,128,0,123321:0:0:0:0:
320,192,122785,128,0,123214:0:0:0:0:
448,192,122892,128,0,123107:0:0:0:0:
320,192,123428,1,0,3:0:0:0:
448,192,123428,1,0,3:0:0:0:
192,192,123642,1,0,0:0:0:0:
448,192,123857,1,0,0:0:0:0:
192,192,124071,1,0,0:0:0:0:
64,192,124285,1,0,0:0:0:0:
320,192,124285,1,0,0:0:0:0:
448,192,124285,1,8,0:0:0:0:
320,192,124500,1,0,0:0:0:0:
192,192,124607,1,0,0:0:0:0:
448,192,124928,1,0,0:0:0:0:
64,192,125142,1,0,3:0:0:0:
192,192,125142,1,0,3:0:0:0:
320,192,125357,1,0,0:0:0:0:
192,192,125571,1,0,0:0:0:0:
448,192,125785,1,0,0:0:0:0:
64,192,126000,1,8,0:0:0:0:
192,192,126000,1,0,0:0:0:0:
448,192,126000,1,0,0:0:0:0:
320,192,126214,1,0,0:0:0:0:
192,192,126321,1,0,0:0:0:0:
448,192,126642,1,0,0:0:0:0:
192,192,126857,1,0,3:0:0:0:
320,192,126857,1,0,3:0:0:0:
64,192,127071,1,0,0:0:0:0:
320,192,127285,1,0,0:0:0:0:
64,192,127500,1,0,0:0:0:0:
192,192,127714,1,0,0:0:0:0:
320,192,127714,1,0,0:0:0:0:
64,192,127714,1,8,0:0:0:0:
320,192,127928,1,0,0:0:0:0:
448,192,128035,1,0,0:0:0:0:
192,192,128357,1,0,0:0:0:0:
64,192,128571,1,0,3:0:0:0:
448,192,128571,1,0,3:0:0:0:
320,192,128785,1,0,0:0:0:0:
192,192,129000,1,0,0:0:0:0:
448,192,129214,1,0,0:0:0:0:
64,192,129428,1,8,0:0:0:0:
192,192,129428,1,0,0:0:0:0:
448,192,129428,1,0,0:0:0:0:
192,192,129750,1,0,0:0:0:0:
448,192,130071,1,0,0:0:0:0:
64,192,130285,1,0,3:0:0:0:
192,192,130285,1,0,3:0:0:0:
192,192,130500,1,0,0:0:0:0:
448,192,130714,1,0,0:0:0:0:
320,192,130928,1,0,0:0:0:0:
192,192,131142,1,0,0:0:0:0:
320,192,131142,1,0,0:0:0:0:
448,192,131142,1,8,0:0:0:0:
64,192,131357,1,0,0:0:0:0:
192,192,131464,1,0,0:0:0:0:
320,192,131785,1,0,0:0:0:0:
320,192,132000,1,0,3:0:0:0:
448,192,132000,1,0,3:0:0:0:
192,192,132214,1,0,0:0:0:0:
320,192,132428,1,0,0:0:0:0:
192,192,132642,1,0,0:0:0:0:
64,192,132857,1,0,0:0:0:0:
320,192,132857,1,0,0:0:0:0:
448,192,132857,1,8,0:0:0:0:
448,192,133071,1,0,0:0:0:0:
320,192,133178,1,0,0:0:0:0:
64,192,133500,1,0,0:0:0:0:
192,192,133714,1,0,3:0:0:0:
448,192,133714,1,0,3:0:0:0:
320,192,133928,1,0,0:0:0:0:
64,192,134142,1,0,0:0:0:0:
192,192,134357,1,0,0:0:0:0:
64,192,134571,1,8,0:0:0:0:
192,192,134571,1,0,0:0:0:0:
320,192,134571,1,0,0:0:0:0:
448,192,134785,1,0,0:0:0:0:
320,192,134892,1,0,0:0:0:0:
320,192,135214,1,0,0:0:0:0:
64,192,135428,1,0,3:0:0:0:
448,192,135428,1,0,3:0:0:0:
320,192,135642,1,0,0:0:0:0:
192,192,135857,1,0,0:0:0:0:
448,192,136071,1,0,0:0:0:0:
192,192,136285,1,0,0:0:0:0:
64,192,136285,1,8,0:0:0:0:
448,192,136285,1,0,0:0:0:0:
320,192,136500,1,0,0:0:0:0:
64,192,136607,1,0,0:0:0:0:
448,192,136928,1,0,0:0:0:0:
64,192,137142,1,0,3:0:0:0:
320,192,137142,1,0,3:0:0:0:
192,192,137250,1,0,0:0:0:0:
320,192,137357,1,0,0:0:0:0:
448,192,137464,1,0,0:0:0:0:
64,192,137571,1,0,0:0:0:0:
320,192,137642,1,0,0:0:0:0:
64,192,137714,1,0,0:0:0:0:
320,192,137785,1,0,0:0:0:0:
192,192,137892,1,0,0:0:0:0:
320,192,138000,1,0,0:0:0:0:
448,192,138000,1,8,0:0:0:0:
192,192,138107,1,0,0:0:0:0:
64,192,138214,1,0,0:0:0:0:
320,192,138321,1,0,0:0:0:0:
64,192,138428,1,0,0:0:0:0:
448,192,138500,1,0,0:0:0:0:
64,192,138571,1,0,0:0:0:0:
320,192,138642,1,0,0:0:0:0:
192,192,138750,1,0,0:0:0:0:
64,192,138857,1,0,3:0:0:0:
448,192,138857,1,0,3:0:0:0:
192,192,138964,1,0,0:0:0:0:
320,192,139071,1,0,0:0:0:0:
448,192,139178,1,0,0:0:0:0:
64,192,139285,1,0,0:0:0:0:
320,192,139357,1,0,0:0:0:0:
64,192,139428,1,0,0:0:0:0:
320,192,139500,1,0,0:0:0:0:
448,192,139607,1,0,0:0:0:0:
64,192,139714,1,8,0:0:0:0:
192,192,139714,1,0,0:0:0:0:
320,192,139821,1,0,0:0:0:0:
192,192,139928,1,0,0:0:0:0:
64,192,140035,1,0,0:0:0:0:
448,192,140142,1,0,0:0:0:0:
64,192,140214,1,0,0:0:0:0:
448,192,140285,1,0,0:0:0:0:
64,192,140357,1,0,0:0:0:0:
320,192,140464,1,0,0:0:0:0:
192,192,140571,1,0,3:0:0:0:
448,192,140571,1,0,3:0:0:0:
320,192,140678,1,0,0:0:0:0:
192,192,140785,1,0,0:0:0:0:
64,192,140892,1,0,0:0:0:0:
320,192,141000,1,0,0:0:0:0:
192,192,141071,1,0,0:0:0:0:
320,192,141142,1,0,0:0:0:0:
192,192,141214,1,0,0:0:0:0:
448,192,141321,1,0,0:0:0:0:
64,192,141428,1,8,0:0:0:0:
320,192,141428,1,0,0:0:0:0:
192,192,141535,1,0,0:0:0:0:
448,192,141642,1,0,0:0:0:0:
320,192,141750,1,0,0:0:0:0:
64,192,141857,1,0,0:0:0:0:
448,192,141928,1,0,0:0:0:0:
64,192,142000,1,0,0:0:0:0:
320,192,142071,1,0,0:0:0:0:
64,192,142178,1,0,0:0:0:0:
320,192,142285,1,0,3:0:0:0:
448,192,142285,1,0,3:0:0:0:
64,192,142392,1,0,0:0:0:0:
192,192,142500,1,0,0:0:0:0:
320,192,142607,1,0,0:0:0:0:
192,192,142714,1,0,0:0:0:0:
448,192,142785,1,0,0:0:0:0:
192,192,142857,1,0,0:0:0:0:
448,192,142928,1,0,0:0:0:0:
64,192,143035,1,0,0:0:0:0:
320,192,143142,1,0,0:0:0:0:
448,192,143142,1,8,0:0:0:0:
192,192,143250,1,0,0:0:0:0:
320,192,143357,1,0,0:0:0:0:
64,192,143464,1,0,0:0:0:0:
320,192,143571,1,0,0:0:0:0:
64,192,143642,1,0,0:0:0:0:
320,192,143714,1,0,0:0:0:0:
192,192,143785,1,0,0:0:0:0:
320,192,143892,1,0,0:0:0:0:
64,192,144000,1,0,3:0:0:0:
448,192,144000,1,0,3:0:0:0:
192,192,144107,1,0,0:0:0:0:
320,192,144214,1,0,0:0:0:0:
64,192,144321,1,0,0:0:0:0:
320,192,144428,1,0,0:0:0:0:
64,192,144500,1,0,0:0:0:0:
320,192,144571,1,0,0:0:0:0:
448,192,144642,1,0,0:0:0:0:
64,192,144750,1,0,0:0:0:0:
192,192,144857,1,8,0:0:0:0:
320,192,144857,1,0,0:0:0:0:
448,192,144964,1,0,0:0:0:0:
320,192,145071,1,0,0:0:0:0:
192,192,145178,1,0,0:0:0:0:
64,192,145285,1,0,0:0:0:0:
320,192,145357,1,0,0:0:0:0:
64,192,145428,1,0,0:0:0:0:
448,192,145500,1,0,0:0:0:0:
192,192,145607,1,0,0:0:0:0:
64,192,145714,1,0,3:0:0:0:
320,192,145714,1,0,3:0:0:0:
192,192,145821,1,0,0:0:0:0:
448,192,145928,1,0,0:0:0:0:
320,192,146035,1,0,0:0:0:0:
192,192,146142,1,0,0:0:0:0:
448,192,146214,1,0,0:0:0:0:
64,192,146285,1,0,0:0:0:0:
320,192,146357,1,0,0:0:0:0:
64,192,146464,1,0,0:0:0:0:
192,192,146571,1,8,0:0:0:0:
320,192,146571,1,0,0:0:0:0:
448,192,146678,1,0,0:0:0:0:
320,192,146785,1,0,0:0:0:0:
192,192,146892,1,0,0:0:0:0:
448,192,147000,1,0,0:0:0:0:
64,192,147071,1,0,0:0:0:0:
448,192,147142,1,0,0:0:0:0:
64,192,147214,1,0,0:0:0:0:
192,192,147321,1,0,0:0:0:0:
448,192,147428,1,0,3:0:0:0:
320,192,147428,1,0,3:0:0:0:
64,192,147535,1,0,0:0:0:0:
192,192,147642,1,0,0:0:0:0:
448,192,147750,1,0,0:0:0:0:
192,192,147857,1,0,0:0:0:0:
448,192,147928,1,0,0:0:0:0:
192,192,148000,1,0,0:0:0:0:
448,192,148071,1,0,0:0:0:0:
192,192,148178,1,0,0:0:0:0:
64,192,148285,1,8,0:0:0:0:
448,192,148285,1,0,0:0:0:0:
320,192,148392,1,0,0:0:0:0:
192,192,148500,1,0,0:0:0:0:
448,192,148607,1,0,0:0:0:0:
64,192,148714,1,0,0:0:0:0:
448,192,148785,1,0,0:0:0:0:
64,192,148857,1,0,0:0:0:0:
320,192,148928,1,0,0:0:0:0:
448,192,149035,1,0,0:0:0:0:
64,192,149142,1,0,3:0:0:0:
320,192,149142,1,0,3:0:0:0:
192,192,149250,1,0,0:0:0:0:
64,192,149357,1,0,0:0:0:0:
448,192,149464,1,0,0:0:0:0:
320,192,149571,1,0,0:0:0:0:
192,192,149678,1,0,0:0:0:0:
64,192,149785,1,0,0:0:0:0:
192,192,149892,1,0,0:0:0:0:
320,192,150000,1,0,0:0:0:0:
448,192,150107,1,0,0:0:0:0:
64,192,150214,1,0,0:0:0:0:
192,192,150321,1,0,0:0:0:0:
320,192,150428,1,2,0:0:0:0:
320,192,150535,1,2,0:0:0:0:
320,192,150642,1,2,0:0:0:0:
320,192,150750,1,2,0:0:0:0:
192,192,150857,1,0,3:0:0:0:
64,192,150857,128,0,151714:3:0:0:0:
448,192,150857,128,0,151714:0:0:0:0:
192,192,151714,1,8,0:0:0:0:
320,192,151714,128,0,151928:0:0:0:0:
192,192,151928,128,0,152142:0:0:0:0:
64,192,151928,1,0,0:0:0:0:
320,192,152142,1,0,0:0:0:0:
64,192,152357,128,0,152571:0:0:0:0:
448,192,152357,1,0,0:0:0:0:
320,192,152571,128,0,152785:0:0:0:0:
192,192,152571,1,0,0:0:0:0:
64,192,152785,1,0,3:0:0:0:
192,192,152785,1,0,3:0:0:0:
192,192,153000,128,0,153214:0:0:0:0:
448,192,153000,1,0,0:0:0:0:
320,192,153214,128,0,153428:0:0:0:0:
64,192,153214,1,0,0:0:0:0:
64,192,153428,1,0,0:0:0:0:
448,192,153428,1,8,0:0:0:0:
192,192,153642,128,0,153857:0:0:0:0:
320,192,153642,1,0,0:0:0:0:
448,192,153857,128,0,154071:0:0:0:0:
64,192,153857,1,0,0:0:0:0:
320,192,154071,128,0,154285:0:0:0:0:
192,192,154071,1,0,0:0:0:0:
64,192,154285,128,0,155142:3:0:0:0:
192,192,154285,128,0,155142:0:0:0:0:
448,192,154285,1,0,0:0:0:0:
320,192,155142,128,0,155357:0:0:0:0:
448,192,155142,1,8,0:0:0:0:
448,192,155357,128,0,155571:0:0:0:0:
64,192,155357,1,0,0:0:0:0:
192,192,155571,1,0,0:0:0:0:
192,192,155785,128,0,156000:0:0:0:0:
320,192,155785,1,0,0:0:0:0:
448,192,156000,128,0,156214:0:0:0:0:
64,192,156000,1,0,0:0:0:0:
192,192,156214,1,0,0:0:0:0:
64,192,156428,128,0,156642:0:0:0:0:
320,192,156428,1,0,3:0:0:0:
448,192,156428,1,0,3:0:0:0:
448,192,156642,128,0,156857:0:0:0:0:
192,192,156642,1,0,0:0:0:0:
320,192,156857,1,8,0:0:0:0:
64,192,156857,1,0,0:0:0:0:
320,192,157071,128,0,157285:0:0:0:0:
192,192,157071,1,0,0:0:0:0:
64,192,157285,128,0,157500:0:0:0:0:
448,192,157285,1,0,0:0:0:0:
320,192,157500,128,0,157714:0:0:0:0:
448,192,157500,1,0,0:0:0:0:
448,192,157714,128,0,158571:3:0:0:0:
192,192,157714,128,0,158571:0:0:0:0:
64,192,157714,1,0,0:0:0:0:
64,192,158571,128,0,158785:0:0:0:0:
320,192,158571,1,0,0:0:0:0:
320,192,158785,128,0,159000:0:0:0:0:
448,192,158785,1,0,0:0:0:0:
192,192,159000,1,0,0:0:0:0:
64,192,159214,128,0,159428:0:0:0:0:
320,192,159214,1,0,0:0:0:0:
192,192,159428,128,0,159642:0:0:0:0:
320,192,159428,1,0,0:0:0:0:
448,192,159642,1,0,3:0:0:0:
320,192,159642,1,0,3:0:0:0:
448,192,159857,128,0,160071:0:0:0:0:
64,192,159857,1,0,0:0:0:0:
192,192,160071,128,0,160285:0:0:0:0:
320,192,160071,1,0,0:0:0:0:
320,192,160285,1,8,0:0:0:0:
448,192,160285,1,0,0:0:0:0:
320,192,160500,128,0,160714:0:0:0:0:
64,192,160500,1,0,0:0:0:0:
64,192,160714,128,0,160928:0:0:0:0:
448,192,160714,1,0,0:0:0:0:
192,192,160928,128,0,161142:0:0:0:0:
320,192,160928,1,0,0:0:0:0:
448,192,161142,128,0,162000:3:0:0:0:
64,192,161142,1,0,3:0:0:0:
320,192,161142,128,0,162000:0:0:0:0:
64,192,162000,128,0,162214:0:0:0:0:
192,192,162000,1,0,0:0:0:0:
320,192,162214,128,0,162428:0:0:0:0:
448,192,162214,1,0,0:0:0:0:
64,192,162428,1,0,0:0:0:0:
192,192,162642,128,0,162857:0:0:0:0:
320,192,162642,1,0,0:0:0:0:
448,192,162857,128,0,163071:0:0:0:0:
64,192,162857,1,0,0:0:0:0:
320,192,163071,1,0,0:0:0:0:
320,192,163285,128,0,163500:3:0:0:0:
64,192,163285,1,0,3:0:0:0:
192,192,163285,1,0,3:0:0:0:
448,192,163500,128,0,163714:0:0:0:0:
64,192,163500,1,0,0:0:0:0:
320,192,163714,1,0,0:0:0:0:
192,192,163714,1,8,0:0:0:0:
192,192,163928,128,0,164142:0:0:0:0:
320,192,163928,1,0,0:0:0:0:
320,192,164142,128,0,164357:0:0:0:0:
64,192,164142,1,0,0:0:0:0:
64,192,164357,128,0,164571:0:0:0:0:
448,192,164357,1,0,0:0:0:0:
320,192,164571,1,2,0:0:0:0:
448,192,164642,1,2,0:0:0:0:
320,192,164714,1,2,0:0:0:0:
64,192,165428,1,8,0:0:0:0:
192,192,165428,1,0,0:0:0:0:
448,192,165428,1,0,0:0:0:0:
320,192,165428,128,0,165642:0:0:0:0:
64,192,165642,128,0,165857:0:0:0:0:
448,192,165642,1,0,0:0:0:0:
192,192,165857,1,0,0:0:0:0:
320,192,166071,128,0,166285:0:0:0:0:
64,192,166071,1,0,0:0:0:0:
448,192,166285,128,0,166500:0:0:0:0:
192,192,166285,1,0,0:0:0:0:
64,192,166500,1,0,3:0:0:0:
192,192,166500,1,0,3:0:0:0:
64,192,166714,128,0,166928:0:0:0:0:
192,192,166714,1,0,0:0:0:0:
320,192,166928,128,0,167142:0:0:0:0:
448,192,166928,1,0,0:0:0:0:
192,192,167142,1,8,0:0:0:0:
64,192,167142,1,0,0:0:0:0:
192,192,167357,128,0,167571:0:0:0:0:
320,192,167357,1,0,0:0:0:0:
448,192,167571,128,0,167785:0:0:0:0:
64,192,167571,1,0,0:0:0:0:
320,192,167785,128,0,168000:0:0:0:0:
192,192,167785,1,0,0:0:0:0:
64,192,168000,128,0,168857:3:0:0:0:
192,192,168000,1,0,3:0:0:0:
448,192,168000,128,0,168857:0:0:0:0:
320,192,168857,128,0,169071:0:0:0:0:
192,192,168857,1,0,0:0:0:0:
448,192,169071,128,0,169285:0:0:0:0:
192,192,169071,1,0,0:0:0:0:
64,192,169285,1,0,0:0:0:0:
320,192,169500,128,0,169714:0:0:0:0:
192,192,169500,1,0,0:0:0:0:
64,192,169714,128,0,169928:0:0:0:0:
448,192,169714,1,0,0:0:0:0:
192,192,169928,1,0,0:0:0:0:
448,192,170142,128,0,170357:3:0:0:0:
64,192,170142,1,0,3:0:0:0:
192,192,170142,1,0,3:0:0:0:
192,192,170357,128,0,170571:0:0:0:0:
320,192,170357,1,0,0:0:0:0:
320,192,170571,1,0,0:0:0:0:
64,192,170571,1,8,0:0:0:0:
64,192,170785,128,0,171000:0:0:0:0:
448,192,170785,1,0,0:0:0:0:
448,192,171000,128,0,171214:0:0:0:0:
192,192,171000,1,0,0:0:0:0:
320,192,171214,128,0,171428:0:0:0:0:
64,192,171214,1,0,0:0:0:0:
192,192,171428,128,0,172285:3:3:0:0:
64,192,171428,128,0,172285:0:0:0:0:
448,192,171428,1,0,0:0:0:0:
448,192,172285,128,0,172500:0:0:0:0:
320,192,172500,128,0,172714:0:0:0:0:
64,192,172500,1,0,0:0:0:0:
64,192,172714,1,0,0:0:0:0:
192,192,172928,128,0,173142:0:0:0:0:
448,192,172928,1,0,0:0:0:0:
64,192,173142,128,0,173357:0:0:0:0:
320,192,173142,1,0,0:0:0:0:
320,192,173357,1,0,3:0:0:0:
448,192,173357,1,0,3:0:0:0:
192,192,173571,128,0,173785:0:0:0:0:
320,192,173571,1,0,0:0:0:0:
448,192,173785,128,0,174000:0:0:0:0:
64,192,173785,1,0,0:0:0:0:
64,192,174000,1,8,0:0:0:0:
192,192,174000,1,0,0:0:0:0:
192,192,174214,128,0,174428:0:0:0:0:
448,192,174214,1,0,0:0:0:0:
320,192,174428,128,0,174642:0:0:0:0:
64,192,174428,1,0,0:0:0:0:
64,192,174642,128,0,174857:0:0:0:0:
448,192,174642,1,0,0:0:0:0:
192,192,174857,1,0,3:0:0:0:
448,192,174857,1,0,3:0:0:0:
320,192,174857,1,0,0:0:0:0:
192,192,175285,1,0,0:0:0:0:
448,192,175285,1,0,3:0:0:0:
64,192,175285,1,0,3:0:0:0:
64,192,175714,5,0,0:0:0:0:
192,192,175714,1,0,0:0:0:0:
320,192,175714,1,0,0:0:0:0:
448,192,175714,1,8,0:0:0:0:
320,192,176785,5,0,0:0:0:0:
192,192,177000,1,0,0:0:0:0:
64,192,177214,1,0,0:0:0:0:
448,192,177428,1,0,0:0:0:0:
192,192,177642,1,0,0:0:0:0:
448,192,177857,1,0,0:0:0:0:
320,192,178071,1,0,0:0:0:0:
448,192,178285,128,4,179142:3:0:0:0:
64,192,178285,1,0,0:0:0:0:
320,192,179142,128,0,180000:0:0:0:0:
192,192,180000,128,0,180857:0:0:0:0:
64,192,180857,128,0,181714:0:0:0:0:
448,192,181714,128,0,182571:0:0:0:0:
192,192,182571,128,0,183428:0:0:0:0:
320,192,183428,128,0,184285:0:0:0:0:
64,192,184285,128,0,185142:0:0:0:0:
448,192,185142,128,0,192000:0:0:0:0:
192,192,188571,1,0,0:0:0:0:
320,192,188785,1,0,0:0:0:0:
64,192,189000,1,0,0:0:0:0:
192,192,189214,1,0,0:0:0:0:
320,192,189428,1,0,0:0:0:0:
64,192,189642,1,0,0:0:0:0:
192,192,189750,1,0,0:0:0:0:
64,192,190071,1,0,0:0:0:0:
192,192,190500,1,0,0:0:0:0:
320,192,190714,1,0,0:0:0:0:
64,192,190928,1,0,0:0:0:0:
192,192,191142,1,0,0:0:0:0:
320,192,191464,1,0,0:0:0:0:
192,192,191785,1,0,0:0:0:0:
320,192,192000,1,0,0:0:0:0:
64,192,192000,128,0,193714:3:0:0:0:
192,192,192857,1,0,0:0:0:0:
448,192,192857,1,8,0:0:0:0:
320,192,193714,128,0,195428:0:0:0:0:
192,192,193928,1,0,3:0:0:0:
192,192,194142,1,0,3:0:0:0:
64,192,194571,1,0,0:0:0:0:
448,192,194571,1,8,0:0:0:0:
64,192,195428,128,0,197142:0:0:0:0:
448,192,195428,1,0,3:0:0:0:
192,192,196285,1,0,0:0:0:0:
448,192,196285,1,8,0:0:0:0:
192,192,197142,128,0,198857:0:0:0:0:
448,192,197357,1,0,3:0:0:0:
64,192,197464,1,0,3:0:0:0:
448,192,197571,1,0,3:0:0:0:
448,192,198000,1,8,0:0:0:0:
64,192,198000,1,0,0:0:0:0:
320,192,198214,1,0,0:0:0:0:
448,192,198857,128,0,200571:3:0:0:0:
320,192,198857,1,0,0:0:0:0:
64,192,199714,1,0,0:0:0:0:
320,192,199714,1,8,0:0:0:0:
192,192,200571,128,0,202285:0:0:0:0:
320,192,200785,1,0,3:0:0:0:
320,192,201000,1,0,3:0:0:0:
448,192,201428,1,8,0:0:0:0:
64,192,201428,1,0,0:0:0:0:
320,192,201857,1,0,0:0:0:0:
64,192,202285,128,0,204000:0:0:0:0:
448,192,202285,1,0,3:0:0:0:
192,192,203142,1,0,0:0:0:0:
448,192,203142,1,8,0:0:0:0:
320,192,204000,128,0,205714:0:0:0:0:
192,192,204214,1,0,3:0:0:0:
448,192,204321,1,0,3:0:0:0:
192,192,204428,1,0,3:0:0:0:
64,192,204857,1,0,0:0:0:0:
448,192,204857,1,8,0:0:0:0:
192,192,205071,1,0,0:0:0:0:
448,192,205714,1,0,0:0:0:0:
64,192,205714,128,0,205928:3:0:0:0:
192,192,205928,128,0,206142:0:0:0:0:
320,192,206142,128,0,206357:0:0:0:0:
64,192,206357,128,0,206571:0:0:0:0:
448,192,206571,128,0,208928:0:0:0:0:
192,192,206571,1,8,0:0:0:0:
192,192,207642,1,0,3:0:0:0:
192,192,207857,1,0,3:0:0:0:
320,192,208285,1,0,0:0:0:0:
64,192,208285,1,8,0:0:0:0:
192,192,208928,128,0,209142:0:0:0:0:
64,192,209142,128,0,210000:3:0:0:0:
320,192,209142,1,0,0:0:0:0:
320,192,210000,128,0,210857:0:0:0:0:
448,192,210000,1,8,0:0:0:0:
64,192,210857,128,0,211714:0:0:0:0:
448,192,211071,1,0,3:0:0:0:
192,192,211178,1,0,3:0:0:0:
448,192,211285,1,0,3:0:0:0:
192,192,211714,128,0,212571:0:0:0:0:
448,192,211714,1,8,0:0:0:0:
320,192,211928,1,0,0:0:0:0:
448,192,212571,128,0,213000:3:0:0:0:
64,192,212571,1,0,0:0:0:0:
320,192,213000,128,0,214285:0:0:0:0:
64,192,213428,1,8,0:0:0:0:
448,192,213428,1,0,0:0:0:0:
64,192,214285,128,0,215571:0:0:0:0:
448,192,214500,1,0,3:0:0:0:
448,192,214714,1,0,3:0:0:0:
192,192,215142,1,0,0:0:0:0:
448,192,215142,1,8,0:0:0:0:
448,192,215571,128,0,216000:0:0:0:0:
192,192,216000,128,0,217285:3:0:0:0:
64,192,216000,1,0,0:0:0:0:
448,192,216857,1,8,0:0:0:0:
64,192,216857,1,0,0:0:0:0:
320,192,217285,128,0,217500:0:0:0:0:
448,192,217500,128,0,217714:0:0:0:0:
64,192,217714,128,0,219428:0:0:0:0:
192,192,219428,1,0,0:0:0:0:
448,192,219428,128,4,219642:3:0:0:0:
320,192,219642,128,0,219857:0:0:0:0:
192,192,219857,128,0,220071:0:0:0:0:
64,192,220071,128,0,220285:0:0:0:0:
192,192,220285,128,0,220500:0:0:0:0:
320,192,220500,128,0,220714:0:0:0:0:
192,192,220714,128,0,220928:0:0:0:0:
64,192,220928,128,0,221142:0:0:0:0:
448,192,221142,128,0,221357:0:0:0:0:
320,192,221357,128,0,221571:0:0:0:0:
192,192,221571,128,0,221785:0:0:0:0:
64,192,221785,128,0,222000:0:0:0:0:
192,192,222000,128,0,222214:0:0:0:0:
320,192,222214,128,0,222428:0:0:0:0:
192,192,222428,128,0,222642:0:0:0:0:
64,192,222642,128,0,222857:0:0:0:0:
448,192,222857,128,0,223071:0:0:0:0:
320,192,223071,128,0,223285:0:0:0:0:
192,192,223285,128,0,223500:0:0:0:0:
64,192,223500,128,0,223714:0:0:0:0:
192,192,223714,128,0,223928:0:0:0:0:
320,192,223928,128,0,224142:0:0:0:0:
192,192,224142,128,0,224357:0:0:0:0:
64,192,224357,128,0,224571:0:0:0:0:
320,192,224571,1,0,0:0:0:0:
448,192,224571,1,0,0:0:0:0:
192,192,224785,1,0,0:0:0:0:
64,192,225000,1,0,0:0:0:0:
320,192,225000,1,0,0:0:0:0:
192,192,225214,1,0,0:0:0:0:
192,192,225428,1,0,0:0:0:0:
320,192,225428,1,0,0:0:0:0:
448,192,225642,1,0,0:0:0:0:
64,192,225857,1,0,0:0:0:0:
192,192,225857,1,0,0:0:0:0:
320,192,226071,1,0,0:0:0:0:
64,192,226285,1,0,0:0:0:0:
192,192,226285,1,0,0:0:0:0:
320,192,226392,1,0,0:0:0:0:
448,192,226392,1,0,0:0:0:0:
192,192,226500,1,0,0:0:0:0:
448,192,226607,1,0,0:0:0:0:
192,192,226714,1,0,0:0:0:0:
64,192,226714,1,0,0:0:0:0:
320,192,226821,1,0,0:0:0:0:
448,192,226821,1,0,0:0:0:0:
192,192,226928,1,0,0:0:0:0:
64,192,227035,1,0,0:0:0:0:
320,192,227142,1,0,0:0:0:0:
448,192,227142,1,0,0:0:0:0:
192,192,227250,1,0,0:0:0:0:
64,192,227250,1,0,0:0:0:0:
320,192,227357,1,0,0:0:0:0:
192,192,227464,1,0,0:0:0:0:
320,192,227571,1,0,0:0:0:0:
448,192,227571,1,0,0:0:0:0:
192,192,227678,1,0,0:0:0:0:
64,192,227678,1,0,0:0:0:0:
448,192,227785,1,0,0:0:0:0:
320,192,227892,1,0,0:0:0:0:
64,192,228000,1,0,0:0:0:0:
192,192,228000,1,0,0:0:0:0:
320,192,228107,1,0,0:0:0:0:
448,192,228107,1,0,0:0:0:0:
64,192,228214,1,0,0:0:0:0:
320,192,228321,1,0,0:0:0:0:
192,192,228428,1,0,0:0:0:0:
64,192,228428,1,0,0:0:0:0:
320,192,228535,1,0,0:0:0:0:
448,192,228535,1,0,0:0:0:0:
192,192,228642,1,0,0:0:0:0:
64,192,228750,1,0,0:0:0:0:
320,192,228857,1,0,0:0:0:0:
448,192,228857,1,0,0:0:0:0:
192,192,228964,1,0,0:0:0:0:
64,192,228964,1,0,0:0:0:0:
320,192,229071,1,0,0:0:0:0:
64,192,229178,1,0,0:0:0:0:
320,192,229285,1,0,0:0:0:0:
448,192,229285,1,0,0:0:0:0:
64,192,229392,1,0,0:0:0:0:
192,192,229392,1,0,0:0:0:0:
448,192,229500,1,0,0:0:0:0:
320,192,229607,1,0,0:0:0:0:
64,192,229714,1,0,0:0:0:0:
192,192,229714,1,0,0:0:0:0:
320,192,229821,1,0,0:0:0:0:
448,192,229821,1,0,0:0:0:0:
192,192,229928,1,0,0:0:0:0:
320,192,230035,1,0,0:0:0:0:
64,192,230142,1,0,0:0:0:0:
192,192,230142,1,0,0:0:0:0:
320,192,230250,1,0,0:0:0:0:
448,192,230250,1,0,0:0:0:0:
192,192,230357,1,0,0:0:0:0:
64,192,230464,1,0,0:0:0:0:
320,192,230571,1,0,0:0:0:0:
448,192,230571,1,0,0:0:0:0:
192,192,230678,1,0,0:0:0:0:
64,192,230678,1,0,0:0:0:0:
448,192,230785,1,0,0:0:0:0:
192,192,230892,1,0,0:0:0:0:
448,192,231000,1,0,0:0:0:0:
320,192,231000,1,0,0:0:0:0:
64,192,231107,1,0,0:0:0:0:
192,192,231107,1,0,0:0:0:0:
320,192,231214,1,0,0:0:0:0:
448,192,231321,1,0,0:0:0:0:
64,192,231428,5,4,3:0:0:0:
192,192,231428,1,0,3:0:0:0:
320,192,231428,1,0,3:0:0:0:
64,192,231535,1,4,3:0:0:0:
192,192,231535,1,0,3:0:0:0:
448,192,231642,1,0,3:0:0:0:
192,192,231750,1,0,3:0:0:0:
320,192,231857,1,0,3:0:0:0:
448,192,231857,1,4,3:0:0:0:
320,192,231964,1,0,3:0:0:0:
448,192,231964,1,4,3:0:0:0:
64,192,232071,1,0,3:0:0:0:
320,192,232178,1,0,3:0:0:0:
64,192,232285,1,4,3:0:0:0:
192,192,232285,1,0,3:0:0:0:
448,192,232285,1,0,0:0:0:0:
320,192,232392,1,0,3:0:0:0:
192,192,232500,1,0,3:0:0:0:
64,192,232607,1,0,3:0:0:0:
320,192,232714,1,2,0:0:0:0:
320,192,232821,1,2,0:0:0:0:
320,192,232928,1,2,0:0:0:0:
320,192,233035,1,2,0:0:0:0:
64,192,233142,1,0,3:0:0:0:
192,192,233142,1,0,3:0:0:0:
448,192,233142,128,0,234000:3:0:0:0:
64,192,234000,1,8,0:0:0:0:
192,192,234000,128,0,234750:0:0:0:0:
320,192,234857,1,0,0:0:0:0:
192,192,234910,1,0,0:0:0:0:
448,192,234964,1,0,0:0:0:0:
64,192,235017,1,0,0:0:0:0:
192,192,235071,128,0,235714:3:0:0:0:
320,192,235071,1,0,3:0:0:0:
448,192,235714,1,0,0:0:0:0:
64,192,235714,1,8,0:0:0:0:
448,192,236196,1,0,0:0:0:0:
320,192,236250,1,0,0:0:0:0:
192,192,236303,1,0,0:0:0:0:
448,192,236357,1,0,0:0:0:0:
320,192,236410,1,0,0:0:0:0:
192,192,236464,1,0,0:0:0:0:
64,192,236517,1,0,0:0:0:0:
448,192,236571,1,0,3:0:0:0:
320,192,236571,128,0,236785:0:0:0:0:
192,192,237000,1,0,3:0:0:0:
64,192,237000,128,0,237214:0:0:0:0:
448,192,237000,1,0,3:0:0:0:
448,192,237428,1,0,0:0:0:0:
320,192,237428,128,0,238178:0:0:0:0:
64,192,237428,1,8,0:0:0:0:
64,192,238285,1,0,0:0:0:0:
192,192,238339,1,0,0:0:0:0:
320,192,238392,1,0,0:0:0:0:
448,192,238446,1,0,0:0:0:0:
64,192,238500,1,0,0:0:0:0:
192,192,238553,1,0,0:0:0:0:
448,192,238607,1,0,0:0:0:0:
320,192,238660,1,0,0:0:0:0:
192,192,238714,128,0,239142:3:0:0:0:
64,192,238714,1,0,3:0:0:0:
448,192,239142,1,0,0:0:0:0:
64,192,239142,128,8,240000:0:0:0:0:
192,192,239357,1,0,0:0:0:0:
320,192,239410,1,0,0:0:0:0:
448,192,239464,1,0,0:0:0:0:
192,192,239517,1,0,0:0:0:0:
320,192,239571,1,0,0:0:0:0:
448,192,239625,1,0,0:0:0:0:
192,192,239678,1,0,0:0:0:0:
320,192,239732,1,0,0:0:0:0:
448,192,239785,1,0,0:0:0:0:
320,192,239839,1,0,0:0:0:0:
192,192,239892,1,0,0:0:0:0:
448,192,240000,128,0,240857:3:0:0:0:
320,192,240000,128,0,240428:3:0:0:0:
192,192,240857,128,0,241714:0:0:0:0:
64,192,240857,128,8,241285:0:0:0:0:
448,192,241714,1,0,0:0:0:0:
320,192,241767,1,0,0:0:0:0:
64,192,241821,1,0,0:0:0:0:
192,192,241875,1,0,0:0:0:0:
320,192,241928,1,0,3:0:0:0:
448,192,241928,128,0,242571:3:0:0:0:
64,192,242571,1,8,0:0:0:0:
192,192,242571,1,0,0:0:0:0:
192,192,243000,1,0,0:0:0:0:
192,192,243428,1,0,3:0:0:0:
320,192,243428,1,0,3:0:0:0:
448,192,243428,1,0,3:0:0:0:
64,192,243535,1,0,0:0:0:0:
320,192,243642,1,0,0:0:0:0:
192,192,243750,1,0,0:0:0:0:
64,192,243857,1,0,3:0:0:0:
448,192,243857,1,0,3:0:0:0:
320,192,243857,1,0,3:0:0:0:
192,192,243964,1,0,0:0:0:0:
320,192,244071,1,0,0:0:0:0:
448,192,244178,1,0,0:0:0:0:
192,192,244285,1,0,0:0:0:0:
320,192,244285,1,0,0:0:0:0:
64,192,244285,1,8,0:0:0:0:
448,192,244392,1,0,0:0:0:0:
192,192,244500,1,0,0:0:0:0:
320,192,244607,1,0,0:0:0:0:
64,192,244714,1,0,0:0:0:0:
192,192,244821,1,0,0:0:0:0:
448,192,244928,1,0,0:0:0:0:
320,192,245035,1,0,0:0:0:0:
64,192,245142,128,0,245571:0:0:0:0:
320,192,245571,128,0,246000:3:0:0:0:
448,192,245571,1,0,3:0:0:0:
64,192,246000,128,8,246428:0:0:0:0:
448,192,246000,1,0,0:0:0:0:
448,192,246428,1,2,0:0:0:0:
448,192,246535,1,2,0:0:0:0:
448,192,246642,1,2,0:0:0:0:
448,192,246750,1,2,0:0:0:0:
64,192,246857,128,0,247714:3:0:0:0:
192,192,246857,128,0,247285:3:0:0:0:
320,192,246857,1,0,3:0:0:0:
192,192,247714,128,8,248142:0:0:0:0:
448,192,247714,128,0,248571:0:0:0:0:
64,192,248571,1,0,0:0:0:0:
192,192,248625,1,0,0:0:0:0:
320,192,248678,1,0,0:0:0:0:
448,192,248732,1,0,0:0:0:0:
192,192,248785,1,0,3:0:0:0:
64,192,248785,128,0,249428:3:0:0:0:
448,192,249428,1,0,0:0:0:0:
192,192,249428,128,8,249803:0:0:0:0:
320,192,249910,1,0,0:0:0:0:
192,192,249964,1,0,0:0:0:0:
64,192,250017,1,0,0:0:0:0:
448,192,250071,1,0,0:0:0:0:
320,192,250125,1,0,0:0:0:0:
192,192,250178,1,0,0:0:0:0:
64,192,250232,1,0,0:0:0:0:
192,192,250285,1,0,3:0:0:0:
320,192,250285,1,0,3:0:0:0:
448,192,250285,1,0,3:0:0:0:
64,192,250714,1,0,0:0:0:0:
192,192,250714,1,0,3:0:0:0:
320,192,250714,1,0,3:0:0:0:
448,192,250714,1,0,3:0:0:0:
64,192,251142,1,8,0:0:0:0:
448,192,251142,1,0,0:0:0:0:
320,192,251142,128,0,251946:0:0:0:0:
64,192,252000,1,0,0:0:0:0:
192,192,252053,1,0,0:0:0:0:
320,192,252107,1,0,0:0:0:0:
192,192,252160,1,0,0:0:0:0:
64,192,252214,1,0,0:0:0:0:
448,192,252267,1,0,0:0:0:0:
320,192,252321,1,0,0:0:0:0:
192,192,252375,1,0,0:0:0:0:
64,192,252428,1,0,3:0:0:0:
448,192,252428,1,0,3:0:0:0:
448,192,252857,128,0,253714:0:0:0:0:
64,192,252857,1,8,0:0:0:0:
192,192,252910,1,0,0:0:0:0:
320,192,252964,1,0,0:0:0:0:
64,192,253017,1,0,0:0:0:0:
192,192,253071,1,0,0:0:0:0:
320,192,253125,1,0,0:0:0:0:
192,192,253178,1,0,0:0:0:0:
64,192,253232,1,0,0:0:0:0:
320,192,253285,1,0,0:0:0:0:
192,192,253339,1,0,0:0:0:0:
64,192,253392,1,0,0:0:0:0:
192,192,253446,1,0,0:0:0:0:
320,192,253500,1,0,0:0:0:0:
192,192,253714,128,0,254571:3:0:0:0:
64,192,253714,1,0,3:0:0:0:
64,192,254571,1,8,0:0:0:0:
448,192,254571,128,0,255375:0:0:0:0:
64,192,255428,1,0,0:0:0:0:
192,192,255482,1,0,0:0:0:0:
320,192,255535,1,0,0:0:0:0:
448,192,255589,1,0,0:0:0:0:
64,192,255642,1,0,3:0:0:0:
192,192,255642,1,0,3:0:0:0:
64,192,256285,1,8,0:0:0:0:
192,192,256285,1,0,0:0:0:0:
320,192,256285,1,0,0:0:0:0:
448,192,256285,1,0,0:0:0:0:
192,192,256714,1,0,0:0:0:0:
64,192,257142,1,0,3:0:0:0:
320,192,257142,1,0,3:0:0:0:
448,192,257142,1,0,3:0:0:0:
192,192,257571,1,0,3:0:0:0:
320,192,257571,1,0,3:0:0:0:
448,192,257571,1,0,3:0:0:0:
64,192,258000,1,8,0:0:0:0:
448,192,258000,1,0,0:0:0:0:
192,192,258000,128,0,258857:0:0:0:0:
64,192,258857,1,0,0:0:0:0:
448,192,258857,128,0,259714:0:0:0:0:
192,192,259285,1,0,3:0:0:0:
320,192,259285,1,0,3:0:0:0:
64,192,259714,128,0,260571:0:0:0:0:
192,192,259821,128,0,260464:0:0:0:0:
320,192,259928,128,0,260357:0:0:0:0:
448,192,260035,128,0,260250:0:0:0:0:
448,192,260571,1,0,3:0:0:0:
320,192,260571,128,0,261428:3:0:0:0:
192,192,261000,1,0,0:0:0:0:
192,192,261428,128,0,261857:0:0:0:0:
64,192,261428,1,8,0:0:0:0:
320,192,261857,128,0,262285:0:0:0:0:
64,192,262285,128,0,262714:3:0:0:0:
448,192,262285,1,0,3:0:0:0:
192,192,262714,128,0,263142:0:0:0:0:
64,192,263142,128,8,263571:0:0:0:0:
448,192,263142,1,0,0:0:0:0:
320,192,263571,128,0,264000:0:0:0:0:
192,192,264000,128,0,264857:3:0:0:0:
64,192,264000,1,0,3:0:0:0:
448,192,264428,1,0,0:0:0:0:
448,192,264857,128,0,265500:0:0:0:0:
64,192,264857,1,8,0:0:0:0:
64,192,265285,1,0,0:0:0:0:
320,192,265500,1,0,0:0:0:0:
192,192,265607,1,0,0:0:0:0:
64,192,265714,128,0,267428:3:0:0:0:
448,192,265714,128,0,267428:3:0:0:0:
320,192,266142,1,0,0:0:0:0:
192,192,266571,1,8,0:0:0:0:
320,192,266571,1,0,0:0:0:0:
320,192,267000,1,0,0:0:0:0:
192,192,267428,128,0,268285:3:0:0:0:
448,192,267857,1,0,0:0:0:0:
448,192,268285,128,0,268714:0:0:0:0:
64,192,268285,1,8,0:0:0:0:
320,192,268714,128,0,269142:0:0:0:0:
64,192,269142,128,0,269571:3:0:0:0:
192,192,269142,1,0,3:0:0:0:
192,192,269571,128,0,270000:0:0:0:0:
64,192,270000,128,8,270428:0:0:0:0:
448,192,270000,1,0,0:0:0:0:
320,192,270428,128,0,270857:0:0:0:0:
192,192,270857,128,0,271714:3:0:0:0:
64,192,270857,1,0,3:0:0:0:
320,192,271285,1,0,0:0:0:0:
448,192,271714,128,0,272571:0:0:0:0:
64,192,271714,1,8,0:0:0:0:
192,192,272142,1,0,0:0:0:0:
64,192,272571,128,0,273000:3:0:0:0:
320,192,272571,1,0,3:0:0:0:
320,192,273000,128,0,273428:0:0:0:0:
64,192,273428,128,8,273857:0:0:0:0:
448,192,273428,1,0,0:0:0:0:
192,192,273857,128,0,274285:0:0:0:0:
320,192,274285,1,0,3:0:0:0:
448,192,274285,1,0,3:0:0:0:
64,192,274392,1,0,0:0:0:0:
192,192,274500,1,0,0:0:0:0:
320,192,274607,1,0,0:0:0:0:
64,192,274714,1,0,0:0:0:0:
448,192,274785,1,0,0:0:0:0:
64,192,274857,1,0,0:0:0:0:
448,192,274928,1,0,0:0:0:0:
192,192,275035,1,0,0:0:0:0:
64,192,275142,1,8,0:0:0:0:
448,192,275142,1,0,0:0:0:0:
192,192,275250,1,0,0:0:0:0:
448,192,275357,1,0,0:0:0:0:
320,192,275464,1,0,0:0:0:0:
192,192,275571,1,0,0:0:0:0:
448,192,275642,1,0,0:0:0:0:
192,192,275714,1,0,0:0:0:0:
448,192,275785,1,0,0:0:0:0:
320,192,275892,1,0,0:0:0:0:
64,192,276000,1,0,3:0:0:0:
192,192,276000,1,0,3:0:0:0:
320,192,276107,1,0,0:0:0:0:
448,192,276214,1,0,0:0:0:0:
192,192,276321,1,0,0:0:0:0:
448,192,276428,1,0,0:0:0:0:
64,192,276500,1,0,0:0:0:0:
448,192,276571,1,0,0:0:0:0:
192,192,276642,1,0,0:0:0:0:
320,192,276750,1,0,0:0:0:0:
64,192,276857,1,8,0:0:0:0:
448,192,276857,1,0,0:0:0:0:
320,192,276964,1,0,0:0:0:0:
64,192,277071,1,0,0:0:0:0:
448,192,277178,1,0,0:0:0:0:
192,192,277285,1,0,0:0:0:0:
320,192,277357,1,0,0:0:0:0:
192,192,277428,1,0,0:0:0:0:
320,192,277500,1,0,0:0:0:0:
64,192,277607,1,0,0:0:0:0:
192,192,277714,1,0,3:0:0:0:
320,192,277714,1,0,3:0:0:0:
64,192,277821,1,0,0:0:0:0:
320,192,277928,1,0,0:0:0:0:
448,192,278035,1,0,0:0:0:0:
64,192,278142,1,0,0:0:0:0:
320,192,278214,1,0,0:0:0:0:
64,192,278285,1,0,0:0:0:0:
320,192,278357,1,0,0:0:0:0:
192,192,278464,1,0,0:0:0:0:
448,192,278571,1,0,0:0:0:0:
64,192,278571,1,8,0:0:0:0:
320,192,278678,1,0,0:0:0:0:
192,192,278785,1,0,0:0:0:0:
64,192,278892,1,0,0:0:0:0:
448,192,279000,1,0,0:0:0:0:
192,192,279071,1,0,0:0:0:0:
448,192,279142,1,0,0:0:0:0:
192,192,279214,1,0,0:0:0:0:
320,192,279321,1,0,0:0:0:0:
64,192,279428,1,0,3:0:0:0:
192,192,279428,1,0,3:0:0:0:
448,192,279535,1,0,0:0:0:0:
64,192,279642,1,0,0:0:0:0:
192,192,279750,1,0,0:0:0:0:
448,192,279857,1,0,0:0:0:0:
64,192,279928,1,0,0:0:0:0:
448,192,280000,1,0,0:0:0:0:
64,192,280071,1,0,0:0:0:0:
320,192,280178,1,0,0:0:0:0:
64,192,280285,1,8,0:0:0:0:
448,192,280285,1,0,0:0:0:0:
320,192,280392,1,0,0:0:0:0:
64,192,280500,1,0,0:0:0:0:
320,192,280607,1,0,0:0:0:0:
192,192,280714,1,0,0:0:0:0:
448,192,280785,1,0,0:0:0:0:
192,192,280857,1,0,0:0:0:0:
448,192,280928,1,0,0:0:0:0:
64,192,281035,1,0,0:0:0:0:
192,192,281142,1,0,3:0:0:0:
320,192,281142,1,0,3:0:0:0:
64,192,281250,1,0,0:0:0:0:
320,192,281357,1,0,0:0:0:0:
64,192,281464,1,0,0:0:0:0:
192,192,281571,1,0,0:0:0:0:
448,192,281642,1,0,0:0:0:0:
192,192,281714,1,0,0:0:0:0:
448,192,281785,1,0,0:0:0:0:
320,192,281892,1,0,0:0:0:0:
64,192,282000,1,8,0:0:0:0:
448,192,282000,1,0,0:0:0:0:
192,192,282107,1,0,0:0:0:0:
320,192,282214,1,0,0:0:0:0:
64,192,282321,1,0,0:0:0:0:
448,192,282428,1,0,0:0:0:0:
192,192,282500,1,0,0:0:0:0:
448,192,282571,1,0,0:0:0:0:
192,192,282642,1,0,0:0:0:0:
64,192,282750,1,0,0:0:0:0:
320,192,282857,1,0,3:0:0:0:
448,192,282857,1,0,3:0:0:0:
64,192,282964,1,0,0:0:0:0:
320,192,283071,1,0,0:0:0:0:
448,192,283178,1,0,0:0:0:0:
64,192,283285,1,0,0:0:0:0:
320,192,283357,1,0,0:0:0:0:
64,192,283428,1,0,0:0:0:0:
320,192,283500,1,0,0:0:0:0:
448,192,283607,1,0,0:0:0:0:
64,192,283714,1,8,0:0:0:0:
320,192,283714,1,0,0:0:0:0:
192,192,283821,1,0,0:0:0:0:
448,192,283928,1,0,0:0:0:0:
320,192,284035,1,0,0:0:0:0:
64,192,284142,1,0,0:0:0:0:
448,192,284214,1,0,0:0:0:0:
64,192,284285,1,0,0:0:0:0:
448,192,284357,1,0,0:0:0:0:
320,192,284464,1,0,0:0:0:0:
192,192,284571,1,0,3:0:0:0:
64,192,284571,1,0,3:0:0:0:
320,192,284678,1,0,0:0:0:0:
448,192,284785,1,0,0:0:0:0:
64,192,284892,1,0,0:0:0:0:
448,192,285000,1,0,0:0:0:0:
192,192,285071,1,0,0:0:0:0:
448,192,285142,1,0,0:0:0:0:
192,192,285214,1,0,0:0:0:0:
320,192,285321,1,0,0:0:0:0:
64,192,285428,1,8,0:0:0:0:
448,192,285428,1,0,0:0:0:0:
192,192,285535,1,0,0:0:0:0:
320,192,285642,1,0,0:0:0:0:
192,192,285750,1,0,0:0:0:0:
64,192,285857,1,0,0:0:0:0:
320,192,285928,1,0,0:0:0:0:
64,192,286000,1,0,0:0:0:0:
320,192,286071,1,0,0:0:0:0:
448,192,286178,1,0,0:0:0:0:
64,192,286285,1,0,3:0:0:0:
192,192,286285,1,0,3:0:0:0:
448,192,286392,1,0,0:0:0:0:
320,192,286500,1,0,0:0:0:0:
192,192,286607,1,0,0:0:0:0:
448,192,286714,1,0,0:0:0:0:
320,192,286821,1,0,0:0:0:0:
64,192,286928,1,0,0:0:0:0:
448,192,287035,1,0,0:0:0:0:
320,192,287142,1,0,0:0:0:0:
192,192,287250,1,0,0:0:0:0:
64,192,287357,1,0,0:0:0:0:
320,192,287464,1,0,0:0:0:0:
192,192,287571,1,2,0:0:0:0:
192,192,287678,1,2,0:0:0:0:
192,192,287785,1,2,0:0:0:0:
192,192,287892,1,2,0:0:0:0:
320,192,288000,128,0,288857:3:0:0:0:
64,192,288000,128,0,288857:3:0:0:0:
448,192,288000,1,0,3:0:0:0:
448,192,288857,1,8,0:0:0:0:
64,192,289071,128,0,289285:0:0:0:0:
448,192,289071,1,0,0:0:0:0:
320,192,289285,1,0,0:0:0:0:
64,192,289500,128,0,289714:0:0:0:0:
192,192,289500,1,0,0:0:0:0:
448,192,289714,128,0,289928:0:0:0:0:
64,192,289928,1,0,3:0:0:0:
192,192,289928,1,0,3:0:0:0:
320,192,290142,128,0,290357:0:0:0:0:
192,192,290142,1,0,0:0:0:0:
64,192,290357,128,0,290571:0:0:0:0:
448,192,290357,1,0,0:0:0:0:
448,192,290571,1,0,0:0:0:0:
320,192,290571,1,8,0:0:0:0:
192,192,290785,128,0,291000:0:0:0:0:
448,192,290785,1,0,0:0:0:0:
64,192,291000,1,0,0:0:0:0:
320,192,291000,128,0,291214:0:0:0:0:
448,192,291214,1,0,0:0:0:0:
192,192,291214,128,0,291428:0:0:0:0:
64,192,291428,128,0,292285:3:0:0:0:
448,192,291428,128,0,292285:3:0:0:0:
320,192,291428,1,0,0:0:0:0:
320,192,292285,128,0,292500:0:0:0:0:
192,192,292285,1,8,0:0:0:0:
448,192,292500,128,0,292714:0:0:0:0:
64,192,292500,1,0,0:0:0:0:
192,192,292714,1,0,0:0:0:0:
192,192,292928,128,0,293142:0:0:0:0:
320,192,292928,1,0,0:0:0:0:
64,192,293142,128,0,293357:0:0:0:0:
448,192,293142,1,0,0:0:0:0:
320,192,293357,1,0,0:0:0:0:
448,192,293357,1,0,0:0:0:0:
320,192,293571,128,0,293785:3:0:0:0:
192,192,293571,1,0,3:0:0:0:
448,192,293785,128,0,294000:0:0:0:0:
64,192,293785,1,0,0:0:0:0:
320,192,294000,1,0,0:0:0:0:
64,192,294000,1,8,0:0:0:0:
192,192,294214,128,0,294428:0:0:0:0:
448,192,294214,1,0,0:0:0:0:
320,192,294428,128,0,294642:0:0:0:0:
64,192,294428,1,0,0:0:0:0:
64,192,294642,128,0,294857:0:0:0:0:
448,192,294642,1,0,0:0:0:0:
448,192,294857,128,0,295714:3:0:0:0:
320,192,294857,128,0,295714:3:0:0:0:
192,192,294857,1,0,0:0:0:0:
64,192,295714,1,8,0:0:0:0:
192,192,295714,128,0,295928:0:0:0:0:
64,192,295928,128,0,296142:0:0:0:0:
448,192,295928,1,0,0:0:0:0:
192,192,296142,1,0,0:0:0:0:
320,192,296142,1,0,0:0:0:0:
448,192,296357,128,0,296571:0:0:0:0:
64,192,296357,1,0,0:0:0:0:
192,192,296571,128,0,296785:0:0:0:0:
320,192,296571,1,0,0:0:0:0:
448,192,296785,1,0,3:0:0:0:
64,192,296785,1,0,3:0:0:0:
320,192,297000,128,0,297214:0:0:0:0:
64,192,297000,1,0,0:0:0:0:
448,192,297214,128,0,297428:0:0:0:0:
192,192,297214,1,0,0:0:0:0:
320,192,297428,1,0,0:0:0:0:
64,192,297428,1,8,0:0:0:0:
320,192,297642,128,0,297857:0:0:0:0:
64,192,297642,1,0,0:0:0:0:
64,192,297857,128,0,298071:0:0:0:0:
448,192,297857,1,0,0:0:0:0:
192,192,298071,128,0,298285:0:0:0:0:
448,192,298071,1,0,0:0:0:0:
320,192,298285,1,0,3:0:0:0:
64,192,298285,128,0,299142:3:0:0:0:
448,192,298285,128,0,299142:3:0:0:0:
192,192,299142,1,8,0:0:0:0:
320,192,299142,128,0,299357:0:0:0:0:
192,192,299357,128,0,299571:0:0:0:0:
64,192,299357,1,0,0:0:0:0:
448,192,299571,1,0,0:0:0:0:
64,192,299571,1,0,0:0:0:0:
320,192,299785,128,0,300000:0:0:0:0:
192,192,299785,1,0,0:0:0:0:
448,192,300000,128,0,300214:0:0:0:0:
64,192,300000,1,0,0:0:0:0:
192,192,300214,1,0,0:0:0:0:
320,192,300214,1,0,0:0:0:0:
64,192,300428,128,0,300642:3:0:0:0:
448,192,300428,1,0,3:0:0:0:
320,192,300642,128,0,300857:0:0:0:0:
192,192,300642,1,0,0:0:0:0:
64,192,300857,1,8,0:0:0:0:
448,192,300857,1,0,0:0:0:0:
320,192,301071,128,0,301285:0:0:0:0:
64,192,301071,1,0,0:0:0:0:
192,192,301285,128,0,301500:0:0:0:0:
448,192,301285,1,0,0:0:0:0:
64,192,301500,128,0,301714:0:0:0:0:
448,192,301500,1,0,0:0:0:0:
448,192,301714,1,2,0:0:0:0:
320,192,301785,1,2,0:0:0:0:
448,192,301857,1,2,0:0:0:0:
320,192,302571,1,0,0:0:0:0:
448,192,302571,1,0,0:0:0:0:
64,192,302571,128,8,302785:0:0:0:0:
320,192,302785,128,0,303000:0:0:0:0:
192,192,302785,1,0,0:0:0:0:
192,192,303000,1,0,0:0:0:0:
448,192,303000,1,0,0:0:0:0:
192,192,303214,128,0,303428:0:0:0:0:
448,192,303214,1,0,0:0:0:0:
64,192,303428,128,0,303642:0:0:0:0:
320,192,303428,1,0,0:0:0:0:
192,192,303642,1,0,3:0:0:0:
448,192,303642,1,0,3:0:0:0:
320,192,303857,128,0,304071:0:0:0:0:
448,192,303857,1,0,0:0:0:0:
64,192,304071,128,0,304285:0:0:0:0:
448,192,304071,1,0,0:0:0:0:
192,192,304285,1,8,0:0:0:0:
320,192,304285,1,0,0:0:0:0:
448,192,304500,128,0,304714:0:0:0:0:
64,192,304500,1,0,0:0:0:0:
192,192,304714,128,0,304928:0:0:0:0:
320,192,304714,1,0,0:0:0:0:
64,192,304928,128,0,305142:0:0:0:0:
320,192,304928,1,0,0:0:0:0:
448,192,305142,128,0,306000:3:0:0:0:
320,192,305142,128,0,306000:0:0:0:0:
192,192,305142,1,0,0:0:0:0:
64,192,306000,1,8,0:0:0:0:
192,192,306000,128,0,306214:0:0:0:0:
64,192,306214,128,0,306428:0:0:0:0:
320,192,306214,1,0,0:0:0:0:
192,192,306428,1,0,0:0:0:0:
448,192,306428,1,0,0:0:0:0:
320,192,306642,128,0,306857:0:0:0:0:
192,192,306642,1,0,0:0:0:0:
64,192,306857,128,0,307071:0:0:0:0:
448,192,306857,1,0,0:0:0:0:
192,192,307071,1,0,0:0:0:0:
448,192,307071,1,0,0:0:0:0:
320,192,307285,128,0,307500:3:0:0:0:
64,192,307285,1,0,3:0:0:0:
448,192,307500,128,0,307714:0:0:0:0:
192,192,307500,1,0,0:0:0:0:
64,192,307714,1,8,0:0:0:0:
192,192,307714,1,0,0:0:0:0:
320,192,307928,128,0,308142:0:0:0:0:
192,192,307928,1,0,0:0:0:0:
64,192,308142,128,0,308357:0:0:0:0:
448,192,308142,1,0,0:0:0:0:
448,192,308357,128,0,308571:0:0:0:0:
320,192,308357,1,0,0:0:0:0:
64,192,308571,128,0,309428:3:0:0:0:
320,192,308571,128,0,309428:0:0:0:0:
192,192,308571,1,0,0:0:0:0:
448,192,309428,1,0,0:0:0:0:
192,192,309428,128,0,309642:0:0:0:0:
64,192,309642,128,0,309857:0:0:0:0:
320,192,309642,1,0,0:0:0:0:
448,192,309857,1,0,0:0:0:0:
192,192,309857,1,0,0:0:0:0:
64,192,310071,128,0,310285:0:0:0:0:
320,192,310071,1,0,0:0:0:0:
448,192,310285,128,0,310500:0:0:0:0:
320,192,310285,1,0,0:0:0:0:
64,192,310500,1,0,3:0:0:0:
192,192,310500,1,0,3:0:0:0:
448,192,310714,128,0,310928:0:0:0:0:
192,192,310714,1,0,0:0:0:0:
64,192,310928,128,0,311142:0:0:0:0:
192,192,310928,1,0,0:0:0:0:
320,192,311142,1,8,0:0:0:0:
448,192,311142,1,0,0:0:0:0:
320,192,311357,128,0,311571:0:0:0:0:
64,192,311357,1,0,0:0:0:0:
192,192,311571,128,0,311785:0:0:0:0:
64,192,311571,1,0,0:0:0:0:
448,192,311785,128,0,312000:0:0:0:0:
320,192,311785,1,0,0:0:0:0:
64,192,312000,1,0,3:0:0:0:
192,192,312000,1,0,3:0:0:0:
320,192,312000,1,0,3:0:0:0:
320,192,312214,1,0,0:0:0:0:
320,192,312428,1,0,3:0:0:0:
448,192,312428,1,0,3:0:0:0:
64,192,312428,1,0,3:0:0:0:
192,192,312642,1,0,0:0:0:0:
64,192,312857,1,8,0:0:0:0:
192,192,312857,1,0,0:0:0:0:
320,192,312857,1,0,0:0:0:0:
448,192,312857,1,0,0:0:0:0:
192,192,313071,1,0,0:0:0:0:
320,192,313285,1,0,0:0:0:0:
448,192,313500,1,0,0:0:0:0:
448,192,313928,1,0,0:0:0:0:
320,192,314142,1,0,0:0:0:0:
192,192,314357,1,0,0:0:0:0:
448,192,314571,1,0,0:0:0:0:
320,192,314785,1,0,0:0:0:0:
192,192,315000,1,0,0:0:0:0:
64,192,315214,1,0,0:0:0:0:
320,192,315428,1,0,3:0:0:0:
448,192,315428,1,0,0:0:0:0:
