osu file format v14

[General]
AudioFilename: moeloli1.mp3
AudioLeadIn: 2000
PreviewTime: 41867
Countdown: 0
SampleSet: Soft
StackLeniency: 0.7
Mode: 0
LetterboxInBreaks: 0
WidescreenStoryboard: 0

[Editor]
Bookmarks: 13984,17043,17514,30925,34455,36690
DistanceSpacing: 1.3
BeatDivisor: 3
GridSize: 4
TimelineZoom: 2.3

[Metadata]
Title:Tokimeki Poporon
TitleUnicode:ときめきポポロン♪
Artist:Chimame-tai
ArtistUnicode:チマメ隊
Creator:Sekai-nyan
Version:Insane
Source:ご注文はうさぎですか??
Tags:Crystal Rizia kawaiwkyik Momochikun Gaia Underflow litoluna gochuumon wa usagi desuka?? gochiusa season 2 Koi Chino Kafuu 香風智乃 Maya Jouga 条河麻耶 Megumi Natsu 奈津恵 Inori Minase Sora Tokui Rie Murakawa ending tv size tvsize Sekai loli
BeatmapID:800993
BeatmapSetID:364936

[Difficulty]
HPDrainRate:7
CircleSize:4
OverallDifficulty:7
ApproachRate:8.5
SliderMultiplier:1.6
SliderTickRate:1

[Events]
//Background and Video events
0,0,"moemoe.jpg",0,0
Video,-200,"moe.flv"
//Break Periods
//Storyboard Layer 0 (Background)
//Storyboard Layer 1 (Fail)
//Storyboard Layer 2 (Pass)
//Storyboard Layer 3 (Foreground)
//Storyboard Sound Samples

[TimingPoints]
220,352.941176470588,4,2,2,60,1,0
23161,-100,4,2,1,60,0,0
27396,-100,4,2,1,30,0,0
28455,-100,4,2,3,50,0,0
41867,-100,4,2,2,50,0,0
42572,-100,4,2,1,60,0,1
59514,-100,4,2,1,60,0,0
65161,-100,4,2,1,60,0,1
76455,-100,4,2,1,60,0,0

[Colours]
Combo1 : 244,136,17
Combo2 : 99,108,187
Combo3 : 206,193,240
Combo4 : 255,195,210
Combo5 : 231,130,172
Combo6 : 148,218,191
Combo7 : 45,170,136
Combo8 : 255,190,159

[HitObjects]
104,192,220,5,4,0:0:0:0:
104,192,925,1,2,0:0:0:0:
104,192,1631,6,0,P|96:256|120:300,1,106.666666666667,2|0,0:0|0:0,0:0:0:0:
192,344,1984,2,0,P|224:328|320:340,1,106.666666666667,2|0,0:0|0:0,0:0:0:0:
372,360,2337,2,0,L|400:308,1,53.3333333333333,2|0,0:0|0:0,0:0:0:0:
364,208,2572,2,0,L|336:264,1,53.3333333333333,0|2,0:0|0:0,0:0:0:0:
280,176,2808,2,0,L|304:124,1,53.3333333333333
216,88,3043,5,2,0:0:0:0:
152,252,3396,1,2,0:0:0:0:
48,80,3749,1,10,0:0:0:0:
152,252,4102,1,2,0:0:0:0:
412,192,4455,6,0,B|436:136|408:80,1,106.666666666667,2|8,0:0|0:0,0:0:0:0:
332,124,4808,2,0,B|296:124|296:124|264:112|264:112|228:112,1,106.666666666667
136,112,5161,1,8,0:0:0:0:
176,244,5396,5,0,0:0:0:0:
176,244,5514,2,0,L|204:308,1,53.3333333333333,2|0,0:0|0:0,0:0:0:0:
256,356,5749,1,0,0:0:0:0:
256,356,5867,6,0,P|312:332|372:336,1,106.666666666667,2|0,0:0|0:0,0:0:0:0:
462,208,6219,2,0,P|467:261|452:312,1,106.666666666667,2|0,0:0|0:0,0:0:0:0:
364,192,6572,2,0,P|340:136|352:80,1,106.666666666667,2|0,0:0|0:0,0:0:0:0:
256,84,6925,2,0,P|200:72|144:96,1,106.666666666667,2|8,0:0|0:0,0:0:0:0:
100,160,7278,6,0,P|150:176|201:163,1,106.666666666667,2|0,0:0|0:0,0:0:0:0:
256,232,7631,2,0,L|256:344,1,106.666666666667,8|0,0:0|0:0,0:0:0:0:
344,296,7984,2,0,B|344:236|344:236|360:180,1,106.666666666667,8|0,0:0|0:0,0:0:0:0:
404,112,8337,1,2,0:0:0:0:
260,60,8572,5,0,0:0:0:0:
260,60,8690,2,0,B|208:76|208:76|140:56,1,106.666666666667,2|0,0:0|0:0,0:0:0:0:
55,117,9043,2,0,L|156:152,1,106.666666666667,2|0,0:0|0:0,0:0:0:0:
164,250,9396,2,0,L|64:216,1,106.666666666667,10|0,0:0|0:0,0:0:0:0:
256,276,9749,2,0,P|228:328|176:348,1,106.666666666667,0|8,0:0|0:0,0:0:0:0:
164,250,10102,6,0,P|192:198|244:178,1,106.666666666667,2|0,0:0|0:0,0:0:0:0:
324,184,10455,1,2,0:0:0:0:
324,184,10808,2,0,B|324:124|324:124|340:72,1,106.666666666667,2|0,0:0|0:0,0:0:0:0:
252,48,11161,2,0,L|196:32,1,53.3333333333333,2|0,0:0|0:0,0:0:0:0:
184,112,11396,5,0,0:0:0:0:
184,112,11514,2,0,B|197:156|197:156|197:216,1,106.666666666667,2|0,0:0|0:0,0:0:0:0:
207,308,11867,2,0,P|155:301|117:266,1,106.666666666667,2|0,0:0|0:0,0:0:0:0:
197,216,12219,2,0,P|252:232|288:276,1,106.666666666667,8|0,0:0|0:0,0:0:0:0:
320,344,12572,1,2,0:0:0:0:
408,192,12808,5,0,0:0:0:0:
408,192,12925,2,0,P|432:140|420:84,1,106.666666666667,8|8,0:0|0:0,0:0:0:0:
340,116,13278,2,0,B|288:116|288:116|216:80,1,106.666666666667,2|0,0:0|0:0,0:0:0:0:
180,192,13631,2,0,L|292:192,1,106.666666666667,10|0,0:0|0:0,0:0:0:0:
368,196,13984,1,2,0:0:0:0:
256,304,14219,5,0,0:0:0:0:
256,304,14337,2,0,P|200:296|148:328,1,106.666666666667,2|0,0:0|0:0,0:0:0:0:
64,320,14690,2,0,B|48:280|48:280|48:216,1,106.666666666667,2|0,0:0|0:0,0:0:0:0:
148,128,15043,2,0,B|148:192|148:192|132:232,1,106.666666666667,10|0,0:0|0:0,0:0:0:0:
68,136,15396,1,2,0:0:0:0:
248,12,15631,5,0,0:0:0:0:
200,72,15749,2,0,P|256:88|308:60,1,106.666666666667,8|0,0:0|0:0,0:0:0:0:
436,144,16102,2,0,P|380:128|328:156,1,106.666666666667,8|0,0:0|0:0,0:0:0:0:
384,212,16455,2,0,L|384:268,1,53.3333333333333,2|0,0:0|0:0,0:0:0:0:
312,332,16690,1,0,0:0:0:0:
312,332,16808,1,2,0:0:0:0:
100,260,17043,5,0,0:0:0:0:
60,192,17161,2,0,P|52:144|84:80,1,106.666666666667,2|0,0:0|0:0,0:0:0:0:
136,140,17514,2,0,L|216:52,1,106.666666666667,2|0,0:0|0:0,0:0:0:0:
312,84,17867,2,0,L|240:162,1,106.666666666667,8|0,0:0|0:0,0:0:0:0:
180,232,18219,1,0,0:0:0:0:
376,336,18455,5,0,0:0:0:0:
376,336,18572,2,0,B|320:336|320:336|264:296,1,106.666666666667,8|0,0:0|0:0,0:0:0:0:
364,248,18925,2,0,B|420:248|420:248|476:288,1,106.666666666667,8|0,0:0|0:0,0:0:0:0:
408,168,19278,2,0,L|288:168,1,106.666666666667,2|0,0:0|0:0,0:0:0:0:
348,88,19631,2,0,L|456:88,1,106.666666666667,2|0,0:0|0:0,0:0:0:0:
454,88,19984,1,2,0:0:0:0:
256,32,20219,5,0,0:0:0:0:
256,32,20337,2,0,B|196:32|196:32|144:56,1,106.666666666667,2|0,0:0|0:0,0:0:0:0:
124,152,20690,2,0,P|80:120|64:56,1,106.666666666667,8|0,0:0|0:0,0:0:0:0:
208,116,21043,2,0,P|230:163|221:215,1,106.666666666667,2|0,0:0|0:0,0:0:0:0:
256,296,21396,6,0,L|304:260,1,53.3333333333333,8|0,0:0|0:0,0:0:0:0:
388,292,21631,1,0,0:0:0:0:
388,292,21749,2,0,L|345:324,1,53.3333333333333,2|0,0:0|0:0,0:0:0:0:
440,352,21984,2,0,L|488:316,1,53.3333333333333,0|0,0:0|1:0,0:0:0:0:
500,216,22219,2,0,L|457:248,2,53.3333333333333,0|0|0,0:0|0:0|1:0,0:0:0:0:
392,96,22690,5,0,0:0:0:0:
424,172,22808,2,0,P|368:172|324:136,1,106.666666666667,4|0,0:0|0:0,0:0:0:0:
256,88,23161,1,8,0:0:0:0:
136,192,23396,1,4,0:0:0:0:
136,192,23514,2,0,P|120:252|144:304,1,106.666666666667,2|0,0:0|0:0,0:0:0:0:
200,244,23867,1,8,0:0:0:0:
376,192,24102,5,4,0:0:0:0:
376,192,24220,2,0,P|392:252|368:304,1,106.666666666667,2|0,0:0|0:0,0:0:0:0:
296,240,24572,2,0,P|281:189|297:139,1,106.666666666667,8|0,0:0|0:0,0:0:0:0:
256,56,24925,2,0,L|144:40,1,106.666666666667,8|0,0:0|0:0,0:0:0:0:
64,28,25278,1,2,0:0:0:0:
180,220,25514,5,0,0:0:0:0:
104,192,25631,2,0,P|88:248|88:304,1,106.666666666667,4|0,0:0|0:0,0:0:0:0:
168,324,25984,2,0,P|221:325|272:340,1,106.666666666667,8|0,0:0|0:0,0:0:0:0:
364,364,26337,2,0,L|392:312,1,53.3333333333333,2|0,0:0|0:0,0:0:0:0:
348,216,26572,2,0,L|322:262,2,53.3333333333333,0|10|0,0:0|0:0|0:0,0:0:0:0:
440,240,26925,1,2,0:0:0:0:
256,76,27278,5,2,0:0:0:0:
256,76,27396,2,0,P|184:88|88:72,2,160,0|2|2,0:0|0:0|0:0,0:0:0:0:
396,296,28455,6,0,B|336:296|336:296|320:316|292:336,1,106.666666666667,2|0,0:0|0:0,0:0:0:0:
256,264,28808,2,0,L|256:152,1,106.666666666667,8|0,0:0|0:0,0:0:0:0:
172,188,29161,2,0,L|172:294,1,106.666666666667,2|0,0:0|0:0,0:0:0:0:
336,228,29514,2,0,L|336:116,1,106.666666666667,8|0,0:0|0:0,0:0:0:0:
256,157,29867,6,0,L|256:264,1,106.666666666667,2|0,0:0|0:0,0:0:0:0:
256,344,30219,1,8,0:0:0:0:
444,264,30455,1,0,0:0:0:0:
444,264,30572,2,0,P|412:312|360:328,1,106.666666666667,2|0,0:0|0:0,0:0:0:0:
368,216,30925,2,0,P|400:168|452:152,1,106.666666666667,8|0,0:0|0:0,0:0:0:0:
384,84,31278,6,0,B|328:68|328:68|268:88,1,106.666666666667,2|0,0:0|0:0,0:0:0:0:
200,164,31631,2,0,B|256:180|256:180|301:164,1,106.666666666667,8|0,0:0|0:0,0:0:0:0:
220,264,31984,2,0,P|168:248|108:272,1,106.666666666667,2|0,0:0|0:0,0:0:0:0:
204,340,32337,2,0,P|256:356|316:332,1,106.666666666667,8|0,0:0|0:0,0:0:0:0:
360,276,32690,6,0,L|400:312,1,53.3333333333333,2|0,0:0|0:0,0:0:0:0:
460,248,32925,1,0,0:0:0:0:
460,248,33043,1,8,0:0:0:0:
344,76,33278,1,0,0:0:0:0:
256,80,33396,2,0,B|200:80|200:80|148:100,1,106.666666666667,2|0,0:0|0:0,0:0:0:0:
88,192,33749,2,0,P|56:144|56:76,1,106.666666666667,8|0,0:0|0:0,0:0:0:0:
168,184,34102,6,0,P|161:236|131:279,1,106.666666666667,2|0,0:0|0:0,0:0:0:0:
200,344,34455,2,0,B|256:328|256:328|308:344,1,106.666666666667,8|0,0:0|0:0,0:0:0:0:
408,256,34808,2,0,B|361:270|361:270|305:254,1,106.666666666667,2|0,0:0|0:0,0:0:0:0:
256,180,35161,2,0,L|256:124,2,53.3333333333333,4|0|0,0:3|0:0|0:0,0:0:0:0:
328,340,36219,6,0,L|336:288,1,53.3333333333333,0|0,1:0|0:0,0:0:0:0:
256,244,36455,2,0,L|256:304,1,53.3333333333333,0|0,0:0|1:0,0:0:0:0:
184,340,36690,2,0,L|176:288,1,53.3333333333333,0|0,0:0|1:0,0:0:0:0:
124,228,36925,6,0,B|68:228|68:228|24:252,1,106.666666666667,2|0,0:0|0:0,0:0:0:0:
88,144,37278,2,0,L|196:144,1,106.666666666667,6|0,0:0|0:0,0:0:0:0:
120,60,37631,2,0,B|64:60|64:60|20:36,1,106.666666666667,2|0,0:0|0:0,0:0:0:0:
88,144,37984,2,0,L|194:144,1,106.666666666667,6|0,0:0|0:0,0:0:0:0:
280,144,38337,6,0,P|300:196|288:252,1,106.666666666667,2|0,0:0|0:0,0:0:0:0:
200,336,38690,2,0,P|191:283|211:235,1,106.666666666667,6|0,0:0|0:0,0:0:0:0:
211,235,39043,1,2,0:0:0:0:
360,304,39278,1,0,0:0:0:0:
360,304,39396,2,0,B|416:304|416:304|472:328,1,106.666666666667,2|0,0:0|0:0,0:0:0:0:
468,240,39749,5,2,0:0:0:0:
468,240,40102,2,0,P|480:180|464:128,1,106.666666666667,2|0,0:0|0:0,0:0:0:0:
392,144,40455,2,0,B|336:144|336:144|296:108,1,106.666666666667,2|0,0:0|0:0,0:0:0:0:
213,110,40808,2,0,B|176:144|176:144|120:144,1,106.666666666667,2|4,0:0|0:0,0:0:0:0:
256,328,41396,5,0,0:0:0:0:
256,328,41514,1,2,0:0:0:0:
256,328,41867,2,0,P|320:328|364:296,1,106.666666666667,8|0,0:0|0:0,0:0:0:0:
296,248,42219,2,0,L|296:188,1,53.3333333333333,8|0,0:0|0:0,0:0:0:0:
256,116,42455,1,0,0:0:0:0:
256,116,42572,6,0,B|200:116|200:116|152:84,1,106.666666666667,4|0,0:0|0:0,0:0:0:0:
68,192,42925,2,0,L|184:192,1,106.666666666667,10|0,0:0|0:0,0:0:0:0:
256,268,43278,2,0,B|200:268|200:268|152:300,1,106.666666666667,2|0,0:0|0:0,0:0:0:0:
312,348,43631,2,0,P|344:296|340:236,1,106.666666666667,10|0,0:0|0:0,0:0:0:0:
420,140,43984,6,0,P|423:192|452:236,1,106.666666666667,2|0,0:0|0:0,0:0:0:0:
328,152,44337,2,0,B|276:136|276:136|204:156,1,106.666666666667,10|0,0:0|0:0,0:0:0:0:
224,244,44690,2,0,L|96:264,1,106.666666666667,2|0,0:0|0:0,0:0:0:0:
16,184,45043,2,0,L|121:167,1,106.666666666667,10|0,0:0|0:0,0:0:0:0:
208,152,45396,5,2,0:0:0:0:
344,192,45631,1,0,0:0:0:0:
344,192,45749,2,0,P|348:256|324:304,1,106.666666666667,10|0,0:0|0:0,0:0:0:0:
180,294,46102,2,0,P|161:244|168:192,1,106.666666666667,2|0,0:0|0:0,0:0:0:0:
328,192,46455,2,0,P|332:256|308:304,1,106.666666666667,10|0,0:0|0:0,0:0:0:0:
196,294,46808,6,0,P|177:244|184:192,1,106.666666666667,2|0,0:0|0:0,0:0:0:0:
256,124,47161,1,10,0:0:0:0:
432,192,47396,1,0,0:0:0:0:
432,192,47514,2,0,L|456:88,1,106.666666666667,2|0,0:0|0:0,0:0:0:0:
332,152,47867,2,0,L|356:256,1,106.666666666667,10|0,0:0|0:0,0:0:0:0:
256,316,48219,6,0,B|204:336|204:336|144:316,1,106.666666666667,4|0,0:0|0:0,0:0:0:0:
144,228,48572,2,0,B|196:208|196:208|256:228,1,106.666666666667,10|0,0:0|0:0,0:0:0:0:
148,144,48925,2,0,P|136:88|160:28,1,106.666666666667,2|0,0:0|0:0,0:0:0:0:
252,44,49278,2,0,P|266:94|254:146,1,106.666666666667,10|0,0:0|0:0,0:0:0:0:
128,144,49631,6,0,P|116:88|140:28,1,106.666666666667,2|0,0:0|0:0,0:0:0:0:
273,45,49984,2,0,P|288:96|276:148,1,106.666666666667,10|0,0:0|0:0,0:0:0:0:
312,244,50337,2,0,L|384:160,1,106.666666666667,2|0,0:0|0:0,0:0:0:0:
424,256,50690,2,0,L|354:336,1,106.666666666667,10|0,0:0|0:0,0:0:0:0:
256,320,51043,5,2,0:0:0:0:
124,136,51278,1,0,0:0:0:0:
64,192,51396,2,0,B|64:248|64:248|44:304,1,106.666666666667,10|0,0:0|0:0,0:0:0:0:
184,192,51749,2,0,B|184:248|184:248|204:304,1,106.666666666667,2|0,0:0|0:0,0:0:0:0:
120,148,52102,2,0,P|170:114|234:130,1,106.666666666667,10|0,0:0|0:0,0:0:0:0:
396,120,52455,6,0,P|345:153|281:137,1,106.666666666667,2|0,0:0|0:0,0:0:0:0:
404,264,52808,2,0,B|348:264|348:264|300:288,1,106.666666666667,10|0,0:0|0:0,0:0:0:0:
204,344,53161,2,0,L|176:288,1,53.3333333333333,2|0,0:0|0:0,0:0:0:0:
184,212,53396,1,0,0:0:0:0:
104,244,53514,1,10,0:0:0:0:
184,212,53631,2,0,L|156:156,1,53.3333333333333
196,68,53867,6,0,P|132:64|84:96,1,106.666666666667,2|0,0:0|0:0,0:0:0:0:
160,164,54219,2,0,P|224:168|272:136,1,106.666666666667,10|0,0:0|0:0,0:0:0:0:
336,104,54572,1,2,0:0:0:0:
480,188,54808,1,0,0:0:0:0:
416,240,54925,2,0,P|384:288|384:352,1,106.666666666667,10|0,0:0|0:0,0:0:0:0:
256,352,55278,6,0,P|288:304|288:240,1,106.666666666667,2|0,0:0|0:0,0:0:0:0:
256,172,55631,2,0,L|144:168,1,106.666666666667,10|0,0:0|0:0,0:0:0:0:
72,80,55984,2,0,L|178:83,1,106.666666666667,2|0,0:0|0:0,0:0:0:0:
200,244,56337,2,0,L|93:240,1,106.666666666667,10|0,0:0|0:0,0:0:0:0:
93,240,56690,5,4,0:0:0:0:
256,332,56925,1,0,0:0:0:0:
256,332,57043,2,0,P|312:348|376:312,1,106.666666666667,10|0,0:0|0:0,0:0:0:0:
404,248,57396,2,0,P|348:232|284:268,1,106.666666666667,2|0,0:0|0:0,0:0:0:0:
476,308,57749,2,0,L|488:192,1,106.666666666667,10|0,0:0|0:0,0:0:0:0:
496,116,58102,5,4,0:0:0:0:
312,136,58337,1,0,0:0:0:0:
256,72,58455,2,0,B|212:72|212:72|184:60|184:60|140:60,1,106.666666666667,10|0,0:0|0:0,0:0:0:0:
152,204,58808,2,0,B|184:204|184:204|212:192|212:192|256:192,1,106.666666666667,2|0,0:0|0:0,0:0:0:0:
352,232,59161,2,0,L|328:280,1,53.3333333333333,10|0,0:0|0:0,0:0:0:0:
392,340,59396,1,0,0:0:0:0:
392,340,59514,6,0,L|416:292,2,53.3333333333333,4|0|0,0:0|0:0|0:0,0:0:0:0:
328,279,59867,2,0,P|280:271|216:312,1,106.666666666667,10|0,0:0|0:0,0:0:0:0:
64,260,60219,2,0,P|112:268|176:227,1,106.666666666667,2|0,0:0|0:0,0:0:0:0:
104,188,60572,1,6,0:0:0:0:
256,120,60808,1,0,0:0:0:0:
256,120,60925,6,0,B|312:120|312:120|360:144,1,106.666666666667,2|0,0:0|0:0,0:0:0:0:
432,236,61278,2,0,P|380:264|316:256,1,106.666666666667,10|0,0:0|0:0,0:0:0:0:
252,320,61631,2,0,L|192:332,1,53.3333333333333,2|0,0:0|0:0,0:0:0:0:
164,224,61867,1,0,0:0:0:0:
164,224,61984,1,10,0:0:0:0:
256,52,62219,5,0,0:0:0:0:
256,52,62337,2,0,P|200:40|136:68,1,106.666666666667,2|0,0:0|0:0,0:0:0:0:
220,128,62690,2,0,P|276:140|340:112,1,106.666666666667,10|0,0:0|0:0,0:0:0:0:
248,40,63043,2,0,P|192:28|128:56,1,106.666666666667,2|0,0:0|0:0,0:0:0:0:
232,148,63396,2,0,P|288:160|352:132,1,106.666666666667,10|0,0:0|0:0,0:0:0:0:
416,108,63749,5,2,0:0:0:0:
376,264,63984,1,0,0:0:0:0:
376,264,64102,2,0,L|316:360,1,106.666666666667,10|0,0:0|0:0,0:0:0:0:
256,320,64455,2,0,L|256:252,2,53.3333333333333,2|0|0,0:0|0:0|0:0,0:0:0:0:
176,236,64808,2,0,L|176:296,2,53.3333333333333,10|0|0,0:0|0:0|0:0,0:0:0:0:
96,192,65161,6,0,P|88:136|116:68,1,106.666666666667,4|0,0:0|0:0,0:0:0:0:
180,120,65514,2,0,B|240:120|240:120|292:88,1,106.666666666667,10|0,0:0|0:0,0:0:0:0:
284,216,65867,2,0,B|244:191|244:191|184:191,1,106.666666666667,2|0,0:0|0:0,0:0:0:0:
328,156,66219,2,0,B|368:156|368:156|392:148|392:148|436:148,1,106.666666666667,10|0,0:0|0:0,0:0:0:0:
420,240,66572,5,2,0:0:0:0:
256,312,66808,1,0,0:0:0:0:
256,312,66925,2,0,P|196:328|152:308,1,106.666666666667,10|0,0:0|0:0,0:0:0:0:
96,240,67278,2,0,P|156:224|200:244,1,106.666666666667,2|0,0:0|0:0,0:0:0:0:
284,236,67631,2,0,P|300:176|280:132,1,106.666666666667,10|0,0:0|0:0,0:0:0:0:
408,192,67984,6,0,P|392:252|412:296,1,106.666666666667,2|0,0:0|0:0,0:0:0:0:
472,240,68337,1,10,0:0:0:0:
348,80,68572,1,0,0:0:0:0:
348,80,68690,2,0,B|320:80|296:68|296:68|268:80|232:80,1,106.666666666667,2|0,0:0|0:0,0:0:0:0:
140,160,69043,2,0,B|168:160|192:172|192:172|220:160|256:160,1,106.666666666667,2|0,0:0|0:0,0:0:0:0:
152,240,69396,6,0,L|92:240,1,53.3333333333333,2|0,0:0|0:0,0:0:0:0:
156,328,69631,2,0,L|216:328,1,53.3333333333333,0|10,0:0|0:0,0:0:0:0:
288,240,69867,2,0,L|228:240,1,53.3333333333333
304,324,70102,2,0,L|364:324,2,53.3333333333333,2|0|0,0:0|0:0|0:0,0:0:0:0:
364,240,70455,1,10,0:0:0:0:
476,88,70690,5,0,0:0:0:0:
396,88,70808,2,0,B|344:88|344:88|284:56,1,106.666666666667,4|0,0:0|0:0,0:0:0:0:
256,152,71161,2,0,P|192:152|152:176,1,106.666666666667,10|0,0:0|0:0,0:0:0:0:
88,288,71514,2,0,P|152:288|192:264,1,106.666666666667,2|0,0:0|0:0,0:0:0:0:
248,120,71867,2,0,P|184:120|144:144,1,106.666666666667,10|0,0:0|0:0,0:0:0:0:
88,312,72219,6,0,P|152:312|192:288,1,106.666666666667,2|0,0:0|0:0,0:0:0:0:
240,96,72572,2,0,P|176:96|136:120,1,106.666666666667,10|0,0:0|0:0,0:0:0:0:
300,248,72925,2,0,B|360:248|360:248|408:280,1,106.666666666667,2|0,0:0|0:0,0:0:0:0:
452,192,73278,2,0,L|468:136,1,53.3333333333333,10|0,0:0|0:0,0:0:0:0:
416,72,73514,1,0,0:0:0:0:
416,72,73631,6,0,P|368:56|304:76,1,106.666666666667,2|0,0:0|0:0,0:0:0:0:
364,136,73984,1,10,0:0:0:0:
148,80,74219,1,0,0:0:0:0:
188,156,74337,2,0,P|128:160|80:132,1,106.666666666667,2|0,0:0|0:0,0:0:0:0:
24,192,74690,2,0,L|4:312,1,106.666666666667,10|0,0:0|0:0,0:0:0:0:
92,348,75043,6,0,P|144:328|208:344,1,106.666666666667,2|0,0:0|0:0,0:0:0:0:
256,272,75396,2,0,P|312:268|356:220,1,106.666666666667,10|0,0:0|0:0,0:0:0:0:
424,280,75749,2,0,L|480:172,1,106.666666666667,2|0,0:0|0:0,0:0:0:0:
504,100,76102,1,10,0:0:0:0:
380,80,76337,1,0,0:0:0:0:
380,80,76455,6,0,P|324:80|272:44,1,106.666666666667,4|0,0:0|0:0,0:0:0:0:
208,80,76808,2,0,P|157:68|92:88,1,106.666666666667,10|0,0:0|0:0,0:0:0:0:
0,172,77161,2,0,P|50:183|116:164,1,106.666666666667,2|0,0:0|0:0,0:0:0:0:
200,232,77514,2,0,L|200:160,1,53.3333333333333,10|0,0:0|0:0,0:0:0:0:
288,152,77749,1,4,0:0:0:0:
336,228,77867,6,0,B|336:296|336:296|360:344,1,106.666666666667,2|0,0:0|0:0,0:0:0:0:
256,348,78219,1,2,0:0:0:0:
404,192,78455,1,0,0:0:0:0:
404,192,78572,2,0,L|432:144,2,53.3333333333333,2|0|0,0:0|0:0|0:0,0:0:0:0:
368,72,78925,2,0,L|341:118,2,53.3333333333333,10|0|0,0:0|0:0|0:0,0:0:0:0:
256,64,79278,6,0,B|208:64|208:64|180:56|180:56|132:56,1,106.666666666667,2|0,0:0|0:0,0:0:0:0:
148,152,79631,2,0,B|132:180|144:220|144:220|124:244|128:272,1,106.666666666667,10|0,0:0|0:0,0:0:0:0:
304,252,79984,2,0,B|300:232|288:219|288:219|300:179|284:151,1,106.666666666667,2|0,0:0|0:0,0:0:0:0:
216,268,80337,1,10,0:0:0:0:
452,324,80572,5,4,0:0:0:0:
452,324,80690,2,0,L|480:208,1,106.666666666667,2|0,0:0|0:0,0:0:0:0:
352,132,81043,2,0,L|377:235,1,106.666666666667,10|0,0:0|0:0,0:0:0:0:
272,192,81396,2,0,L|256:140,2,53.3333333333333,2|0|0,0:0|0:0|0:0,0:0:0:0:
296,276,81749,2,0,P|232:272|192:224,1,106.666666666667,10|0,0:0|0:0,0:0:0:0:
144,168,82102,5,4,0:0:0:0:
256,76,82337,1,0,0:0:0:0:
256,76,82455,2,0,P|320:80|360:128,1,106.666666666667,10|0,0:0|0:0,0:0:0:0:
368,192,82808,1,4,0:0:0:0:
256,336,83043,1,0,0:0:0:0:
256,336,83161,2,0,L|256:216,1,106.666666666667,10|0,0:0|0:0,0:0:0:0:
256,136,83514,6,0,P|200:148|164:208,1,106.666666666667,4|0,0:0|0:0,0:0:0:0:
256,229,83867,2,0,P|312:217|348:157,1,106.666666666667,10|0,0:0|0:0,0:0:0:0:
232,124,84219,2,0,P|176:136|140:196,1,106.666666666667,2|0,0:0|0:0,0:0:0:0:
284,240,84572,2,0,P|340:228|376:168,1,106.666666666667,10|0,0:0|0:0,0:0:0:0:
320,124,84925,5,4,0:0:0:0:
256,264,85161,1,0,0:0:0:0:
256,344,85278,1,10,0:0:0:0:
184,192,85514,5,0,0:0:0:0:
104,192,85631,1,2,0:0:0:0:
256,120,85867,5,0,0:0:0:0:
256,40,85984,1,10,0:0:0:0:
328,192,86219,1,0,0:0:0:0:
408,192,86336,1,4,0:0:0:0:
184,244,86690,6,0,P|172:296|200:364,1,106.666666666667,2|0,0:0|0:0,0:0:0:0:
256,292,87043,1,0,0:0:0:0:
256,120,87278,1,0,0:0:0:0:
328,68,87396,2,0,P|252:36|168:92,1,160,2|4,0:0|0:0,0:0:0:0:
160,192,87984,5,0,0:0:0:0:
160,192,88102,2,0,L|136:256,2,53.3333333333333,2|0|0,0:0|0:0|0:0,0:0:0:0:
370,241,88455,2,0,L|352:192,2,53.3333333333333,2|0|0,0:0|0:0|0:0,0:0:0:0:
256,200,88808,2,0,L|256:268,1,53.3333333333333,2|0,0:0|0:0,0:0:0:0:
256,340,89043,1,6,0:0:0:0:
