osu file format v14

[General]
AudioFilename: Tokimeki Poporon.mp3
AudioLeadIn: 0
PreviewTime: 41862
Countdown: 0
SampleSet: Normal
StackLeniency: 0.7
Mode: 1
LetterboxInBreaks: 0
WidescreenStoryboard: 0

[Editor]
DistanceSpacing: 0.8
BeatDivisor: 8
GridSize: 32
TimelineZoom: 1

[Metadata]
Title:Tokimeki Poporon
TitleUnicode:ときめきポポロン♪
Artist:Chimame-tai
ArtistUnicode:チマメ隊
Creator:Anima_Alumi-47
Version:Futsuu
Source:ご注文はうさぎですか??
Tags:Charlotte AnatOWJIya Shiroi Hiroshi 水瀬いのり 徳井青空 村川梨衣 チノ マヤ メグ Murakawa Rie Tokui Sora Minase Inori うらん Uran 大隅知宇 Osumi Tomotaka 千葉"naotyu-"直樹 Chiba "naotyu-" Naoki gochuumon wa usagi desuka??
BeatmapID:803898
BeatmapSetID:365773

[Difficulty]
HPDrainRate:7
CircleSize:4
OverallDifficulty:4
ApproachRate:5
SliderMultiplier:1.4
SliderTickRate:1

[Events]
//Background and Video events
0,0,"tp bg.jpg",0,0
//Break Periods
//Storyboard Layer 0 (Background)
//Storyboard Layer 1 (Fail)
//Storyboard Layer 2 (Pass)
//Storyboard Layer 3 (Foreground)
//Storyboard Sound Samples

[TimingPoints]
215,352.941176470588,4,1,0,50,1,0
42567,-100,4,1,0,50,0,1
86332,-100,4,1,0,50,0,0

[HitObjects]
256,192,215,5,2,0:0:0:0:
256,192,920,1,2,0:0:0:0:
256,192,1626,1,2,0:0:0:0:
256,192,2332,1,2,0:0:0:0:
256,192,2685,1,2,0:0:0:0:
256,192,3038,1,0,0:0:0:0:
256,192,5862,1,0,0:0:0:0:
256,192,6567,1,2,0:0:0:0:
256,192,7273,1,0,0:0:0:0:
256,192,7626,1,0,0:0:0:0:
256,192,7979,1,2,0:0:0:0:
256,192,8685,1,0,0:0:0:0:
256,192,9391,1,2,0:0:0:0:
256,192,10097,1,0,0:0:0:0:
256,192,10450,1,2,0:0:0:0:
256,192,10803,1,2,0:0:0:0:
256,192,11156,1,2,0:0:0:0:
256,192,11509,1,0,0:0:0:0:
256,192,12214,1,2,0:0:0:0:
256,192,12920,1,0,0:0:0:0:
256,192,13273,1,2,0:0:0:0:
256,192,13626,1,2,0:0:0:0:
256,192,13979,1,0,0:0:0:0:
256,192,14332,1,0,0:0:0:0:
256,192,15038,1,2,0:0:0:0:
256,192,15744,1,0,0:0:0:0:
256,192,16450,1,2,0:0:0:0:
256,192,16803,1,2,0:0:0:0:
256,192,17156,1,0,0:0:0:0:
256,192,17862,1,2,0:0:0:0:
256,192,18567,1,0,0:0:0:0:
256,192,18920,1,0,0:0:0:0:
256,192,19273,1,2,0:0:0:0:
256,192,19626,1,0,0:0:0:0:
256,192,19979,1,2,0:0:0:0:
256,192,20685,1,2,0:0:0:0:
256,192,21391,1,0,0:0:0:0:
256,192,21744,1,0,0:0:0:0:
256,192,22097,1,2,0:0:0:0:
256,192,22450,1,2,0:0:0:0:
256,192,22803,1,6,0:0:0:0:
256,192,23376,1,6,0:0:0:0:
256,192,24082,1,6,0:0:0:0:
256,192,24920,1,2,0:0:0:0:
256,192,25273,1,2,0:0:0:0:
256,192,25626,1,0,0:0:0:0:
256,192,25979,1,0,0:0:0:0:
256,192,26332,1,0,0:0:0:0:
256,192,26685,1,2,0:0:0:0:
256,192,26906,1,6,0:0:0:0:
256,192,27391,1,6,0:0:0:0:
256,192,28450,1,2,0:0:0:0:
256,192,29156,1,0,0:0:0:0:
256,192,29729,1,2,0:0:0:0:
256,192,30567,1,0,0:0:0:0:
256,192,30920,1,0,0:0:0:0:
256,192,31273,1,2,0:0:0:0:
256,192,31626,1,2,0:0:0:0:
256,192,31979,1,0,0:0:0:0:
256,192,32244,1,0,0:0:0:0:
256,192,32553,1,2,0:0:0:0:
256,192,33391,1,0,0:0:0:0:
256,192,33744,1,0,0:0:0:0:
256,192,34097,1,2,0:0:0:0:
256,192,34803,1,0,0:0:0:0:
256,192,35376,1,2,0:0:0:0:
256,192,36214,1,0,0:0:0:0:
256,192,36567,1,0,0:0:0:0:
256,192,36920,1,0,0:0:0:0:
256,192,37273,1,6,0:0:0:0:
256,192,37626,1,0,0:0:0:0:
256,192,37979,1,6,0:0:0:0:
256,192,38332,1,0,0:0:0:0:
256,192,38685,1,6,0:0:0:0:
256,192,39038,1,0,0:0:0:0:
256,192,39391,1,6,0:0:0:0:
256,192,39744,1,0,0:0:0:0:
256,192,40097,1,0,0:0:0:0:
256,192,40450,1,0,0:0:0:0:
256,192,40714,1,0,0:0:0:0:
256,192,41023,1,6,0:0:0:0:
256,192,41509,1,6,0:0:0:0:
256,192,41862,1,2,0:0:0:0:
256,192,42214,1,0,0:0:0:0:
256,192,42567,1,0,0:0:0:0:
256,192,43273,1,2,0:0:0:0:
256,192,43626,1,2,0:0:0:0:
256,192,43979,1,0,0:0:0:0:
256,192,44685,1,2,0:0:0:0:
256,192,45038,1,0,0:0:0:0:
256,192,45391,1,0,0:0:0:0:
256,192,46097,1,2,0:0:0:0:
256,192,46450,1,0,0:0:0:0:
256,192,46670,1,0,0:0:0:0:
256,192,47023,1,0,0:0:0:0:
256,192,47509,1,2,0:0:0:0:
256,192,47862,1,2,0:0:0:0:
256,192,48214,1,0,0:0:0:0:
256,192,48920,1,2,0:0:0:0:
256,192,49273,1,2,0:0:0:0:
256,192,49626,1,0,0:0:0:0:
256,192,50332,1,2,0:0:0:0:
256,192,50685,1,0,0:0:0:0:
256,192,51038,1,0,0:0:0:0:
256,192,51744,1,2,0:0:0:0:
256,192,52097,1,0,0:0:0:0:
256,192,52317,1,2,0:0:0:0:
256,192,52670,1,0,0:0:0:0:
256,192,53156,1,2,0:0:0:0:
256,192,53509,1,2,0:0:0:0:
256,192,53862,1,0,0:0:0:0:
256,192,54214,1,0,0:0:0:0:
256,192,54567,1,2,0:0:0:0:
256,192,54920,1,0,0:0:0:0:
256,192,55273,1,2,0:0:0:0:
256,192,55979,1,0,0:0:0:0:
256,192,56332,1,2,0:0:0:0:
256,192,56685,1,0,0:0:0:0:
256,192,57391,1,2,0:0:0:0:
256,192,57744,1,2,0:0:0:0:
256,192,58097,1,0,0:0:0:0:
256,192,58803,1,2,0:0:0:0:
256,192,59156,1,0,0:0:0:0:
256,192,59509,1,0,0:0:0:0:
256,192,59862,1,6,0:0:0:0:
256,192,60214,1,0,0:0:0:0:
256,192,60567,1,6,0:0:0:0:
256,192,60920,1,0,0:0:0:0:
256,192,61273,1,6,0:0:0:0:
256,192,61626,1,0,0:0:0:0:
256,192,61979,1,2,0:0:0:0:
256,192,62332,1,2,0:0:0:0:
256,192,62685,1,0,0:0:0:0:
256,192,63038,1,2,0:0:0:0:
256,192,63391,1,0,0:0:0:0:
256,192,63612,1,2,0:0:0:0:
256,192,64450,1,2,0:0:0:0:
256,192,64803,1,2,0:0:0:0:
256,192,65156,1,0,0:0:0:0:
256,192,65862,1,2,0:0:0:0:
256,192,66214,1,0,0:0:0:0:
256,192,66567,1,0,0:0:0:0:
256,192,67273,1,2,0:0:0:0:
256,192,67626,1,2,0:0:0:0:
256,192,67979,1,0,0:0:0:0:
256,192,68685,1,2,0:0:0:0:
256,192,69038,1,0,0:0:0:0:
256,192,69259,1,0,0:0:0:0:
256,192,69612,1,0,0:0:0:0:
256,192,70097,1,2,0:0:0:0:
256,192,70450,1,2,0:0:0:0:
256,192,70803,1,0,0:0:0:0:
256,192,71509,1,2,0:0:0:0:
256,192,71862,1,0,0:0:0:0:
256,192,72214,1,2,0:0:0:0:
256,192,72920,1,2,0:0:0:0:
256,192,73273,1,2,0:0:0:0:
256,192,73626,1,0,0:0:0:0:
256,192,74332,1,2,0:0:0:0:
256,192,74685,1,0,0:0:0:0:
256,192,74906,1,0,0:0:0:0:
256,192,75259,1,0,0:0:0:0:
256,192,75744,1,2,0:0:0:0:
256,192,76097,1,2,0:0:0:0:
256,192,76450,1,0,0:0:0:0:
256,192,76803,1,0,0:0:0:0:
256,192,77156,1,0,0:0:0:0:
256,192,77376,1,0,0:0:0:0:
256,192,77729,1,2,0:0:0:0:
256,192,78214,1,0,0:0:0:0:
256,192,78567,1,2,0:0:0:0:
256,192,78920,1,2,0:0:0:0:
256,192,79273,1,0,0:0:0:0:
256,192,79626,1,0,0:0:0:0:
256,192,79979,1,2,0:0:0:0:
256,192,80200,1,0,0:0:0:0:
256,192,80553,1,2,0:0:0:0:
256,192,81038,1,0,0:0:0:0:
256,192,81259,1,2,0:0:0:0:
256,192,81744,1,0,0:0:0:0:
256,192,82097,1,0,0:0:0:0:
256,192,82450,1,6,0:0:0:0:
256,192,82802,1,0,0:0:0:0:
256,192,83155,1,6,0:0:0:0:
256,192,83508,1,0,0:0:0:0:
256,192,83861,1,6,0:0:0:0:
256,192,84214,1,0,0:0:0:0:
256,192,84567,1,6,0:0:0:0:
256,192,84920,1,0,0:0:0:0:
256,192,85626,1,0,0:0:0:0:
256,192,85979,1,2,0:0:0:0:
256,192,86332,1,4,0:0:0:0:
256,192,87744,1,0,0:0:0:0:
256,192,88450,1,0,0:0:0:0:
256,192,88803,1,2,0:0:0:0:
256,192,89067,1,4,0:0:0:0:
