osu file format v14

[General]
AudioFilename: poporon.mp3
AudioLeadIn: 2000
PreviewTime: 41863
Countdown: 0
SampleSet: Soft
StackLeniency: 0.7
Mode: 0
LetterboxInBreaks: 0
WidescreenStoryboard: 0

[Editor]
DistanceSpacing: 1
BeatDivisor: 4
GridSize: 4
TimelineZoom: 1

[Metadata]
Title:Tokimeki Poporon
TitleUnicode:ときめきポポロン♪
Artist:Chimame-tai
ArtistUnicode:チマメ隊
Creator:[C u r i]
Version:Easy
Source:ご注文はうさぎですか??
Tags:Doyak [_Zzz_] Lami intoon rabbit gochiusa Ending gochuumon wa usagi desuka??
BeatmapID:801011
BeatmapSetID:364943

[Difficulty]
HPDrainRate:2.5
CircleSize:3
OverallDifficulty:2.5
ApproachRate:3
SliderMultiplier:0.85
SliderTickRate:1

[Events]
//Background and Video events
Video,208,"video.flv"
0,0,"53169549_p0.jpg",0,0
//Break Periods
//Storyboard Layer 0 (Background)
//Storyboard Layer 1 (Fail)
//Storyboard Layer 2 (Pass)
//Storyboard Layer 3 (Foreground)
//Storyboard Sound Samples

[TimingPoints]
216,352.941176470588,4,2,1,80,1,0
22804,-100,4,2,1,50,0,0
28451,-100,4,2,1,70,0,0
36921,-100,4,2,1,80,0,0
42568,-100,4,2,1,80,0,1
64451,-100,4,2,1,80,0,0
65157,-100,4,2,1,80,0,1
86333,-100,4,2,1,80,0,0
87745,-100,4,2,1,80,0,1
89039,-100,4,2,1,80,0,0

[Colours]
Combo1 : 0,128,255
Combo2 : 133,141,197
Combo3 : 242,24,57

[HitObjects]
62,86,216,6,0,P|112:42|223:34,1,170,2|2,0:0|0:0,0:0:0:0:
294,51,1274,1,0,0:0:0:0:
365,97,1627,2,0,P|409:147|417:258,1,170,2|2,0:0|0:0,0:0:0:0:
397,329,2686,1,0,0:0:0:0:
313,342,3039,6,0,P|272:350|218:336,1,85,2|0,0:0|0:0,0:0:0:0:
159,294,3745,2,0,P|117:285|76:293,1,85
47,212,4451,2,0,P|120:199|213:225,1,170
276,278,5510,1,0,0:0:0:0:
348,322,5863,6,0,P|428:346|512:333,1,170,2|0,0:0|0:0,0:0:0:0:
500,248,6921,1,0,0:0:0:0:
486,163,7274,2,0,L|470:72,1,85,2|0,0:0|0:0,0:0:0:0:
403,31,7980,2,0,P|351:42|310:25,1,85
237,22,8686,6,0,P|177:24|71:104,1,170,2|0,0:0|0:0,0:0:0:0:
62,163,9745,1,0,0:0:0:0:
86,245,10098,2,0,L|67:338,2,85,2|0|0,0:0|0:0|0:0,0:0:0:0:
170,252,11157,1,0,0:0:0:0:
235,306,11510,6,0,P|308:334|399:302,1,170,2|0,0:0|0:0,0:0:0:0:
444,240,12568,1,0,0:0:0:0:
388,176,12921,2,0,P|346:169|285:184,1,85,2|0,0:0|0:0,0:0:0:0:
232,220,13627,2,0,P|190:226|148:219,1,85
74,176,14333,6,0,P|54:125|88:14,1,170,2|0,0:0|0:0,0:0:0:0:
169,20,15392,1,0,0:0:0:0:
240,66,15745,2,0,P|281:59|341:74,2,85,2|0|0,0:0|0:0|0:0,0:0:0:0:
166,108,16804,1,0,0:0:0:0:
136,187,17157,6,0,P|143:226|254:273,1,170,2|0,0:0|0:0,0:0:0:0:
220,194,18215,1,0,0:0:0:0:
181,118,18568,2,0,L|150:33,1,85,2|0,0:0|0:0,0:0:0:0:
236,25,19274,2,0,L|267:110,1,85,2|0,0:0|0:0,0:0:0:0:
315,174,19980,6,0,P|363:180|464:102,1,170,2|0,0:0|0:0,0:0:0:0:
399,53,21039,1,0,0:0:0:0:
315,40,21392,2,0,P|272:43|234:61,1,85,2|0,0:0|0:0,0:0:0:0:
155,93,22098,2,0,P|115:107|56:113,1,85
63,198,22804,6,0,B|32:254|83:303|83:303|167:247|233:296,1,255,4|0,0:0|0:0,0:0:0:0:
270,289,24098,2,0,P|256:221|233:167,1,113.333333333333,4|0,0:0|0:0,0:0:0:0:
201,104,24921,2,0,P|230:78|277:68,1,85
356,88,25627,6,0,P|382:117|392:164,1,85,4|0,0:0|0:0,0:0:0:0:
458,215,26333,2,0,L|361:320,1,141.666666666667,6|2,0:0|0:0,0:0:0:0:
107,53,28451,6,0,P|84:102|87:147,1,85,0|2,0:0|0:0,0:0:0:0:
100,214,29157,2,0,P|122:251|157:274,1,85,0|2,0:0|0:0,0:0:0:0:
237,244,29863,2,0,P|296:229|326:230,2,85,0|2|0,0:0|0:0|0:0,0:0:0:0:
223,328,30921,1,2,0:0:0:0:
157,274,31274,6,0,P|139:225|144:184,1,85,0|2,0:0|0:0,0:0:0:0:
185,120,31980,2,0,P|234:102|275:107,1,85,0|2,0:0|0:0,0:0:0:0:
341,144,32686,2,0,P|359:193|354:234,2,85,0|2|0,0:0|0:0|0:0,0:0:0:0:
341,59,33745,1,2,0:0:0:0:
414,103,34098,6,0,P|435:151|442:189,1,85,0|2,0:0|0:0,0:0:0:0:
426,266,34804,2,0,P|378:304|298:282,1,141.666666666667
71,213,36921,6,0,P|63:171|74:130,1,85,0|6,0:0|0:0,0:0:0:0:
133,70,37627,2,0,P|194:65|222:77,1,85,0|6,0:0|0:0,0:0:0:0:
275,133,38333,2,0,P|280:194|268:222,1,85,0|6,0:0|0:0,0:0:0:0:
211,275,39039,2,0,P|150:280|122:268,1,85,0|4,0:0|0:0,0:0:0:0:
256,192,39745,12,4,41039,0:0:0:0:
351,261,42568,6,0,P|269:238|182:271,1,170,4|2,0:0|0:0,0:0:0:0:
131,325,43627,1,0,0:0:0:0:
210,353,43980,2,0,P|252:362|307:348,1,85,2|0,0:0|0:0,0:0:0:0:
377,346,44686,2,0,P|419:337|474:351,1,85,2|0,0:0|0:0,0:0:0:0:
504,271,45392,6,0,P|423:250|341:266,1,170,2|2,0:0|0:0,0:0:0:0:
267,309,46451,1,0,0:0:0:0:
268,223,46804,2,0,P|259:181|276:127,1,85,2|0,0:0|0:0,0:0:0:0:
344,182,47510,1,0,0:0:0:0:
340,266,47862,1,0,0:0:0:0:
267,309,48215,6,0,P|189:296|91:318,1,170,2|2,0:0|0:0,0:0:0:0:
37,370,49274,1,0,0:0:0:0:
23,285,49627,2,0,L|11:187,1,85,2|0,0:0|0:0,0:0:0:0:
79,147,50333,2,0,P|96:102|130:76,1,85,2|0,0:0|0:0,0:0:0:0:
207,94,51039,6,0,P|289:119|370:95,1,170,2|2,0:0|0:0,0:0:0:0:
435,44,52098,1,0,0:0:0:0:
445,128,52451,2,0,L|456:222,1,85,2|0,0:0|0:0,0:0:0:0:
438,296,53157,1,0,0:0:0:0:
363,336,53510,1,0,0:0:0:0:
281,311,53863,6,0,P|227:290|125:335,1,170,2|2,0:0|0:0,0:0:0:0:
19,239,55157,2,0,P|12:193|19:126,1,113.333333333333,0|2,0:0|0:0,0:0:0:0:
60,52,55980,2,0,P|97:28|159:12,1,85,0|2,0:0|0:0,0:0:0:0:
220,6,56686,6,0,B|266:11|302:54|302:54|336:84|380:66,2,170,0|2|0,0:0|0:0|0:0,0:0:0:0:
190,144,58686,2,0,P|230:180|292:205,1,113.333333333333,0|2,0:0|0:0,0:0:0:0:
358,244,59510,6,0,P|369:197|350:152,2,85,0|4|0,0:0|0:0|0:0,0:0:0:0:
285,288,60568,1,4,0:0:0:0:
251,366,60921,2,0,L|145:369,2,85,0|4|0,0:0|0:0|0:0,0:0:0:0:
336,363,61980,1,4,0:0:0:0:
417,338,62333,6,0,B|397:287|348:272|348:272|317:282|272:272,1,170,4|0,0:0|0:0,0:0:0:0:
148,330,63627,2,0,P|138:272|149:218,1,113.333333333333,4|0,0:0|0:0,0:0:0:0:
175,138,64451,1,0,0:0:0:0:
170,53,64804,1,0,0:0:0:0:
251,29,65157,6,0,P|323:28|428:75,1,170,4|0,0:0|0:0,0:0:0:0:
474,122,66215,1,2,0:0:0:0:
497,203,66568,2,0,P|513:271|506:309,1,85,0|2,0:0|0:0,0:0:0:0:
460,353,67274,2,0,P|410:382|358:379,1,85,0|2,0:0|0:0,0:0:0:0:
309,343,67980,6,0,P|235:319|146:346,1,170
68,371,69039,1,2,0:0:0:0:
77,286,69392,2,0,L|83:190,1,85,0|2,0:0|0:0,0:0:0:0:
100,117,70098,1,0,0:0:0:0:
134,39,70451,1,0,0:0:0:0:
188,104,70804,6,0,P|187:147|305:172,1,170
370,159,71863,1,2,0:0:0:0:
352,241,72215,2,0,P|297:274|261:277,1,85,0|2,0:0|0:0,0:0:0:0:
192,267,72921,2,0,P|148:240|120:204,1,85,0|2,0:0|0:0,0:0:0:0:
75,147,73627,6,0,P|43:222|101:298,1,170
127,215,74686,1,2,0:0:0:0:
154,134,75039,2,0,L|179:44,2,85,0|2|0,0:0|0:0|0:0,0:0:0:0:
206,201,76098,1,2,0:0:0:0:
245,125,76451,6,0,P|288:76|368:122,1,170,4|0,0:0|0:0,0:0:0:0:
387,261,77745,2,0,L|364:377,1,113.333333333333,4|2,0:0|0:0,0:0:0:0:
283,347,78568,2,0,L|301:260,1,85,0|2,0:0|0:0,0:0:0:0:
316,180,79274,6,0,B|262:189|262:189|219:232|219:232|151:243,1,170,4|0,0:0|0:0,0:0:0:0:
23,238,80568,2,0,P|5:176|38:115,1,113.333333333333,4|0,0:0|0:0,0:0:0:0:
64,95,81274,2,0,P|121:76|182:113,1,113.333333333333,4|0,0:0|0:0,0:0:0:0:
238,142,82098,6,0,P|277:152|321:140,1,85,0|6,0:0|0:0,0:0:0:0:
394,100,82804,2,0,P|405:140|395:181,1,85,0|6,0:0|0:0,0:0:0:0:
331,238,83510,2,0,P|290:247|245:244,1,85,0|6,0:0|0:0,0:0:0:0:
179,194,84215,2,0,P|168:153|178:112,1,85,0|6,0:0|0:0,0:0:0:0:
256,192,84921,12,0,86333,0:0:0:0:
179,153,87745,6,0,L|212:231,1,85,4|0,0:0|0:0,0:0:0:0:
255,305,88451,1,2,0:0:0:0:
297,231,88804,2,0,L|317:172,1,56.6666666666667,0|6,0:0|0:0,0:0:0:0:
