osu file format v14

[General]
AudioFilename: audio.mp3
AudioLeadIn: 0
PreviewTime: 92315
Countdown: 0
SampleSet: Soft
StackLeniency: 0.4
Mode: 0
LetterboxInBreaks: 0
WidescreenStoryboard: 0

[Editor]
Bookmarks: 137202
DistanceSpacing: 0.95
BeatDivisor: 3
GridSize: 4
TimelineZoom: 2.2

[Metadata]
Title:Teku Teku Marching March
TitleUnicode:てくてくマーチングマーチ
Artist:Chimame-tai
ArtistUnicode:チマメ隊
Creator:Beomsan
Version:Rabbit
Source:ご注文はうさぎですか??
Tags:chimame march gochuumon wa usagi desu ka?? 水瀬いのり 徳井青空 村川梨衣 gochiusa is the order a rabbit ?? Anime Japanese Nasmoeb Beom [C_u_r_i] eINess _Epreus Reillia Ujimatsu Chiya Ujimatsu_Chiya
BeatmapID:1844021
BeatmapSetID:881997

[Difficulty]
HPDrainRate:6
CircleSize:4.3
OverallDifficulty:8.5
ApproachRate:9.3
SliderMultiplier:1.6
SliderTickRate:1

[Events]
//Background and Video events
0,0,"25076_gochiusa_PC.jpg",0,0
//Break Periods
//Storyboard Layer 0 (Background)
//Storyboard Layer 1 (Fail)
//Storyboard Layer 2 (Pass)
//Storyboard Layer 3 (Foreground)
//Storyboard Layer 4 (Overlay)
//Storyboard Sound Samples

[TimingPoints]
1382,266.666666666667,3,2,0,80,1,0
5081,-166.666666666667,3,2,0,80,0,0
5348,-100,3,2,0,80,0,0
6448,-100,3,2,0,55,0,0
9648,-100,3,2,0,60,0,0
11782,-100,3,2,0,70,0,0
12548,-125,3,2,0,70,0,0
16548,-100,3,2,0,70,0,0
16848,-100,3,2,0,80,0,0
17348,-133.333333333333,3,2,0,70,0,0
17881,-125,3,2,0,70,0,0
18148,-100,3,2,0,70,0,0
18414,-66.6666666666667,3,2,0,85,0,0
18982,-66.6666666666667,3,2,0,70,0,0
19081,-125,3,2,0,70,0,0
25348,-200,3,2,0,70,0,0
25392,-200,3,2,0,50,0,0
28548,-200,3,2,0,70,0,0
31782,-200,3,2,0,55,0,0
36582,-200,3,2,0,60,0,0
38182,-200,3,2,0,70,0,0
40548,-100,3,2,0,80,0,0
44459,-133.333333333333,3,2,0,80,0,0
46414,-100,3,2,0,80,0,0
49348,-83.3333333333333,3,2,0,80,0,0
50148,-100,3,2,0,80,0,0
52548,-83.3333333333333,3,2,0,80,0,0
53081,-125,3,2,0,80,0,0
53348,-100,3,2,0,80,0,0
56548,-153.846153846154,3,2,0,80,0,0
57881,-153.846153846154,3,2,0,80,0,0
63748,-125,3,2,0,70,0,0
64548,-200,3,2,0,70,0,0
64848,-200,3,2,0,55,0,0
67782,-200,3,2,0,63,0,0
68814,-111.111111111111,3,2,0,70,0,0
69081,-200,3,2,0,70,0,0
69382,-200,3,2,0,63,0,0
70414,-75.7575757575758,3,2,0,85,0,0
70715,-75.7575757575758,3,2,0,70,0,0
70948,-125,3,2,0,70,0,0
77348,-200,3,2,0,70,0,0
77448,-200,3,2,0,50,0,0
80582,266.666666666667,5,2,0,70,1,0
80715,-200,5,2,0,63,0,0
81915,266.666666666667,6,2,0,70,1,0
81915,-200,6,2,0,70,0,0
83515,266.666666666667,3,2,0,55,1,0
83515,-200,3,2,0,55,0,0
84039,-200,3,2,0,55,0,0
85372,-200,3,2,0,20,0,0
85444,-200,3,2,0,30,0,0
85511,-200,3,2,0,40,0,0
85550,-100,3,2,0,50,0,0
85639,-200,3,2,0,55,0,0
87239,-200,3,2,0,55,0,0
88315,-200,3,2,0,60,0,0
89915,-200,3,2,0,70,0,0
92306,-100,3,2,0,80,0,0
96306,-133.333333333333,3,2,0,80,0,0
98439,-100,3,2,0,80,0,0
101106,-83.3333333333333,3,2,0,80,0,0
101906,-100,3,2,0,80,0,0
104306,-83.3333333333333,3,2,0,80,0,0
104750,-100,3,2,0,80,0,0
108306,-153.846153846154,3,2,0,80,0,0
109915,266.666666666667,5,2,0,70,1,0
111474,-142.857142857143,5,2,0,70,0,0
112540,-100,5,2,0,70,0,0
113874,-250,5,2,0,70,0,0
115247,-100,4,2,0,70,0,0
115248,266.666666666667,4,2,0,70,1,0
117079,-86.9565217391304,4,2,0,70,0,0
117381,266.666666666667,5,2,0,70,1,0
117381,-86.9565217391304,5,2,0,70,0,0
122714,266.666666666667,3,2,0,75,1,0
122714,-83.3333333333333,3,2,0,75,0,0
129114,-100,3,1,0,70,0,0
129380,-125,3,1,0,20,0,0
141914,-250,3,1,0,20,0,0
145114,-250,3,1,0,30,0,0
145380,-250,3,1,0,35,0,0
145647,-250,3,1,0,40,0,0
145914,-250,3,1,0,45,0,0
146180,-250,3,1,0,60,0,0
146714,-117.647058823529,3,1,0,70,0,0
147247,-117.647058823529,3,1,0,60,0,0
147514,-117.647058823529,3,1,0,50,0,0
148314,-117.647058823529,3,2,0,75,0,0
149914,-117.647058823529,3,2,0,80,0,0
150714,-117.647058823529,3,2,0,85,0,0
152314,-142.857142857143,3,2,0,70,0,0
153114,-107.52688172043,3,2,0,70,0,0
153914,-91.743119266055,3,2,0,75,0,0
154714,-100,3,2,0,80,0,0
158714,-133.333333333333,3,2,0,80,0,0
160847,-100,3,2,0,80,0,0
163514,-83.3333333333333,3,2,0,80,0,0
164314,-100,3,2,0,80,0,0
166714,-83.3333333333333,3,2,0,80,0,0
167247,-125,3,2,0,80,0,0
167514,-125,3,2,0,70,0,0
173914,-100,3,2,0,80,0,0
177914,-133.333333333333,3,2,0,80,0,0
178625,-100,3,2,0,80,0,0
185914,-83.3333333333333,3,2,0,80,0,0
186447,-125,3,2,0,80,0,0
186714,-100,3,2,0,80,0,0
190714,-153.846153846154,3,2,0,80,0,0
191514,-153.846153846154,3,2,0,85,0,0
194980,-100,3,2,0,70,0,0
195780,-142.857142857143,3,2,0,70,0,0
196580,-100,3,2,0,70,0,0
197380,-142.857142857143,3,2,0,70,0,0
197914,-100,3,2,0,80,0,0
198714,-100,3,2,0,70,0,0
198980,-125,3,2,0,70,0,0
200314,-111.111111111111,3,2,0,70,0,0
201114,-100,3,2,0,75,0,0
201914,-100,3,2,0,80,0,0
202047,-90.9090909090909,3,2,0,80,0,0
202180,-86.9565217391304,3,2,0,80,0,0
202447,-86.9565217391304,3,2,0,85,0,0
203247,-86.9565217391304,3,2,0,40,0,0
203380,-166.666666666667,3,2,0,40,0,0

[Colours]
Combo1 : 15,44,145
Combo2 : 183,181,253
Combo3 : 235,105,134

[HitObjects]
450,304,1382,6,0,L|338:324,1,106.666666666667,4|0,1:2|0:0,0:0:0:0:
304,254,1648,2,0,L|416:234,1,106.666666666667
435,139,1915,1,0,1:0:0:0:
435,139,2182,6,0,P|438:191|409:235,1,106.666666666667,4|0,1:2|0:0,0:0:0:0:
361,170,2448,2,0,P|358:118|387:74,1,106.666666666667
301,23,2715,1,0,1:0:0:0:
97,146,2982,6,0,P|171:103|244:106,2,160,4|0|0,1:2|0:0|1:0,0:0:0:0:
203,304,3693,1,0,0:0:0:0:
203,304,3782,2,0,P|265:250|165:293,1,320,4|0,1:2|0:0,0:0:0:0:
138,255,4582,6,0,B|286:222|247:318|400:274,1,266.666666666667,4|0,1:2|0:0,0:0:0:0:
415,266,5115,2,0,P|428:227|421:177,1,79.9999975585938,0|0,1:0|0:0,0:0:0:0:
421,177,5382,5,0,1:0:0:0:
263,115,5648,1,0,0:0:0:0:
132,226,5915,1,0,1:0:0:0:
262,368,6182,6,0,P|278:291|240:211,1,160,0|0,1:0|0:0,0:0:0:0:
119,129,6626,1,0,1:0:0:0:
119,129,6715,2,0,P|107:184|136:229,1,106.666666666667,0|0,1:0|1:0,0:0:0:0:
165,67,6982,6,0,P|229:21|307:36,1,160,0|0,1:0|1:0,0:0:0:0:
412,133,7426,1,0,0:0:0:0:
412,133,7515,2,0,P|385:103|383:36,1,106.666666666667,0|0,1:0|0:0,0:0:0:0:
490,137,7782,6,0,P|465:192|371:202,1,160,0|0,1:0|1:0,0:0:0:0:
222,280,8226,1,0,1:0:0:0:
222,280,8315,2,0,P|260:249|322:254,1,106.666666666667,0|0,1:0|1:0,0:0:0:0:
382,284,8582,5,0,1:0:0:0:
249,59,8848,2,0,P|305:63|336:118,1,106.666666666667,0|0,1:0|0:0,0:0:0:0:
303,167,9115,2,0,P|247:163|216:108,1,106.666666666667,0|0,1:0|1:0,0:0:0:0:
74,228,9382,5,0,1:0:0:0:
74,228,9648,5,0,1:0:0:0:
151,212,9782,1,0,0:0:0:0:
228,196,9915,1,0,1:0:0:0:
305,180,10048,1,0,0:0:0:0:
382,164,10182,1,0,1:0:0:0:
382,164,10448,5,0,1:0:0:0:
312,129,10582,1,0,0:0:0:0:
242,93,10715,1,0,1:0:0:0:
171,58,10848,1,0,0:0:0:0:
103,23,10982,1,0,1:0:0:0:
103,23,11248,5,0,1:0:0:0:
126,96,11382,1,0,0:0:0:0:
151,171,11515,1,0,1:0:0:0:
175,246,11648,1,0,0:0:0:0:
200,320,11782,2,0,B|325:294|325:294|387:318|387:318|524:289,1,320,4|0,1:2|0:0,0:0:0:0:
512,276,12582,5,0,1:0:0:0:
420,158,12759,1,0,0:0:0:0:
488,127,12848,2,0,B|496:169|496:169|477:212,1,85.3333333333333,0|0,1:0|0:0,0:0:0:0:
410,240,13115,2,0,L|320:231,1,85.3333333333333,0|0,1:0|0:0,0:0:0:0:
255,260,13382,1,0,1:0:0:0:
169,138,13559,1,0,0:0:0:0:
147,209,13648,2,0,P|190:209|229:181,1,85.3333333333333,0|0,1:0|0:0,0:0:0:0:
314,84,13915,2,0,P|292:121|297:169,1,85.3333333333333,0|0,1:0|0:0,0:0:0:0:
325,231,14182,5,0,1:0:0:0:
453,145,14448,2,0,L|363:136,1,85.3333333333333,0|0,1:0|0:0,0:0:0:0:
229,75,14715,2,0,L|319:84,1,85.3333333333333,0|0,1:0|0:0,0:0:0:0:
385,60,14982,1,0,1:0:0:0:
294,162,15159,1,0,0:0:0:0:
351,210,15248,2,0,P|339:253|331:300,1,85.3333333333333,0|0,1:0|0:0,0:0:0:0:
199,263,15515,2,0,P|223:235|279:236,1,85.3333333333333,0|0,1:0|0:0,0:0:0:0:
409,290,15782,5,0,1:0:0:0:
262,318,15959,1,0,0:0:0:0:
265,336,16048,1,0,1:2:0:0:
344,351,16226,5,0,0:0:0:0:
341,333,16315,1,0,1:0:0:0:
407,156,16493,1,0,0:0:0:0:
457,219,16582,6,0,L|339:209,1,106.666666666667,0|0,1:0|0:0,0:0:0:0:
219,129,16848,2,0,P|207:68|278:93,1,160,4|0,1:2|0:0,0:0:0:0:
276,84,17382,6,0,P|239:95|193:103,1,80.0000030517579,0|0,1:0|0:0,0:0:0:0:
73,148,17648,2,0,P|112:155|150:166,1,80.0000030517579,0|0,1:0|0:0,0:0:0:0:
213,208,17915,1,0,1:0:0:0:
152,344,18093,1,0,0:0:0:0:
88,296,18182,6,0,L|200:281,1,106.666666666667,0|0,1:0|0:0,0:0:0:0:
396,361,18448,6,0,B|401:274|417:225|456:226|456:226|449:267|410:268|410:268|341:326|244:283|255:213|323:169|355:223,1,480.000018310548,4|0,1:2|1:0,0:0:0:0:
376,69,19159,5,0,0:0:0:0:
304,47,19248,2,0,P|304:89|329:129,1,85.3333333333333,0|0,1:0|0:0,0:0:0:0:
481,166,19515,2,0,P|444:145|397:146,1,85.3333333333333,0|0,1:0|0:0,0:0:0:0:
288,257,19782,2,0,P|324:236|346:194,1,85.3333333333333,0|0,1:0|0:0,0:0:0:0:
271,181,20048,1,0,1:0:0:0:
424,222,20226,1,0,0:0:0:0:
326,125,20315,2,0,B|262:108|265:157|199:141,1,128,0|0,1:0|1:0,0:0:0:0:
70,66,20759,5,0,1:0:0:0:
134,280,21026,1,0,1:0:0:0:
76,232,21115,2,0,P|111:207|157:207,1,85.3333333333333,0|0,1:0|0:0,0:0:0:0:
227,210,21382,2,0,P|214:271|201:344,2,128,0|0|0,1:0|0:0|1:0,0:0:0:0:
341,113,22093,1,0,0:0:0:0:
256,2,22182,6,0,P|263:43|267:90,1,85.3333333333333,0|0,1:0|0:0,0:0:0:0:
389,180,22448,2,0,P|381:222|377:264,1,85.3333333333333,0|0,1:0|0:0,0:0:0:0:
335,327,22715,2,0,P|389:296|457:296,1,128,0|0,1:0|1:0,0:0:0:0:
299,253,23159,5,0,0:0:0:0:
275,247,23248,1,0,1:0:0:0:
454,221,23426,5,0,0:0:0:0:
478,215,23515,1,0,1:0:0:0:
362,158,23693,1,0,0:0:0:0:
308,105,23782,6,0,L|314:16,1,85.3333333333333,0|0,1:0|0:0,0:0:0:0:
385,0,24048,2,0,L|379:89,1,85.3333333333333,0|0,1:0|0:0,0:0:0:0:
290,178,24315,5,0,1:0:0:0:
138,163,24493,1,0,0:0:0:0:
108,166,24582,1,0,1:0:0:0:
214,285,24759,5,0,0:0:0:0:
269,335,24848,2,0,P|286:294|279:250,1,85.3333333333333,0|0,1:0|0:0,0:0:0:0:
219,208,25115,2,0,P|214:166|230:127,1,85.3333333333333,0|0,1:0|0:0,0:0:0:0:
151,239,25382,6,0,L|62:252,2,80,0|0|2,1:0|0:0|0:0,0:0:0:0:
290,178,26182,2,0,L|379:165,2,80,2|0|2,0:0|0:0|0:0,0:0:0:0:
166,79,26982,5,2,0:0:0:0:
294,165,27248,1,0,0:0:0:0:
145,211,27515,1,2,0:0:0:0:
172,302,27693,5,0,1:0:0:0:
175,281,27782,2,0,L|233:288,1,53.3333333333333,2|0,0:0|0:0,0:0:0:0:
287,332,28048,2,0,L|339:325,1,53.3333333333333,0|0,1:0|0:0,0:0:0:0:
410,351,28315,2,0,L|468:358,1,53.3333333333333,2|0,1:2|0:0,0:0:0:0:
512,260,28582,5,6,1:2:0:0:
491,243,28670,1,0,0:0:0:0:
480,218,28759,1,0,0:0:0:0:
480,191,28848,2,0,L|487:153,2,26.6666666666667
406,186,29115,2,0,L|413:148,2,26.6666666666667
365,101,29382,5,0,1:0:0:0:
343,85,29470,1,0,0:0:0:0:
316,81,29559,1,0,0:0:0:0:
290,88,29648,1,0,0:0:0:0:
274,109,29737,1,0,0:0:0:0:
266,134,29826,1,0,0:0:0:0:
254,157,29915,1,0,0:0:0:0:
232,172,30004,1,0,0:0:0:0:
206,179,30093,1,0,0:0:0:0:
179,174,30182,5,0,1:0:0:0:
179,174,30382,6,0,L|177:136,1,20
207,63,30648,2,0,L|205:82,1,20,0|0,0:0|1:0,0:0:0:0:
88,231,30915,2,0,L|115:223,1,20,0|0,0:0|1:0,0:0:0:0:
247,245,31182,5,0,0:0:0:0:
247,245,31248,1,0,0:0:0:0:
231,201,31337,1,0,0:0:0:0:
244,157,31426,1,0,0:0:0:0:
280,129,31515,1,0,1:0:0:0:
326,128,31604,1,0,0:0:0:0:
364,154,31693,1,0,0:0:0:0:
379,198,31782,5,4,1:2:0:0:
377,278,32048,1,2,0:0:0:0:
375,358,32315,1,2,0:0:0:0:
443,239,32582,2,0,P|479:226|523:218,2,80,0|2|2,0:0|0:0|0:0,0:0:0:0:
310,314,33382,6,0,P|274:301|230:293,1,80,0|2,0:0|0:0,0:0:0:0:
60,366,34093,1,0,0:0:0:0:
60,366,34182,1,0,0:0:0:0:
88,291,34448,1,2,0:0:0:0:
56,217,34715,1,2,0:0:0:0:
144,149,34982,6,0,P|134:188|129:227,2,80,0|2|2,0:0|0:0|0:0,0:0:0:0:
68,140,35782,2,0,P|61:100|52:61,2,80,0|2|2,0:0|0:0|0:0,0:0:0:0:
88,291,36582,6,0,B|349:215|212:372|477:288,1,400
473,288,38182,6,0,P|463:176|352:157,2,240,4|0|4,1:2|0:0|1:2,0:0:0:0:
379,334,40048,1,4,0:3:0:0:
307,298,40226,1,4,0:3:0:0:
307,298,40315,1,8,0:3:0:0:
241,344,40493,1,4,0:3:0:0:
241,344,40582,6,0,P|228:290|249:243,1,106.666666666667,4|0,1:2|0:0,0:0:0:0:
321,215,40848,1,2,0:0:0:0:
196,114,41026,1,0,0:0:0:0:
263,71,41115,2,0,P|276:125|255:172,1,106.666666666667,2|0,0:0|0:0,0:0:0:0:
81,207,41382,6,0,L|192:196,1,106.666666666667,0|0,1:0|0:0,0:0:0:0:
321,215,41648,1,2,0:0:0:0:
430,104,41826,1,0,0:0:0:0:
489,158,41915,2,0,L|378:169,1,106.666666666667,2|0,0:0|0:0,0:0:0:0:
247,244,42182,6,0,P|282:284|385:263,2,160,0|2|2,1:0|0:0|0:0,0:0:0:0:
134,129,42893,1,0,0:0:0:0:
105,203,42982,6,0,P|159:204|201:171,1,106.666666666667,0|0,1:0|0:0,0:0:0:0:
306,70,43248,2,0,P|278:116|285:169,1,106.666666666667,2|0,0:0|0:0,0:0:0:0:
320,310,43515,2,0,P|296:264|248:244,1,106.666666666667,2|0,0:0|0:0,0:0:0:0:
83,318,43782,6,0,B|146:314|146:314|182:329|182:329|245:326,2,160,0|2|2,1:0|0:0|0:0,0:0:0:0:
116,245,44493,1,0,0:0:0:0:
116,245,44582,6,0,B|163:243|163:243|192:257|192:257|234:256,2,120.000004577637,0|2|2,1:0|0:0|0:0,0:0:0:0:
209,182,45293,1,0,0:0:0:0:
209,182,45382,6,0,L|200:100,1,80.0000030517579,0|0,1:0|1:0,0:0:0:0:
127,91,45648,2,0,L|136:173,1,80.0000030517579,2|0,0:0|1:0,0:0:0:0:
200,102,45915,2,0,L|191:20,1,80.0000030517579,2|0,0:0|0:0,0:0:0:0:
182,27,46182,1,0,1:0:0:0:
232,256,46448,5,2,0:0:0:0:
263,238,46537,1,0,0:0:0:0:
300,238,46626,1,0,0:0:0:0:
332,256,46715,2,0,P|384:263|431:241,1,106.666666666667,2|2,0:0|0:0,0:0:0:0:
379,77,46982,6,0,P|374:131|371:191,1,106.666666666667,4|0,1:2|0:0,0:0:0:0:
282,312,47248,1,2,0:0:0:0:
210,183,47426,1,0,0:0:0:0:
153,240,47515,2,0,P|107:261|44:250,1,106.666666666667,2|0,0:0|0:0,0:0:0:0:
129,58,47782,6,0,P|134:112|137:172,1,106.666666666667,0|0,1:0|0:0,0:0:0:0:
155,317,48048,1,2,0:0:0:0:
287,206,48226,1,0,0:0:0:0:
236,363,48315,2,0,P|231:309|228:249,1,106.666666666667,2|0,0:0|0:0,0:0:0:0:
475,200,48582,6,0,L|366:215,1,106.666666666667,4|0,1:2|0:0,0:0:0:0:
342,141,48848,2,0,L|451:126,1,106.666666666667,2|0,0:0|0:0,0:0:0:0:
502,273,49115,6,0,L|393:288,1,106.666666666667,0|0,1:0|0:0,0:0:0:0:
96,230,49382,6,0,L|297:204,2,191.999994140625,4|2|2,1:2|0:0|0:0,0:0:0:0:
272,134,50182,6,0,P|247:90|296:-3,2,160,4|2|2,1:2|0:0|0:0,0:0:0:0:
438,263,50982,2,0,P|406:192|330:179,1,160,0|2,1:0|0:0,0:0:0:0:
242,283,51515,1,2,0:0:0:0:
166,240,51693,1,0,0:0:0:0:
166,240,51782,6,0,P|204:207|262:200,1,106.666666666667,0|0,1:0|0:0,0:0:0:0:
343,78,52048,2,0,P|352:127|329:181,1,106.666666666667,2|0,0:0|0:0,0:0:0:0:
393,310,52315,2,0,P|345:293|310:246,1,106.666666666667,2|0,0:0|0:0,0:0:0:0:
86,141,52582,6,0,B|195:126|150:215|258:199,1,191.999994140625,0|2,1:0|0:0,0:0:0:0:
394,229,53026,1,0,0:0:0:0:
394,229,53115,2,0,P|349:236|308:253,1,85.3333333333333,2|0,0:0|0:0,0:0:0:0:
276,119,53382,5,0,1:0:0:0:
245,309,53559,1,0,0:0:0:0:
244,282,53648,1,2,0:0:0:0:
168,231,53826,5,0,0:0:0:0:
169,258,53915,1,2,0:0:0:0:
107,330,54093,5,0,0:0:0:0:
106,304,54182,2,0,L|-2:317,1,106.666666666667,0|0,1:0|0:0,0:0:0:0:
181,355,54448,2,0,B|244:347|244:347|274:358|274:358|339:350,1,160,2|0,0:0|1:0,0:0:0:0:
435,235,54893,1,0,1:0:0:0:
435,235,54982,5,0,1:0:0:0:
161,139,55248,1,2,0:0:0:0:
383,40,55515,1,2,0:0:0:0:
249,21,55782,6,0,P|242:73|271:119,1,106.666666666667,0|0,1:0|0:0,0:0:0:0:
449,151,56048,2,0,P|399:140|341:133,1,106.666666666667,2|0,0:0|0:0,0:0:0:0:
196,235,56315,2,0,P|241:211|295:189,1,106.666666666667,2|0,0:0|0:0,0:0:0:0:
445,258,56582,6,0,P|393:248|363:205,2,103.999995239258,4|2|2,1:2|0:0|0:0,0:0:0:0:
445,258,57382,6,0,B|350:255|380:313|284:316,1,173.333325398763,2|0,0:0|0:0,0:0:0:0:
275,311,57915,1,2,0:0:0:0:
328,59,58182,5,6,0:0:0:0:
256,192,58270,12,0,61382,1:0:0:0:
386,136,61648,6,0,L|389:92,2,34.6666650797527,2|0|0,0:0|0:0|0:0,0:0:0:0:
367,212,61915,2,0,L|364:256,2,34.6666650797527,0|0|0,1:0|0:0|0:0,0:0:0:0:
312,156,62182,5,0,1:0:0:0:
288,142,62270,1,0,0:0:0:0:
260,143,62359,1,0,0:0:0:0:
236,157,62448,1,2,0:0:0:0:
222,181,62537,1,0,0:0:0:0:
208,205,62626,1,0,0:0:0:0:
184,219,62715,1,0,1:0:0:0:
156,220,62804,1,0,0:0:0:0:
132,206,62893,1,0,0:0:0:0:
123,179,62982,6,0,P|75:189|19:200,2,103.999995239258,0|2|2,1:0|0:0|1:2,0:0:0:0:
223,45,63648,1,0,0:0:0:0:
148,29,63782,6,0,P|146:61|159:92,1,64,0|0,1:2|0:0,0:0:0:0:
275,237,64048,2,0,P|277:205|264:174,1,64,2|0,0:2|0:0,0:0:0:0:
123,179,64315,2,0,L|202:165,1,64,2|0,1:2|0:0,0:0:0:0:
451,74,64582,5,4,1:2:0:0:
451,74,64848,2,0,P|446:95|449:131,1,53.3333333333333
382,155,65115,2,0,P|387:176|384:212,1,53.3333333333333
451,236,65382,5,0,1:0:0:0:
451,236,65648,2,0,P|449:258|448:289,1,53.3333333333333
479,355,65915,2,0,P|442:343|397:346,1,80,0|0,0:0|1:0,0:0:0:0:
338,376,66359,5,0,0:0:0:0:
230,270,66626,1,0,0:0:0:0:
221,276,66715,2,0,P|189:284|169:285,1,53.3333333333333,0|0,1:0|0:0,0:0:0:0:
132,346,66982,2,0,P|100:338|80:339,1,53.3333333333333,0|0,1:0|0:0,0:0:0:0:
9,362,67248,1,0,0:0:0:0:
9,362,67515,6,0,L|6:302,1,53.3333333333333
16,312,67782,1,0,1:0:0:0:
36,227,67959,5,0,0:0:0:0:
36,238,68048,1,0,0:0:0:0:
109,198,68226,5,2,0:0:0:0:
109,187,68315,1,0,0:0:0:0:
185,218,68493,5,2,0:0:0:0:
186,229,68582,1,0,1:0:0:0:
186,229,68848,6,0,B|261:208|252:258|327:237,1,143.999995605469,4|0,1:2|0:0,0:0:0:0:
326,237,69382,5,0,1:0:0:0:
387,281,69559,5,0,0:0:0:0:
397,279,69648,1,0,0:0:0:0:
407,200,69826,5,2,0:0:0:0:
397,202,69915,1,0,0:0:0:0:
407,123,70093,5,2,0:0:0:0:
417,121,70182,1,0,1:0:0:0:
417,121,70448,6,0,B|311:86|319:179|213:142,1,211.199999355469,4|0,1:2|0:0,0:0:0:0:
164,86,70848,1,0,0:0:0:0:
164,86,70915,1,0,0:0:0:0:
164,86,70982,5,0,1:0:0:0:
195,215,71159,1,0,0:0:0:0:
236,64,71248,2,0,P|236:106|211:146,1,85.3333333333333,0|0,1:0|0:0,0:0:0:0:
59,183,71515,2,0,P|96:162|143:163,1,85.3333333333333,0|0,1:0|0:0,0:0:0:0:
252,274,71782,2,0,P|216:253|194:211,1,85.3333333333333,0|0,1:0|0:0,0:0:0:0:
269,198,72048,1,0,1:0:0:0:
116,239,72226,1,0,0:0:0:0:
214,142,72315,2,0,L|311:148,1,85.3333333333333,0|0,1:0|0:0,0:0:0:0:
366,109,72582,5,0,1:0:0:0:
463,133,72759,1,0,0:0:0:0:
442,137,72848,1,0,1:0:0:0:
406,285,73026,1,0,0:0:0:0:
464,237,73115,2,0,P|429:212|383:212,1,85.3333333333333,0|0,1:0|0:0,0:0:0:0:
313,215,73382,2,0,P|326:276|339:349,2,128,0|0|0,1:0|1:0|1:0,0:0:0:0:
199,118,74093,1,0,0:0:0:0:
284,7,74182,6,0,P|277:48|273:95,1,85.3333333333333,0|0,1:0|0:0,0:0:0:0:
151,185,74448,2,0,P|159:227|163:269,1,85.3333333333333,0|0,1:0|0:0,0:0:0:0:
205,332,74715,2,0,P|151:301|83:301,1,128,0|0,1:0|1:0,0:0:0:0:
241,258,75159,5,0,0:0:0:0:
265,252,75248,1,0,1:0:0:0:
86,226,75426,5,0,0:0:0:0:
62,220,75515,1,0,1:0:0:0:
178,163,75693,1,0,0:0:0:0:
232,110,75782,6,0,L|226:21,1,85.3333333333333,0|0,1:0|0:0,0:0:0:0:
155,5,76048,2,0,L|161:94,1,85.3333333333333,0|0,1:0|0:0,0:0:0:0:
250,183,76315,5,0,1:0:0:0:
402,168,76493,1,0,0:0:0:0:
432,171,76582,1,0,1:0:0:0:
326,290,76759,5,0,0:0:0:0:
271,340,76848,2,0,P|254:299|261:255,1,85.3333333333333,0|0,1:0|0:0,0:0:0:0:
321,213,77115,2,0,P|326:171|310:132,1,85.3333333333333,0|0,1:0|0:0,0:0:0:0:
188,234,77382,6,0,P|151:243|104:250,2,80,0|0|0,1:0|0:0|1:0,0:0:0:0:
326,290,78182,2,0,P|365:296|404:305,2,80,0|0|0,1:0|0:0|0:0,0:0:0:0:
250,183,78982,5,0,1:0:0:0:
343,206,79159,1,0,0:0:0:0:
322,210,79248,1,0,1:0:0:0:
173,236,79426,5,0,0:0:0:0:
194,237,79515,1,0,1:0:0:0:
247,162,79693,5,0,0:0:0:0:
250,183,79782,1,0,1:0:0:0:
278,340,79959,6,0,L|265:260,1,80,0|0,1:0|1:0,0:0:0:0:
279,351,80315,1,0,1:0:0:0:
352,342,80493,1,0,1:0:0:0:
364,344,80582,5,8,0:0:0:0:
419,282,80759,2,0,L|337:264,1,80,2|8,0:0|0:0,0:0:0:0:
310,201,81115,1,2,0:0:0:0:
310,201,81382,5,8,0:0:0:0:
187,278,81559,1,2,0:0:0:0:
187,278,81648,2,0,L|273:266,1,80,8|8,0:0|0:0,0:0:0:0:
342,275,82092,21,2,0:0:0:0:
463,214,82359,1,8,0:0:0:0:
463,214,82448,2,0,L|377:202,1,80,2|8,0:0|0:0,0:0:0:0:
346,284,82892,5,0,0:0:0:0:
406,343,82981,2,0,P|446:337|468:306,1,80,8|8,0:0|0:0,0:0:0:0:
295,130,83381,21,0,1:0:0:0:
295,130,83448,1,0,3:0:0:0:
295,130,83515,2,0,P|300:165|305:212,2,80,4|0|0,1:0|1:0|1:0,0:0:0:0:
369,124,84315,2,0,P|373:84|378:44,2,80,0|0|0,1:0|0:0|0:0,0:0:0:0:
267,276,85115,21,2,0:0:0:0:
267,276,85381,2,0,P|255:277|241:282,4,20,0|0|0|0|0,1:0|0:0|0:0|0:0|1:0,0:0:0:0:
343,289,85915,1,0,1:0:0:0:
270,193,86181,1,2,0:0:0:0:
353,105,86448,1,2,0:0:0:0:
281,71,86715,22,0,P|259:37|263:-5,2,80,2|0|0,0:0|1:0|1:0,0:0:0:0:
424,134,87515,2,0,P|446:168|442:210,2,80,0|0|0,1:0|0:0|0:0,0:0:0:0:
447,325,88315,2,0,B|186:249|323:406|58:322,1,400,2|0,0:0|0:0,0:0:0:0:
62,322,89915,6,0,P|72:210|183:191,2,240,4|0|4,1:2|0:0|1:2,0:0:0:0:
156,368,91781,1,4,0:3:0:0:
228,332,91959,1,4,0:3:0:0:
228,332,92048,1,8,0:3:0:0:
294,378,92226,1,4,0:3:0:0:
294,378,92315,6,0,P|307:324|286:277,1,106.666666666667,4|0,1:2|0:0,0:0:0:0:
214,249,92581,1,2,0:0:0:0:
339,148,92759,1,0,0:0:0:0:
272,105,92848,2,0,P|259:159|280:206,1,106.666666666667,2|0,0:0|0:0,0:0:0:0:
456,215,93115,6,0,L|345:233,1,106.666666666667,0|0,1:0|0:0,0:0:0:0:
214,249,93381,1,2,0:0:0:0:
91,164,93559,1,0,0:0:0:0:
30,217,93648,2,0,L|141:227,1,106.666666666667,2|0,0:0|0:0,0:0:0:0:
287,278,93915,6,0,P|252:317|149:297,2,160,0|2|2,1:0|0:0|0:0,0:0:0:0:
378,129,94626,1,0,0:0:0:0:
407,203,94715,6,0,P|353:204|311:171,1,106.666666666667,0|0,1:0|0:0,0:0:0:0:
206,70,94981,2,0,P|234:116|227:169,1,106.666666666667,2|0,0:0|0:0,0:0:0:0:
192,310,95248,2,0,P|216:264|264:244,1,106.666666666667,2|0,0:0|0:0,0:0:0:0:
429,318,95515,6,0,B|366:314|366:314|330:329|330:329|267:326,2,160,0|2|2,1:0|0:0|0:0,0:0:0:0:
396,245,96226,1,0,0:0:0:0:
396,245,96315,6,0,B|349:243|349:243|320:257|320:257|278:256,2,120.000004577637,0|2|2,1:0|0:0|0:0,0:0:0:0:
303,182,97026,1,0,0:0:0:0:
303,182,97115,6,0,L|312:100,1,80.0000030517579,0|0,1:0|1:0,0:0:0:0:
385,91,97381,2,0,L|376:173,1,80.0000030517579,2|0,0:0|1:0,0:0:0:0:
312,102,97648,2,0,L|321:20,1,80.0000030517579,2|0,0:0|0:0,0:0:0:0:
330,27,97915,1,0,1:0:0:0:
280,256,98181,5,2,0:0:0:0:
249,238,98270,1,0,0:0:0:0:
212,238,98359,1,0,0:0:0:0:
180,256,98448,2,0,P|128:263|81:241,1,106.666666666667,2|2,0:0|0:0,0:0:0:0:
133,77,98715,6,0,P|138:131|141:191,1,106.666666666667,4|0,1:2|0:0,0:0:0:0:
230,312,98981,1,2,0:0:0:0:
302,183,99159,1,0,0:0:0:0:
359,240,99248,2,0,P|405:261|468:250,1,106.666666666667,2|0,0:0|0:0,0:0:0:0:
383,58,99515,6,0,P|378:112|375:172,1,106.666666666667,0|0,1:0|0:0,0:0:0:0:
366,322,99781,1,2,0:0:0:0:
302,183,99959,1,0,0:0:0:0:
291,366,100048,2,0,P|288:312|283:259,1,106.666666666667,2|0,0:0|0:0,0:0:0:0:
59,208,100315,6,0,P|117:203|163:241,1,106.666666666667,4|0,1:2|0:0,0:0:0:0:
302,183,100581,2,0,P|337:144|389:137,1,106.666666666667,2|0,0:0|0:0,0:0:0:0:
194,77,100848,2,0,L|221:181,1,106.666666666667,2|0,1:2|0:0,0:0:0:0:
343,318,101115,6,0,P|243:309|185:380,2,191.999994140625,4|2|2,1:2|0:0|0:0,0:0:0:0:
240,134,101915,6,0,P|265:90|216:-3,2,160,4|2|2,1:2|0:0|0:0,0:0:0:0:
69,252,102715,2,0,P|101:181|177:168,1,160,0|2,1:0|0:0,0:0:0:0:
265,272,103248,1,2,0:0:0:0:
341,229,103426,1,0,0:0:0:0:
341,229,103515,6,0,P|303:196|245:189,1,106.666666666667,0|0,1:0|0:0,0:0:0:0:
164,67,103781,2,0,P|155:116|178:170,1,106.666666666667,2|0,0:0|0:0,0:0:0:0:
114,299,104048,2,0,P|162:282|197:235,1,106.666666666667,2|0,0:0|0:0,0:0:0:0:
419,127,104315,6,0,B|310:112|355:201|247:188,1,191.999994140625,0|2,1:0|0:0,0:0:0:0:
99,205,104759,1,0,0:0:0:0:
99,205,104848,2,0,P|154:209|199:244,1,106.666666666667,2|0,0:0|0:0,0:0:0:0:
231,108,105115,5,0,1:0:0:0:
268,292,105292,1,0,0:0:0:0:
269,265,105381,1,2,0:0:0:0:
345,214,105559,5,0,0:0:0:0:
344,241,105648,1,2,0:0:0:0:
406,313,105826,5,0,0:0:0:0:
407,287,105915,2,0,L|515:300,1,106.666666666667,0|0,1:0|0:0,0:0:0:0:
332,338,106181,2,0,B|269:330|269:330|242:340|242:340|174:333,1,160,2|2,0:0|0:0,0:0:0:0:
77,235,106626,1,0,0:0:0:0:
77,235,106715,5,0,1:0:0:0:
349,133,106981,1,2,0:0:0:0:
121,45,107248,1,2,0:0:0:0:
263,21,107515,6,0,P|270:73|241:119,1,106.666666666667,0|0,1:0|0:0,0:0:0:0:
63,151,107781,2,0,P|113:140|171:133,1,106.666666666667,2|0,0:0|0:0,0:0:0:0:
316,235,108048,2,0,P|271:211|217:189,1,106.666666666667,2|0,0:0|0:0,0:0:0:0:
67,258,108315,6,0,P|119:248|149:205,2,103.999995239258,4|2|2,1:2|0:0|0:0,0:0:0:0:
67,258,109115,6,0,B|162:255|132:313|228:316,1,173.333325398763,2|0,0:0|0:0,0:0:0:0:
237,311,109648,1,2,0:0:0:0:
438,217,109915,6,0,P|447:166|354:132,1,160,6|2,1:2|0:0,0:0:0:0:
221,46,110359,1,0,0:0:0:0:
221,46,110448,6,0,P|169:45|121:88,1,106.666666666667,0|0,1:0|0:0,0:0:0:0:
113,151,110715,2,0,P|134:200|137:254,1,106.666666666667,0|0,1:0|0:0,0:0:0:0:
182,315,110981,2,0,P|173:346|171:376,3,53.3333333333333,0|0|0|0,1:0|1:0|1:0|1:0,0:0:0:0:
235,169,111426,5,0,0:0:0:0:
235,169,111515,2,0,P|268:148|307:151,1,74.6666643880209,0|2,1:0|0:0,0:0:0:0:
337,163,111781,2,0,L|413:155,1,74.6666643880209,0|2,1:0|0:0,0:0:0:0:
445,170,112048,5,0,1:0:0:0:
467,140,112137,1,0,1:0:0:0:
461,103,112226,1,0,1:0:0:0:
428,84,112315,2,0,L|429:35,2,37.3333321940105,0|0|0,1:0|1:0|1:0,0:0:0:0:
399,233,112581,5,4,1:0:0:0:
413,362,112759,1,0,0:0:0:0:
411,340,112848,1,6,0:0:0:0:
334,332,113026,5,2,0:2:0:0:
336,354,113115,1,4,1:2:0:0:
261,372,113292,5,2,0:0:0:0:
259,350,113381,2,0,L|151:363,1,106.666666666667,0|2,1:0|0:0,0:0:0:0:
111,293,113648,6,0,L|219:280,1,106.666666666667,0|0,1:0|1:0,0:0:0:0:
294,190,113915,6,0,P|301:161|292:126,2,64,2|2|2,0:0|0:0|0:0,0:0:0:0:
286,45,114715,5,0,0:0:0:0:
214,96,114892,1,2,0:0:0:0:
211,113,114981,1,0,1:0:0:0:
180,148,115070,1,0,1:0:0:0:
134,157,115159,1,0,1:0:0:0:
92,138,115248,5,4,1:0:0:0:
251,180,115514,2,0,P|277:181|309:187,2,53.3333333333333,2|0|0,0:0|0:0|1:0,0:0:0:0:
143,82,115781,6,0,B|129:50|134:6|134:6|167:39,1,106.666666666667,0|2,0:0|0:0,0:0:0:0:
159,35,116048,1,0,1:0:0:0:
183,241,116248,1,0,0:0:0:0:
181,253,116314,5,2,0:0:0:0:
63,317,116492,2,0,B|138:288|142:354|220:320,1,160,0|2,1:0|0:0,0:0:0:0:
277,367,116848,1,0,1:0:0:0:
437,305,117025,5,2,0:0:0:0:
372,263,117114,2,0,P|364:235|371:197,2,61.3333345031739,0|0|0,1:0|0:0|0:0,0:0:0:0:
408,139,117381,6,0,P|338:192|245:171,1,184.000003509522,4|2,1:2|0:0,0:0:0:0:
112,85,117825,2,0,P|198:97|249:177,1,184.000003509522,2|0,0:0|0:0,0:0:0:0:
201,239,118181,1,0,1:0:0:0:
201,239,118447,6,0,B|257:110|358:178|396:1,1,306.666672515869,0|0,1:0|0:0,0:0:0:0:
310,29,118981,1,0,1:0:0:0:
448,81,119158,5,2,0:0:0:0:
472,77,119247,1,0,1:0:0:0:
406,158,119425,1,0,0:0:0:0:
430,154,119514,6,0,L|422:219,2,61.3333345031739,0|0|0,1:0|1:0|1:0,0:0:0:0:
500,174,119781,2,0,B|493:235|493:235|470:279|470:279|461:354,1,184.000003509522,0|4,1:0|1:2,0:0:0:0:
288,289,120225,5,0,0:0:0:0:
228,338,120314,2,0,P|186:356|111:330,1,122.666669006348,2|0,0:0|0:0,0:0:0:0:
115,254,120581,2,0,L|253:220,1,138.000002632141,0|0,1:0|0:0,0:0:0:0:
283,197,120847,6,0,P|316:133|290:22,1,184.000003509522,0|0,1:0|1:0,0:0:0:0:
283,32,121203,1,0,3:0:0:0:
273,38,121292,1,0,3:0:0:0:
263,44,121381,1,0,1:0:0:0:
388,155,121558,5,0,0:0:0:0:
393,120,121647,1,2,1:2:0:0:
457,185,121825,1,0,0:0:0:0:
462,150,121914,1,2,1:2:0:0:
121,274,122181,6,0,P|151:268|186:266,2,61.3333345031739,0|0|0,1:0|1:0|1:0,0:0:0:0:
81,212,122447,2,0,P|50:209|16:202,2,61.3333345031739,0|0|0,1:0|1:0|1:0,0:0:0:0:
128,155,122714,6,0,P|138:100|205:77,1,127.99999609375,4|0,1:2|0:0,0:0:0:0:
270,54,122980,2,0,P|322:85|395:73,1,127.99999609375,0|0,1:0|0:0,0:0:0:0:
443,31,123247,1,0,1:0:0:0:
443,31,123514,6,0,L|432:159,1,127.99999609375,0|0,1:0|0:0,0:0:0:0:
475,218,123780,2,0,L|486:346,1,127.99999609375,0|0,1:0|0:0,0:0:0:0:
422,382,124047,1,0,1:0:0:0:
243,300,124225,1,0,0:0:0:0:
243,300,124314,6,0,B|282:277|282:277|373:296,1,127.99999609375,0|0,1:0|0:0,0:0:0:0:
422,382,124580,2,0,L|293:358,1,127.99999609375,0|0,1:0|0:0,0:0:0:0:
95,249,124847,2,0,L|224:225,1,127.99999609375,0|0,1:0|0:0,0:0:0:0:
228,211,125114,1,0,1:0:0:0:
175,158,125291,5,0,0:0:0:0:
169,137,125380,1,0,1:0:0:0:
291,253,125558,5,0,0:0:0:0:
329,257,125647,1,0,1:0:0:0:
280,149,125825,5,0,0:0:0:0:
288,136,125914,6,0,B|315:92|347:31|347:31|339:71|353:117,2,191.999994140625,0|0|0,1:0|1:0|1:0,0:0:0:0:
421,245,126625,1,0,0:0:0:0:
421,245,126714,6,0,P|411:187|349:177,1,127.99999609375,2|0,1:2|0:0,0:0:0:0:
196,261,126980,2,0,P|219:207|282:214,1,127.99999609375,2|0,1:2|0:0,0:0:0:0:
338,380,127247,2,0,L|347:251,1,127.99999609375,2|2,1:2|0:2,0:0:0:0:
288,136,127514,5,2,1:2:0:0:
137,30,127691,5,0,0:0:0:0:
170,28,127780,1,2,1:2:0:0:
170,145,127958,5,0,0:0:0:0:
137,147,128047,1,2,1:2:0:0:
2,100,128225,5,0,0:0:0:0:
35,98,128314,6,0,L|234:84,2,191.999994140625,6|0|0,1:2|1:0|1:0,0:0:0:0:
350,176,129114,5,4,0:1:0:0:
214,354,129380,2,0,P|208:312|229:275,1,85.3333333333333
236,270,129647,2,0,P|278:263|315:285,1,85.3333333333333
320,291,129914,6,0,P|326:333|304:370,1,85.3333333333333
296,372,130180,2,0,B|344:362|344:362|365:370|365:370|431:356,1,128
463,234,130625,1,0,0:0:0:0:
463,234,130714,6,0,P|500:171|438:52,1,213.333333333333
433,53,131247,2,0,L|370:80,1,64
257,106,131514,2,0,B|317:107|312:157|370:158,2,128
98,196,132314,5,2,0:2:0:0:
257,106,132580,1,2,0:2:0:0:
141,85,132847,1,2,0:2:0:0:
248,266,133114,2,0,P|310:264|352:309,2,128,0|0|0,0:2|0:0|0:0,0:0:0:0:
248,266,133914,5,2,0:2:0:0:
165,97,134180,2,0,P|177:157|183:228,1,128,2|0,0:2|0:2,0:0:0:0:
149,367,134580,1,0,0:0:0:0:
79,354,134714,2,0,P|114:304|176:300,1,128,2|2,0:2|0:2,0:0:0:0:
313,306,135247,2,0,P|271:302|247:267,1,85.3333333333333
297,214,135514,5,0,0:0:0:0:
229,86,135780,2,0,L|237:172,1,85.3333333333333,0|0,0:0|0:0,0:0:0:0:
230,178,136047,2,0,L|238:264,1,85.3333333333333,0|0,0:0|0:0,0:0:0:0:
231,270,136314,6,0,L|239:356,1,85.3333333333333,0|0,0:0|0:0,0:0:0:0:
244,363,136580,2,0,B|196:358|196:358|171:368|171:368|115:364,1,128,0|0,0:0|0:0,0:0:0:0:
50,252,137025,1,0,0:0:0:0:
50,252,137114,6,0,P|13:189|75:70,1,213.333333333333
80,71,137647,2,0,L|143:98,1,64
256,122,137914,2,0,B|196:123|201:173|143:174,2,128
406,212,138714,5,2,0:2:0:0:
256,245,138980,1,2,0:2:0:0:
391,208,139247,5,2,0:2:0:0:
269,237,139514,1,0,0:0:0:0:
376,204,139780,5,2,0:2:0:0:
225,173,140047,1,2,0:2:0:0:
341,87,140314,5,2,0:2:0:0:
305,305,140580,1,2,0:2:0:0:
413,231,140847,6,0,P|378:238|341:240,1,64,0|2,0:0|0:2,0:0:0:0:
239,349,141114,2,0,P|204:342|167:340,1,64,2|0,0:2|0:0,0:0:0:0:
305,305,141380,1,2,0:2:0:0:
126,275,141647,1,0,0:0:0:0:
256,232,141914,5,2,0:2:0:0:
196,188,142180,2,0,P|185:156|188:124,1,64,0|0,0:0|0:0,0:0:0:0:
324,126,142714,2,0,P|326:158|316:188,1,64,2|0,0:2|0:0,0:0:0:0:
256,144,143247,1,0,0:0:0:0:
256,16,143514,6,0,L|256:144,1,128,2|0,0:2|0:0,0:0:0:0:
256,220,144314,1,2,0:2:0:0:
256,220,144847,5,0,0:0:0:0:
193,176,145114,1,2,0:3:0:0:
319,176,145380,1,0,0:0:0:0:
144,280,145647,1,0,0:0:0:0:
368,280,145914,5,2,0:3:0:0:
256,132,146180,1,0,0:0:0:0:
256,368,146447,1,0,0:0:0:0:
319,176,146714,6,0,P|332:112|288:60,2,136.000002593994,4|0|0,0:0|0:0|0:0,0:0:0:0:
156,353,147514,6,0,P|113:302|126:237,2,136.000002593994,0|0|0,1:0|0:0|1:0,0:0:0:0:
331,183,148314,6,0,P|352:176|379:171,8,45.3333341979981,0|0|0|2|0|0|2|0|0,1:0|0:0|0:0|0:0|0:0|0:0|0:0|0:0|0:0,0:0:0:0:
267,142,149114,6,0,P|246:135|219:130,8,45.3333341979981,0|0|0|2|0|0|2|0|0,1:0|0:0|0:0|0:0|0:0|0:0|0:0|0:0|0:0,0:0:0:0:
324,92,149914,5,0,1:0:0:0:
346,70,150002,1,0,0:0:0:0:
377,66,150091,1,0,0:0:0:0:
406,77,150180,1,2,0:0:0:0:
421,104,150269,1,0,0:0:0:0:
448,119,150358,1,0,0:0:0:0:
479,113,150447,1,2,0:0:0:0:
500,89,150536,2,0,L|496:151,1,45.3333341979981,0|0,0:0|0:0,0:0:0:0:
509,210,150714,5,0,1:0:0:0:
468,206,150802,1,0,0:0:0:0:
435,230,150891,1,0,0:0:0:0:
429,270,150980,1,2,0:0:0:0:
444,307,151069,1,0,0:0:0:0:
403,299,151158,1,0,0:0:0:0:
366,316,151247,1,2,0:0:0:0:
325,311,151336,1,0,0:0:0:0:
300,278,151425,1,0,0:0:0:0:
344,204,151514,21,4,1:2:0:0:
254,347,152314,22,0,B|299:261|302:194|254:149|175:164|170:241|214:263,1,298.666657552084,4|0,1:2|0:0,0:0:0:0:
198,261,153114,6,0,B|168:245|168:195|213:174|213:174|248:144|260:101|254:52|216:20|163:18|123:39|114:115|172:108,1,396.80001241211,2|0,0:0|0:0,0:0:0:0:
166,108,153914,22,0,L|245:94,2,58.1333339542643,2|0|0,0:0|0:0|0:0,0:0:0:0:
204,179,154180,2,0,L|282:164,2,58.1333339542643,2|0|0,0:0|0:0|0:0,0:0:0:0:
129,302,154447,2,0,L|50:287,2,58.1333339542643,2|0|0,0:0|0:0|0:0,0:0:0:0:
177,367,154714,6,0,P|211:333|270:343,1,106.666666666667,4|0,1:2|0:0,0:0:0:0:
330,384,154980,1,2,0:0:0:0:
399,223,155158,1,0,0:0:0:0:
440,292,155247,2,0,L|333:303,1,106.666666666667,2|0,0:0|0:0,0:0:0:0:
165,240,155514,6,0,L|272:251,1,106.666666666667,0|0,1:0|0:0,0:0:0:0:
314,185,155780,1,2,0:0:0:0:
216,62,155958,1,0,0:0:0:0:
278,11,156047,2,0,P|296:62|277:115,1,106.666666666667,2|0,0:0|0:0,0:0:0:0:
212,143,156314,6,0,P|134:144|74:197,2,160,0|2|2,1:0|0:0|0:0,0:0:0:0:
303,275,157025,1,0,0:0:0:0:
340,204,157114,6,0,P|382:175|441:181,1,106.666666666667,0|0,1:0|0:0,0:0:0:0:
461,297,157380,2,0,P|418:326|366:323,1,106.666666666667,2|0,0:0|0:0,0:0:0:0:
303,275,157647,1,2,0:0:0:0:
498,226,157825,1,0,0:0:0:0:
498,226,157914,6,0,L|337:265,2,160,0|2|2,1:0|0:0|0:0,0:0:0:0:
461,155,158625,1,0,0:0:0:0:
461,155,158714,6,0,L|333:185,2,120.000004577637,0|2|2,1:0|0:0|0:0,0:0:0:0:
488,82,159425,1,0,0:0:0:0:
488,82,159514,6,0,P|494:45|479:4,1,80.0000030517579,0|0,1:0|1:0,0:0:0:0:
406,17,159780,2,0,P|400:54|415:95,1,80.0000030517579,2|0,0:0|1:0,0:0:0:0:
455,234,160047,2,0,L|460:155,1,80,2|0,0:0|0:0,0:0:0:0:
454,160,160314,1,0,1:0:0:0:
227,234,160580,5,2,0:0:0:0:
258,216,160669,1,0,0:0:0:0:
295,216,160758,1,0,0:0:0:0:
327,234,160847,2,0,P|379:241|432:214,1,106.666666666667,2|0,0:0|0:0,0:0:0:0:
374,55,161114,6,0,P|369:109|366:169,1,106.666666666667,4|0,1:2|0:0,0:0:0:0:
277,290,161380,1,2,0:0:0:0:
205,161,161558,1,0,0:0:0:0:
148,218,161647,2,0,P|102:239|39:228,1,106.666666666667,2|0,0:0|0:0,0:0:0:0:
124,36,161914,6,0,P|129:90|132:150,1,106.666666666667,0|0,1:0|0:0,0:0:0:0:
144,298,162180,1,2,0:0:0:0:
281,180,162358,1,0,0:0:0:0:
218,345,162447,2,0,P|220:291|225:238,1,106.666666666667,2|0,0:0|0:0,0:0:0:0:
452,181,162714,6,0,P|394:176|348:214,1,106.666666666667,4|0,1:2|0:0,0:0:0:0:
209,156,162980,2,0,P|174:117|122:110,1,106.666666666667,2|0,0:0|0:0,0:0:0:0:
317,50,163247,2,0,L|290:154,1,106.666666666667,2|0,1:2|0:0,0:0:0:0:
164,296,163514,6,0,P|259:280|313:348,2,191.999994140625,4|2|2,1:2|0:2|0:0,0:0:0:0:
13,337,164314,6,0,L|173:319,2,160,4|2|2,1:2|0:0|0:0,0:0:0:0:
226,257,165114,2,0,P|304:247|386:239,1,160,0|2,1:0|0:0,0:0:0:0:
152,231,165647,1,2,0:0:0:0:
197,82,165825,1,0,0:0:0:0:
197,82,165914,6,0,P|221:129|209:183,1,106.666666666667,0|0,1:0|0:0,0:0:0:0:
148,318,166180,2,0,P|176:273|229:256,1,106.666666666667,2|0,0:0|0:0,0:0:0:0:
377,243,166447,2,0,P|323:240|283:203,1,106.666666666667,2|0,0:0|0:0,0:0:0:0:
39,121,166714,6,0,B|148:106|103:195|211:179,1,191.999994140625,0|2,1:0|0:0,0:0:0:0:
354,114,167158,1,0,0:0:0:0:
354,114,167247,2,0,P|308:118|267:133,1,85.3333333333333,2|0,0:0|0:0,0:0:0:0:
224,256,167514,5,6,0:2:0:0:
238,59,167780,1,0,1:0:0:0:
224,256,168047,1,0,1:0:0:0:
161,53,168314,6,0,P|169:96|201:128,1,85.3333333333333,2|0,0:0|0:0,0:0:0:0:
332,189,168580,2,0,L|246:181,1,85.3333333333333,0|0,1:0|0:0,0:0:0:0:
173,199,168847,1,0,1:0:0:0:
268,105,169025,1,0,0:0:0:0:
268,105,169114,5,2,0:0:0:0:
224,256,169380,1,0,1:0:0:0:
124,135,169647,1,0,1:0:0:0:
30,290,169914,5,2,0:0:0:0:
46,265,170002,1,0,0:0:0:0:
74,255,170091,1,0,0:0:0:0:
103,256,170180,1,0,1:0:0:0:
127,273,170269,1,0,0:0:0:0:
151,290,170358,1,0,0:0:0:0:
180,291,170447,1,0,1:0:0:0:
208,281,170536,1,0,0:0:0:0:
238,279,170625,1,0,0:0:0:0:
273,304,170714,5,4,0:0:0:0:
201,186,170980,1,0,1:0:0:0:
244,7,171247,1,0,1:0:0:0:
414,80,171514,1,2,0:0:0:0:
351,340,171780,5,0,1:0:0:0:
339,200,172047,1,0,1:0:0:0:
466,259,172314,5,2,0:0:0:0:
224,281,172580,1,0,1:0:0:0:
466,259,172847,1,0,1:0:0:0:
257,113,173114,21,2,0:0:0:0:
353,362,173380,1,0,1:0:0:0:
449,113,173647,1,0,1:0:0:0:
224,281,173914,6,0,P|172:290|125:260,1,106.666666666667,4|0,1:2|0:0,0:0:0:0:
58,299,174180,1,2,0:0:0:0:
129,132,174358,1,0,0:0:0:0:
51,116,174447,2,0,L|67:224,1,106.666666666667,2|0,0:0|0:0,0:0:0:0:
213,198,174714,6,0,L|197:90,1,106.666666666667,0|0,1:0|0:0,0:0:0:0:
113,26,174980,2,0,L|129:134,1,106.666666666667,2|0,0:0|0:0,0:0:0:0:
150,270,175247,1,2,0:0:0:0:
302,231,175425,1,0,0:0:0:0:
253,294,175514,6,0,P|302:311|352:294,1,106.666666666667,0|0,1:0|0:0,0:0:0:0:
475,221,175780,2,0,P|426:204|376:221,1,106.666666666667,2|0,0:0|0:0,0:0:0:0:
281,126,176047,2,0,P|293:181|303:237,1,106.666666666667,2|0,0:0|0:0,0:0:0:0:
447,384,176314,2,0,P|435:329|425:273,1,106.666666666667,0|0,1:0|0:0,0:0:0:0:
352,293,176580,1,2,0:0:0:0:
361,147,176758,5,0,0:0:0:0:
356,122,176847,1,2,0:0:0:0:
210,160,177025,5,0,0:0:0:0:
215,185,177114,6,0,B|152:181|152:181|116:196|116:196|53:193,2,160,0|2|2,1:0|0:0|0:0,0:0:0:0:
209,256,177825,1,0,0:0:0:0:
209,256,177914,6,0,B|162:254|162:254|133:268|133:268|91:267,2,120.000004577637,0|2|2,1:0|0:0|0:0,0:0:0:0:
178,329,178625,5,0,0:0:0:0:
178,359,178714,1,0,1:0:0:0:
253,318,178914,5,0,0:0:0:0:
253,336,178980,1,2,0:0:0:0:
328,307,179180,5,0,0:0:0:0:
328,325,179247,2,0,L|446:310,1,120,2|0,0:0|0:0,0:0:0:0:
457,320,179514,1,0,1:0:0:0:
419,142,179780,5,2,0:0:0:0:
438,108,179869,1,0,0:0:0:0:
426,71,179958,1,0,0:0:0:0:
391,54,180047,2,0,L|281:73,1,106.666666666667,2|0,0:0|0:0,0:0:0:0:
141,73,180314,6,0,P|146:127|149:187,1,106.666666666667,4|0,1:2|0:0,0:0:0:0:
238,308,180580,1,2,0:0:0:0:
310,179,180758,1,0,0:0:0:0:
367,236,180847,2,0,P|413:257|476:246,1,106.666666666667,2|0,0:0|0:0,0:0:0:0:
391,54,181114,6,0,P|386:108|383:168,1,106.666666666667,0|0,1:0|0:0,0:0:0:0:
371,315,181380,1,2,0:0:0:0:
234,199,181558,1,0,0:0:0:0:
299,364,181647,2,0,P|296:310|291:257,1,106.666666666667,2|0,0:0|0:0,0:0:0:0:
63,199,181914,6,0,P|121:194|167:232,1,106.666666666667,4|0,1:2|0:0,0:0:0:0:
306,173,182180,2,0,P|340:135|392:127,1,106.666666666667,2|0,0:0|0:0,0:0:0:0:
198,68,182447,2,0,L|225:172,1,106.666666666667,2|0,1:2|0:0,0:0:0:0:
289,351,182714,6,0,P|318:308|311:256,1,106.666666666667,4|0,1:2|0:0,0:0:0:0:
289,258,182980,1,2,0:0:0:0:
306,173,183158,5,0,0:0:0:0:
328,171,183247,1,2,0:0:0:0:
323,88,183425,5,0,0:0:0:0:
345,86,183514,6,0,B|300:77|300:77|248:94|248:94|189:82,2,160,4|2|2,1:2|0:0|0:0,0:0:0:0:
504,281,184314,2,0,P|499:242|394:207,1,160,0|2,1:0|0:0,0:0:0:0:
310,312,184847,1,2,0:0:0:0:
234,267,185025,1,0,0:0:0:0:
234,267,185114,6,0,P|272:234|330:227,1,106.666666666667,0|0,1:0|0:0,0:0:0:0:
411,105,185380,2,0,P|420:154|397:208,1,106.666666666667,2|0,0:0|0:0,0:0:0:0:
461,337,185647,2,0,P|413:320|378:273,1,106.666666666667,2|0,0:0|0:0,0:0:0:0:
154,168,185914,6,0,B|263:153|218:242|326:226,1,191.999994140625,0|2,1:0|0:0,0:0:0:0:
461,255,186358,1,0,0:0:0:0:
461,255,186447,2,0,P|416:262|375:279,1,85.3333333333333,2|0,0:0|0:0,0:0:0:0:
341,143,186714,5,0,1:0:0:0:
392,51,186891,5,0,0:0:0:0:
392,79,186980,1,2,0:0:0:0:
315,66,187158,5,0,0:0:0:0:
315,38,187247,1,2,0:0:0:0:
238,25,187425,5,0,0:0:0:0:
238,53,187514,2,0,L|129:69,1,106.666666666667,0|0,1:0|0:0,0:0:0:0:
118,59,187780,1,2,0:0:0:0:
12,179,187958,1,0,0:0:0:0:
12,179,188047,2,0,P|44:140|102:138,1,106.666666666667,2|0,0:0|0:0,0:0:0:0:
174,133,188314,6,0,L|162:252,1,106.666666666667,0|0,1:0|0:0,0:0:0:0:
152,250,188580,1,2,0:0:0:0:
217,375,188758,5,0,0:0:0:0:
214,349,188847,1,2,0:0:0:0:
288,324,189025,5,0,0:0:0:0:
291,350,189114,1,0,1:0:0:0:
367,354,189291,5,0,0:0:0:0:
364,328,189380,2,0,P|415:347|466:336,1,106.666666666667,2|0,0:0|0:0,0:0:0:0:
471,150,189647,2,0,P|420:131|369:142,1,106.666666666667,2|0,0:0|0:0,0:0:0:0:
330,233,189914,22,0,L|491:244,2,160,6|2|2,1:2|0:0|0:0,0:0:0:0:
88,182,190714,6,0,L|268:193,1,173.333325398763,2|2,0:0|0:0,0:0:0:0:
270,180,191247,1,2,0:0:0:0:
256,28,191514,5,6,1:2:0:0:
256,192,191602,12,0,194447,1:0:0:0:
47,222,194714,5,0,0:0:0:0:
47,222,194847,1,0,0:0:0:0:
76,291,194980,2,0,P|112:309|151:305,1,80,2|0,0:0|0:0,0:0:0:0:
179,186,195247,2,0,P|143:168|104:172,2,80,0|0|0,1:0|0:0|1:0,0:0:0:0:
208,255,195647,5,0,0:0:0:0:
219,332,195780,2,0,P|246:324|273:319,1,55.9999982910157,2|0,0:0|0:0,0:0:0:0:
283,247,196047,2,0,P|309:254|337:260,2,55.9999982910157,0|0|0,1:0|0:0|1:0,0:0:0:0:
498,227,196447,5,0,0:0:0:0:
469,296,196580,2,0,P|433:314|394:310,1,80,2|0,0:0|0:0,0:0:0:0:
366,191,196847,2,0,P|402:173|441:177,2,80,0|0|0,1:0|0:0|1:0,0:0:0:0:
337,260,197247,5,0,0:0:0:0:
326,337,197380,2,0,P|299:329|272:324,1,55.9999982910157,2|0,0:0|0:0,0:0:0:0:
262,252,197647,2,0,P|235:259|207:265,1,55.9999982910157,0|0,1:0|0:0,0:0:0:0:
53,321,197914,5,4,1:2:0:0:
55,307,198180,2,0,P|52:290|47:254,4,40,2|0|0|0|0,0:0|0:0|0:0|0:0|1:0,0:0:0:0:
126,103,198714,5,4,1:2:0:0:
124,89,198980,2,0,P|126:72|131:40,4,32,2|0|0|0|0,0:0|0:0|0:0|0:0|1:0,0:0:0:0:
36,180,199514,6,0,B|96:167|101:213|159:198,1,128,4|0,1:2|1:0,0:0:0:0:
221,242,199914,1,2,0:0:0:0:
280,195,200047,2,0,P|310:188|353:186,1,64,0|2,1:0|0:0,0:0:0:0:
150,342,200314,6,0,P|142:307|151:270,1,71.9999978027344,4|2,1:2|0:0,0:0:0:0:
292,269,200580,2,0,P|299:303|292:338,1,71.9999978027344,0|2,1:0|0:0,0:0:0:0:
222,377,200847,1,0,1:0:0:0:
215,149,200980,1,2,0:0:0:0:
289,20,201114,22,0,P|281:61|275:109,1,80,4|2,1:2|0:0,0:0:0:0:
114,35,201380,2,0,P|132:72|150:117,1,80,0|2,1:0|0:0,0:0:0:0:
227,242,201647,2,0,L|216:150,1,80,0|2,1:0|0:0,0:0:0:0:
201,15,201914,5,4,1:2:0:0:
142,188,202047,1,0,1:0:0:0:
202,31,202180,21,0,1:0:0:0:
294,173,202314,1,2,1:2:0:0:
241,345,202447,6,0,L|229:253,1,92.0000017547608,0|2,1:2|1:2,0:0:0:0:
215,149,202714,1,6,1:2:0:0:
490,370,203247,5,0,1:0:0:0:
490,370,203447,2,0,L|520:378,1,23.9999992675781,0|4,3:0|3:0,0:0:0:0:
435,283,204047,5,8,0:0:0:0:
438,308,204314,1,8,0:0:0:0:
368,181,204847,5,2,0:0:0:0:
389,372,205114,1,2,0:0:0:0:
