osu file format v14

[General]
AudioFilename: audio.mp3
AudioLeadIn: 0
PreviewTime: 39533
Countdown: 0
SampleSet: Normal
StackLeniency: 0.7
Mode: 1
LetterboxInBreaks: 0
WidescreenStoryboard: 0

[Editor]
Bookmarks: 400,13066,14133,14266,14800,25866,27600,31200,34000,40400,52933,53200,75600,77466,77600,85866
DistanceSpacing: 1.6
BeatDivisor: 6
GridSize: 32
TimelineZoom: 1.7

[Metadata]
Title:Poppin Jump (TV Size)
TitleUnicode:ぽっぴんジャンプ♪(TV Size)
Artist:Chimame-tai
ArtistUnicode:チマメ隊
Creator:Smallwu
Version:Pyoni
Source:ご注文はうさぎですか?
Tags:yuki_momoiro722 ぴょん Pyonpyon ending ed ごちうさ Gochiusa Is the Order a Rabbit? Gochuumon wa Usagi Desu ka? anime taiko 香風 智乃 チノ Kafuu Chino 水瀬いのり 条河 麻耶 マヤ Maya Jouga 徳井青空 奈津 恵 メグ Natsu Megumi 村川梨衣 koi inori minase sora tokui rie murakawa
BeatmapID:1593876
BeatmapSetID:757027

[Difficulty]
HPDrainRate:5
CircleSize:3.3
OverallDifficulty:5.5
ApproachRate:3.3
SliderMultiplier:1.4
SliderTickRate:1

[Events]
//Background and Video events
0,0,"Chimame.jpg",0,100
//Break Periods
//Storyboard Layer 0 (Background)
//Storyboard Layer 1 (Fail)
//Storyboard Layer 2 (Pass)
//Storyboard Layer 3 (Foreground)
//Storyboard Sound Samples

[TimingPoints]
400,400,4,1,0,70,1,0
26800,-100,4,1,0,60,0,0
27200,-100,4,1,0,60,0,0
27533,-100,4,1,0,80,0,0
32200,-100,4,1,0,60,0,0
32600,-100,4,1,0,80,0,0
33600,-100,4,1,0,90,0,0
34200,-100,4,1,0,70,0,0
40400,-100,4,1,0,85,0,1
52400,-100,4,1,0,85,0,0
53200,-100,4,1,0,85,0,1
67466,-100,4,1,0,85,0,0
69200,-100,4,1,0,85,0,1
75600,-100,4,1,0,85,0,0

[HitObjects]
256,192,400,5,0,0:0:0:0:
256,192,666,5,2,0:0:0:0:
256,192,800,5,2,0:0:0:0:
256,192,933,5,2,0:0:0:0:
256,192,1066,5,2,0:0:0:0:
256,192,1200,1,0,0:0:0:0:
256,192,1333,1,2,0:0:0:0:
256,192,1466,1,0,0:0:0:0:
256,192,1600,1,0,0:0:0:0:
256,192,1733,1,0,0:0:0:0:
256,192,1866,1,2,0:0:0:0:
256,192,2000,5,4,0:0:0:0:
256,192,2400,1,2,0:0:0:0:
256,192,2666,1,0,0:0:0:0:
256,192,2800,1,2,0:0:0:0:
256,192,3066,1,0,0:0:0:0:
256,192,3200,1,0,0:0:0:0:
256,192,3466,1,2,0:0:0:0:
256,192,4000,1,2,0:0:0:0:
256,192,4266,1,2,0:0:0:0:
256,192,4400,1,0,0:0:0:0:
256,192,4666,1,0,0:0:0:0:
256,192,4800,1,2,0:0:0:0:
256,192,5066,1,2,0:0:0:0:
256,192,5200,1,0,0:0:0:0:
256,192,5600,1,2,0:0:0:0:
256,192,5866,1,0,0:0:0:0:
256,192,6000,1,2,0:0:0:0:
256,192,6266,1,0,0:0:0:0:
256,192,6400,1,0,0:0:0:0:
256,192,6666,1,2,0:0:0:0:
256,192,7066,1,0,0:0:0:0:
256,192,7200,1,2,0:0:0:0:
256,192,7466,1,2,0:0:0:0:
256,192,7600,1,0,0:0:0:0:
256,192,7733,1,0,0:0:0:0:
256,192,7866,1,2,0:0:0:0:
256,192,8000,1,2,0:0:0:0:
256,192,8266,1,2,0:0:0:0:
256,192,8400,1,0,0:0:0:0:
256,192,8800,1,2,0:0:0:0:
256,192,9200,1,0,0:0:0:0:
256,192,9466,1,2,0:0:0:0:
256,192,9600,1,0,0:0:0:0:
256,192,9866,1,2,0:0:0:0:
256,192,10266,1,0,0:0:0:0:
256,192,10400,1,2,0:0:0:0:
256,192,10666,1,0,0:0:0:0:
256,192,10800,1,2,0:0:0:0:
256,192,10933,1,2,0:0:0:0:
256,192,11066,1,0,0:0:0:0:
256,192,11200,1,2,0:0:0:0:
256,192,11466,1,0,0:0:0:0:
256,192,11600,1,2,0:0:0:0:
256,192,12000,1,2,0:0:0:0:
256,192,12266,1,2,0:0:0:0:
256,192,12400,1,0,0:0:0:0:
256,192,12666,1,0,0:0:0:0:
256,192,12800,1,2,0:0:0:0:
256,192,13066,5,6,0:0:0:0:
256,192,13466,1,0,0:0:0:0:
256,192,13600,1,2,0:0:0:0:
256,192,13866,1,2,0:0:0:0:
256,192,14000,1,0,0:0:0:0:
256,192,14400,1,2,0:0:0:0:
256,192,14666,1,2,0:0:0:0:
256,192,14800,5,4,0:0:0:0:
256,192,15200,1,2,0:0:0:0:
256,192,15466,1,0,0:0:0:0:
256,192,15600,1,2,0:0:0:0:
256,192,15866,1,0,0:0:0:0:
256,192,16000,1,0,0:0:0:0:
256,192,16266,1,6,0:0:0:0:
256,192,16666,1,0,0:0:0:0:
256,192,16800,1,2,0:0:0:0:
256,192,17066,1,2,0:0:0:0:
256,192,17466,1,0,0:0:0:0:
256,192,17600,1,2,0:0:0:0:
256,192,17866,1,2,0:0:0:0:
256,192,18000,1,0,0:0:0:0:
256,192,18400,1,2,0:0:0:0:
256,192,18666,1,0,0:0:0:0:
256,192,18800,1,2,0:0:0:0:
256,192,19066,1,2,0:0:0:0:
256,192,19200,1,0,0:0:0:0:
256,192,19466,1,6,0:0:0:0:
256,192,19866,1,0,0:0:0:0:
256,192,20000,1,2,0:0:0:0:
256,192,20266,1,0,0:0:0:0:
256,192,20400,1,0,0:0:0:0:
256,192,20533,1,2,0:0:0:0:
256,192,20666,1,0,0:0:0:0:
256,192,20800,1,2,0:0:0:0:
256,192,21066,1,2,0:0:0:0:
256,192,21200,1,0,0:0:0:0:
256,192,21600,1,2,0:0:0:0:
256,192,22000,1,0,0:0:0:0:
256,192,22266,1,2,0:0:0:0:
256,192,22400,1,0,0:0:0:0:
256,192,22666,1,6,0:0:0:0:
256,192,23066,1,0,0:0:0:0:
256,192,23200,1,2,0:0:0:0:
256,192,23466,1,4,0:0:0:0:
256,192,23866,1,0,0:0:0:0:
256,192,24000,1,2,0:0:0:0:
256,192,24266,1,2,0:0:0:0:
256,192,24400,1,2,0:0:0:0:
256,192,24800,1,2,0:0:0:0:
256,192,25066,1,0,0:0:0:0:
256,192,25200,1,0,0:0:0:0:
256,192,25466,1,2,0:0:0:0:
256,192,25600,1,0,0:0:0:0:
256,192,25866,5,6,0:0:0:0:
256,192,26266,1,0,0:0:0:0:
256,192,26400,1,2,0:0:0:0:
256,192,26666,1,0,0:0:0:0:
256,192,26800,5,2,0:0:0:0:
256,192,26933,1,2,0:0:0:0:
256,192,27066,1,2,0:0:0:0:
256,192,27200,1,0,0:0:0:0:
256,192,27333,1,0,0:0:0:0:
256,192,27466,1,0,0:0:0:0:
256,192,27600,5,6,0:0:0:0:
256,192,28000,1,2,0:0:0:0:
256,192,28800,1,2,0:0:0:0:
256,192,29066,1,0,0:0:0:0:
256,192,29200,1,4,0:0:0:0:
256,192,29600,1,2,0:0:0:0:
256,192,30400,1,2,0:0:0:0:
256,192,30666,1,0,0:0:0:0:
256,192,30800,1,4,0:0:0:0:
256,192,31200,1,2,0:0:0:0:
256,192,31600,1,4,0:0:0:0:
256,192,32000,1,2,0:0:0:0:
256,192,32400,1,0,0:0:0:0:
256,192,32800,1,6,0:0:0:0:
256,192,33200,1,0,0:0:0:0:
256,192,33333,1,0,0:0:0:0:
256,192,33466,1,0,0:0:0:0:
256,192,33600,1,2,0:0:0:0:
256,192,33733,1,2,0:0:0:0:
256,192,33866,1,2,0:0:0:0:
256,192,34000,5,4,0:0:0:0:
256,192,34400,1,2,0:0:0:0:
256,192,34800,1,0,0:0:0:0:
256,192,35066,1,0,0:0:0:0:
256,192,35200,1,2,0:0:0:0:
256,192,35466,1,0,0:0:0:0:
256,192,35866,1,0,0:0:0:0:
256,192,36000,1,2,0:0:0:0:
256,192,36266,1,2,0:0:0:0:
256,192,36400,1,0,0:0:0:0:
256,192,36666,1,0,0:0:0:0:
256,192,36800,1,2,0:0:0:0:
256,192,37066,1,0,0:0:0:0:
256,192,37200,1,2,0:0:0:0:
256,192,37600,1,2,0:0:0:0:
256,192,37866,1,0,0:0:0:0:
256,192,38000,1,2,0:0:0:0:
256,192,38266,1,2,0:0:0:0:
256,192,38400,1,0,0:0:0:0:
256,192,38800,5,6,0:0:0:0:
256,192,39200,1,6,0:0:0:0:
256,192,39600,5,2,0:0:0:0:
256,192,39866,1,0,0:0:0:0:
256,192,40000,1,2,0:0:0:0:
256,192,40133,1,2,0:0:0:0:
256,192,40266,1,2,0:0:0:0:
256,192,40400,5,4,0:0:0:0:
256,192,40800,1,4,0:0:0:0:
256,192,41200,1,6,0:0:0:0:
256,192,41466,1,0,0:0:0:0:
256,192,41600,1,2,0:0:0:0:
256,192,41866,1,0,0:0:0:0:
256,192,42266,1,0,0:0:0:0:
256,192,42400,1,2,0:0:0:0:
256,192,42666,1,0,0:0:0:0:
256,192,42800,1,2,0:0:0:0:
256,192,43066,1,2,0:0:0:0:
256,192,43200,1,0,0:0:0:0:
256,192,43466,1,0,0:0:0:0:
256,192,43600,1,6,0:0:0:0:
256,192,44000,1,4,0:0:0:0:
256,192,44400,1,6,0:0:0:0:
256,192,44666,1,0,0:0:0:0:
256,192,44800,1,2,0:0:0:0:
256,192,45066,1,0,0:0:0:0:
256,192,45466,1,0,0:0:0:0:
256,192,45600,1,2,0:0:0:0:
256,192,45866,1,0,0:0:0:0:
256,192,46000,1,2,0:0:0:0:
256,192,46133,1,2,0:0:0:0:
256,192,46266,1,0,0:0:0:0:
256,192,46400,1,2,0:0:0:0:
256,192,46666,1,2,0:0:0:0:
256,192,46800,1,4,0:0:0:0:
256,192,47200,1,2,0:0:0:0:
256,192,47466,1,0,0:0:0:0:
256,192,47600,1,2,0:0:0:0:
256,192,47866,1,2,0:0:0:0:
256,192,48000,1,2,0:0:0:0:
256,192,48266,1,0,0:0:0:0:
256,192,48666,1,0,0:0:0:0:
256,192,48800,1,2,0:0:0:0:
256,192,49066,1,2,0:0:0:0:
256,192,49200,1,0,0:0:0:0:
256,192,49466,1,0,0:0:0:0:
256,192,49600,1,2,0:0:0:0:
256,192,49733,1,0,0:0:0:0:
256,192,49866,1,0,0:0:0:0:
256,192,50000,1,2,0:0:0:0:
256,192,50400,1,2,0:0:0:0:
256,192,50666,1,0,0:0:0:0:
256,192,50800,1,2,0:0:0:0:
256,192,51066,1,2,0:0:0:0:
256,192,51200,1,2,0:0:0:0:
256,192,51466,1,2,0:0:0:0:
256,192,51600,1,0,0:0:0:0:
256,192,52000,1,2,0:0:0:0:
256,192,52266,1,0,0:0:0:0:
256,192,52400,1,2,0:0:0:0:
256,192,52533,1,0,0:0:0:0:
256,192,52666,1,0,0:0:0:0:
256,192,52800,1,2,0:0:0:0:
256,192,53066,1,0,0:0:0:0:
256,192,53200,5,6,0:0:0:0:
256,192,53600,1,4,0:0:0:0:
256,192,54000,1,6,0:0:0:0:
256,192,54266,1,0,0:0:0:0:
256,192,54400,1,2,0:0:0:0:
256,192,54666,1,0,0:0:0:0:
256,192,55066,1,0,0:0:0:0:
256,192,55200,1,2,0:0:0:0:
256,192,55466,1,2,0:0:0:0:
256,192,55600,1,0,0:0:0:0:
256,192,55866,1,0,0:0:0:0:
256,192,56000,1,2,0:0:0:0:
256,192,56266,1,0,0:0:0:0:
256,192,56400,1,6,0:0:0:0:
256,192,56800,1,6,0:0:0:0:
256,192,57200,1,6,0:0:0:0:
256,192,57466,1,0,0:0:0:0:
256,192,57600,1,2,0:0:0:0:
256,192,57866,1,2,0:0:0:0:
256,192,58266,1,0,0:0:0:0:
256,192,58400,1,2,0:0:0:0:
256,192,58666,1,2,0:0:0:0:
256,192,58800,1,0,0:0:0:0:
256,192,58933,1,2,0:0:0:0:
256,192,59066,1,2,0:0:0:0:
256,192,59200,1,0,0:0:0:0:
256,192,59466,1,2,0:0:0:0:
256,192,59600,1,4,0:0:0:0:
256,192,60000,1,2,0:0:0:0:
256,192,60266,1,0,0:0:0:0:
256,192,60400,1,2,0:0:0:0:
256,192,60666,1,2,0:0:0:0:
256,192,60800,1,2,0:0:0:0:
256,192,61066,1,0,0:0:0:0:
256,192,61466,1,0,0:0:0:0:
256,192,61600,1,2,0:0:0:0:
256,192,61866,1,2,0:0:0:0:
256,192,62000,1,0,0:0:0:0:
256,192,62266,1,0,0:0:0:0:
256,192,62400,1,2,0:0:0:0:
256,192,62533,1,0,0:0:0:0:
256,192,62666,1,0,0:0:0:0:
256,192,62800,1,2,0:0:0:0:
256,192,63066,1,0,0:0:0:0:
256,192,63200,1,2,0:0:0:0:
256,192,63466,1,0,0:0:0:0:
256,192,63600,1,0,0:0:0:0:
256,192,63866,1,2,0:0:0:0:
256,192,64000,1,2,0:0:0:0:
256,192,64133,1,0,0:0:0:0:
256,192,64266,1,0,0:0:0:0:
256,192,64400,1,2,0:0:0:0:
256,192,64666,1,0,0:0:0:0:
256,192,64800,1,2,0:0:0:0:
256,192,65066,1,2,0:0:0:0:
256,192,65200,1,0,0:0:0:0:
256,192,65333,1,0,0:0:0:0:
256,192,65466,1,2,0:0:0:0:
256,192,65600,1,2,0:0:0:0:
256,192,65733,1,0,0:0:0:0:
256,192,65866,1,0,0:0:0:0:
256,192,66000,1,2,0:0:0:0:
256,192,66266,1,0,0:0:0:0:
256,192,66400,1,2,0:0:0:0:
256,192,66533,1,0,0:0:0:0:
256,192,66666,1,0,0:0:0:0:
256,192,66800,1,2,0:0:0:0:
256,192,67066,1,0,0:0:0:0:
256,192,67200,1,2,0:0:0:0:
256,192,67466,1,2,0:0:0:0:
256,192,68400,1,2,0:0:0:0:
256,192,68666,1,0,0:0:0:0:
256,192,68800,1,2,0:0:0:0:
256,192,68933,1,2,0:0:0:0:
256,192,69066,1,2,0:0:0:0:
256,192,69200,5,4,0:0:0:0:
256,192,69600,1,4,0:0:0:0:
256,192,70000,1,6,0:0:0:0:
256,192,70266,1,0,0:0:0:0:
256,192,70400,1,0,0:0:0:0:
256,192,70666,1,2,0:0:0:0:
256,192,71066,1,2,0:0:0:0:
256,192,71200,1,0,0:0:0:0:
256,192,71466,1,0,0:0:0:0:
256,192,71600,1,2,0:0:0:0:
256,192,71866,1,2,0:0:0:0:
256,192,72000,1,0,0:0:0:0:
256,192,72133,1,0,0:0:0:0:
256,192,72266,1,0,0:0:0:0:
256,192,72400,1,6,0:0:0:0:
256,192,72800,1,6,0:0:0:0:
256,192,73200,1,6,0:0:0:0:
256,192,73466,1,0,0:0:0:0:
256,192,73600,1,0,0:0:0:0:
256,192,73866,1,2,0:0:0:0:
256,192,74266,1,0,0:0:0:0:
256,192,74400,1,2,0:0:0:0:
256,192,74666,1,0,0:0:0:0:
256,192,74800,1,2,0:0:0:0:
256,192,74933,1,2,0:0:0:0:
256,192,75066,1,2,0:0:0:0:
256,192,75200,1,0,0:0:0:0:
256,192,75466,1,2,0:0:0:0:
256,192,75600,5,0,0:0:0:0:
256,192,76000,1,2,0:0:0:0:
256,192,76266,1,2,0:0:0:0:
256,192,76400,1,0,0:0:0:0:
256,192,76666,1,2,0:0:0:0:
256,192,77066,1,0,0:0:0:0:
256,192,77466,1,0,0:0:0:0:
256,192,77600,1,2,0:0:0:0:
256,192,77866,1,2,0:0:0:0:
256,192,78266,1,2,0:0:0:0:
256,192,78400,1,2,0:0:0:0:
256,192,78666,1,0,0:0:0:0:
256,192,78800,1,0,0:0:0:0:
256,192,79066,1,2,0:0:0:0:
256,192,79200,1,0,0:0:0:0:
256,192,79466,1,2,0:0:0:0:
256,192,79866,1,2,0:0:0:0:
256,192,80000,1,2,0:0:0:0:
256,192,80266,1,0,0:0:0:0:
256,192,80666,1,2,0:0:0:0:
256,192,80800,1,0,0:0:0:0:
256,192,81066,1,2,0:0:0:0:
256,192,81466,1,0,0:0:0:0:
256,192,81600,1,2,0:0:0:0:
256,192,81866,1,2,0:0:0:0:
256,192,82000,1,0,0:0:0:0:
256,192,83200,5,6,0:0:0:0:
256,192,83466,5,4,0:0:0:0:
256,192,84000,5,4,0:0:0:0:
256,192,84266,5,6,0:0:0:0:
256,192,84800,5,6,0:0:0:0:
256,192,85066,5,4,0:0:0:0:
256,192,85466,1,0,0:0:0:0:
256,192,85600,1,0,0:0:0:0:
256,192,85866,5,6,0:0:0:0:
256,192,86000,12,0,89000,0:0:0:0:
