osu file format v14

[General]
AudioFilename: audio.mp3
AudioLeadIn: 0
PreviewTime: 39533
Countdown: 0
SampleSet: Normal
StackLeniency: 0.7
Mode: 1
LetterboxInBreaks: 0
WidescreenStoryboard: 0

[Editor]
Bookmarks: 6666,7600,13866,14000,19466,20266,20400,26666,28400,30000,35466,45066,48266,59200,61066,70666,71200,73866,77866,78266,78666,79466,81066
DistanceSpacing: 1.6
BeatDivisor: 6
GridSize: 32
TimelineZoom: 1.8

[Metadata]
Title:Poppin Jump (TV Size)
TitleUnicode:ぽっぴんジャンプ♪(TV Size)
Artist:Chimame-tai
ArtistUnicode:チマメ隊
Creator:Smallwu
Version:Momo's Futsuu
Source:ご注文はうさぎですか?
Tags:yuki_momoiro722 ぴょん Pyonpyon ending ed ごちうさ Gochiusa Is the Order a Rabbit? Gochuumon wa Usagi Desu ka? anime taiko 香風 智乃 チノ Kafuu Chino 水瀬いのり 条河 麻耶 マヤ Maya Jouga 徳井青空 奈津 恵 メグ Natsu Megumi 村川梨衣 koi inori minase sora tokui rie murakawa
BeatmapID:1593562
BeatmapSetID:757027

[Difficulty]
HPDrainRate:7
CircleSize:5
OverallDifficulty:4
ApproachRate:5
SliderMultiplier:1.4
SliderTickRate:1

[Events]
//Background and Video events
0,0,"Chimame.jpg",0,100
//Break Periods
//Storyboard Layer 0 (Background)
//Storyboard Layer 1 (Fail)
//Storyboard Layer 2 (Pass)
//Storyboard Layer 3 (Foreground)
//Storyboard Sound Samples

[TimingPoints]
400,400,4,1,0,70,1,0
40400,-100,4,1,0,85,0,1
52400,-100,4,1,0,85,0,0
53200,-100,4,1,0,85,0,1
67466,-100,4,1,0,85,0,0
69200,-100,4,1,0,85,0,1
75600,-100,4,1,0,85,0,0

[HitObjects]
256,192,400,12,0,1600,0:0:0:0:
256,192,2000,5,4,0:0:0:0:
256,192,2800,1,0,0:0:0:0:
256,192,3466,1,8,0:0:0:0:
256,192,4000,1,0,0:0:0:0:
256,192,4400,1,0,0:0:0:0:
256,192,4800,1,8,0:0:0:0:
256,192,5200,1,0,0:0:0:0:
256,192,6000,1,8,0:0:0:0:
256,192,6666,1,0,0:0:0:0:
256,192,7200,1,8,0:0:0:0:
256,192,7600,1,0,0:0:0:0:
256,192,8400,1,0,0:0:0:0:
256,192,8800,1,0,0:0:0:0:
256,192,9200,1,8,0:0:0:0:
256,192,9866,1,0,0:0:0:0:
256,192,10400,1,8,0:0:0:0:
256,192,10800,1,0,0:0:0:0:
256,192,11600,1,8,0:0:0:0:
256,192,12000,1,0,0:0:0:0:
256,192,12400,1,0,0:0:0:0:
256,192,13066,1,12,0:0:0:0:
256,192,13866,1,12,0:0:0:0:
256,192,14400,1,0,0:0:0:0:
256,192,14800,1,4,0:0:0:0:
256,192,15600,1,0,0:0:0:0:
256,192,16266,1,12,0:0:0:0:
256,192,16800,1,8,0:0:0:0:
256,192,17200,1,0,0:0:0:0:
256,192,17600,1,0,0:0:0:0:
256,192,18000,1,12,0:0:0:0:
256,192,18800,1,0,0:0:0:0:
256,192,19466,1,12,0:0:0:0:
251,192,19866,1,0,0:0:0:0:
256,192,20266,1,0,0:0:0:0:
256,192,21200,1,0,0:0:0:0:
256,192,21600,1,0,0:0:0:0:
256,192,22000,1,8,0:0:0:0:
256,192,22666,1,12,0:0:0:0:
256,192,23466,1,4,0:0:0:0:
256,192,24000,1,0,0:0:0:0:
256,192,24400,1,8,0:0:0:0:
256,192,24800,1,0,0:0:0:0:
256,192,25200,1,0,0:0:0:0:
256,192,25866,1,12,0:0:0:0:
256,192,26666,1,4,0:0:0:0:
256,192,27200,1,0,0:0:0:0:
256,192,27600,1,4,0:0:0:0:
256,192,28400,1,8,0:0:0:0:
256,192,28800,1,8,0:0:0:0:
256,192,29200,1,4,0:0:0:0:
256,192,30000,1,8,0:0:0:0:
256,192,30400,1,8,0:0:0:0:
256,192,30800,1,4,0:0:0:0:
256,192,31600,1,12,0:0:0:0:
256,192,32400,1,4,0:0:0:0:
256,192,32800,1,8,0:0:0:0:
256,192,33200,1,8,0:0:0:0:
256,192,34000,1,4,0:0:0:0:
256,192,34400,1,0,0:0:0:0:
256,192,34800,1,8,0:0:0:0:
256,192,35466,1,0,0:0:0:0:
256,192,36000,1,0,0:0:0:0:
256,192,36400,1,8,0:0:0:0:
256,192,36800,1,8,0:0:0:0:
256,192,37200,12,0,38800,0:0:0:0:
256,192,40400,5,12,0:0:0:0:
256,192,40800,1,12,0:0:0:0:
256,192,41200,1,12,0:0:0:0:
256,192,41866,1,0,0:0:0:0:
256,192,42400,1,8,0:0:0:0:
256,192,42800,1,8,0:0:0:0:
256,192,43600,5,4,0:0:0:0:
256,192,44000,1,4,0:0:0:0:
256,192,44400,1,4,0:0:0:0:
256,192,45066,1,0,0:0:0:0:
256,192,45600,1,8,0:0:0:0:
256,192,46000,1,8,0:0:0:0:
256,192,46800,1,8,0:0:0:0:
256,192,47200,1,0,0:0:0:0:
256,192,47466,1,0,0:0:0:0:
256,192,47866,1,8,0:0:0:0:
256,192,48266,1,0,0:0:0:0:
256,192,48800,1,8,0:0:0:0:
256,192,49066,1,0,0:0:0:0:
256,192,49600,1,0,0:0:0:0:
256,192,50000,1,8,0:0:0:0:
256,192,50400,1,8,0:0:0:0:
256,192,50800,1,0,0:0:0:0:
256,192,51600,1,8,0:0:0:0:
256,192,52000,1,0,0:0:0:0:
256,192,52400,1,8,0:0:0:0:
256,192,53200,5,12,0:0:0:0:
256,192,53600,1,4,0:0:0:0:
256,192,54000,1,12,0:0:0:0:
256,192,54666,1,0,0:0:0:0:
256,192,55200,1,8,0:0:0:0:
256,192,55600,1,8,0:0:0:0:
256,192,56400,5,4,0:0:0:0:
256,192,56800,1,12,0:0:0:0:
256,192,57200,1,4,0:0:0:0:
256,192,57866,1,0,0:0:0:0:
256,192,58400,1,8,0:0:0:0:
256,192,58800,1,8,0:0:0:0:
256,192,59600,1,8,0:0:0:0:
256,192,60000,1,0,0:0:0:0:
256,192,60266,1,0,0:0:0:0:
256,192,60666,1,8,0:0:0:0:
256,192,61066,1,0,0:0:0:0:
256,192,61600,1,8,0:0:0:0:
256,192,61866,1,0,0:0:0:0:
256,192,62400,1,8,0:0:0:0:
256,192,62800,1,0,0:0:0:0:
256,192,63200,1,0,0:0:0:0:
256,192,63600,1,8,0:0:0:0:
256,192,64400,1,8,0:0:0:0:
256,192,64800,1,0,0:0:0:0:
256,192,65200,1,8,0:0:0:0:
256,192,66000,12,0,67466,0:0:0:0:
256,192,68400,5,0,0:0:0:0:
256,192,68800,1,8,0:0:0:0:
256,192,69200,5,12,0:0:0:0:
256,192,69600,1,12,0:0:0:0:
256,192,70000,1,12,0:0:0:0:
256,192,70666,1,0,0:0:0:0:
256,192,71200,1,8,0:0:0:0:
256,192,71600,1,8,0:0:0:0:
256,192,72400,5,4,0:0:0:0:
256,192,72800,1,4,0:0:0:0:
256,192,73200,1,4,0:0:0:0:
256,192,73866,1,0,0:0:0:0:
256,192,74400,1,8,0:0:0:0:
256,192,74800,1,8,0:0:0:0:
256,192,75600,1,0,0:0:0:0:
256,192,76000,1,8,0:0:0:0:
256,192,76266,1,0,0:0:0:0:
256,192,76800,1,8,0:0:0:0:
256,192,77066,1,0,0:0:0:0:
256,192,77466,1,0,0:0:0:0:
256,192,77866,1,8,0:0:0:0:
256,192,78400,1,8,0:0:0:0:
256,192,78800,1,0,0:0:0:0:
256,192,79200,1,8,0:0:0:0:
256,192,79466,1,0,0:0:0:0:
256,192,80000,1,8,0:0:0:0:
256,192,80266,1,0,0:0:0:0:
256,192,80666,1,0,0:0:0:0:
256,192,81066,1,8,0:0:0:0:
256,192,81600,1,0,0:0:0:0:
256,192,82000,1,8,0:0:0:0:
256,192,83200,1,12,0:0:0:0:
256,192,84000,1,4,0:0:0:0:
256,192,84800,1,12,0:0:0:0:
256,192,85866,1,4,0:0:0:0:
256,192,86000,12,4,89000,0:0:0:0:
