osu file format v14

[General]
AudioFilename: audio.mp3
AudioLeadIn: 0
PreviewTime: 39506
Countdown: 0
SampleSet: Soft
StackLeniency: 0.5
Mode: 0
LetterboxInBreaks: 0
WidescreenStoryboard: 1

[Editor]
DistanceSpacing: 1
BeatDivisor: 4
GridSize: 4
TimelineZoom: 2.150005

[Metadata]
Title:Nakayoshi! Maru! Nakayoshi! (TV Size)
TitleUnicode:なかよし!〇!なかよし!(TV Size)
Artist:Chimame-tai
ArtistUnicode:チマメ隊
Creator:Fycho
Version:Rabbit
Source:ご注文はうさぎですか?BLOOM
Tags:japanese anime gochiusa chimame march gochuumon wa usagi desu ka?? inori minase sora tokui rie murakawa is the order a rabbit tai まる ending vocal pop jpop bloom ご注文はうさぎですか 水瀬いのり 徳井青空 村川梨衣 pop jpop j-pop yf_bmp momochikun mimiliaa garden
BeatmapID:4528180
BeatmapSetID:2113466

[Difficulty]
HPDrainRate:6
CircleSize:4
OverallDifficulty:9
ApproachRate:9.8
SliderMultiplier:1.7
SliderTickRate:1

[Events]
//Background and Video events
0,0,"BG.jpg",0,0
Video,0,"ED.mp4"
//Break Periods
//Storyboard Layer 0 (Background)
//Storyboard Layer 1 (Fail)
//Storyboard Layer 2 (Pass)
//Storyboard Layer 3 (Foreground)
//Storyboard Layer 4 (Overlay)
//Storyboard Sound Samples

[TimingPoints]
434,241.935483870968,4,2,1,60,1,0
6361,-66.6666666666667,4,2,1,60,0,0
7692,-66.6666666666667,4,2,1,45,0,0
8175,-100,4,2,1,50,0,0
23659,-111.111111111111,4,2,1,40,0,0
30434,-111.111111111111,4,2,1,50,0,0
31401,-111.111111111111,4,2,1,60,0,0
33337,-100,4,2,1,60,0,0
38659,-200,4,2,1,60,0,0
39627,-133.333333333333,4,2,1,60,0,0
41079,-90.9090909090909,4,2,1,70,0,1
66240,-133.333333333333,4,2,1,70,0,1
67208,-100,4,2,1,70,0,1
72046,-100,4,2,1,60,0,0
72288,-100,4,2,1,40,0,0
73014,-100,4,2,1,60,0,0
73256,-100,4,2,1,40,0,0
73982,-100,4,2,1,60,0,0
74466,-100,4,2,1,40,0,0
75917,-100,4,2,1,50,0,0
87591,-100,4,2,1,10,0,0

[Colours]
Combo1 : 82,46,250
Combo2 : 131,194,252
Combo3 : 254,90,86

[HitObjects]
107,307,192,5,2,0:0:0:0:
101,295,272,5,2,0:0:0:0:
95,282,353,5,2,0:0:0:0:
93,268,434,6,0,P|98:127|109:96,1,170,4|8,1:2|0:2,0:0:0:0:
223,23,796,1,0,0:0:0:0:
329,161,917,1,2,1:2:0:0:
315,22,1038,1,0,0:0:0:0:
221,144,1159,2,0,P|209:185|215:227,1,85,8|0,0:0|0:0,0:0:0:0:
411,345,1401,5,2,1:2:0:0:
327,237,1522,1,0,0:0:0:0:
244,355,1643,1,8,0:0:0:0:
427,212,1764,2,0,P|432:132|331:85,1,170,2|0,0:0|0:0,0:0:0:0:
214,226,2127,1,8,0:0:0:0:
156,126,2248,1,2,0:0:0:0:
156,126,2309,1,2,0:0:0:0:
156,126,2369,6,0,P|164:68|172:25,1,85,4|0,1:2|0:0,0:0:0:0:
29,26,2611,1,8,0:0:0:0:
142,229,2732,1,0,0:0:0:0:
185,31,2853,1,2,1:2:0:0:
81,119,2974,1,0,0:0:0:0:
288,131,3095,2,0,L|389:142,1,85,8|0,0:0|0:0,0:0:0:0:
502,202,3337,5,2,1:2:0:0:
307,256,3458,1,0,0:0:0:0:
504,315,3579,1,8,0:0:0:0:
313,361,3700,2,0,P|232:361|147:284,1,170,2|0,0:0|0:0,0:0:0:0:
76,89,4063,1,8,0:0:0:0:
43,279,4184,1,0,0:0:0:0:
262,172,4304,6,0,B|193:150|156:150,1,85,4|0,1:2|0:0,0:0:0:0:
57,190,4546,1,8,0:0:0:0:
216,65,4667,1,0,0:0:0:0:
197,241,4788,2,0,P|195:310|193:351,1,85,2|0,1:2|0:0,0:0:0:0:
296,240,5030,1,8,0:0:0:0:
85,313,5151,1,0,0:0:0:0:
368,351,5272,6,0,P|427:315|434:296,1,85,4|0,1:2|0:0,0:0:0:0:
286,129,5514,2,0,L|292:225,1,85,8|0,0:0|0:0,0:0:0:0:
431,25,5756,2,0,P|395:2|353:0,1,85,2|0,1:2|0:0,0:0:0:0:
146,71,5998,1,8,0:0:0:0:
292,225,6119,1,0,0:0:0:0:
292,225,6361,6,0,B|230:241|164:226|164:226|216:240|205:357,1,255.000009727478,4|0,1:2|1:2,0:0:0:0:
374,86,6724,6,0,B|425:87|456:122|455:184|430:217|380:226|380:226|392:254|382:300,1,255.000009727478,4|0,1:2|1:2,0:0:0:0:
226,75,7087,6,0,B|83:143|-14:65|-14:65|112:79|87:300,1,510.000019454957,4|0,1:2|0:0,0:0:0:0:
230,171,7692,1,8,0:2:0:0:
0,317,7813,1,8,0:2:0:0:
263,265,7934,1,8,0:2:0:0:
0,209,8054,1,8,0:2:0:0:
246,367,8175,6,0,L|348:343,1,85,4|0,1:2|0:0,0:0:0:0:
393,196,8417,2,0,L|310:215,1,85,8|0,0:0|0:0,0:0:0:0:
454,369,8659,2,0,P|474:316|467:277,1,85,2|0,1:2|0:0,0:0:0:0:
420,107,8901,1,8,0:0:0:0:
311,215,9022,1,0,0:0:0:0:
221,65,9143,6,0,P|196:99|194:155,1,85,2|0,1:2|0:0,0:0:0:0:
265,260,9385,1,8,0:0:0:0:
89,146,9506,2,0,P|46:236|76:296,1,170,2|2,0:0|0:0,0:0:0:0:
228,175,9869,1,8,0:0:0:0:
351,273,9990,1,0,0:0:0:0:
152,318,10111,6,0,P|95:308|61:280,1,85,2|0,1:2|0:0,0:0:0:0:
89,146,10353,2,0,P|145:130|187:142,1,85,8|0,0:0|0:0,0:0:0:0:
379,251,10595,2,0,L|276:239,1,85,2|0,1:2|0:0,0:0:0:0:
444,147,10837,1,8,0:0:0:0:
512,272,10958,1,0,0:0:0:0:
289,358,11079,5,2,1:2:0:0:
295,242,11200,2,0,L|307:122,1,85,0|8,0:0|0:0,0:0:0:0:
415,74,11442,2,0,P|399:135|281:142,1,170,2|2,0:0|0:0,0:0:0:0:
109,22,11804,1,8,0:0:0:0:
205,92,11925,1,0,0:0:0:0:
68,209,12046,6,0,P|52:167|61:119,1,85,2|0,1:2|0:0,0:0:0:0:
197,307,12288,2,0,L|111:314,1,85,8|0,0:0|0:0,0:0:0:0:
285,132,12530,2,0,P|306:168|305:214,1,85,2|0,1:2|0:0,0:0:0:0:
375,339,12772,2,0,L|402:241,1,85,8|0,0:0|0:0,0:0:0:0:
450,71,13014,5,2,1:2:0:0:
512,186,13135,1,0,0:0:0:0:
439,77,13256,2,0,L|331:59,1,85,8|0,0:0|0:0,0:0:0:0:
131,20,13498,1,2,1:2:0:0:
213,117,13619,1,0,0:0:0:0:
98,118,13740,2,0,P|84:140|82:202,1,85,8|0,0:0|0:0,0:0:0:0:
247,351,13982,6,0,P|259:310|247:270,1,85,2|0,1:2|0:0,0:0:0:0:
43,311,14224,2,0,L|131:305,1,85,8|0,0:0|0:0,0:0:0:0:
226,155,14466,2,0,P|245:91|236:69,1,85,2|0,1:2|0:0,0:0:0:0:
14,40,14708,2,0,P|19:106|39:131,1,85,8|0,0:0|0:0,0:0:0:0:
226,155,14950,6,0,P|157:177|131:196,1,85,6|0,1:2|0:0,0:0:0:0:
132,308,15192,1,2,0:0:0:0:
332,363,15313,2,0,P|368:327|329:228,1,170,4|0,1:2|1:2,0:0:0:0:
188,91,15675,1,8,0:2:0:0:
212,244,15796,1,0,1:2:0:0:
351,120,15917,6,0,P|342:74|286:53,1,85,4|0,1:2|0:0,0:0:0:0:
137,159,16159,1,8,0:0:0:0:
201,31,16280,1,0,0:0:0:0:
246,207,16401,2,0,L|268:303,1,85,2|0,1:2|0:0,0:0:0:0:
66,277,16643,2,0,L|47:194,1,85,8|0,0:0|0:0,0:0:0:0:
229,22,16885,5,2,1:2:0:0:
141,195,17006,1,0,0:0:0:0:
80,87,17127,1,8,0:0:0:0:
316,167,17248,1,2,1:2:0:0:
317,175,17490,5,2,0:0:0:0:
395,99,17611,2,0,P|449:81|498:89,1,85,8|0,0:0|0:0,0:0:0:0:
307,348,17853,6,0,L|315:255,1,85,2|0,1:2|0:0,0:0:0:0:
512,199,18095,2,0,L|503:295,1,85,8|0,0:0|0:0,0:0:0:0:
268,96,18337,1,2,1:2:0:0:
390,203,18458,1,0,0:0:0:0:
215,181,18579,2,0,P|174:195|141:221,1,85,8|0,0:0|0:0,0:0:0:0:
242,341,18821,5,2,1:2:0:0:
180,108,18942,1,0,0:0:0:0:
119,295,19063,1,8,0:0:0:0:
300,122,19184,1,2,1:2:0:0:
310,118,19425,5,2,0:0:0:0:
223,45,19546,2,0,L|120:35,1,85,8|0,0:0|0:0,0:0:0:0:
119,111,19788,6,0,P|143:77|128:23,1,85,2|0,1:2|0:0,0:0:0:0:
26,4,20030,1,8,0:0:0:0:
11,107,20151,1,0,0:0:0:0:
137,216,20272,2,0,L|223:202,1,85,2|0,1:2|0:0,0:0:0:0:
380,261,20514,2,0,L|296:274,1,85,8|0,0:0|0:0,0:0:0:0:
103,328,20756,6,0,P|12:305|8:224,1,170,2|8,1:2|0:0,0:0:0:0:
57,67,21119,1,0,0:0:0:0:
227,113,21240,2,0,P|242:149|232:206,1,85,2|0,1:2|0:0,0:0:0:0:
196,323,21482,1,8,0:0:0:0:
316,217,21603,1,0,0:0:0:0:
411,363,21724,6,0,P|354:371|314:346,1,85,2|0,1:2|0:0,0:0:0:0:
84,158,21966,2,0,P|124:148|165:161,1,85,8|0,0:0|0:0,0:0:0:0:
364,145,22208,2,0,L|313:213,1,85,10|0,0:2|0:0,0:0:0:0:
206,336,22450,1,8,0:0:0:0:
435,252,22571,1,0,1:2:0:0:
236,200,22692,5,4,1:2:0:0:
324,303,22813,1,0,0:0:0:0:
359,136,22934,1,8,0:0:0:0:
436,353,23054,1,4,0:0:0:0:
443,361,23296,5,8,1:2:0:0:
351,264,23417,1,0,1:2:0:0:
311,380,23538,1,8,1:2:0:0:
448,254,23659,6,0,P|453:216|443:177,1,76.4999976654053,4|0,1:2|0:0,0:0:0:0:
377,97,23901,2,0,P|439:46|513:32,1,152.999995330811,8|2,0:0|1:2,0:0:0:0:
327,178,24264,1,0,0:0:0:0:
253,114,24385,2,0,P|217:100|179:98,1,76.4999976654053,8|0,0:0|0:0,0:0:0:0:
0,204,24627,6,0,P|92:207|142:165,1,152.999995330811,2|8,1:2|0:0,0:0:0:0:
226,202,24990,2,0,L|214:283,1,76.4999976654053,0|2,0:0|1:2,0:0:0:0:
217,99,25232,1,0,0:0:0:0:
316,140,25353,2,0,L|304:221,1,76.4999976654053,8|0,0:0|0:0,0:0:0:0:
280,329,25595,6,0,P|197:320|123:321,1,152.999995330811,2|8,1:2|0:0,0:0:0:0:
316,140,26079,2,0,P|399:149|473:148,1,152.999995330811,2|8,1:2|0:0,0:0:0:0:
481,253,26442,1,0,0:0:0:0:
389,236,26563,6,0,L|362:326,1,76.4999976654053,2|0,1:2|0:0,0:0:0:0:
281,225,26804,1,8,0:0:0:0:
160,289,26925,2,0,P|155:213|194:149,1,152.999995330811,4|8,0:0|0:0,0:0:0:0:
99,358,27288,2,0,P|72:313|69:278,1,76.4999976654053,8|0,0:0|0:0,0:0:0:0:
60,124,27530,6,0,P|74:187|74:203,1,76.4999976654053,4|0,1:2|0:0,0:0:0:0:
109,41,27772,2,0,P|191:28|283:29,1,152.999995330811,8|2,0:0|1:2,0:0:0:0:
357,67,28135,1,0,0:0:0:0:
260,27,28256,2,0,P|252:64|251:102,1,76.4999976654053,8|0,0:0|0:0,0:0:0:0:
329,242,28498,6,0,P|336:186|348:151,1,76.4999976654053,2|0,1:2|0:0,0:0:0:0:
464,75,28740,1,8,0:0:0:0:
415,234,28861,2,0,L|407:310,1,76.4999976654053,0|0,1:2|1:0,0:0:0:0:
512,215,29103,1,0,0:0:0:0:
354,91,29224,2,0,L|340:172,1,76.4999976654053,8|0,0:0|0:0,0:0:0:0:
135,246,29466,6,0,P|195:200|284:229,1,152.999995330811,2|0,1:2|0:0,0:0:0:0:
267,214,29950,1,0,0:0:0:0:
25,126,30192,1,0,0:0:0:0:
223,53,30434,6,0,L|217:142,1,76.4999976654053,4|0,1:2|0:0,0:0:0:0:
352,138,30675,1,8,0:0:0:0:
278,284,30796,2,0,P|391:262|435:258,1,152.999995330811,12|0,0:0|1:0,0:0:0:0:
341,362,31159,1,0,1:0:0:0:
368,189,31280,1,0,0:0:0:0:
156,274,31401,5,4,0:0:0:0:
294,127,31563,1,0,0:0:0:0:
128,166,31724,1,0,0:0:0:0:
152,307,31885,5,4,0:0:0:0:
288,107,32047,1,0,0:0:0:0:
99,185,32208,1,0,0:0:0:0:
155,348,32369,5,4,0:0:0:0:
279,86,32531,1,0,0:0:0:0:
69,213,32692,1,0,0:0:0:0:
171,383,32853,5,4,0:0:0:0:
263,70,33015,1,0,0:0:0:0:
52,248,33176,1,0,0:0:0:0:
325,199,33337,6,0,P|341:153|342:111,1,85,4|0,1:2|0:0,0:0:0:0:
75,32,33579,2,0,P|72:90|88:124,1,85,8|0,0:0|0:0,0:0:0:0:
231,82,33821,1,2,1:2:0:0:
88,251,33942,1,0,0:0:0:0:
307,320,34063,2,0,P|377:302|399:282,1,85,8|0,0:0|0:0,0:0:0:0:
453,111,34304,6,0,L|264:181,1,170,2|8,1:2|0:0,0:0:0:0:
190,50,34667,1,0,0:0:0:0:
22,264,34788,1,2,0:0:0:0:
220,200,34909,1,0,0:0:0:0:
86,74,35030,1,8,0:0:0:0:
95,326,35151,1,0,0:0:0:0:
403,127,35272,5,4,1:2:0:0:
301,97,35434,1,2,0:0:0:0:
200,64,35595,1,2,0:0:0:0:
398,54,35756,5,0,1:2:0:0:
283,111,35917,1,2,0:0:0:0:
170,174,36079,1,2,0:0:0:0:
382,217,36240,5,0,1:2:0:0:
264,123,36401,1,2,0:0:0:0:
147,22,36563,1,2,0:0:0:0:
346,0,36724,5,0,1:2:0:0:
242,146,36886,1,2,0:0:0:0:
133,292,37047,1,2,0:0:0:0:
284,268,37208,5,6,0:0:0:0:
322,244,37288,1,2,0:0:0:0:
367,246,37369,1,2,0:0:0:0:
401,216,37450,2,0,P|416:189|412:145,2,56.6666666666667,0|0|0,0:0|0:0|0:0,0:0:0:0:
378,65,37692,5,2,0:0:0:0:
338,43,37772,1,2,0:0:0:0:
290,41,37853,1,2,0:0:0:0:
244,35,37934,2,0,P|214:32|188:22,2,56.6666666666667
266,115,38175,5,2,0:0:0:0:
253,158,38256,1,2,0:0:0:0:
273,198,38337,1,2,0:0:0:0:
259,240,38417,1,0,0:0:0:0:
280,280,38498,1,0,0:0:0:0:
256,318,38579,1,0,0:0:0:0:
273,359,38659,6,0,B|199:359|133:314|133:314|94:341|94:341|69:321|18:321,1,255,2|0,0:0|0:0,0:0:0:0:
384,223,39627,5,4,1:2:0:0:
255,107,39869,1,2,0:0:0:0:
223,112,39929,1,2,0:0:0:0:
194,97,39990,1,2,0:0:0:0:
162,99,40050,1,2,0:0:0:0:
130,94,40111,2,0,P|112:148|111:226,2,127.500004863739,4|0|4,1:2|0:0|1:2,0:0:0:0:
246,79,40716,5,0,0:0:0:0:
346,109,40837,1,8,0:2:0:0:
429,56,40958,1,8,0:2:0:0:
256,187,41079,5,4,1:2:0:0:
64,59,41200,2,0,P|36:92|27:159,1,93.5000028533936,2|8,0:0|0:0,0:0:0:0:
79,309,41442,1,2,0:0:0:0:
160,162,41563,2,0,P|155:204|194:268,1,93.5000028533936,0|2,1:0|0:0,0:0:0:0:
300,340,41804,1,8,0:0:0:0:
234,103,41925,1,0,0:0:0:0:
342,207,42046,5,2,0:0:0:0:
352,212,42167,1,0,0:0:0:0:
438,183,42288,5,8,0:0:0:0:
448,188,42409,1,0,0:0:0:0:
369,117,42530,5,2,0:0:0:0:
379,122,42651,1,0,0:0:0:0:
412,276,42772,5,8,0:0:0:0:
264,167,42893,1,8,0:0:0:0:
472,22,43014,6,0,P|485:47|473:113,1,93.5000028533936,2|0,1:2|0:0,0:0:0:0:
278,69,43256,1,8,0:0:0:0:
469,209,43377,2,0,P|461:236|408:277,1,93.5000028533936,2|0,0:2|1:2,0:0:0:0:
265,66,43619,1,2,0:0:0:0:
324,329,43740,2,0,P|301:345|234:344,1,93.5000028533936,8|0,0:0|0:0,0:0:0:0:
170,207,43982,5,2,0:0:0:0:
160,212,44103,1,0,0:0:0:0:
74,183,44224,5,8,0:0:0:0:
64,188,44345,1,0,0:0:0:0:
143,117,44466,5,2,0:0:0:0:
133,122,44587,1,0,0:0:0:0:
91,287,44708,5,8,0:0:0:0:
236,139,44829,1,8,0:0:0:0:
363,256,44950,5,0,1:2:0:0:
439,124,45071,2,0,P|443:77|422:30,1,93.5000028533936,2|8,0:0|0:0,0:0:0:0:
288,181,45313,2,0,P|195:194|138:125,1,187.000005706787,2|2,0:0|0:0,0:0:0:0:
17,95,45675,2,0,P|33:136|40:188,1,93.5000028533936,8|0,0:0|0:0,0:0:0:0:
29,336,45917,6,0,P|141:302|221:288,1,187.000005706787,2|8,1:2|0:0,0:0:0:0:
371,160,46280,1,0,0:0:0:0:
258,216,46401,1,2,1:2:0:0:
365,350,46522,1,0,0:0:0:0:
153,206,46643,2,0,P|156:141|165:105,1,93.5000028533936,8|0,0:0|0:0,0:0:0:0:
338,8,46885,6,0,P|387:51|379:178,1,187.000005706787,2|8,1:2|0:0,0:0:0:0:
199,112,47248,1,0,0:0:0:0:
230,307,47369,2,0,P|171:327|136:330,1,93.5000028533936,2|0,1:2|0:0,0:0:0:0:
406,350,47611,2,0,P|463:366|504:369,1,93.5000028533936,8|2,0:0|0:0,0:0:0:0:
331,149,47853,5,6,1:2:0:0:
230,307,47974,1,8,0:0:0:0:
445,237,48095,2,0,B|487:216|510:176|510:176|483:132|432:115,1,187.000005706787,8|2,0:0|1:2,0:0:0:0:
202,143,48458,1,0,0:0:0:0:
398,19,48579,1,8,0:0:0:0:
249,32,48700,1,8,0:0:0:0:
346,201,48821,6,0,P|352:233|317:287,1,93.5000028533936,4|0,1:2|0:0,0:0:0:0:
120,371,49063,2,0,P|112:332|141:288,1,93.5000028533936,8|0,0:0|0:0,0:0:0:0:
287,125,49304,1,2,1:2:0:0:
226,249,49425,1,0,0:0:0:0:
87,133,49546,2,0,P|28:129|-5:149,1,93.5000028533936,8|0,0:0|0:0,0:0:0:0:
212,94,49788,6,0,P|239:32|234:1,1,93.5000028533936,2|0,1:2|0:0,0:0:0:0:
345,153,50030,2,0,L|468:128,1,93.5000028533936,8|0,0:0|0:0,0:0:0:0:
420,275,50272,2,0,L|545:293,1,93.5000028533936,2|0,1:2|0:0,0:0:0:0:
352,351,50514,1,8,0:0:0:0:
482,194,50635,1,8,0:0:0:0:
302,260,50756,6,0,P|207:254|161:166,1,187.000005706787,2|8,1:2|0:0,0:0:0:0:
166,30,51119,1,0,0:0:0:0:
50,173,51240,2,0,P|57:239|72:263,1,93.5000028533936,2|0,1:2|0:0,0:0:0:0:
281,347,51482,2,0,P|304:295|293:236,1,93.5000028533936,8|0,0:0|0:0,0:0:0:0:
125,106,51724,6,0,P|170:116|214:103,1,93.5000028533936,2|0,1:2|0:0,0:0:0:0:
408,33,51966,1,8,0:0:0:0:
256,4,52087,1,2,1:2:0:0:
406,137,52208,2,0,P|417:202|408:236,1,93.5000028533936,2|0,1:2|0:0,0:0:0:0:
207,262,52450,1,8,0:0:0:0:
293,131,52571,1,8,0:0:0:0:
467,343,52692,5,0,1:2:0:0:
467,343,52934,2,0,L|338:331,1,93.5000028533936,12|2,0:0|0:0,0:0:0:0:
31,287,53175,1,0,1:0:0:0:
31,287,53417,2,0,L|45:181,1,93.5000028533936,12|0,0:0|0:0,0:0:0:0:
432,88,53659,5,2,1:2:0:0:
431,88,53901,2,0,P|386:92|349:122,1,93.5000028533936,12|0,0:0|0:0,0:0:0:0:
483,314,54143,2,0,L|489:197,1,93.5000028533936,2|0,1:2|0:0,0:0:0:0:
253,47,54385,2,0,L|264:139,1,93.5000028533936,8|0,0:0|0:0,0:0:0:0:
3,186,54627,6,0,P|44:137|164:142,1,187.000005706787,6|0,1:2|0:0,0:0:0:0:
100,290,54990,1,0,0:0:0:0:
119,29,55111,2,0,L|315:41,1,187.000005706787,6|0,1:2|1:0,0:0:0:0:
159,138,55474,1,8,0:0:0:0:
408,287,55595,6,0,P|394:194|376:103,1,187.000005706787,2|8,1:2|0:0,0:0:0:0:
282,254,55958,1,0,0:0:0:0:
437,44,56079,1,2,1:2:0:0:
347,174,56200,1,8,0:0:0:0:
225,49,56321,1,8,0:0:0:0:
488,144,56442,1,8,0:0:0:0:
231,310,56563,5,4,1:2:0:0:
111,161,56684,2,0,P|67:137|8:146,1,93.5000028533936,2|8,0:0|0:0,0:0:0:0:
235,174,56925,1,2,0:0:0:0:
343,79,57046,2,0,P|391:59|434:65,1,93.5000028533936,0|2,1:0|0:0,0:0:0:0:
226,4,57288,2,0,L|230:101,1,93.5000028533936,8|0,0:0|0:0,0:0:0:0:
52,311,57530,5,2,0:0:0:0:
69,230,57651,1,0,0:0:0:0:
412,277,57772,5,8,0:0:0:0:
391,200,57893,1,0,0:0:0:0:
197,179,58014,5,2,0:0:0:0:
272,175,58135,1,0,0:0:0:0:
229,94,58256,5,8,0:0:0:0:
239,256,58377,1,8,0:0:0:0:
407,125,58498,6,0,P|422:202|420:243,1,93.5000028533936,2|0,1:2|0:0,0:0:0:0:
339,323,58740,1,8,0:0:0:0:
104,153,58861,2,0,P|90:222|93:268,1,93.5000028533936,0|2,0:0|1:2,0:0:0:0:
193,369,59103,1,2,0:0:0:0:
297,193,59224,2,0,L|205:206,1,93.5000028533936,8|0,0:0|0:0,0:0:0:0:
141,55,59466,5,2,0:0:0:0:
336,26,59587,1,0,0:0:0:0:
323,49,59708,5,8,0:0:0:0:
128,78,59829,1,0,0:0:0:0:
138,104,59950,5,2,0:0:0:0:
333,75,60071,1,0,0:0:0:0:
255,177,60192,5,8,0:0:0:0:
225,31,60313,1,8,0:0:0:0:
122,300,60434,5,0,1:2:0:0:
146,169,60554,1,0,0:0:0:0:
289,153,60675,1,8,0:0:0:0:
379,290,60796,2,0,P|286:266|190:247,1,187.000005706787,2|0,0:0|0:0,0:0:0:0:
36,325,61159,2,0,P|46:274|43:222,1,93.5000028533936,8|0,0:0|0:0,0:0:0:0:
36,62,61401,6,0,P|135:57|195:113,1,187.000005706787,2|8,1:2|0:0,0:0:0:0:
202,320,61764,1,0,0:0:0:0:
304,98,61885,1,2,1:2:0:0:
129,244,62006,1,0,0:0:0:0:
350,249,62127,2,0,P|400:261|441:276,1,93.5000028533936,8|0,0:0|0:0,0:0:0:0:
223,380,62369,6,0,P|229:286|238:193,1,187.000005706787,2|8,1:2|0:0,0:0:0:0:
337,97,62732,1,0,0:0:0:0:
132,191,62853,2,0,P|88:194|41:174,1,93.5000028533936,2|0,1:2|0:0,0:0:0:0:
337,97,63095,2,0,P|406:94|439:105,1,93.5000028533936,8|2,0:0|0:0,0:0:0:0:
468,346,63337,5,2,1:2:0:0:
482,182,63458,1,0,0:0:0:0:
374,279,63579,2,0,B|334:261|304:222|304:222|264:245|212:239,1,187.000005706787,8|2,0:0|1:2,0:0:0:0:
123,101,63942,1,0,0:0:0:0:
211,238,64063,1,10,0:0:0:0:
13,261,64184,1,10,0:0:0:0:
127,364,64305,6,0,L|134:261,1,93.5000028533936,4|2,1:2|0:0,0:0:0:0:
169,24,64547,2,0,P|157:66|120:104,1,93.5000028533936,8|0,0:0|0:0,0:0:0:0:
0,195,64788,1,2,1:2:0:0:
243,110,64909,1,0,0:0:0:0:
260,218,65030,2,0,L|273:331,1,93.5000028533936,8|0,0:0|0:0,0:0:0:0:
352,40,65272,6,0,P|338:89|330:133,1,93.5000028533936,2|0,1:2|0:0,0:0:0:0:
453,341,65514,2,0,P|468:296|478:251,1,93.5000028533936,8|0,0:0|0:0,0:0:0:0:
494,48,65756,1,2,1:2:0:0:
339,229,65877,1,0,0:0:0:0:
214,52,65998,1,8,0:0:0:0:
474,177,66119,1,8,0:0:0:0:
240,137,66240,6,0,P|147:158|47:208,1,191.250007295609,4|0,1:2|0:0,0:0:0:0:
169,234,66724,2,0,P|183:151|84:101,1,191.250007295609,4|0,1:2|0:0,0:0:0:0:
219,46,67208,6,0,L|303:43,1,85,4|0,1:2|0:0,0:0:0:0:
416,113,67450,1,8,0:0:0:0:
262,235,67571,1,0,0:0:0:0:
431,320,67692,2,0,P|438:262|414:234,1,85,2|0,1:2|0:0,0:0:0:0:
236,147,67934,1,8,0:0:0:0:
189,265,68055,1,8,0:0:0:0:
382,159,68176,5,4,1:2:0:0:
192,74,68296,1,0,0:0:0:0:
303,231,68417,2,0,L|291:315,1,85,8|0,0:0|0:0,0:0:0:0:
102,269,68659,2,0,L|113:184,1,85,2|0,1:2|0:0,0:0:0:0:
102,29,68901,1,8,0:0:0:0:
208,101,69022,1,0,0:0:0:0:
17,102,69143,6,0,P|5:137|5:185,1,85,2|0,1:2|0:0,0:0:0:0:
90,363,69385,2,0,L|110:266,1,85,8|0,0:0|0:0,0:0:0:0:
245,168,69627,2,0,P|256:208|256:251,1,85,2|0,1:2|0:0,0:0:0:0:
138,150,69869,1,8,0:0:0:0:
1,298,69990,1,0,0:0:0:0:
252,351,70111,6,0,P|340:347|426:335,2,170,2|8|2,1:2|0:0|1:2,0:0:0:0:
140,208,70716,1,0,0:0:0:0:
256,93,70837,2,0,P|263:161|251:188,1,85,8|0,0:0|0:0,0:0:0:0:
144,304,71079,5,2,1:2:0:0:
146,68,71200,1,8,0:0:0:0:
257,175,71321,2,0,L|366:166,1,85,0|0,1:0|0:0,0:0:0:0:
250,48,71563,1,8,0:0:0:0:
452,214,71684,1,0,0:0:0:0:
412,79,71804,1,0,1:0:0:0:
197,222,71925,1,0,1:0:0:0:
444,332,72046,5,4,1:2:0:0:
323,175,72288,1,2,0:0:0:0:
166,216,72530,1,2,0:0:0:0:
27,328,72772,1,2,0:0:0:0:
457,208,73014,5,4,1:2:0:0:
304,59,73256,1,2,0:0:0:0:
112,122,73498,1,2,0:0:0:0:
1,244,73740,1,2,0:0:0:0:
470,90,73982,5,4,1:2:0:0:
209,11,74466,1,0,1:0:0:0:
13,160,74950,1,4,1:2:0:0:
446,212,75434,5,8,0:2:0:0:
242,136,75595,1,0,0:0:0:0:
77,277,75756,1,0,0:0:0:0:
293,328,75917,1,4,1:2:0:0:
226,53,76401,5,0,1:0:0:0:
150,325,76643,5,0,1:0:0:0:
277,336,76764,1,0,0:0:0:0:
375,261,76885,1,0,1:0:0:0:
252,241,77006,1,0,0:0:0:0:
420,356,77127,5,0,1:0:0:0:
414,180,77248,1,0,0:0:0:0:
352,273,77369,1,0,1:0:0:0:
316,125,77490,1,0,0:0:0:0:
242,214,77611,1,0,1:0:0:0:
168,109,77732,1,0,1:0:0:0:
148,257,77853,5,4,0:0:0:0:
512,102,78095,1,4,0:0:0:0:
512,102,78337,5,4,0:0:0:0:
204,31,78458,1,4,0:0:0:0:
259,348,78700,5,4,0:0:0:0:
40,190,78942,1,4,0:0:0:0:
27,186,79184,5,4,0:0:0:0:
335,119,79304,1,4,0:0:0:0:
335,119,79546,5,2,1:2:0:0:
389,106,79626,1,2,0:2:0:0:
441,128,79707,1,2,0:2:0:0:
466,178,79787,6,0,P|469:271|431:336,1,170,4|8,1:2|0:0,0:0:0:0:
210,187,80150,1,0,0:0:0:0:
345,353,80271,1,2,1:2:0:0:
302,231,80392,1,0,0:0:0:0:
155,321,80513,2,0,P|117:316|85:279,1,85,8|0,0:0|1:2,0:0:0:0:
119,28,80755,5,2,1:2:0:0:
185,147,80876,1,0,1:2:0:0:
268,29,80997,1,8,0:0:0:0:
59,122,81118,2,0,P|46:209|88:287,1,170,2|2,0:0|1:2,0:0:0:0:
302,169,81481,1,8,0:0:0:0:
226,263,81602,1,10,0:0:0:0:
226,263,81663,1,0,0:0:0:0:
226,263,81723,6,0,P|212:318|210:364,1,85,4|0,1:2|0:0,0:0:0:0:
457,258,81965,1,8,0:0:0:0:
311,235,82086,1,0,0:0:0:0:
445,154,82207,1,2,1:2:0:0:
315,113,82328,1,0,0:0:0:0:
434,39,82449,2,0,L|333:28,1,85,8|0,0:0|1:2,0:0:0:0:
103,56,82691,5,2,1:2:0:0:
246,154,82812,1,0,1:2:0:0:
199,4,82933,1,8,0:0:0:0:
182,223,83054,2,0,P|128:278|22:292,1,170,2|2,0:0|0:0,0:0:0:0:
159,115,83417,1,8,0:0:0:0:
279,288,83538,1,10,0:0:0:0:
284,65,83658,6,0,B|297:149,1,85,4|0,1:2|0:0,0:0:0:0:
327,357,83900,1,8,0:2:0:0:
413,154,84021,1,0,0:0:0:0:
512,318,84142,2,0,P|471:316|423:296,1,85,2|0,1:2|0:0,0:0:0:0:
295,149,84384,1,8,0:0:0:0:
439,97,84505,1,0,1:2:0:0:
214,227,84626,6,0,P|192:181|194:148,1,85,4|0,1:2|0:0,0:0:0:0:
265,20,84868,2,0,L|367:31,1,85,8|0,0:0|0:0,0:0:0:0:
498,37,85110,2,0,P|513:76|509:134,1,85,2|2,1:2|0:2,0:0:0:0:
257,340,85352,1,8,0:0:0:0:
317,159,85474,1,2,1:2:0:0:
317,159,85716,5,4,1:2:0:0:
26,42,85958,5,0,1:2:0:0:
347,151,86079,1,4,1:2:0:0:
0,292,86321,5,0,1:2:0:0:
382,142,86442,1,4,1:2:0:0:
412,134,87046,5,2,1:2:0:0:
196,173,87167,1,0,1:2:0:0:
434,247,87288,1,0,1:2:0:0:
287,74,87409,1,0,1:2:0:0:
137,291,87530,1,4,1:2:0:0:
256,192,87591,12,0,88256,0:0:0:0:
