osu file format v14

[General]
AudioFilename: audio.mp3
AudioLeadIn: 0
PreviewTime: 39506
Countdown: 0
SampleSet: Soft
StackLeniency: 0.4
Mode: 0
LetterboxInBreaks: 0
WidescreenStoryboard: 1

[Editor]
Bookmarks: 88014
DistanceSpacing: 1.1
BeatDivisor: 4
GridSize: 8
TimelineZoom: 1.150005

[Metadata]
Title:Nakayoshi! Maru! Nakayoshi! (TV Size)
TitleUnicode:なかよし!〇!なかよし!(TV Size)
Artist:Chimame-tai
ArtistUnicode:チマメ隊
Creator:Fycho
Version:Mochi's Hard
Source:ご注文はうさぎですか?BLOOM
Tags:japanese anime gochiusa chimame march gochuumon wa usagi desu ka?? inori minase sora tokui rie murakawa is the order a rabbit tai まる ending vocal pop jpop bloom ご注文はうさぎですか 水瀬いのり 徳井青空 村川梨衣 pop jpop j-pop yf_bmp momochikun mimiliaa garden
BeatmapID:4529143
BeatmapSetID:2113466

[Difficulty]
HPDrainRate:5
CircleSize:3.8
OverallDifficulty:6
ApproachRate:8
SliderMultiplier:1.4
SliderTickRate:1

[Events]
//Background and Video events
0,0,"BG.jpg",0,0
Video,0,"ED.mp4"
//Break Periods
//Storyboard Layer 0 (Background)
//Storyboard Layer 1 (Fail)
//Storyboard Layer 2 (Pass)
//Storyboard Layer 3 (Foreground)
//Storyboard Layer 4 (Overlay)
//Storyboard Sound Samples

[TimingPoints]
434,241.935483870968,4,2,1,60,1,0
7692,-100,4,2,1,45,0,0
8175,-100,4,2,1,50,0,0
23659,-100,4,2,1,40,0,0
30434,-100,4,2,1,50,0,0
31401,-117.647058823529,4,2,1,60,0,0
33337,-100,4,2,1,60,0,0
41079,-100,4,2,1,70,0,1
54627,-133.333333333333,4,2,1,70,0,1
56563,-100,4,2,1,70,0,1
72046,-100,4,2,1,60,0,0
72288,-100,4,2,1,40,0,0
73014,-100,4,2,1,60,0,0
73256,-100,4,2,1,40,0,0
73982,-100,4,2,1,60,0,0
74466,-100,4,2,1,40,0,0
75917,-100,4,2,1,50,0,0
87530,-153.846153846153,4,2,1,50,0,0
87591,-153.846153846153,4,2,1,10,0,0

[Colours]
Combo1 : 82,46,250
Combo2 : 131,194,252
Combo3 : 254,90,86

[HitObjects]
48,93,434,6,0,P|23:171|32:235,1,140,4|8,1:2|0:2,0:0:0:0:
105,240,796,1,0,0:0:0:0:
181,232,917,2,0,P|178:288|176:320,1,70,2|0,1:2|0:0,0:0:0:0:
254,311,1159,1,8,0:0:0:0:
317,173,1401,2,0,P|370:166|402:164,1,70,2|0,1:2|0:0,0:0:0:0:
457,132,1643,1,8,0:0:0:0:
412,69,1764,2,0,P|356:81|274:49,1,140,2|0,0:0|0:0,0:0:0:0:
213,12,2127,1,8,0:0:0:0:
213,12,2248,1,2,0:0:0:0:
147,52,2369,6,0,P|130:162|132:204,1,140,4|8,1:2|0:0,0:0:0:0:
216,324,2853,2,0,L|147:349,2,70,2|0|8,1:2|0:0|0:0,0:0:0:0:
261,261,3216,1,0,0:0:0:0:
292,190,3337,2,0,L|357:166,2,70,2|0|8,1:2|0:0|0:0,0:0:0:0:
223,153,3700,2,0,P|174:149|134:59,1,140,2|0,0:0|0:0,0:0:0:0:
185,21,4063,1,8,0:0:0:0:
256,50,4184,1,0,0:0:0:0:
331,41,4304,6,0,P|402:51|486:31,1,140,4|8,1:2|0:0,0:0:0:0:
414,183,4788,2,0,P|383:228|377:324,1,140,2|8,1:2|0:0,0:0:0:0:
434,360,5151,1,0,0:0:0:0:
434,360,5272,2,0,L|291:307,1,140,4|8,1:2|0:0,0:0:0:0:
282,134,5756,2,0,L|413:182,1,140,2|8,1:2|0:0,0:0:0:0:
481,144,6119,1,0,0:0:0:0:
466,59,6240,5,0,0:0:0:0:
395,33,6361,2,0,P|343:29|274:95,1,140,4|0,1:2|1:2,0:0:0:0:
201,69,6724,2,0,P|198:136|237:199,1,140,4|0,1:2|1:2,0:0:0:0:
289,251,7087,5,4,1:2:0:0:
289,251,7692,2,0,L|281:326,1,70,8|8,0:2|0:2,0:0:0:0:
201,283,7934,2,0,L|193:358,1,70,8|8,0:2|0:2,0:0:0:0:
110,319,8175,6,0,L|124:179,1,140,4|8,1:2|0:0,0:0:0:0:
20,23,8659,2,0,P|60:73|148:74,1,140,2|8,1:2|0:0,0:0:0:0:
205,56,9022,1,0,0:0:0:0:
278,33,9143,2,0,P|339:18|427:35,1,140,2|8,1:2|0:0,0:0:0:0:
481,88,9506,2,0,P|420:103|332:86,1,140,2|2,0:0|0:0,0:0:0:0:
274,124,9869,2,0,L|262:197,1,70,8|0,0:0|0:0,0:0:0:0:
315,249,10111,5,2,1:2:0:0:
169,298,10353,1,8,0:0:0:0:
61,190,10595,2,0,B|79:98|79:98|126:71,1,140,2|8,1:2|0:0,0:0:0:0:
191,45,10958,1,0,0:0:0:0:
253,90,11079,2,0,P|303:93|397:58,1,140,2|8,1:2|0:0,0:0:0:0:
455,27,11442,2,0,P|498:75|508:160,1,140,2|2,0:0|0:0,0:0:0:0:
444,187,11804,2,0,P|411:187|367:202,1,70,8|0,0:0|0:0,0:0:0:0:
301,220,12046,5,2,1:2:0:0:
193,330,12288,1,8,0:0:0:0:
40,308,12530,2,0,B|23:267|55:222|55:222|27:205|24:178,1,140,2|8,1:2|0:0,0:0:0:0:
93,46,13014,2,0,P|134:27|170:33,1,70,2|0,1:2|0:0,0:0:0:0:
229,59,13256,2,0,P|248:100|242:136,1,70,8|0,0:0|0:0,0:0:0:0:
198,185,13498,2,0,P|134:178|81:97,1,140,2|8,0:0|0:0,0:0:0:0:
229,59,13982,6,0,P|295:49|381:31,1,140,2|8,1:2|0:0,0:0:0:0:
451,164,14466,2,0,P|385:174|299:192,1,140,2|8,1:2|0:0,0:0:0:0:
248,231,14829,1,0,0:0:0:0:
213,299,14950,2,0,P|207:235|180:143,1,140,6|2,1:2|0:0,0:0:0:0:
97,116,15313,2,0,P|103:180|130:272,1,140,4|0,1:2|1:2,0:0:0:0:
116,329,15675,1,8,0:2:0:0:
179,372,15796,1,0,1:2:0:0:
255,364,15917,6,0,B|300:332|356:349|356:349|382:323,1,140,4|8,1:2|0:0,0:0:0:0:
352,149,16401,2,0,P|296:182|285:255,1,140,2|8,1:2|0:0,0:0:0:0:
423,97,16885,2,0,L|287:132,1,140,2|8,1:2|0:0,0:0:0:0:
215,103,17248,2,0,L|351:68,1,140,2|2,1:2|0:0,0:0:0:0:
423,97,17611,1,8,0:0:0:0:
423,97,17732,1,0,0:0:0:0:
486,139,17853,6,0,P|461:207|472:289,1,140,2|8,1:2|0:0,0:0:0:0:
338,359,18337,2,0,P|357:290|332:213,1,140,2|8,1:2|0:0,0:0:0:0:
297,159,18700,1,0,0:0:0:0:
229,195,18821,2,0,P|186:203|84:158,1,140,2|8,1:2|0:0,0:0:0:0:
24,198,19184,1,2,0:0:0:0:
34,46,19425,1,2,0:0:0:0:
34,46,19546,2,0,L|108:65,1,70,8|0,0:0|0:0,0:0:0:0:
177,79,19788,6,0,B|237:62|237:62|275:89|329:69,2,140,2|8|2,1:2|0:0|1:2,0:0:0:0:
24,198,20514,1,8,0:0:0:0:
98,332,20756,2,0,P|157:276|164:213,1,140,2|8,1:2|0:0,0:0:0:0:
346,220,21240,2,0,P|361:287|414:332,1,140,2|8,1:2|0:0,0:0:0:0:
498,186,21724,6,0,P|490:147|461:117,1,70,2|0,1:2|0:0,0:0:0:0:
504,53,21966,2,0,P|470:31|429:30,1,70,8|0,0:0|0:0,0:0:0:0:
374,67,22208,2,0,L|224:30,1,140,10|8,0:2|0:0,0:0:0:0:
41,45,22692,2,0,L|60:190,1,140,4|8,1:2|0:0,0:0:0:0:
126,222,23054,2,0,P|68:203|-7:255,1,140,4|8,0:0|1:2,0:0:0:0:
71,287,23417,1,0,1:2:0:0:
71,287,23538,1,8,1:2:0:0:
17,351,23659,6,0,P|75:370|150:318,2,140,4|8|2,1:2|0:0|1:2,0:0:0:0:
37,200,24385,1,8,0:0:0:0:
37,200,24627,2,0,P|26:134|74:72,1,140,2|8,1:2|0:0,0:0:0:0:
145,96,24990,2,0,P|211:85|273:133,1,140,0|0,0:0|0:0,0:0:0:0:
284,200,25353,1,8,0:0:0:0:
140,184,25595,6,0,L|162:32,1,140,2|8,1:2|0:0,0:0:0:0:
293,128,26079,2,0,L|271:280,1,140,2|8,1:2|0:0,0:0:0:0:
396,355,26563,1,2,1:2:0:0:
450,301,26684,1,0,0:0:0:0:
406,238,26804,1,8,0:0:0:0:
439,168,26925,2,0,P|450:115|389:42,1,140,4|8,0:0|0:0,0:0:0:0:
330,21,27288,1,8,0:0:0:0:
210,118,27530,6,0,B|267:132|267:132|297:120|297:120|361:135,1,140,4|8,1:2|0:0,0:0:0:0:
410,270,28014,2,0,B|353:256|353:256|323:268|323:268|259:253,1,140,2|8,1:2|0:0,0:0:0:0:
144,339,28498,2,0,L|125:267,1,70,2|0,1:2|0:0,0:0:0:0:
104,196,28740,1,8,0:0:0:0:
31,223,28861,2,0,P|3:175|32:89,1,140,0|0,1:2|0:0,0:0:0:0:
54,26,29224,2,0,L|130:44,1,70,8|0,0:0|0:0,0:0:0:0:
195,68,29466,5,2,1:2:0:0:
195,68,29708,1,0,0:0:0:0:
346,113,29950,1,0,0:0:0:0:
346,113,30192,1,0,0:0:0:0:
454,221,30434,2,0,B|391:254|381:200|313:245,1,140,4|8,1:2|0:0,0:0:0:0:
260,290,30796,1,12,0:0:0:0:
110,327,31038,1,0,1:0:0:0:
36,350,31159,1,0,1:0:0:0:
32,128,31401,6,0,L|50:24,2,79.3333348464966,4|0|0,1:2|0:0|0:0,0:0:0:0:
116,158,31885,2,0,L|128:240,2,79.3333348464966,4|0|0,1:2|0:0|0:0,0:0:0:0:
191,108,32369,6,0,L|207:2,2,79.3333348464966,4|0|0,1:2|0:0|0:0,0:0:0:0:
275,138,32853,2,0,L|290:220,2,79.3333348464966,4|0|0,1:2|0:0|0:0,0:0:0:0:
330,73,33337,6,0,P|386:33|455:38,1,140,4|8,1:2|0:0,0:0:0:0:
419,197,33821,2,0,P|363:237|294:232,1,140,2|8,1:2|0:0,0:0:0:0:
140,183,34304,1,2,1:2:0:0:
45,304,34546,1,8,0:0:0:0:
192,348,34788,1,2,0:0:0:0:
259,310,34909,1,0,0:0:0:0:
332,334,35030,1,8,0:0:0:0:
408,200,35272,6,0,L|401:95,2,93.3333333333333,4|2|2,1:2|0:0|0:0,0:0:0:0:
477,275,35756,2,0,L|488:373,2,93.3333333333333,0|2|2,1:2|0:0|0:0,0:0:0:0:
378,307,36240,6,0,L|285:296,2,93.3333333333333,0|2|2,1:2|0:0|0:0,0:0:0:0:
408,200,36724,2,0,L|500:189,2,93.3333333333333,0|2|2,1:2|0:0|0:0,0:0:0:0:
256,192,37208,12,4,39143,0:0:0:0:
408,112,39627,5,4,1:2:0:0:
334,135,40111,1,4,1:2:0:0:
260,158,40595,6,0,L|189:140,1,70,4|0,1:2|0:0,0:0:0:0:
158,48,40837,2,0,L|225:65,1,70,8|8,0:2|0:2,0:0:0:0:
325,53,41079,6,0,P|363:101|356:193,1,140,4|8,1:2|0:0,0:0:0:0:
312,235,41442,2,0,P|370:200|449:219,1,140,2|2,0:0|0:0,0:0:0:0:
488,270,41804,1,8,0:0:0:0:
354,346,42046,2,0,B|291:373|273:325|210:359,1,140,2|8,1:2|0:0,0:0:0:0:
70,305,42530,2,0,P|48:271|51:225,1,70,2|0,1:2|0:0,0:0:0:0:
94,181,42772,1,8,0:0:0:0:
67,108,42893,1,8,0:0:0:0:
119,51,43014,6,0,L|270:86,1,140,2|8,1:2|0:0,0:0:0:0:
320,125,43377,2,0,L|456:93,1,140,2|2,0:2|0:0,0:0:0:0:
487,22,43740,1,8,0:0:0:0:
334,36,43982,2,0,L|315:177,1,140,2|8,1:2|0:0,0:0:0:0:
305,329,44466,2,0,P|352:340|378:337,2,70,2|0|8,1:2|0:0|0:0,0:0:0:0:
266,261,44829,1,8,0:0:0:0:
200,301,44950,6,0,P|163:296|115:206,1,140,0|8,1:2|0:0,0:0:0:0:
105,137,45313,2,0,P|142:142|190:232,1,140,2|2,0:0|0:0,0:0:0:0:
266,261,45675,2,0,P|300:249|332:219,1,70,8|0,0:0|0:0,0:0:0:0:
343,151,45917,6,0,B|388:135|388:135|486:170,1,140,2|8,1:2|0:0,0:0:0:0:
387,38,46401,2,0,B|342:54|342:54|244:19,1,140,2|8,1:2|0:0,0:0:0:0:
180,44,46764,1,0,0:0:0:0:
111,8,46885,6,0,P|77:73|82:156,1,140,2|8,1:2|0:0,0:0:0:0:
182,262,47369,2,0,P|179:307|172:342,1,70,2|0,1:2|0:0,0:0:0:0:
251,344,47611,1,8,0:0:0:0:
251,344,47732,1,2,0:0:0:0:
321,312,47853,2,0,P|355:297|393:295,1,70,6|8,1:2|0:0,0:0:0:0:
410,220,48095,2,0,B|368:203|309:225|309:225|286:201|267:196,1,140,8|2,0:0|1:2,0:0:0:0:
135,83,48579,1,8,0:0:0:0:
135,83,48700,1,8,0:0:0:0:
185,24,48821,6,0,P|230:7|330:24,1,140,4|8,1:2|0:0,0:0:0:0:
132,162,49304,2,0,P|73:132|62:62,1,140,2|8,1:2|0:0,0:0:0:0:
202,122,49788,2,0,P|217:161|219:200,1,70,2|0,1:2|0:0,0:0:0:0:
286,228,50030,1,8,0:0:0:0:
187,346,50272,2,0,B|104:368|104:368|56:327,1,140,2|8,1:2|0:0,0:0:0:0:
28,261,50635,1,8,0:0:0:0:
73,198,50756,6,0,P|73:148|31:54,2,140,2|8|2,1:2|0:0|1:2,0:0:0:0:
203,114,51482,2,0,P|215:73|237:42,1,70,8|0,0:0|0:0,0:0:0:0:
306,59,51724,2,0,P|367:78|449:40,1,140,2|8,1:2|0:0,0:0:0:0:
495,103,52087,1,2,1:2:0:0:
495,103,52208,2,0,P|483:164|512:258,1,140,2|8,1:2|0:0,0:0:0:0:
427,263,52571,1,8,0:0:0:0:
354,287,52692,6,0,P|349:333|350:364,1,70,0|0,1:2|0:0,0:0:0:0:
264,309,52934,2,0,P|247:352|240:382,1,70,12|2,0:0|0:0,0:0:0:0:
164,316,53175,2,0,P|159:270|160:239,1,70,0|0,1:0|0:0,0:0:0:0:
74,294,53417,2,0,P|57:250|48:136,1,140,12|2,0:0|1:2,0:0:0:0:
93,97,53780,1,0,0:0:0:0:
148,43,53901,2,0,P|220:60|298:45,2,140,12|2|8,0:0|1:2|0:0,0:0:0:0:
0,217,54627,6,0,B|45:242|95:215|95:215|131:225|137:262,1,157.500006008148,6|0,1:2|0:0,0:0:0:0:
188,306,55111,2,0,P|240:289|293:273,1,105.000004005432,6|0,1:2|1:0,0:0:0:0:
430,312,55595,2,0,P|424:352|424:385,1,52.5000020027161,2|0,1:2|0:0,0:0:0:0:
506,285,55837,2,0,P|512:245|512:212,1,52.5000020027161,8|0,0:0|0:0,0:0:0:0:
469,172,56079,2,0,P|417:182|352:149,1,105.000004005432,2|8,1:2|0:0,0:0:0:0:
318,110,56442,1,8,0:0:0:0:
237,54,56563,6,0,P|180:65|113:123,1,140,4|8,1:2|0:0,0:0:0:0:
42,99,56925,2,0,P|7:157|11:232,1,140,2|2,0:0|0:0,0:0:0:0:
61,285,57288,1,8,0:0:0:0:
210,331,57530,2,0,L|365:289,1,140,2|8,1:2|0:0,0:0:0:0:
413,155,58014,2,0,L|277:191,1,140,2|8,1:2|0:0,0:0:0:0:
207,223,58377,1,8,0:0:0:0:
144,155,58498,6,0,P|166:100|242:60,1,140,2|8,1:2|0:0,0:0:0:0:
309,43,58861,2,0,P|367:34|440:80,1,140,0|2,0:0|0:0,0:0:0:0:
413,155,59224,1,8,0:0:0:0:
297,257,59466,2,0,L|364:290,1,70,2|0,1:2|0:0,0:0:0:0:
436,318,59708,2,0,P|356:364|292:339,1,140,8|2,0:0|1:2,0:0:0:0:
151,278,60192,1,8,0:0:0:0:
151,278,60313,1,8,0:0:0:0:
97,222,60434,6,0,L|114:131,1,70,0|0,1:2|0:0,0:0:0:0:
110,76,60675,1,8,0:0:0:0:
188,82,60796,2,0,P|243:87|330:38,1,140,0|0,0:0|0:0,0:0:0:0:
385,13,61159,1,8,0:0:0:0:
329,156,61401,5,2,1:2:0:0:
473,210,61643,1,8,0:0:0:0:
374,328,61885,2,0,L|299:349,1,70,2|0,1:2|0:0,0:0:0:0:
261,282,62127,2,0,L|193:263,1,70,8|0,0:0|0:0,0:0:0:0:
137,209,62369,6,0,L|166:366,2,140,2|8|2,1:2|0:0|1:2,0:0:0:0:
2,72,63095,2,0,L|14:140,1,70,8|2,0:0|0:0,0:0:0:0:
64,202,63337,2,0,P|118:205|180:136,1,140,2|8,1:2|0:0,0:0:0:0:
221,84,63700,1,0,0:0:0:0:
295,104,63821,2,0,P|359:125|419:93,1,140,2|10,1:2|0:0,0:0:0:0:
494,75,64184,1,10,0:0:0:0:
489,152,64304,6,0,B|464:215|464:215|491:241|484:297,2,140,4|8|2,1:2|0:0|1:2,0:0:0:0:
428,9,65030,1,8,0:0:0:0:
292,81,65272,2,0,P|239:103|134:102,1,140,2|8,1:2|0:0,0:0:0:0:
89,245,65756,2,0,P|142:223|247:224,1,140,2|8,1:2|0:0,0:0:0:0:
272,279,66119,1,8,0:0:0:0:
345,254,66240,5,4,1:2:0:0:
345,254,66724,1,4,1:2:0:0:
414,47,67208,1,4,1:2:0:0:
262,19,67450,1,8,0:0:0:0:
170,140,67692,2,0,L|92:157,1,70,2|0,1:2|0:0,0:0:0:0:
63,244,67934,2,0,L|131:229,1,70,8|8,0:0|0:0,0:0:0:0:
227,243,68175,6,0,L|370:270,2,140,4|8|2,1:2|0:0|1:2,0:0:0:0:
101,154,68901,1,8,0:0:0:0:
201,37,69143,2,0,P|252:30|343:73,1,140,2|8,1:2|0:0,0:0:0:0:
409,56,69506,1,0,0:0:0:0:
432,129,69627,2,0,P|483:129|514:124,1,70,2|0,1:2|0:0,0:0:0:0:
488,202,69869,2,0,P|478:246|475:287,1,70,8|0,0:0|0:0,0:0:0:0:
439,339,70111,6,0,P|390:345|317:288,1,140,2|8,1:2|0:0,0:0:0:0:
231,167,70595,1,2,1:2:0:0:
80,199,70837,1,8,0:0:0:0:
117,348,71079,1,2,1:2:0:0:
188,317,71200,2,0,B|239:300|239:300|260:312|260:312|288:294|319:294,1,140,8|0,0:0|0:0,0:0:0:0:
394,308,71563,2,0,P|409:274|409:230,1,70,8|0,0:0|0:0,0:0:0:0:
349,194,71804,1,0,1:0:0:0:
359,117,71925,1,0,0:0:0:0:
370,40,72046,5,4,1:2:0:0:
370,40,73014,5,4,1:2:0:0:
370,40,73982,6,0,L|219:79,1,140,4|0,1:2|0:0,0:0:0:0:
170,221,74466,2,0,L|305:185,1,140,0|0,1:0|0:0,0:0:0:0:
449,127,74950,2,0,L|440:273,1,140,4|0,1:2|0:0,0:0:0:0:
315,357,75434,6,0,L|324:255,2,93.3333333333333,8|0|0,0:2|0:0|0:0,0:0:0:0:
212,350,75917,1,4,1:2:0:0:
256,192,75978,12,2,77369,0:0:0:0:
460,243,77853,5,8,0:0:0:0:
395,102,78095,1,8,0:0:0:0:
256,48,78337,1,8,0:0:0:0:
256,48,78458,2,8,P|219:77|223:175,2,140,8|8|8,0:0|0:0|0:0,0:0:0:0:
386,130,79184,1,8,0:0:0:0:
428,193,79304,2,0,P|434:255|391:317,1,140,8|2,0:0|1:2,0:0:0:0:
318,290,79667,1,8,0:0:0:0:
268,349,79788,5,4,1:2:0:0:
134,272,80030,2,0,L|65:291,2,70,8|0|2,0:0|0:0|1:2,0:0:0:0:
180,209,80393,1,0,0:0:0:0:
119,161,80514,1,8,0:0:0:0:
264,111,80756,2,0,P|309:107|401:62,1,140,2|8,1:2|0:0,0:0:0:0:
444,8,81119,2,0,P|421:82|440:157,1,140,2|2,0:0|1:2,0:0:0:0:
387,205,81482,2,0,P|383:249|387:294,1,70,8|10,0:0|0:0,0:0:0:0:
446,322,81724,6,0,L|288:276,1,140,4|8,1:2|0:0,0:0:0:0:
246,240,82087,1,0,0:0:0:0:
196,298,82208,2,0,P|159:315|124:319,2,70,2|0|8,1:2|0:0|0:0,0:0:0:0:
246,240,82571,1,0,1:2:0:0:
282,172,82692,2,0,P|319:155|354:151,2,70,2|0|8,1:2|1:2|0:0,0:0:0:0:
214,135,83054,2,0,P|146:124|98:52,1,140,2|2,0:0|0:0,0:0:0:0:
29,61,83417,1,8,0:0:0:0:
29,61,83538,1,10,0:0:0:0:
9,135,83659,5,4,1:2:0:0:
109,251,83901,2,0,L|185:267,1,70,8|0,0:2|0:0,0:0:0:0:
256,271,84143,2,0,P|316:249|403:270,1,140,2|8,1:2|0:0,0:0:0:0:
448,311,84506,1,0,1:2:0:0:
493,248,84627,2,0,B|506:195|470:157|470:157|483:113,1,140,4|8,1:2|0:0,0:0:0:0:
425,63,84990,1,0,0:0:0:0:
425,63,85111,2,0,P|374:88|291:72,1,140,2|8,1:2|0:0,0:0:0:0:
235,23,85474,1,2,1:2:0:0:
149,45,85595,5,0,0:0:0:0:
108,110,85716,2,0,L|79:251,1,140,4|0,1:2|1:2,0:0:0:0:
25,303,86079,2,0,L|173:242,1,140,4|0,1:2|1:2,0:0:0:0:
227,276,86442,1,4,1:2:0:0:
451,48,86925,1,0,0:0:0:0:
387,92,87046,2,0,B|334:77|334:77|305:89|305:89|254:71,1,140,2|0,1:2|1:2,0:0:0:0:
177,62,87409,1,0,1:2:0:0:
143,139,87530,6,0,B|123:181|123:181|70:171|39:212|39:212|56:269,1,181.999991668702,4|0,1:2|0:0,0:0:0:0:
