osu file format v14

[General]
AudioFilename: audio.mp3
AudioLeadIn: 0
PreviewTime: 39506
Countdown: 0
SampleSet: Soft
StackLeniency: 0.5
Mode: 0
LetterboxInBreaks: 0
WidescreenStoryboard: 1

[Editor]
Bookmarks: 23659,31401,52692,56563
DistanceSpacing: 1
BeatDivisor: 4
GridSize: 4
TimelineZoom: 1.850005

[Metadata]
Title:Nakayoshi! Maru! Nakayoshi! (TV Size)
TitleUnicode:なかよし!〇!なかよし!(TV Size)
Artist:Chimame-tai
ArtistUnicode:チマメ隊
Creator:Fycho
Version:Mimi's Insane
Source:ご注文はうさぎですか?BLOOM
Tags:japanese anime gochiusa chimame march gochuumon wa usagi desu ka?? inori minase sora tokui rie murakawa is the order a rabbit tai まる ending vocal pop jpop bloom ご注文はうさぎですか 水瀬いのり 徳井青空 村川梨衣 pop jpop j-pop yf_bmp momochikun mimiliaa garden
BeatmapID:4529142
BeatmapSetID:2113466

[Difficulty]
HPDrainRate:6
CircleSize:3.7
OverallDifficulty:7
ApproachRate:9
SliderMultiplier:1.72
SliderTickRate:1

[Events]
//Background and Video events
0,0,"BG.jpg",0,0
Video,0,"ED.mp4"
//Break Periods
//Storyboard Layer 0 (Background)
//Storyboard Layer 1 (Fail)
//Storyboard Layer 2 (Pass)
//Storyboard Layer 3 (Foreground)
//Storyboard Layer 4 (Overlay)
//Storyboard Sound Samples

[TimingPoints]
434,241.935483870968,4,2,1,60,1,0
7087,-200,4,2,1,60,0,0
7692,-200,4,2,1,45,0,0
8175,-133.333333333333,4,2,1,50,0,0
15917,-100,4,2,1,50,0,0
23659,-133.333333333333,4,2,1,40,0,0
30434,-133.333333333333,4,2,1,50,0,0
31401,-100,4,2,1,60,0,0
41079,-83.3333333333333,4,2,1,70,0,1
52692,-133.333333333333,4,2,1,70,0,1
52934,-83.3333333333333,4,2,1,70,0,1
53175,-133.333333333333,4,2,1,70,0,1
53417,-83.3333333333333,4,2,1,70,0,1
53659,-133.333333333333,4,2,1,70,0,1
53901,-83.3333333333333,4,2,1,70,0,1
54143,-133.333333333333,4,2,1,70,0,1
54385,-83.3333333333333,4,2,1,70,0,1
54627,-133.333333333333,4,2,1,70,0,1
55111,-200,4,2,1,70,0,1
55595,-100,4,2,1,70,0,1
56563,-83.3333333333333,4,2,1,70,0,1
66240,-133.333333333333,4,2,1,70,0,1
68175,-83.3333333333333,4,2,1,70,0,1
72046,-100,4,2,1,60,0,0
72288,-100,4,2,1,40,0,0
73014,-100,4,2,1,60,0,0
73256,-100,4,2,1,40,0,0
73982,-100,4,2,1,60,0,0
74466,-100,4,2,1,40,0,0
75917,-100,4,2,1,50,0,0
86442,-200,4,2,1,50,0,0
87591,-200,4,2,1,10,0,0

[Colours]
Combo1 : 82,46,250
Combo2 : 131,194,252
Combo3 : 254,90,86

[HitObjects]
55,110,434,6,0,B|144:99|126:160|226:148,1,172,4|8,1:2|0:2,0:0:0:0:
296,114,796,1,0,0:0:0:0:
296,114,917,2,0,P|311:66|282:9,1,86,2|0,1:2|0:0,0:0:0:0:
299,196,1159,2,0,P|348:184|382:131,1,86,8|0,0:0|0:0,0:0:0:0:
229,239,1401,2,0,P|263:275|326:279,1,86,2|0,1:2|0:0,0:0:0:0:
428,344,1643,1,8,0:0:0:0:
428,344,1764,2,0,P|340:270|267:315,1,172,2|0,0:0|0:0,0:0:0:0:
131,384,2127,2,0,P|186:353|219:364,1,86,8|2,0:0|0:0,0:0:0:0:
206,357,2309,1,2,1:2:0:0:
206,357,2369,6,0,P|131:356|82:263,1,172,4|8,1:2|0:0,0:0:0:0:
133,211,2732,1,0,0:0:0:0:
133,211,2853,2,0,L|114:103,1,86,2|0,1:2|0:0,0:0:0:0:
193,83,3095,2,0,L|207:-1,1,86,8|0,0:0|0:0,0:0:0:0:
260,135,3337,1,2,1:2:0:0:
346,135,3458,1,0,0:0:0:0:
398,66,3579,1,8,0:0:0:0:
398,66,3700,2,0,P|359:104|385:244,1,172,2|0,0:0|0:0,0:0:0:0:
489,318,4063,2,0,P|439:291|399:297,1,86,8|0,0:0|0:0,0:0:0:0:
411,292,4244,1,0,1:2:0:0:
411,292,4304,6,0,B|321:321|326:259|231:280,1,172,4|8,1:2|0:0,0:0:0:0:
156,318,4667,1,0,0:0:0:0:
156,318,4788,2,0,P|191:361|246:362,1,86,2|0,1:2|0:0,0:0:0:0:
225,185,5030,2,0,P|185:199|162:234,1,86,8|0,0:0|0:0,0:0:0:0:
247,270,5272,6,0,L|230:83,1,172,4|8,1:2|0:0,0:0:0:0:
125,13,5635,1,0,0:0:0:0:
41,35,5756,1,2,1:2:0:0:
13,116,5877,1,0,0:0:0:0:
62,186,5998,1,8,0:0:0:0:
148,188,6119,2,0,L|143:292,1,86,0|0,0:0|0:0,0:0:0:0:
36,348,6361,5,4,1:2:0:0:
36,348,6724,5,4,1:2:0:0:
36,348,7087,6,0,B|94:339|94:339|133:363|133:363|181:344|181:344|245:362,1,215,4|8,1:2|0:2,0:0:0:0:
237,359,7813,1,8,0:2:0:0:
327,338,7934,1,8,0:2:0:0:
327,338,8054,1,8,0:2:0:0:
331,245,8175,6,0,B|396:244|388:285|462:280,2,129.00000492096,4|8|2,1:2|0:0|1:2,0:0:0:0:
106,69,8901,2,0,L|169:78,1,64.5000024604798,8|0,0:0|0:0,0:0:0:0:
338,83,9143,6,0,P|273:73|241:-4,1,129.00000492096,2|8,1:2|0:0,0:0:0:0:
240,142,9506,2,0,P|275:90|337:82,1,129.00000492096,2|2,0:0|0:0,0:0:0:0:
509,250,9869,6,0,P|480:273|465:305,1,64.5000024604798,8|0,0:0|0:0,0:0:0:0:
281,258,10111,2,0,P|310:281|325:312,1,64.5000024604798,2|0,1:2|0:0,0:0:0:0:
457,151,10353,2,0,P|437:182|434:217,1,64.5000024604798,8|0,0:0|0:0,0:0:0:0:
317,161,10595,2,0,P|341:188|350:222,1,64.5000024604798,2|0,1:2|0:0,0:0:0:0:
383,47,10837,2,0,L|386:137,1,64.5000024604798,8|0,0:0|0:0,0:0:0:0:
252,274,11079,6,0,P|317:264|349:187,1,129.00000492096,2|8,1:2|0:0,0:0:0:0:
350,333,11442,2,0,P|314:281|252:273,1,129.00000492096,2|2,0:0|0:0,0:0:0:0:
171,261,11804,1,8,0:0:0:0:
171,261,11925,1,0,0:0:0:0:
167,344,12046,6,0,L|81:354,1,64.5000024604798,2|0,1:2|0:0,0:0:0:0:
77,190,12288,2,0,L|141:182,1,64.5000024604798,8|0,0:0|0:0,0:0:0:0:
171,261,12530,2,0,L|85:271,1,64.5000024604798,2|0,1:2|0:0,0:0:0:0:
81,107,12772,2,0,L|145:99,1,64.5000024604798,8|0,0:0|0:0,0:0:0:0:
213,149,13014,6,0,P|231:103|190:27,2,129.00000492096,2|8|2,1:2|0:0|1:2,0:0:0:0:
28,249,13740,2,0,P|4:219|2:178,1,64.5000024604798,8|0,0:0|0:0,0:0:0:0:
82,189,13982,6,0,L|157:203,1,64.5000024604798,2|0,1:2|0:0,0:0:0:0:
337,189,14224,2,0,L|255:204,1,64.5000024604798,8|0,0:0|0:0,0:0:0:0:
102,270,14466,2,0,L|182:284,1,64.5000024604798,2|0,1:2|0:0,0:0:0:0:
315,270,14708,2,0,L|234:284,1,64.5000024604798,8|0,0:0|0:0,0:0:0:0:
213,149,14950,6,0,P|225:95|289:60,1,129.00000492096,6|2,1:2|0:0,0:0:0:0:
140,60,15313,2,0,P|196:88|213:149,1,129.00000492096,4|0,1:2|1:2,0:0:0:0:
297,145,15675,1,8,0:2:0:0:
297,145,15796,1,0,1:2:0:0:
369,88,15917,6,0,B|453:80|451:135|547:120,1,172,4|8,1:2|0:0,0:0:0:0:
492,31,16280,1,0,0:0:0:0:
492,31,16401,2,0,P|442:11|398:9,1,86,2|0,1:2|0:0,0:0:0:0:
406,180,16643,2,0,P|456:200|500:202,1,86,8|0,0:0|0:0,0:0:0:0:
363,95,16885,5,2,1:2:0:0:
363,95,17006,1,0,0:0:0:0:
299,170,17127,1,8,0:0:0:0:
299,170,17248,2,0,L|116:141,1,172,2|2,1:2|0:0,0:0:0:0:
119,245,17611,1,8,0:0:0:0:
119,245,17732,1,0,0:0:0:0:
234,332,17853,6,0,L|148:345,1,86,2|0,1:2|0:0,0:0:0:0:
206,170,18095,2,0,L|117:156,1,86,8|0,0:0|0:0,0:0:0:0:
148,345,18337,2,0,L|62:358,1,86,2|0,1:2|0:0,0:0:0:0:
120,156,18579,2,0,L|31:142,1,86,8|0,0:0|0:0,0:0:0:0:
4,234,18821,5,2,1:2:0:0:
4,234,18942,1,0,0:0:0:0:
77,280,19063,1,8,0:0:0:0:
77,280,19184,2,0,L|262:302,1,172,2|2,1:2|0:0,0:0:0:0:
408,239,19546,6,0,P|393:186|322:153,1,129,8|0,0:0|0:0,0:0:0:0:
322,245,19788,2,0,L|433:236,1,86,2|0,1:2|0:0,0:0:0:0:
245,159,20030,2,0,L|356:150,1,86,8|0,0:0|0:0,0:0:0:0:
168,73,20272,2,0,L|279:64,1,86,2|0,1:2|0:0,0:0:0:0:
240,265,20514,6,0,L|351:256,1,86,8|0,0:0|0:0,0:0:0:0:
86,93,20756,2,0,L|171:86,1,86,2|0,1:2|0:0,0:0:0:0:
163,179,20998,2,0,L|248:172,1,86,8|0,0:0|0:0,0:0:0:0:
342,71,21240,2,0,B|398:83|398:83|430:128|430:128|506:146,1,172,2|8,1:2|0:0,0:0:0:0:
415,329,21724,6,0,P|389:276|297:268,1,129,2|0,1:2|0:0,0:0:0:0:
325,257,21966,2,0,L|212:240,1,86,8|0,0:0|0:0,0:0:0:0:
69,284,22208,2,0,L|239:264,1,172,10|8,0:2|0:0,0:0:0:0:
487,141,22692,6,0,L|384:118,1,86,4|0,1:2|0:0,0:0:0:0:
312,143,22933,1,8,0:0:0:0:
487,141,23054,6,0,B|405:123|407:182|307:155,1,172,4|8,0:0|1:2,0:0:0:0:
247,100,23417,1,0,1:2:0:0:
164,102,23538,1,8,1:2:0:0:
107,167,23659,6,0,L|17:157,2,64.5000024604798,4|0|8,1:2|0:0|0:0,0:0:0:0:
183,256,24022,1,0,0:0:0:0:
183,256,24143,2,0,L|269:241,2,64.5000024604798,0|0|8,1:0|0:0|0:0,0:0:0:0:
120,336,24506,1,0,0:0:0:0:
120,336,24627,2,0,L|-19:319,1,129.00000492096,2|8,1:2|0:0,0:0:0:0:
53,240,24990,2,0,L|181:255,1,129.00000492096
325,286,25353,2,0,P|335:255|328:224,1,64.5000024604798,8|0,0:0|0:0,0:0:0:0:
284,72,25595,6,0,P|319:81|369:85,1,64.5000024604798,2|0,1:2|0:0,0:0:0:0:
501,74,25837,2,0,P|472:83|416:87,1,64.5000024604798,8|0,0:0|0:0,0:0:0:0:
328,223,26079,2,0,P|321:192|332:162,1,64.5000024604798,2|0,1:2|0:0,0:0:0:0:
454,166,26321,2,0,P|464:196|458:228,1,64.5000024604798,8|0,0:0|0:0,0:0:0:0:
396,307,26563,5,2,1:2:0:0:
396,307,26684,1,0,0:0:0:0:
317,339,26804,1,8,0:0:0:0:
236,327,26925,2,0,P|199:321|113:358,1,129.00000492096,4|8,0:0|0:0,0:0:0:0:
1,299,27288,2,0,P|40:290|85:300,1,64.5000024604798,8|0,0:0|0:0,0:0:0:0:
145,247,27530,6,0,L|151:168,1,64.5000024604798,4|0,1:2|0:0,0:0:0:0:
115,104,27772,2,0,L|121:25,1,64.5000024604798,8|0,0:0|0:0,0:0:0:0:
240,155,28014,2,0,L|236:220,1,64.5000024604798,2|0,1:2|0:0,0:0:0:0:
210,12,28256,2,0,L|206:77,1,64.5000024604798,8|0,0:0|0:0,0:0:0:0:
149,182,28498,2,0,L|141:308,1,96.7500036907198,2|0,1:2|0:0,0:0:0:0:
142,278,28740,1,8,0:0:0:0:
51,320,28861,6,0,L|60:191,1,129.00000492096,0|0,1:2|0:0,0:0:0:0:
115,104,29224,1,8,0:0:0:0:
149,182,29466,5,2,1:2:0:0:
240,155,29708,1,0,0:0:0:0:
326,130,29950,1,0,0:0:0:0:
413,106,30192,1,0,0:0:0:0:
240,155,30434,6,0,L|320:172,1,64.5000024604798,4|0,1:2|0:0,0:0:0:0:
393,191,30675,1,8,0:0:0:0:
260,243,30796,2,0,L|340:260,1,64.5000024604798,12|0,0:0|0:0,0:0:0:0:
407,287,31038,1,0,1:0:0:0:
407,287,31159,1,0,1:0:0:0:
160,320,31401,6,0,P|130:253|155:195,2,114.666666666667,4|0|0,1:2|0:0|0:0,0:0:0:0:
133,125,31885,6,0,P|81:145|54:194,2,114.666666666667,4|0|0,1:2|0:0|0:0,0:0:0:0:
185,20,32369,5,4,1:2:0:0:
139,215,32530,1,0,0:0:0:0:
328,158,32692,1,0,0:0:0:0:
175,43,32853,5,4,1:2:0:0:
168,207,33014,1,0,0:0:0:0:
308,141,33176,1,0,0:0:0:0:
198,126,33337,6,0,B|115:114|114:169|29:152,2,172,4|8|2,1:2|0:0|1:2,0:0:0:0:
434,182,34063,6,0,P|439:140|420:102,1,86,8|0,0:0|0:0,0:0:0:0:
328,49,34304,2,0,L|349:224,1,172,2|8,1:2|0:0,0:0:0:0:
348,219,34667,1,0,0:0:0:0:
310,296,34788,1,2,0:0:0:0:
224,309,34909,1,0,0:0:0:0:
161,249,35030,1,8,0:0:0:0:
166,165,35151,1,0,0:0:0:0:
233,96,35272,6,0,L|349:119,1,114.666666666667,4|2,1:2|0:0,0:0:0:0:
441,143,35595,1,2,0:0:0:0:
166,165,35756,6,0,L|282:188,1,114.666666666667,0|2,1:2|0:0,0:0:0:0:
365,216,36079,1,2,0:0:0:0:
233,96,36240,5,0,1:2:0:0:
281,267,36401,1,2,0:0:0:0:
383,128,36563,1,2,0:0:0:0:
187,200,36724,5,0,1:2:0:0:
398,243,36885,1,2,0:0:0:0:
319,57,37046,1,2,0:0:0:0:
291,173,37208,5,4,0:0:0:0:
256,192,37288,12,0,39385,0:0:0:0:
47,112,39627,6,0,P|94:97|196:167,1,172,4|0,1:2|0:0,0:0:0:0:
284,186,40111,6,0,P|237:171|135:241,1,172,4|0,1:2|0:0,0:0:0:0:
173,327,40595,6,0,L|194:128,1,172,4|8,1:2|0:2,0:0:0:0:
297,86,41079,5,4,1:2:0:0:
297,86,41200,1,2,0:0:0:0:
211,56,41321,1,8,0:0:0:0:
211,56,41442,2,0,P|192:104|191:163,1,103.199996850586,2|0,0:0|1:0,0:0:0:0:
342,297,41684,1,2,0:0:0:0:
342,297,41805,2,0,P|360:248|361:189,1,103.199996850586,8|0,0:0|0:0,0:0:0:0:
293,71,42046,6,0,B|242:158|316:164|254:299,1,206.399993701172,2|8,1:2|0:0,0:0:0:0:
129,334,42409,1,0,0:0:0:0:
129,334,42530,2,0,P|147:267|278:297,1,206.399993701172,2|8,1:2|0:0,0:0:0:0:
455,331,42893,1,8,0:0:0:0:
455,331,43014,6,0,L|285:351,1,154.799995275879,2|0,1:2|0:0,0:0:0:0:
283,350,43256,1,8,0:0:0:0:
338,238,43377,2,0,L|441:246,1,103.199996850586,2|0,0:2|1:2,0:0:0:0:
467,157,43619,1,2,0:0:0:0:
467,157,43740,2,0,L|354:143,1,103.199996850586,8|0,0:0|0:0,0:0:0:0:
212,51,43982,6,0,P|268:91|233:224,1,206.399993701172,2|8,1:2|0:0,0:0:0:0:
145,227,44345,1,0,0:0:0:0:
145,227,44466,2,0,P|88:186|123:53,1,206.399993701172,2|8,1:2|0:0,0:0:0:0:
212,51,44829,1,8,0:0:0:0:
212,51,44950,5,0,1:2:0:0:
295,97,45071,2,0,P|340:108|414:85,1,103.199996850586,2|8,0:0|0:0,0:0:0:0:
488,38,45313,2,0,B|381:40|394:109|277:95,1,206.399993701172,2|2,0:0|0:0,0:0:0:0:
23,106,45675,6,0,P|57:78|82:12,1,103.199996850586,8|0,0:0|0:0,0:0:0:0:
294,96,45917,2,0,P|259:68|233:0,1,103.199996850586,2|0,1:2|0:0,0:0:0:0:
85,223,46159,2,0,P|108:186|114:104,1,103.199996850586,8|0,0:0|0:0,0:0:0:0:
251,211,46401,2,0,P|222:178|207:106,1,103.199996850586,2|0,1:2|0:0,0:0:0:0:
173,346,46643,2,0,L|169:239,1,103.199996850586,8|0,0:0|0:0,0:0:0:0:
206,121,46885,6,0,B|251:116|285:127|285:127|323:165|323:165|361:179|397:173,2,206.399993701172,2|8|2,1:2|0:0|1:2,0:0:0:0:
14,307,47611,1,8,0:0:0:0:
14,307,47732,1,2,0:0:0:0:
73,235,47853,2,0,P|136:225|177:252,1,103.199996850586,6|8,1:2|0:0,0:0:0:0:
116,311,48095,6,0,L|103:91,1,206.399993701172,8|2,0:0|1:2,0:0:0:0:
138,24,48458,1,0,0:0:0:0:
218,5,48579,1,8,0:0:0:0:
284,54,48700,1,8,0:0:0:0:
283,136,48821,6,0,L|400:147,1,103.199996850586,4|0,1:2|0:0,0:0:0:0:
293,292,49063,2,0,L|191:283,1,103.199996850586,8|0,0:0|0:0,0:0:0:0:
243,212,49304,2,0,L|345:221,1,103.199996850586,2|0,1:2|0:0,0:0:0:0:
253,368,49546,2,0,L|151:359,1,103.199996850586,8|0,0:0|0:0,0:0:0:0:
405,318,49788,6,0,L|302:306,1,103.199996850586,2|0,1:2|0:0,0:0:0:0:
449,241,50030,2,0,L|346:229,1,103.199996850586,8|0,0:0|0:0,0:0:0:0:
493,164,50272,2,0,L|390:152,1,103.199996850586,2|0,1:2|0:0,0:0:0:0:
339,59,50514,1,8,0:0:0:0:
339,59,50635,1,8,0:0:0:0:
283,136,50756,6,0,L|385:145,1,103.199996850586,2|0,1:2|0:0,0:0:0:0:
345,221,50998,2,0,L|243:212,1,103.199996850586,8|0,0:0|0:0,0:0:0:0:
191,283,51240,2,0,L|293:292,1,103.199996850586,2|0,1:2|0:0,0:0:0:0:
253,368,51482,2,0,L|151:359,1,103.199996850586,8|0,0:0|0:0,0:0:0:0:
67,322,51724,6,0,P|57:231|175:216,1,206.399993701172,2|8,1:2|0:0,0:0:0:0:
242,211,52087,1,2,1:2:0:0:
201,289,52208,2,0,B|153:204|233:173|192:77,1,206.399993701172,2|8,1:2|0:0,0:0:0:0:
196,88,52571,1,8,0:0:0:0:
304,96,52692,6,0,B|352:83|352:83|403:107,1,96.7500036907198,0|0,1:2|0:0,0:0:0:0:
408,122,52934,6,0,L|540:109,1,103.199996850586,12|2,0:0|0:0,0:0:0:0:
453,209,53175,6,0,B|405:222|405:222|354:198,1,96.7500036907198,0|0,1:0|0:0,0:0:0:0:
349,183,53417,6,0,L|217:196,1,103.199996850586,12|0,0:0|0:0,0:0:0:0:
71,235,53659,6,0,P|86:181|130:152,1,96.7500036907198,2|0,1:2|0:0,0:0:0:0:
157,241,53901,6,0,L|147:376,1,103.199996850586,12|0,0:0|0:0,0:0:0:0:
324,302,54143,6,0,P|308:355|264:384,1,96.7500036907198,2|0,1:2|0:0,0:0:0:0:
238,296,54385,6,0,L|248:161,1,103.199996850586,8|0,0:0|0:0,0:0:0:0:
343,37,54627,6,0,B|290:23|290:23|253:36|253:36|211:18|211:18|151:32,1,193.50000738144,6|0,1:2|0:0,0:0:0:0:
210,103,55111,6,0,B|249:119|249:119|292:108,1,86,6|0,1:2|1:0,0:0:0:0:
375,116,55474,1,8,0:0:0:0:
375,116,55595,6,0,L|458:140,1,86,2|0,1:2|0:0,0:0:0:0:
131,108,55837,2,0,L|49:132,1,86,8|0,0:0|0:0,0:0:0:0:
276,209,56079,5,2,1:2:0:0:
334,272,56200,1,8,0:0:0:0:
313,355,56321,1,8,0:0:0:0:
230,377,56442,1,8,0:0:0:0:
160,325,56563,5,4,1:2:0:0:
160,325,56684,1,2,0:0:0:0:
167,233,56804,1,8,0:0:0:0:
167,233,56925,2,0,P|207:203|266:196,1,103.199996850586,2|0,0:0|1:0,0:0:0:0:
360,132,57167,1,2,0:0:0:0:
360,132,57288,2,0,P|320:102|261:95,1,103.199996850586,8|0,0:0|0:0,0:0:0:0:
253,300,57530,6,0,L|270:78,1,206.399993701172,2|8,1:2|0:0,0:0:0:0:
310,16,57893,1,0,0:0:0:0:
310,16,58014,2,0,B|213:2|215:67|104:48,1,206.399993701172,2|8,1:2|0:0,0:0:0:0:
66,130,58377,1,8,0:0:0:0:
66,130,58498,6,0,P|19:76|41:-10,1,154.799995275879,2|0,1:2|0:0,0:0:0:0:
32,0,58740,1,8,0:0:0:0:
175,82,58861,2,0,L|181:201,1,103.199996850586,0|2,0:0|1:2,0:0:0:0:
107,246,59103,1,2,0:0:0:0:
107,246,59224,2,0,L|100:367,1,103.199996850586,8|0,0:0|0:0,0:0:0:0:
17,213,59466,6,0,P|52:163|182:188,1,206.399993701172,2|8,1:2|0:0,0:0:0:0:
269,274,59829,1,0,0:0:0:0:
269,274,59950,2,0,P|234:224|104:249,1,206.399993701172,2|8,1:2|0:0,0:0:0:0:
106,245,60313,1,8,0:0:0:0:
25,299,60434,5,0,1:2:0:0:
25,299,60554,1,0,0:0:0:0:
101,349,60675,1,8,0:0:0:0:
101,349,60796,2,0,L|213:336,1,103.199996850586,0|0,0:0|1:2,0:0:0:0:
269,274,61038,1,0,0:0:0:0:
269,274,61159,2,0,L|381:287,1,103.199996850586,8|0,0:0|0:0,0:0:0:0:
439,355,61401,6,0,P|470:279|386:190,2,206.399993701172,2|8|2,1:2|0:0|1:2,0:0:0:0:
357,381,62006,1,0,0:0:0:0:
357,381,62127,2,0,P|352:314|388:270,1,103.199996850586,8|0,0:0|0:0,0:0:0:0:
423,107,62369,6,0,B|378:101|353:113|353:113|311:161|311:161|277:173|236:165,2,206.399993701172,2|8|2,1:2|0:0|1:2,0:0:0:0:
139,89,63095,1,8,0:0:0:0:
139,89,63216,1,2,0:0:0:0:
257,77,63337,2,0,L|128:102,1,103.199996850586,2|0,1:2|0:0,0:0:0:0:
214,173,63579,2,0,L|85:198,1,103.199996850586,8|0,0:0|0:0,0:0:0:0:
171,269,63821,2,0,L|42:294,1,103.199996850586,2|0,1:2|0:0,0:0:0:0:
24,207,64063,1,10,0:0:0:0:
24,207,64184,1,10,0:0:0:0:
56,116,64304,6,0,P|103:95|154:96,1,103.199996850586,4|2,1:2|0:0,0:0:0:0:
279,257,64546,2,0,P|232:277|181:276,1,103.199996850586,8|0,0:0|0:0,0:0:0:0:
113,180,64788,2,0,L|233:196,1,103.199996850586,2|0,1:2|0:0,0:0:0:0:
404,184,65030,2,0,L|302:171,1,103.199996850586,8|0,0:0|0:0,0:0:0:0:
214,193,65272,6,0,P|216:142|246:101,1,103.199996850586,2|0,1:2|0:0,0:0:0:0:
460,113,65514,2,0,P|490:155|492:206,1,103.199996850586,8|0,0:0|0:0,0:0:0:0:
393,279,65756,2,0,L|290:265,1,103.199996850586,2|0,1:2|0:0,0:0:0:0:
209,295,65998,1,8,0:0:0:0:
209,295,66119,1,8,0:0:0:0:
141,362,66240,6,0,P|117:319|129:229,1,129.00000492096,4|0,1:2|0:0,0:0:0:0:
141,22,66724,6,0,P|117:65|129:155,1,129.00000492096,4|0,1:2|0:0,0:0:0:0:
329,74,67208,6,0,L|197:93,1,129.00000492096,4|8,1:2|0:0,0:0:0:0:
201,291,67692,6,0,L|329:310,1,129.00000492096,2|8,1:2|0:0,0:0:0:0:
329,310,68054,1,8,0:0:0:0:
378,163,68175,6,0,P|429:162|475:184,1,103.199996850586,4|0,1:2|0:0,0:0:0:0:
288,165,68417,2,0,P|303:116|338:79,1,103.199996850586,8|0,0:0|0:0,0:0:0:0:
262,251,68659,2,0,P|219:220|191:150,1,103.199996850586,2|0,1:2|0:0,0:0:0:0:
335,302,68901,2,0,P|292:332|217:337,1,103.199996850586,8|0,0:0|0:0,0:0:0:0:
415,348,69143,6,0,P|421:297|405:248,1,103.199996850586,2|0,1:2|0:0,0:0:0:0:
288,165,69385,2,0,B|183:156|195:232|70:204,2,206.399993701172,8|2|8,0:0|1:2|0:0,0:0:0:0:
23,16,70111,6,0,P|95:15|123:131,1,206.399993701172,2|8,1:2|0:0,0:0:0:0:
22,253,70474,1,0,0:0:0:0:
22,253,70595,2,0,P|6:188|30:147,1,103.199996850586,2|0,1:2|0:0,0:0:0:0:
212,41,70837,2,0,P|227:89|210:136,1,103.199996850586,8|0,0:0|0:0,0:0:0:0:
101,216,71079,6,0,L|227:241,1,103.199996850586,2|8,1:2|0:0,0:0:0:0:
307,244,71321,1,0,1:0:0:0:
307,244,71442,1,0,0:0:0:0:
101,216,71563,6,0,B|175:210|175:210|224:242|224:242|311:227,1,206.399993701172,8|0,0:0|1:0,0:0:0:0:
361,172,71925,1,0,1:2:0:0:
372,87,72046,5,4,1:2:0:0:
361,172,73014,1,4,1:2:0:0:
296,229,73982,1,4,1:2:0:0:
211,233,74466,1,0,1:0:0:0:
135,191,74950,1,4,1:2:0:0:
106,111,75434,5,8,0:2:0:0:
135,191,75595,1,0,0:0:0:0:
211,233,75756,1,0,0:0:0:0:
296,229,75917,5,4,1:2:0:0:
361,172,76159,1,0,0:0:0:0:
447,188,76401,1,0,1:0:0:0:
470,270,76643,1,0,1:0:0:0:
419,332,76885,1,0,1:0:0:0:
332,317,77127,1,0,1:0:0:0:
296,229,77369,6,0,L|196:223,1,86,0|0,1:0|0:0,0:0:0:0:
251,144,77611,2,0,L|151:138,1,86,0|0,1:0|1:0,0:0:0:0:
83,133,77853,5,4,0:0:0:0:
127,230,78095,1,4,0:0:0:0:
63,320,78337,1,4,0:0:0:0:
63,320,78458,1,4,0:0:0:0:
118,226,78700,5,4,0:0:0:0:
221,235,78942,1,4,0:0:0:0:
280,319,79184,1,4,0:0:0:0:
280,319,79304,1,4,0:0:0:0:
470,286,79546,6,0,P|424:254|381:259,1,86,2|0,1:2|0:0,0:0:0:0:
395,254,79728,1,0,1:0:0:0:
395,254,79788,6,0,P|436:216|415:104,1,172,4|8,1:2|0:0,0:0:0:0:
320,54,80151,1,0,0:0:0:0:
320,54,80272,2,0,L|210:66,1,86,2|0,1:2|0:0,0:0:0:0:
342,165,80514,2,0,L|231:157,1,86,8|0,0:0|1:2,0:0:0:0:
307,266,80756,2,0,L|199:239,1,86,2|0,1:2|1:2,0:0:0:0:
137,74,80998,1,8,0:0:0:0:
136,73,81119,2,0,P|172:149|133:222,1,172,2|2,0:0|1:2,0:0:0:0:
46,337,81482,2,0,P|113:362|125:386,1,86,8|10,0:0|0:0,0:0:0:0:
118,371,81663,1,8,0:0:0:0:
118,371,81724,6,0,P|91:323|141:217,1,172,4|8,1:2|0:0,0:0:0:0:
248,223,82087,1,0,0:0:0:0:
248,223,82208,2,0,P|260:167|231:129,1,86,2|0,1:2|0:0,0:0:0:0:
133,142,82450,2,0,P|121:198|150:236,1,86,8|0,0:0|1:2,0:0:0:0:
190,286,82692,1,2,1:2:0:0:
274,302,82813,1,0,1:2:0:0:
335,242,82934,1,8,0:0:0:0:
335,242,83054,2,0,L|356:70,1,172,2|2,0:0|0:0,0:0:0:0:
458,45,83417,2,0,P|466:96|496:122,1,86,8|10,0:0|0:0,0:0:0:0:
489,119,83599,1,0,1:2:0:0:
489,119,83659,6,0,B|404:104|419:168|310:142,1,172,4|8,1:2|0:2,0:0:0:0:
273,79,84022,1,0,0:0:0:0:
273,79,84143,2,0,P|310:66|365:75,1,86,2|0,1:2|0:0,0:0:0:0:
374,228,84385,2,0,P|331:233|291:220,1,86,8|0,0:0|1:2,0:0:0:0:
210,150,84627,6,0,L|23:160,1,172,4|8,1:2|0:0,0:0:0:0:
60,331,84990,1,0,0:0:0:0:
136,370,85111,1,2,1:2:0:0:
221,362,85232,1,2,0:2:0:0:
286,306,85353,1,8,0:0:0:0:
291,220,85474,2,0,L|181:235,1,86,2|0,1:2|0:0,0:0:0:0:
113,249,85716,5,4,1:2:0:0:
113,249,86079,5,4,1:2:0:0:
113,249,86442,6,0,P|87:126|144:58,1,215,4|2,1:2|1:2,0:0:0:0:
410,103,87288,5,0,1:2:0:0:
410,103,87409,1,0,1:2:0:0:
326,138,87530,1,4,1:2:0:0:
