osu file format v14

[General]
AudioFilename: audio.mp3
AudioLeadIn: 0
PreviewTime: 39506
Countdown: 0
SampleSet: Soft
StackLeniency: 0.5
Mode: 0
LetterboxInBreaks: 0
WidescreenStoryboard: 1

[Editor]
DistanceSpacing: 1.2
BeatDivisor: 2
GridSize: 4
TimelineZoom: 0.9600021

[Metadata]
Title:Nakayoshi! Maru! Nakayoshi! (TV Size)
TitleUnicode:なかよし!〇!なかよし!(TV Size)
Artist:Chimame-tai
ArtistUnicode:チマメ隊
Creator:Fycho
Version:Garden's Easy
Source:ご注文はうさぎですか?BLOOM
Tags:japanese anime gochiusa chimame march gochuumon wa usagi desu ka?? inori minase sora tokui rie murakawa is the order a rabbit tai まる ending vocal pop jpop bloom ご注文はうさぎですか 水瀬いのり 徳井青空 村川梨衣 pop jpop j-pop yf_bmp momochikun mimiliaa garden
BeatmapID:4563017
BeatmapSetID:2113466

[Difficulty]
HPDrainRate:2
CircleSize:2
OverallDifficulty:3
ApproachRate:4.5
SliderMultiplier:0.8
SliderTickRate:1

[Events]
//Background and Video events
0,0,"BG.jpg",0,0
Video,0,"ED.mp4"
//Break Periods
//Storyboard Layer 0 (Background)
//Storyboard Layer 1 (Fail)
//Storyboard Layer 2 (Pass)
//Storyboard Layer 3 (Foreground)
//Storyboard Layer 4 (Overlay)
//Storyboard Sound Samples

[TimingPoints]
434,241.935483870968,4,2,1,60,1,0
6361,-100,4,2,1,60,0,0
7692,-100,4,2,1,45,0,0
8175,-100,4,2,1,50,0,0
23659,-100,4,2,1,40,0,0
30434,-100,4,2,1,50,0,0
31401,-100,4,2,1,60,0,0
33337,-100,4,2,1,60,0,0
38659,-100,4,2,1,60,0,0
39627,-100,4,2,1,60,0,0
41079,-100,4,2,1,70,0,1
66240,-100,4,2,1,70,0,1
67208,-100,4,2,1,70,0,1
72046,-100,4,2,1,60,0,0
72288,-100,4,2,1,40,0,0
73014,-100,4,2,1,60,0,0
73256,-100,4,2,1,40,0,0
73982,-100,4,2,1,60,0,0
74466,-100,4,2,1,40,0,0
75917,-100,4,2,1,50,0,0
87591,-100,4,2,1,10,0,0

[Colours]
Combo1 : 82,46,250
Combo2 : 131,194,252
Combo3 : 254,90,86

[HitObjects]
117,197,434,5,4,1:2:0:0:
117,197,675,2,0,P|79:217|25:219,2,80,8|2|8,0:2|1:2|0:0,0:0:0:0:
201,241,1401,2,0,P|210:300|235:354,2,120,2|2|8,1:2|0:0|0:0,0:0:0:0:
265,168,2369,1,4,1:2:0:0:
318,88,2611,2,0,P|313:47|287:0,2,80,8|2|8,0:0|1:2|0:0,0:0:0:0:
378,163,3337,2,0,P|426:156|471:120,2,80,2|8|0,1:2|0:0|1:0,0:0:0:0:
325,243,4063,1,8,0:0:0:0:
272,322,4304,5,4,1:2:0:0:
234,290,5272,1,4,1:2:0:0:
202,241,6361,2,0,P|172:194|90:192,1,120,4|4,1:2|1:2,0:0:0:0:
88,325,7087,2,0,P|217:279|367:268,1,280,4|8,1:2|0:2,0:0:0:0:
441,316,8175,5,4,1:2:0:0:
499,240,8417,2,0,P|498:193|479:154,1,80,8|2,0:0|1:2,0:0:0:0:
404,122,8901,1,8,0:0:0:0:
404,122,9143,1,2,1:2:0:0:
129,53,9869,1,8,0:0:0:0:
129,53,10111,6,0,P|133:103|159:142,1,80,2|8,1:2|0:0,0:0:0:0:
232,173,10595,2,0,P|284:169|323:136,1,80,2|8,1:2|0:0,0:0:0:0:
361,75,11079,1,2,1:2:0:0:
494,336,11804,1,8,0:0:0:0:
494,336,12046,6,0,P|453:338|407:357,1,80,2|8,1:2|0:0,0:0:0:0:
323,324,12530,2,0,P|304:288|300:249,1,80,2|8,1:2|0:0,0:0:0:0:
362,176,13014,1,2,1:2:0:0:
362,176,13256,2,0,P|408:170|452:144,2,80,8|2|8,0:0|1:2|0:0,0:0:0:0:
284,118,13982,2,0,P|244:58|142:79,1,160,2|2,1:2|1:2,0:0:0:0:
84,113,14708,1,8,0:0:0:0:
84,113,14950,2,0,P|51:63|44:-15,2,120,6|4|8,1:2|1:2|0:2,0:0:0:0:
169,157,15917,6,0,P|152:199|148:254,1,80,4|8,1:2|0:0,0:0:0:0:
96,315,16401,2,0,P|116:353|156:376,1,80,2|8,1:2|0:0,0:0:0:0:
242,364,16885,1,2,1:2:0:0:
501,234,17611,1,8,0:0:0:0:
501,234,17853,6,0,P|492:280|467:312,1,80,2|8,1:2|0:0,0:0:0:0:
378,324,18337,2,0,P|326:264|339:171,1,160,2|2,1:2|1:2,0:0:0:0:
491,18,19546,1,8,0:0:0:0:
491,18,19788,6,0,P|452:31|387:35,1,80,2|8,1:2|0:0,0:0:0:0:
336,93,20272,2,0,P|296:98|258:110,1,80,2|8,1:2|0:0,0:0:0:0:
190,178,20756,1,2,1:2:0:0:
190,178,20998,1,8,0:0:0:0:
190,178,21240,2,0,P|151:191|86:195,1,80,2|8,1:2|0:0,0:0:0:0:
28,148,21724,2,0,P|13:111|15:64,2,80,2|8|10,1:2|0:0|0:2,0:0:0:0:
136,307,22692,2,0,P|78:312|17:343,2,120,4|4|0,1:2|0:0|1:2,0:0:0:0:
225,342,23659,5,4,1:2:0:0:
362,208,24143,1,2,1:2:0:0:
176,158,24627,2,0,B|142:89|200:108|143:21,2,120,2|2|8,1:2|1:2|0:0,0:0:0:0:
268,184,25595,1,2,1:2:0:0:
409,53,26079,1,2,1:2:0:0:
456,239,26563,2,0,B|490:308|432:289|489:376,1,120,2|4,1:2|0:0,0:0:0:0:
225,342,27530,5,4,1:2:0:0:
176,158,28014,1,2,1:2:0:0:
362,208,28498,2,0,B|431:174|412:232|499:175,2,120,2|2|8,1:2|1:2|0:0,0:0:0:0:
292,274,29466,1,2,1:2:0:0:
292,274,30434,2,0,B|223:308|242:250|155:307,1,120,4|12,1:2|0:0,0:0:0:0:
21,110,31401,5,4,1:2:0:0:
196,187,31885,1,4,1:2:0:0:
1,216,32369,1,4,1:2:0:0:
176,293,32853,1,4,1:2:0:0:
303,149,33337,2,0,P|275:78|199:70,2,160,4|2|2,1:2|1:2|1:2,0:0:0:0:
279,242,34546,1,8,0:0:0:0:
372,265,34788,2,0,P|379:335|299:373,1,160,2|4,0:0|1:2,0:0:0:0:
256,192,35514,12,4,37208,0:0:0:0:
255,266,39627,6,0,B|222:185|296:195|255:113,2,160,4|4|4,1:2|1:2|1:2,0:0:0:0:
419,365,41079,6,0,P|460:333|443:254,2,120,4|2|8,1:2|0:0|0:0,0:0:0:0:
338,313,42046,2,0,P|260:310|162:344,1,160,2|2,1:2|1:2,0:0:0:0:
39,204,43014,2,0,P|15:149|18:89,2,120,2|2|8,1:2|0:2|0:0,0:0:0:0:
128,240,43982,2,0,P|175:236|218:210,1,80,2|8,1:2|0:0,0:0:0:0:
255,140,44466,1,2,1:2:0:0:
415,34,44950,6,0,P|498:62|501:111,2,120,2|2|8,1:2|0:0|0:0,0:0:0:0:
362,114,45917,2,0,P|366:160|384:206,1,80,2|8,1:2|0:0,0:0:0:0:
459,241,46401,1,2,1:2:0:0:
466,336,46643,1,8,0:0:0:0:
377,373,46885,2,0,P|314:322|201:319,1,160,2|2,1:2|1:2,0:0:0:0:
146,341,47611,1,8,0:0:0:0:
82,268,47853,2,0,P|85:184|156:111,1,160,6|2,1:2|1:2,0:0:0:0:
221,97,48579,1,8,0:0:0:0:
234,192,48821,6,0,P|246:240|278:274,1,80,4|8,1:2|0:0,0:0:0:0:
358,284,49304,2,0,P|402:277|448:240,1,80,2|8,1:2|0:0,0:0:0:0:
482,180,49788,1,2,1:2:0:0:
482,180,50030,1,8,0:0:0:0:
482,180,50272,2,0,P|461:128|430:94,1,80,2|8,1:2|0:0,0:0:0:0:
364,58,50756,2,0,P|354:98|335:132,1,80,2|8,1:2|0:0,0:0:0:0:
250,177,51240,2,0,P|205:167|164:141,1,80,2|8,1:2|0:0,0:0:0:0:
131,71,51724,1,2,1:2:0:0:
131,71,51966,1,8,0:0:0:0:
131,71,52208,1,2,1:2:0:0:
32,237,52692,5,0,1:2:0:0:
32,237,52934,2,0,P|39:282|65:328,1,80,12|0,0:0|1:0,0:0:0:0:
147,290,53417,2,0,P|178:325|217:352,1,80,12|2,0:0|1:2,0:0:0:0:
296,316,53901,2,0,P|344:337|407:338,1,80,12|2,0:0|1:2,0:0:0:0:
454,292,54385,1,8,0:0:0:0:
481,199,54627,2,0,P|451:129|356:131,2,160,6|6|2,1:2|1:2|1:2,0:0:0:0:
454,292,55837,1,8,0:0:0:0:
454,292,56079,1,2,1:2:0:0:
265,329,56563,6,0,P|287:273|289:200,2,120,4|2|8,1:2|0:0|0:0,0:0:0:0:
176,367,57530,2,0,P|136:368|78:341,1,80,2|8,1:2|0:0,0:0:0:0:
32,285,58014,2,0,P|41:202|79:131,1,160,2|2,1:2|1:2,0:0:0:0:
166,100,58740,2,0,P|206:117|273:116,1,80,8|0,0:0|1:0,0:0:0:0:
304,194,59224,1,8,0:0:0:0:
390,153,59466,2,0,P|407:118|410:73,1,80,2|8,1:2|0:0,0:0:0:0:
342,9,59950,1,2,1:2:0:0:
166,100,60434,6,0,P|123:92|81:62,2,80,2|8|0,1:2|0:0|1:0,0:0:0:0:
214,182,61159,1,8,0:0:0:0:
157,259,61401,2,0,P|164:298|183:333,1,80,2|8,1:2|0:0,0:0:0:0:
273,367,61885,1,2,1:2:0:0:
365,339,62127,1,8,0:0:0:0:
407,252,62369,2,0,P|402:145|340:125,1,160,2|2,1:2|1:2,0:0:0:0:
271,105,63095,1,8,0:0:0:0:
222,187,63337,2,0,P|149:173|45:160,1,160,2|2,1:2|1:2,0:0:0:0:
41,68,64063,1,10,0:0:0:0:
126,24,64304,6,0,P|170:33|228:38,1,80,4|8,1:2|0:0,0:0:0:0:
271,105,64788,2,0,P|310:109|349:117,1,80,2|8,1:2|0:0,0:0:0:0:
429,62,65272,1,2,1:2:0:0:
499,127,65514,1,8,0:0:0:0:
446,207,65756,2,0,P|430:249|434:289,1,80,2|8,1:2|0:0,0:0:0:0:
462,375,66240,2,0,P|426:320|326:317,1,160,4|4,1:2|1:2,0:0:0:0:
153,368,67208,2,0,B|170:276|93:316|119:216,1,160,4|2,1:2|1:2,0:0:0:0:
176,144,67934,1,8,0:0:0:0:
254,199,68175,6,0,P|303:195|340:177,1,80,4|8,1:2|0:0,0:0:0:0:
392,109,68659,2,0,P|388:60|370:23,1,80,2|8,1:2|0:0,0:0:0:0:
288,11,69143,1,2,1:2:0:0:
288,11,69385,1,8,0:0:0:0:
288,11,69627,2,0,P|239:15|202:33,1,80,2|8,1:2|0:0,0:0:0:0:
127,75,70111,2,0,P|108:164|169:200,1,160,2|2,1:2|1:2,0:0:0:0:
256,195,70837,1,8,0:0:0:0:
256,195,71079,2,0,P|310:247|284:318,1,160,2|8,1:2|0:0,0:0:0:0:
203,366,71804,1,0,1:0:0:0:
203,366,72046,5,4,1:2:0:0:
203,366,73014,1,4,1:2:0:0:
203,366,73982,2,0,P|134:329|28:338,2,160,4|0|4,1:2|1:0|1:2,0:0:0:0:
391,329,75434,2,0,P|390:253|291:238,1,160,8|4,0:2|1:2,0:0:0:0:
256,192,76159,12,4,77853,0:0:0:0:
395,187,79788,5,4,1:2:0:0:
395,187,80030,2,0,P|433:167|487:165,2,80,8|2|8,0:0|1:2|0:0,0:0:0:0:
310,143,80756,2,0,P|299:77|265:12,2,120,2|2|8,1:2|0:0|0:0,0:0:0:0:
250,219,81724,1,4,1:2:0:0:
194,296,81966,2,0,P|199:337|225:384,2,80,8|2|8,0:0|1:2|0:0,0:0:0:0:
134,221,82692,2,0,P|86:228|41:264,2,80,2|8|0,1:2|0:0|1:0,0:0:0:0:
189,143,83417,1,8,0:0:0:0:
245,66,83658,5,4,1:2:0:0:
288,93,84626,1,4,1:2:0:0:
336,122,85716,2,0,P|362:55|398:21,1,120,4|4,1:2|1:2,0:0:0:0:
478,140,86442,2,0,B|410:112|337:143|322:213|322:213|398:221|423:281|392:343,1,360,4|4,1:2|1:2,0:0:0:0:
