osu file format v14

[General]
AudioFilename: audio.mp3
AudioLeadIn: 0
PreviewTime: 37170
Countdown: 0
SampleSet: Soft
StackLeniency: 0.7
Mode: 3
LetterboxInBreaks: 0
SpecialStyle: 0
WidescreenStoryboard: 1

[Editor]
DistanceSpacing: 2.3
BeatDivisor: 4
GridSize: 32
TimelineZoom: 1.400001

[Metadata]
Title:Nakayoshi! Maru! Nakayoshi! (Kirara Magic Bootleg Remix)
TitleUnicode:なかよし!○!なかよし! (Kirara Magic Bootleg Remix)
Artist:Chimame-tai
ArtistUnicode:チマメ隊
Creator:Ainer
Version:Reina's Normal
Source:ご注文はうさぎですか? BLOOM
Tags:Al-Reina cryochan Kanon Matsubara gochiusa ごちうさ Gochuumon wa Usagi desu ka? Is The Order a Rabbit? Chimame Tai Kafuu Chino 香風智乃 Jouga Maya 條河麻耶 Natsu Megumi 奈津惠 Minase Inori 水瀬いのり Tokui Sora 徳井青空 Murakawa Rie 村川梨衣 Anime s3 season 3 ed ending theme japanese EDM electronic dance music house 大隅知宇 Tomotaka Osumi 畑亜貴 Aki Hata GNCA-0622 NBC Universal Entertainment Japan
BeatmapID:2847011
BeatmapSetID:1377568

[Difficulty]
HPDrainRate:7
CircleSize:4
OverallDifficulty:7
ApproachRate:5
SliderMultiplier:1.4
SliderTickRate:1

[Events]
//Background and Video events
0,0,"gochiusa chimame 2.jpg",0,0
//Break Periods
//Storyboard Layer 0 (Background)
//Storyboard Layer 1 (Fail)
//Storyboard Layer 2 (Pass)
//Storyboard Layer 3 (Foreground)
//Storyboard Layer 4 (Overlay)
//Storyboard Sound Samples
Sample,36690,0,"snare 2.wav",45
Sample,98130,0,"snare 2.wav",45
Sample,130770,0,"drumcrash.wav",60
Sample,134610,0,"drumcrash.wav",85
Sample,138930,0,"drumsnare.wav",32
Sample,139410,0,"drumsnare.wav",32
Sample,139890,0,"drumsnare.wav",32
Sample,140370,0,"drumsnare.wav",32
Sample,140850,0,"drumsnare.wav",32
Sample,141330,0,"drumsnare.wav",32
Sample,141810,0,"drumsnare.wav",32

[TimingPoints]
210,480.0,4,2,1,75,1,0
7890,-100.0,4,2,1,65,0,0
15570,-100.0,4,2,1,70,0,0
38610,-100.0,4,2,1,85,0,1
71250,-100.0,4,2,1,70,0,0
77010,-100.0,4,2,1,65,0,0
84690,-100.0,4,2,1,70,0,0
92370,-100.0,4,2,1,75,0,0
100050,-100.0,4,2,1,85,0,1
115410,-100.0,4,2,1,75,0,0
123090,-100.0,4,2,1,55,0,0
138450,-100.0,4,2,1,75,0,0
146130,-100.0,4,2,1,50,0,0
153810,-100.0,4,2,1,60,0,0
161490,-100.0,4,2,1,85,0,1
178770,-100.0,4,2,1,75,0,0

[HitObjects]
64,192,210,1,2,0:0:0:0:
320,192,210,1,0,0:0:0:80:Ch.wav
192,192,450,1,0,0:0:0:0:
320,192,690,1,8,0:0:0:0:
448,192,690,1,0,0:0:0:0:
64,192,930,1,0,0:0:0:0:
192,192,1410,1,0,0:0:0:0:
320,192,1650,1,8,0:0:0:0:
448,192,1650,1,0,0:0:0:0:
64,192,1890,1,2,0:0:0:0:
64,192,2130,1,2,0:0:0:0:
448,192,2370,1,0,0:0:0:0:
64,192,2610,1,8,0:0:0:0:
192,192,2610,1,0,0:0:0:0:
320,192,2850,1,0,0:0:0:0:
448,192,3330,1,0,0:0:0:0:
64,192,3570,1,8,0:0:0:0:
192,192,3570,1,0,0:0:0:0:
320,192,3810,1,2,0:0:0:0:
320,192,4050,1,2,0:0:0:0:
64,192,4290,1,0,0:0:0:0:
192,192,4530,1,8,0:0:0:0:
320,192,4530,1,0,0:0:0:0:
448,192,4770,1,0,0:0:0:0:
448,192,5250,1,0,0:0:0:0:
192,192,5490,1,8,0:0:0:0:
320,192,5490,1,0,0:0:0:0:
64,192,5730,1,0,0:0:0:0:
448,192,6090,1,2,0:0:0:0:
448,192,6450,1,10,0:0:0:0:
448,192,6810,128,2,7410:0:0:0:0:
64,192,7410,1,0,0:0:0:60:snare.wav
192,192,7410,1,0,0:0:0:0:
64,192,7890,128,2,8370:0:0:0:0:
320,192,7890,1,4,0:0:0:0:
320,192,8370,1,8,0:0:0:0:
448,192,8370,1,0,0:0:0:0:
64,192,8610,128,2,8850:0:0:0:0:
192,192,8850,128,2,9330:0:0:0:0:
64,192,9330,1,8,0:0:0:0:
448,192,9330,1,0,0:0:0:0:
192,192,9570,128,0,9810:0:0:0:0:
320,192,9810,128,2,10290:0:0:0:0:
192,192,10290,1,8,0:0:0:0:
448,192,10290,1,0,0:0:0:0:
320,192,10530,128,2,10770:0:0:0:0:
448,192,10770,128,2,11010:0:0:0:0:
64,192,11010,128,0,11250:0:0:0:0:
320,192,11250,1,8,0:0:0:0:
448,192,11250,1,0,0:0:0:0:
192,192,11490,128,0,11730:0:0:0:0:
64,192,11730,128,2,12210:0:0:0:0:
320,192,12210,1,8,0:0:0:0:
448,192,12210,1,0,0:0:0:0:
64,192,12450,128,2,12690:0:0:0:0:
320,192,12690,128,0,12930:0:0:0:0:
192,192,13170,128,8,13410:0:0:0:0:
448,192,13170,1,0,0:0:0:0:
448,192,13650,128,2,13890:0:0:0:0:
64,192,14130,1,8,0:0:0:0:
320,192,14130,128,0,14370:0:0:0:0:
448,192,14370,1,2,0:0:0:0:
64,192,14610,128,2,15090:0:0:0:0:
192,192,15090,1,8,0:0:0:0:
320,192,15090,1,0,0:0:0:60:snare.wav
448,192,15330,1,0,0:0:0:0:
320,192,15450,1,0,0:0:0:0:
64,192,15570,1,2,0:0:0:0:
192,192,15570,1,4,0:0:0:0:
448,192,15810,1,0,0:0:0:0:
64,192,16050,1,8,0:0:0:0:
320,192,16050,1,0,0:0:0:50:snare.wav
192,192,16290,1,0,0:0:0:0:
448,192,16530,1,2,0:0:0:0:
192,192,17010,1,8,0:0:0:0:
320,192,17010,1,0,0:0:0:50:snare.wav
64,192,17250,1,0,0:0:0:0:
192,192,17370,1,2,0:0:0:0:
320,192,17490,1,0,0:0:0:0:
64,192,17730,1,2,0:0:0:0:
192,192,17970,1,8,0:0:0:0:
448,192,17970,1,0,0:0:0:50:snare.wav
320,192,18210,1,0,0:0:0:0:
64,192,18450,1,2,0:0:0:0:
192,192,18930,1,8,0:0:0:0:
448,192,18930,1,0,0:0:0:50:snare.wav
64,192,19170,1,0,0:0:0:0:
448,192,19410,1,2,0:0:0:0:
320,192,19650,1,0,0:0:0:0:
64,192,19890,1,8,0:0:0:0:
192,192,19890,1,0,0:0:0:50:snare.wav
448,192,20130,1,2,0:0:0:0:
64,192,20370,1,2,0:0:0:0:
192,192,20610,1,0,0:0:0:0:
320,192,20850,1,8,0:0:0:0:
448,192,20850,1,0,0:0:0:50:snare.wav
64,192,21090,1,0,0:0:0:0:
448,192,21330,1,2,0:0:0:0:
192,192,21570,1,0,0:0:0:0:
64,192,21810,1,8,0:0:0:0:
320,192,21810,1,0,0:0:0:50:snare.wav
448,192,22050,1,0,0:0:0:0:
192,192,22290,1,2,0:0:0:0:
64,192,22770,128,0,23010:0:0:0:0:
448,192,23010,128,0,23250:0:0:0:0:
192,192,23250,1,4,0:0:0:0:
320,192,23250,1,0,0:0:0:85:clap.wav
64,192,23730,1,8,0:0:0:0:
320,192,23730,1,0,0:0:0:0:
192,192,24210,1,0,0:0:0:85:clap.wav
448,192,24210,1,0,0:0:0:0:
320,192,24450,1,0,0:0:0:0:
448,192,24570,1,0,0:0:0:85:clap.wav
192,192,24810,1,0,0:0:0:0:
64,192,24930,1,0,0:0:0:85:clap.wav
448,192,25050,1,0,0:0:0:0:
192,192,25170,1,0,0:0:0:85:clap.wav
320,192,25170,1,0,0:0:0:0:
192,192,25650,1,8,0:0:0:0:
448,192,25650,1,0,0:0:0:0:
320,192,26130,128,0,26490:0:0:0:85:clap.wav
448,192,26130,1,0,0:0:0:0:
64,192,26490,128,0,26850:0:0:0:85:clap.wav
192,192,26490,1,0,0:0:0:0:
192,192,26850,1,0,0:0:0:85:clap.wav
448,192,26850,128,0,27090:0:0:0:0:
64,192,27090,1,0,0:0:0:85:clap.wav
320,192,27090,1,0,0:0:0:0:
192,192,27570,1,8,0:0:0:0:
448,192,27570,1,0,0:0:0:0:
64,192,28050,1,0,0:0:0:85:clap.wav
320,192,28050,1,0,0:0:0:0:
192,192,28290,1,0,0:0:0:0:
64,192,28410,1,0,0:0:0:85:clap.wav
320,192,28650,1,0,0:0:0:0:
448,192,28770,1,0,0:0:0:85:clap.wav
64,192,28890,1,0,0:0:0:0:
192,192,29010,1,0,0:0:0:85:clap.wav
320,192,29010,1,0,0:0:0:0:
448,192,29250,1,0,0:0:0:0:
64,192,29490,1,8,0:0:0:0:
192,192,29490,1,0,0:0:0:0:
320,192,29730,1,0,0:0:0:0:
64,192,29970,1,0,0:0:0:85:clap.wav
192,192,29970,128,0,30330:0:0:0:0:
320,192,30330,1,0,0:0:0:85:clap.wav
448,192,30330,128,0,30690:0:0:0:0:
64,192,30690,128,8,30930:0:0:0:0:
320,192,30930,1,8,0:0:0:0:
448,192,30930,1,0,0:0:0:70:Ch.wav
192,192,31090,1,8,0:0:0:0:
448,192,31250,1,8,0:0:0:0:
64,192,31410,1,8,0:0:0:0:
320,192,31570,1,8,0:0:0:0:
64,192,31730,1,8,0:0:0:0:
448,192,31890,1,8,0:0:0:0:
192,192,32050,1,8,0:0:0:0:
448,192,32210,1,8,0:0:0:0:
64,192,32370,1,8,0:0:0:0:
320,192,32530,1,8,0:0:0:0:
64,192,32690,1,8,0:0:0:0:
448,192,32850,1,8,0:0:0:0:
448,192,33170,1,8,0:0:0:0:
64,192,33330,1,8,0:0:0:0:
64,192,33650,1,8,0:0:0:0:
448,192,33810,1,8,0:0:0:0:
448,192,34130,1,8,0:0:0:0:
64,192,34290,1,8,0:0:0:0:
320,192,34770,1,10,0:0:0:0:
448,192,34930,1,8,0:0:0:0:
320,192,35090,1,8,0:0:0:0:
64,192,35250,1,10,0:0:0:0:
192,192,35410,1,8,0:0:0:0:
64,192,35570,1,8,0:0:0:0:
448,192,35730,1,10,0:0:0:0:
320,192,35890,1,8,0:0:0:0:
448,192,36050,1,8,0:0:0:0:
192,192,36210,1,10,0:0:0:0:
64,192,36370,1,8,0:0:0:0:
192,192,36530,1,8,0:0:0:0:
320,192,36690,128,2,36850:0:0:0:0:
448,192,36850,128,0,37010:0:0:0:45:snare 2.wav
64,192,37010,128,0,37170:0:0:0:45:snare 2.wav
192,192,37170,128,0,37330:0:0:0:45:snare 2.wav
320,192,37330,128,0,37490:0:0:0:45:snare 2.wav
448,192,37490,128,0,37650:0:0:0:45:snare 2.wav
64,192,37650,1,0,0:0:0:0:
192,192,38130,1,2,0:0:0:0:
320,192,38130,1,0,0:0:0:60:snare.wav
64,192,38610,1,2,0:0:0:0:
320,192,38610,1,4,0:0:0:0:
448,192,38850,1,0,0:0:0:0:
64,192,39090,1,2,0:0:0:0:
192,192,39090,1,8,0:0:0:0:
448,192,39210,1,0,0:0:0:0:
320,192,39330,1,0,0:0:0:0:
192,192,39570,128,2,40050:0:0:0:0:
64,192,40050,1,2,0:0:0:0:
448,192,40050,1,8,0:0:0:0:
320,192,40530,1,2,0:0:0:0:
64,192,40770,1,0,0:0:0:0:
320,192,41010,1,2,0:0:0:0:
448,192,41010,1,8,0:0:0:0:
64,192,41130,1,0,0:0:0:0:
192,192,41250,1,0,0:0:0:0:
448,192,41490,128,2,41970:0:0:0:0:
192,192,41970,1,2,0:0:0:0:
320,192,41970,1,8,0:0:0:0:
64,192,42450,128,2,42690:0:0:0:0:
448,192,42690,128,0,42930:0:0:0:0:
64,192,42930,1,2,0:0:0:0:
192,192,42930,1,8,0:0:0:0:
320,192,43050,1,0,0:0:0:0:
448,192,43170,1,0,0:0:0:0:
64,192,43410,1,2,0:0:0:0:
192,192,43650,1,0,0:0:0:0:
320,192,43890,1,2,0:0:0:0:
448,192,43890,1,8,0:0:0:0:
64,192,44130,1,0,0:0:0:0:
192,192,44370,128,2,44850:0:0:0:0:
64,192,44850,1,2,0:0:0:0:
320,192,44850,1,8,0:0:0:0:
448,192,45090,1,0,0:0:0:0:
192,192,45210,1,0,0:0:0:0:
320,192,45330,128,2,45810:0:0:0:0:
192,192,45810,1,2,0:0:0:0:
448,192,45810,1,8,0:0:0:0:
64,192,46050,1,0,0:0:0:0:
192,192,46170,1,0,0:0:0:0:
320,192,46290,1,0,0:0:0:0:
64,192,46530,1,2,0:0:0:0:
192,192,46770,1,2,0:0:0:0:
320,192,46770,1,8,0:0:0:0:
448,192,47010,1,0,0:0:0:0:
64,192,47250,1,2,0:0:0:0:
192,192,47490,1,0,0:0:0:0:
320,192,47730,1,2,0:0:0:0:
448,192,47730,1,8,0:0:0:0:
64,192,47970,1,0,0:0:0:0:
448,192,48210,1,2,0:0:0:0:
320,192,48450,1,0,0:0:0:0:
64,192,48690,1,2,0:0:0:0:
192,192,48690,1,8,0:0:0:0:
448,192,48930,1,0,0:0:0:0:
192,192,49170,1,2,0:0:0:0:
320,192,49410,1,0,0:0:0:0:
64,192,49650,1,2,0:0:0:0:
448,192,49650,1,8,0:0:0:0:
320,192,50130,1,2,0:0:0:0:
64,192,50370,1,0,0:0:0:0:
320,192,50610,1,2,0:0:0:0:
448,192,50610,1,8,0:0:0:0:
192,192,50850,1,0,0:0:0:0:
64,192,51090,1,2,0:0:0:0:
448,192,51330,1,0,0:0:0:0:
64,192,51570,1,2,0:0:0:0:
192,192,51570,1,8,0:0:0:0:
320,192,51810,1,0,0:0:0:0:
448,192,52050,1,2,0:0:0:0:
192,192,52530,1,2,0:0:0:0:
320,192,52530,1,8,0:0:0:0:
64,192,53010,1,2,0:0:0:0:
192,192,53250,1,8,0:0:0:0:
320,192,53250,1,0,0:0:0:0:
64,192,53490,1,2,0:0:0:0:
448,192,53490,1,8,0:0:0:0:
64,192,53970,1,2,0:0:0:0:
320,192,53970,1,4,0:0:0:0:
192,192,54210,1,0,0:0:0:0:
320,192,54450,1,2,0:0:0:0:
448,192,54450,1,8,0:0:0:0:
192,192,54570,1,0,0:0:0:0:
64,192,54690,1,0,0:0:0:0:
448,192,54930,128,2,55410:0:0:0:0:
192,192,55410,1,2,0:0:0:0:
320,192,55410,1,8,0:0:0:0:
64,192,55890,1,2,0:0:0:0:
448,192,56130,1,0,0:0:0:0:
64,192,56370,1,2,0:0:0:0:
192,192,56370,1,8,0:0:0:0:
448,192,56490,1,0,0:0:0:0:
320,192,56610,1,0,0:0:0:0:
192,192,56850,128,2,57330:0:0:0:0:
64,192,57330,1,2,0:0:0:0:
448,192,57330,1,8,0:0:0:0:
320,192,57810,128,2,58050:0:0:0:0:
64,192,58050,128,0,58290:0:0:0:0:
320,192,58290,1,2,0:0:0:0:
448,192,58290,1,8,0:0:0:0:
192,192,58410,1,0,0:0:0:0:
64,192,58530,1,0,0:0:0:0:
320,192,58770,1,2,0:0:0:0:
448,192,59010,1,0,0:0:0:0:
64,192,59250,1,2,0:0:0:0:
192,192,59250,1,8,0:0:0:0:
320,192,59490,1,0,0:0:0:0:
448,192,59730,128,2,60210:0:0:0:0:
64,192,60210,1,2,0:0:0:0:
320,192,60210,1,8,0:0:0:0:
192,192,60450,1,0,0:0:0:0:
448,192,60570,1,0,0:0:0:0:
64,192,60690,128,2,61170:0:0:0:0:
192,192,61170,1,2,0:0:0:0:
448,192,61170,1,8,0:0:0:0:
320,192,61410,1,0,0:0:0:0:
192,192,61530,1,0,0:0:0:0:
64,192,61650,1,2,0:0:0:0:
448,192,61890,1,0,0:0:0:0:
64,192,62130,1,2,0:0:0:0:
320,192,62130,1,8,0:0:0:0:
192,192,62370,1,0,0:0:0:0:
448,192,62610,1,2,0:0:0:0:
64,192,62850,1,0,0:0:0:0:
192,192,63090,1,2,0:0:0:0:
320,192,63090,1,8,0:0:0:0:
448,192,63330,1,0,0:0:0:0:
64,192,63570,128,2,64050:0:0:0:0:
192,192,64050,1,2,0:0:0:0:
448,192,64050,128,8,64530:0:0:0:0:
64,192,64530,128,2,65010:0:0:0:0:
192,192,65010,1,2,0:0:0:0:
448,192,65010,128,8,65490:0:0:0:0:
320,192,65490,1,2,0:0:0:0:
192,192,65730,1,0,0:0:0:0:
320,192,65970,1,2,0:0:0:0:
448,192,65970,1,8,0:0:0:0:
64,192,66210,1,0,0:0:0:0:
192,192,66450,1,2,0:0:0:0:
320,192,66690,1,0,0:0:0:0:
64,192,66930,1,2,0:0:0:0:
192,192,66930,1,8,0:0:0:0:
448,192,67170,1,0,0:0:0:0:
320,192,67410,128,2,67890:0:0:0:0:
64,192,67890,1,2,0:0:0:0:
448,192,67890,1,8,0:0:0:0:
192,192,68130,1,0,0:0:0:0:
320,192,68370,1,2,0:0:0:0:
64,192,68610,1,8,0:0:0:0:
448,192,68610,1,0,0:0:0:0:
192,192,68850,1,2,0:0:0:0:
320,192,68850,1,8,0:0:0:0:
64,192,69090,1,0,0:0:0:0:
192,192,69210,1,0,0:0:0:0:
320,192,69330,1,2,0:0:0:0:
64,192,69570,1,0,0:0:0:0:
192,192,69810,1,2,0:0:0:0:
320,192,69810,1,8,0:0:0:0:
448,192,70050,1,0,0:0:0:0:
64,192,70290,1,2,0:0:0:0:
320,192,70530,1,0,0:0:0:0:
64,192,70770,1,2,0:0:0:0:
448,192,70770,1,8,0:0:0:0:
192,192,71010,1,0,0:0:0:0:
320,192,71250,128,2,72210:0:0:0:0:
64,192,71490,1,8,0:0:0:0:
192,192,71730,1,8,0:0:0:0:
64,192,72690,1,2,0:0:0:0:
192,192,72850,1,2,0:0:0:0:
320,192,73010,1,2,0:0:0:0:
448,192,73170,128,2,74610:0:0:0:0:
64,192,74610,1,0,0:0:0:0:
320,192,74770,1,0,0:0:0:0:
192,192,74930,1,0,0:0:0:0:
64,192,75090,128,0,76050:0:0:0:0:
448,192,76050,1,0,0:0:0:0:
448,192,76770,1,0,0:0:0:0:
320,192,76890,1,0,0:0:0:0:
64,192,77010,1,2,0:0:0:0:
192,192,77010,1,4,0:0:0:0:
448,192,77250,1,0,0:0:0:0:
192,192,77490,1,0,0:0:0:0:
320,192,77730,1,0,0:0:0:0:
64,192,77970,1,0,0:0:0:65:snare 2.wav
448,192,78330,128,0,78690:0:0:0:0:
64,192,78690,1,0,0:0:0:0:
192,192,78810,1,0,0:0:0:0:
320,192,78930,1,0,0:0:0:0:
64,192,79170,1,2,0:0:0:0:
448,192,79410,1,0,0:0:0:0:
192,192,79650,1,2,0:0:0:0:
320,192,79890,1,0,0:0:0:65:snare 2.wav
64,192,80250,128,0,80610:0:0:0:0:
192,192,80610,1,0,0:0:0:0:
320,192,80850,1,4,0:0:0:0:
448,192,80850,1,0,0:0:0:0:
64,192,81090,1,2,0:0:0:0:
192,192,81330,1,0,0:0:0:0:
320,192,81570,1,0,0:0:0:0:
64,192,81810,1,0,0:0:0:65:snare 2.wav
448,192,82050,1,0,0:0:0:0:
320,192,82290,1,0,0:0:0:0:
192,192,82530,1,2,0:0:0:0:
448,192,82770,1,2,0:0:0:0:
64,192,83010,1,0,0:0:0:0:
320,192,83250,1,2,0:0:0:0:
192,192,83490,1,0,0:0:0:0:
64,192,83730,1,2,0:0:0:0:
320,192,83970,1,0,0:0:0:50:snareclap.wav
448,192,83970,1,0,0:0:0:0:
64,192,84210,128,0,84450:0:0:0:60:snareclap 2.wav
448,192,84450,128,0,84690:0:0:0:60:snareclap 2.wav
192,192,84690,1,4,0:0:0:0:
320,192,84690,1,0,0:0:0:85:clap.wav
192,192,85170,1,8,0:0:0:0:
448,192,85170,1,0,0:0:0:0:
64,192,85650,1,0,0:0:0:85:clap.wav
320,192,85650,1,0,0:0:0:0:
192,192,85890,1,0,0:0:0:0:
64,192,86010,1,0,0:0:0:85:clap.wav
448,192,86250,1,0,0:0:0:0:
320,192,86370,1,0,0:0:0:85:clap.wav
64,192,86490,1,0,0:0:0:0:
192,192,86610,1,0,0:0:0:85:clap.wav
448,192,86610,1,0,0:0:0:0:
64,192,87090,1,8,0:0:0:0:
320,192,87090,1,0,0:0:0:0:
64,192,87570,1,0,0:0:0:85:clap.wav
192,192,87570,128,0,87930:0:0:0:0:
320,192,87930,1,0,0:0:0:85:clap.wav
448,192,87930,128,0,88290:0:0:0:0:
64,192,88290,128,0,88530:0:0:0:85:clap.wav
320,192,88290,1,0,0:0:0:0:
192,192,88530,1,0,0:0:0:85:clap.wav
448,192,88530,1,0,0:0:0:0:
64,192,89010,1,8,0:0:0:0:
320,192,89010,1,0,0:0:0:0:
192,192,89490,1,0,0:0:0:85:clap.wav
448,192,89490,1,0,0:0:0:0:
320,192,89730,1,0,0:0:0:0:
448,192,89850,1,0,0:0:0:85:clap.wav
64,192,90090,1,0,0:0:0:0:
192,192,90210,1,0,0:0:0:85:clap.wav
448,192,90330,1,0,0:0:0:0:
64,192,90450,1,0,0:0:0:85:clap.wav
320,192,90450,1,0,0:0:0:0:
192,192,90690,1,0,0:0:0:0:
320,192,90930,1,8,0:0:0:0:
448,192,90930,1,0,0:0:0:0:
64,192,91170,1,0,0:0:0:0:
320,192,91410,1,0,0:0:0:85:clap.wav
448,192,91410,128,0,91770:0:0:0:0:
64,192,91770,1,0,0:0:0:85:clap.wav
192,192,91770,128,0,92130:0:0:0:0:
320,192,92130,128,8,92370:0:0:0:0:
64,192,92370,1,8,0:0:0:0:
192,192,92370,1,0,0:0:0:70:Ch.wav
448,192,92530,1,8,0:0:0:0:
192,192,92690,1,8,0:0:0:0:
320,192,92850,1,8,0:0:0:0:
64,192,93010,1,8,0:0:0:0:
320,192,93170,1,8,0:0:0:0:
192,192,93330,1,8,0:0:0:0:
448,192,93490,1,8,0:0:0:0:
192,192,93650,1,8,0:0:0:0:
320,192,93810,1,8,0:0:0:0:
64,192,93970,1,8,0:0:0:0:
320,192,94130,1,8,0:0:0:0:
192,192,94290,1,8,0:0:0:0:
192,192,94610,1,8,0:0:0:0:
320,192,94770,1,8,0:0:0:0:
320,192,95090,1,8,0:0:0:0:
192,192,95250,1,8,0:0:0:0:
192,192,95570,1,8,0:0:0:0:
320,192,95730,1,8,0:0:0:0:
64,192,96210,1,10,0:0:0:0:
192,192,96370,1,8,0:0:0:0:
64,192,96530,1,8,0:0:0:0:
448,192,96690,1,10,0:0:0:0:
320,192,96850,1,8,0:0:0:0:
448,192,97010,1,8,0:0:0:0:
192,192,97170,1,10,0:0:0:0:
64,192,97330,1,8,0:0:0:0:
192,192,97490,1,8,0:0:0:0:
320,192,97650,1,10,0:0:0:0:
448,192,97810,1,8,0:0:0:0:
320,192,97970,1,8,0:0:0:0:
64,192,98130,128,2,98290:0:0:0:0:
192,192,98290,128,0,98450:0:0:0:45:snare 2.wav
320,192,98450,128,0,98610:0:0:0:45:snare 2.wav
448,192,98610,128,0,98770:0:0:0:45:snare 2.wav
192,192,98770,128,0,98930:0:0:0:45:snare 2.wav
64,192,98930,128,0,99090:0:0:0:45:snare 2.wav
448,192,99090,1,0,0:0:0:0:
64,192,99570,1,2,0:0:0:0:
320,192,99570,1,0,0:0:0:60:snare.wav
64,192,100050,1,2,0:0:0:0:
448,192,100050,1,4,0:0:0:0:
192,192,100290,1,0,0:0:0:0:
320,192,100530,1,2,0:0:0:0:
448,192,100530,1,8,0:0:0:0:
192,192,100650,1,0,0:0:0:0:
64,192,100770,1,0,0:0:0:0:
320,192,101010,128,2,101490:0:0:0:0:
192,192,101490,1,2,0:0:0:0:
448,192,101490,1,8,0:0:0:0:
64,192,101970,1,2,0:0:0:0:
320,192,102210,1,0,0:0:0:0:
64,192,102450,1,2,0:0:0:0:
192,192,102450,1,8,0:0:0:0:
320,192,102570,1,0,0:0:0:0:
448,192,102690,1,0,0:0:0:0:
192,192,102930,128,2,103410:0:0:0:0:
64,192,103410,1,2,0:0:0:0:
320,192,103410,1,8,0:0:0:0:
448,192,103890,128,2,104130:0:0:0:0:
64,192,104130,128,0,104370:0:0:0:0:
320,192,104370,1,2,0:0:0:0:
448,192,104370,1,8,0:0:0:0:
192,192,104490,1,0,0:0:0:0:
64,192,104610,1,0,0:0:0:0:
448,192,104850,1,2,0:0:0:0:
320,192,105090,1,0,0:0:0:0:
64,192,105330,1,2,0:0:0:0:
192,192,105330,1,8,0:0:0:0:
448,192,105570,1,0,0:0:0:0:
320,192,105810,128,2,106290:0:0:0:0:
192,192,106290,1,2,0:0:0:0:
448,192,106290,1,8,0:0:0:0:
64,192,106530,1,0,0:0:0:0:
320,192,106650,1,0,0:0:0:0:
192,192,106770,128,2,107250:0:0:0:0:
64,192,107250,1,2,0:0:0:0:
320,192,107250,1,8,0:0:0:0:
448,192,107490,1,0,0:0:0:0:
320,192,107610,1,0,0:0:0:0:
192,192,107730,1,2,0:0:0:0:
448,192,107970,1,0,0:0:0:0:
192,192,108210,1,2,0:0:0:0:
320,192,108210,1,8,0:0:0:0:
64,192,108450,1,0,0:0:0:0:
448,192,108690,1,2,0:0:0:0:
192,192,108930,1,0,0:0:0:0:
64,192,109170,1,2,0:0:0:0:
320,192,109170,1,8,0:0:0:0:
448,192,109410,1,0,0:0:0:0:
192,192,109650,128,2,110130:0:0:0:0:
64,192,110130,128,2,110610:0:0:0:0:
448,192,110130,1,8,0:0:0:0:
320,192,110610,128,2,111090:0:0:0:0:
192,192,111090,1,2,0:0:0:0:
448,192,111090,128,8,111570:0:0:0:0:
320,192,111570,1,2,0:0:0:0:
192,192,111810,1,0,0:0:0:0:
320,192,112050,1,2,0:0:0:0:
448,192,112050,1,8,0:0:0:0:
64,192,112290,1,0,0:0:0:0:
192,192,112530,1,2,0:0:0:0:
448,192,112770,1,0,0:0:0:0:
64,192,113010,1,2,0:0:0:0:
192,192,113010,1,8,0:0:0:0:
320,192,113250,1,0,0:0:0:0:
448,192,113490,128,2,114450:0:0:0:0:
192,192,113970,1,10,0:0:0:0:
64,192,114450,1,2,0:0:0:0:
192,192,114690,1,8,0:0:0:0:
320,192,114690,1,0,0:0:0:0:
64,192,114930,1,2,0:0:0:0:
448,192,114930,1,8,0:0:0:0:
64,192,115410,128,2,117330:0:0:0:0:
320,192,115410,1,4,0:0:0:0:
192,192,117330,128,2,117810:0:0:0:0:
448,192,117810,128,8,118290:0:0:0:0:
320,192,118290,128,0,118770:0:0:0:0:
448,192,118770,1,10,0:0:0:0:
64,192,118930,1,2,0:0:0:0:
320,192,119090,1,2,0:0:0:0:
192,192,119250,128,2,121170:0:0:0:0:
64,192,121170,128,0,121650:0:0:0:0:
448,192,121650,128,8,122130:0:0:0:0:
320,192,122130,128,0,122610:0:0:0:0:
192,192,122610,128,8,123090:0:0:0:0:
64,192,123090,1,4,0:0:0:0:
448,192,123090,1,0,0:0:0:0:
64,192,124050,1,0,0:0:0:0:
448,192,124530,1,0,0:0:0:45:drumsnare.wav
64,192,124770,1,0,0:0:0:45:drumsnare.wav
192,192,125010,1,0,0:0:0:0:
192,192,125970,1,0,0:0:0:0:
64,192,126450,1,0,0:0:0:45:drumsnare.wav
448,192,126690,1,0,0:0:0:45:drumsnare.wav
320,192,126930,1,0,0:0:0:0:
448,192,127410,1,0,0:0:0:0:
320,192,127530,1,0,0:0:0:0:
192,192,127650,1,0,0:0:0:0:
64,192,127770,1,0,0:0:0:0:
448,192,127890,1,0,0:0:0:0:
320,192,128610,1,0,0:0:0:0:
64,192,128850,1,0,0:0:0:60:drumtom1.wav
448,192,129330,1,0,0:0:0:0:
320,192,129450,1,0,0:0:0:0:
192,192,129570,1,0,0:0:0:0:
64,192,129690,1,0,0:0:0:0:
448,192,129810,1,0,0:0:0:50:drumtom2.wav
192,192,130050,1,0,0:0:0:25:drumsnare.wav
448,192,130290,1,0,0:0:0:45:drumsnare.wav
64,192,130530,1,0,0:0:0:45:drumsnare.wav
320,192,130770,1,0,0:0:0:60:drumkick.wav
448,192,131730,1,0,0:0:0:0:
192,192,132690,1,0,0:0:0:60:drumkick.wav
448,192,133650,1,0,0:0:0:45:drumsnare.wav
320,192,134010,1,0,0:0:0:55:drumtom1.wav
192,192,134370,1,0,0:0:0:55:drumtom2.wav
64,192,134610,1,0,0:0:0:60:drumkick.wav
320,192,135570,1,0,0:0:0:55:drumtom2.wav
64,192,135930,1,0,0:0:0:45:drumsnare.wav
448,192,136290,1,0,0:0:0:45:drumsnare.wav
64,192,136530,1,0,0:0:0:60:drumkick.wav
192,192,136530,1,0,0:0:0:45:drumsnare.wav
448,192,136890,1,0,0:0:0:45:drumsnare.wav
320,192,137250,1,0,0:0:0:45:drumsnare.wav
64,192,137490,1,0,0:0:0:45:drumsnare.wav
192,192,137850,1,0,0:0:0:25:drumsnare.wav
448,192,137970,128,0,138210:0:0:0:35:drumsnare.wav
192,192,138210,128,0,138450:0:0:0:55:drumsnare.wav
64,192,138450,1,2,0:0:0:0:
320,192,138610,1,0,0:0:0:32:drumsnare.wav
64,192,138770,1,0,0:0:0:32:drumsnare.wav
448,192,138930,1,10,0:0:0:0:
192,192,139090,1,0,0:0:0:32:drumsnare.wav
448,192,139250,1,0,0:0:0:32:drumsnare.wav
64,192,139410,1,2,0:0:0:0:
320,192,139570,1,0,0:0:0:32:drumsnare.wav
64,192,139730,1,0,0:0:0:32:drumsnare.wav
448,192,139890,1,10,0:0:0:0:
192,192,140050,1,0,0:0:0:32:drumsnare.wav
448,192,140210,1,0,0:0:0:32:drumsnare.wav
192,192,140370,1,2,0:0:0:0:
320,192,140530,1,0,0:0:0:32:drumsnare.wav
64,192,140690,1,0,0:0:0:32:drumsnare.wav
320,192,140850,1,10,0:0:0:0:
192,192,141010,1,0,0:0:0:32:drumsnare.wav
448,192,141170,1,0,0:0:0:32:drumsnare.wav
192,192,141330,1,2,0:0:0:0:
320,192,141490,1,0,0:0:0:32:drumsnare.wav
64,192,141650,1,0,0:0:0:32:drumsnare.wav
320,192,141810,1,10,0:0:0:0:
192,192,141970,1,0,0:0:0:32:drumsnare.wav
448,192,142130,1,0,0:0:0:32:drumsnare.wav
64,192,142290,1,2,0:0:0:0:
192,192,142450,1,2,0:0:0:0:
320,192,142610,1,2,0:0:0:0:
448,192,142770,1,10,0:0:0:0:
320,192,142930,1,2,0:0:0:0:
192,192,143090,1,2,0:0:0:0:
64,192,143250,1,2,0:0:0:0:
192,192,143410,1,2,0:0:0:0:
320,192,143570,1,2,0:0:0:0:
448,192,143730,1,10,0:0:0:0:
320,192,143890,1,2,0:0:0:0:
192,192,144050,1,2,0:0:0:0:
64,192,144210,1,2,0:0:0:0:
448,192,144210,128,4,145170:0:0:0:0:
320,192,145170,128,0,146130:0:0:0:0:
64,192,146130,1,0,0:0:0:0:
192,192,146370,1,0,0:0:0:0:
448,192,146730,1,0,0:0:0:0:
64,192,147090,1,0,0:0:0:0:
192,192,147570,1,8,0:0:0:0:
320,192,148050,1,0,0:0:0:0:
448,192,148290,1,0,0:0:0:0:
64,192,148650,1,0,0:0:0:0:
320,192,149010,1,0,0:0:0:0:
448,192,149490,1,8,0:0:0:0:
192,192,149970,1,0,0:0:0:0:
64,192,150210,1,0,0:0:0:0:
448,192,150570,1,0,0:0:0:0:
192,192,150930,1,0,0:0:0:0:
320,192,151170,1,0,0:0:0:0:
64,192,151530,1,0,0:0:0:0:
448,192,151890,1,0,0:0:0:0:
320,192,152130,1,0,0:0:0:0:
64,192,152490,1,0,0:0:0:0:
448,192,152850,1,0,0:0:0:0:
192,192,153330,128,8,153570:0:0:0:0:
448,192,153570,128,0,153810:0:0:0:0:
64,192,153810,1,0,0:0:0:80:clap.wav
320,192,153810,1,0,0:0:0:0:
192,192,154290,1,8,0:0:0:0:
320,192,154290,1,0,0:0:0:0:
192,192,154770,1,0,0:0:0:80:clap.wav
448,192,154770,1,0,0:0:0:0:
64,192,155250,1,8,0:0:0:0:
448,192,155250,1,0,0:0:0:0:
64,192,155730,1,0,0:0:0:80:clap.wav
320,192,155730,1,0,0:0:0:0:
192,192,156210,1,8,0:0:0:0:
320,192,156210,1,0,0:0:0:0:
192,192,156690,1,0,0:0:0:80:clap.wav
448,192,156690,1,0,0:0:0:0:
64,192,157170,1,8,0:0:0:0:
320,192,157170,1,0,0:0:0:0:
192,192,157410,1,8,0:0:0:0:
448,192,157410,1,0,0:0:0:0:
64,192,157650,1,0,0:0:0:80:clap.wav
320,192,157650,1,0,0:0:0:0:
192,192,158130,1,8,0:0:0:0:
320,192,158130,1,0,0:0:0:0:
192,192,158610,1,0,0:0:0:70:clap.wav
448,192,158610,1,0,0:0:0:0:
64,192,159090,1,0,0:0:0:70:clap.wav
448,192,159090,1,0,0:0:0:0:
64,192,159570,1,0,0:0:0:70:clap.wav
320,192,159570,1,0,0:0:0:0:
320,192,160050,1,0,0:0:0:0:
64,192,160290,1,0,0:0:0:25:drumsnare.wav
448,192,160530,1,0,0:0:0:35:drumsnare.wav
64,192,160770,1,8,0:0:0:0:
320,192,160770,1,0,0:0:0:0:
192,192,161010,1,8,0:0:0:0:
448,192,161010,1,0,0:0:0:0:
192,192,161490,1,2,0:0:0:0:
320,192,161490,1,4,0:0:0:0:
64,192,161730,1,0,0:0:0:0:
320,192,161970,1,2,0:0:0:0:
448,192,161970,1,8,0:0:0:0:
64,192,162090,1,0,0:0:0:0:
192,192,162210,1,0,0:0:0:0:
448,192,162450,128,2,162930:0:0:0:0:
64,192,162930,1,2,0:0:0:0:
320,192,162930,1,8,0:0:0:0:
192,192,163410,1,2,0:0:0:0:
320,192,163650,1,0,0:0:0:0:
64,192,163890,1,2,0:0:0:0:
192,192,163890,1,8,0:0:0:0:
320,192,164010,1,0,0:0:0:0:
448,192,164130,1,0,0:0:0:0:
64,192,164370,128,2,164850:0:0:0:0:
192,192,164850,1,2,0:0:0:0:
320,192,164850,1,8,0:0:0:0:
448,192,165330,128,2,165570:0:0:0:0:
192,192,165570,128,0,165810:0:0:0:0:
320,192,165810,1,2,0:0:0:0:
448,192,165810,1,8,0:0:0:0:
64,192,165930,1,0,0:0:0:0:
192,192,166050,1,0,0:0:0:0:
320,192,166290,1,2,0:0:0:0:
448,192,166530,1,0,0:0:0:0:
64,192,166770,1,2,0:0:0:0:
192,192,166770,1,8,0:0:0:0:
320,192,167010,1,0,0:0:0:0:
448,192,167250,128,2,167730:0:0:0:0:
64,192,167730,1,2,0:0:0:0:
320,192,167730,1,8,0:0:0:0:
192,192,167970,1,0,0:0:0:0:
320,192,168090,1,0,0:0:0:0:
64,192,168210,128,2,168690:0:0:0:0:
192,192,168690,1,2,0:0:0:0:
448,192,168690,1,8,0:0:0:0:
320,192,168930,1,0,0:0:0:0:
192,192,169050,1,0,0:0:0:0:
64,192,169170,1,2,0:0:0:0:
448,192,169410,1,0,0:0:0:0:
192,192,169650,1,2,0:0:0:0:
320,192,169650,1,8,0:0:0:0:
64,192,169890,1,0,0:0:0:0:
448,192,170130,1,2,0:0:0:0:
192,192,170370,1,0,0:0:0:0:
64,192,170610,1,2,0:0:0:0:
320,192,170610,1,8,0:0:0:0:
448,192,170850,1,0,0:0:0:0:
192,192,171090,128,2,171570:0:0:0:0:
64,192,171570,1,2,0:0:0:0:
320,192,171570,128,8,172050:0:0:0:0:
192,192,172050,128,2,172530:0:0:0:0:
64,192,172530,1,2,0:0:0:0:
320,192,172530,128,8,173010:0:0:0:0:
192,192,173010,1,2,0:0:0:0:
448,192,173250,1,0,0:0:0:0:
64,192,173490,1,2,0:0:0:0:
192,192,173490,1,8,0:0:0:0:
320,192,173730,1,0,0:0:0:0:
448,192,173970,1,2,0:0:0:0:
64,192,174210,1,0,0:0:0:0:
320,192,174450,1,2,0:0:0:0:
448,192,174450,1,8,0:0:0:0:
192,192,174690,1,0,0:0:0:0:
64,192,174930,128,2,175410:0:0:0:0:
192,192,175410,1,2,0:0:0:0:
320,192,175410,1,8,0:0:0:0:
448,192,175650,1,0,0:0:0:0:
64,192,175890,1,2,0:0:0:0:
192,192,176130,1,8,0:0:0:0:
320,192,176130,1,0,0:0:0:0:
64,192,176370,1,2,0:0:0:0:
448,192,176370,1,8,0:0:0:0:
320,192,176610,1,0,0:0:0:0:
192,192,176730,1,0,0:0:0:0:
64,192,176850,1,2,0:0:0:0:
320,192,177090,1,0,0:0:0:0:
64,192,177330,1,2,0:0:0:0:
448,192,177330,1,8,0:0:0:0:
192,192,177570,1,0,0:0:0:0:
320,192,177810,1,2,0:0:0:0:
64,192,178050,1,0,0:0:0:0:
192,192,178290,1,2,0:0:0:0:
320,192,178290,1,8,0:0:0:0:
448,192,178530,1,0,0:0:0:0:
64,192,178770,128,2,179730:0:0:0:0:
320,192,179010,1,8,0:0:0:0:
448,192,179250,1,8,0:0:0:0:
448,192,180210,1,2,0:0:0:0:
320,192,180370,1,2,0:0:0:0:
192,192,180530,1,2,0:0:0:0:
64,192,180690,128,2,182610:0:0:0:0:
448,192,182610,1,0,0:0:0:0:
