osu file format v14

[General]
AudioFilename: audio.mp3
AudioLeadIn: 0
PreviewTime: 37170
Countdown: 0
SampleSet: Soft
StackLeniency: 0.7
Mode: 3
LetterboxInBreaks: 0
SpecialStyle: 0
WidescreenStoryboard: 1

[Editor]
DistanceSpacing: 2.3
BeatDivisor: 6
GridSize: 32
TimelineZoom: 1

[Metadata]
Title:Nakayoshi! Maru! Nakayoshi! (Kirara Magic Bootleg Remix)
TitleUnicode:なかよし!○!なかよし! (Kirara Magic Bootleg Remix)
Artist:Chimame-tai
ArtistUnicode:チマメ隊
Creator:Ainer
Version:Hard
Source:ご注文はうさぎですか? BLOOM
Tags:Al-Reina cryochan Kanon Matsubara gochiusa ごちうさ Gochuumon wa Usagi desu ka? Is The Order a Rabbit? Chimame Tai Kafuu Chino 香風智乃 Jouga Maya 條河麻耶 Natsu Megumi 奈津惠 Minase Inori 水瀬いのり Tokui Sora 徳井青空 Murakawa Rie 村川梨衣 Anime s3 season 3 ed ending theme japanese EDM electronic dance music house 大隅知宇 Tomotaka Osumi 畑亜貴 Aki Hata GNCA-0622 NBC Universal Entertainment Japan
BeatmapID:2847009
BeatmapSetID:1377568

[Difficulty]
HPDrainRate:7.5
CircleSize:4
OverallDifficulty:7.5
ApproachRate:5
SliderMultiplier:1.4
SliderTickRate:1

[Events]
//Background and Video events
0,0,"gochiusa chimame 2.jpg",0,0
//Break Periods
//Storyboard Layer 0 (Background)
//Storyboard Layer 1 (Fail)
//Storyboard Layer 2 (Pass)
//Storyboard Layer 3 (Foreground)
//Storyboard Layer 4 (Overlay)
//Storyboard Sound Samples

[TimingPoints]
210,480.0,4,2,1,75,1,0
7890,-100.0,4,2,1,65,0,0
15570,-100.0,4,2,1,70,0,0
38610,-100.0,4,2,1,85,0,1
71250,-100.0,4,2,1,70,0,0
77010,-100.0,4,2,1,65,0,0
84690,-100.0,4,2,1,70,0,0
92370,-100.0,4,2,1,75,0,0
100050,-100.0,4,2,1,85,0,1
115410,-100.0,4,2,1,75,0,0
123090,-100.0,4,2,1,55,0,0
138450,-100.0,4,2,1,75,0,0
146130,-100.0,4,2,1,50,0,0
153810,-100.0,4,2,1,60,0,0
161490,-100.0,4,2,1,85,0,1
178770,-100.0,4,2,1,75,0,0

[HitObjects]
320,192,210,1,2,0:0:0:0:
448,192,210,1,0,0:0:0:80:Ch.wav
192,192,450,1,0,0:0:0:0:
320,192,570,1,0,0:0:0:0:
64,192,690,1,8,0:0:0:0:
448,192,690,1,0,0:0:0:0:
192,192,810,1,0,0:0:0:0:
320,192,930,1,0,0:0:0:0:
64,192,1170,1,0,0:0:0:0:
320,192,1410,1,0,0:0:0:0:
192,192,1530,1,0,0:0:0:0:
64,192,1650,1,8,0:0:0:0:
448,192,1650,1,0,0:0:0:0:
320,192,1770,1,0,0:0:0:0:
64,192,1890,1,2,0:0:0:0:
192,192,1890,1,0,0:0:0:0:
320,192,2010,1,0,0:0:0:0:
192,192,2130,1,2,0:0:0:0:
448,192,2130,1,0,0:0:0:0:
320,192,2370,1,0,0:0:0:0:
192,192,2490,1,0,0:0:0:0:
64,192,2610,1,8,0:0:0:0:
448,192,2610,1,0,0:0:0:0:
320,192,2730,1,0,0:0:0:0:
192,192,2850,1,0,0:0:0:0:
64,192,2970,1,0,0:0:0:0:
448,192,3090,1,0,0:0:0:0:
320,192,3210,1,0,0:0:0:0:
64,192,3330,1,0,0:0:0:0:
192,192,3450,1,0,0:0:0:0:
320,192,3570,1,8,0:0:0:0:
448,192,3570,1,0,0:0:0:0:
192,192,3690,1,0,0:0:0:0:
64,192,3810,1,2,0:0:0:0:
320,192,3810,1,0,0:0:0:0:
448,192,3930,1,0,0:0:0:0:
64,192,4050,1,2,0:0:0:0:
192,192,4050,1,0,0:0:0:0:
448,192,4290,1,0,0:0:0:0:
320,192,4410,1,0,0:0:0:0:
64,192,4530,1,8,0:0:0:0:
192,192,4530,1,0,0:0:0:0:
448,192,4770,1,0,0:0:0:0:
64,192,5250,1,0,0:0:0:0:
192,192,5370,1,0,0:0:0:0:
320,192,5490,1,8,0:0:0:0:
448,192,5490,1,0,0:0:0:0:
192,192,5730,1,0,0:0:0:0:
64,192,5850,1,0,0:0:0:0:
320,192,6090,1,2,0:0:0:0:
448,192,6090,1,0,0:0:0:0:
64,192,6450,1,2,0:0:0:0:
448,192,6450,1,8,0:0:0:0:
64,192,6810,128,2,7410:0:0:0:0:
192,192,6810,1,0,0:0:0:0:
320,192,7410,1,0,0:0:0:60:snare.wav
448,192,7410,1,0,0:0:0:0:
192,192,7650,1,0,0:0:0:0:
320,192,7770,1,0,0:0:0:0:
64,192,7890,1,2,0:0:0:0:
448,192,7890,128,4,8130:0:0:0:0:
192,192,8130,1,0,0:0:0:0:
448,192,8370,1,8,0:0:0:0:
64,192,8610,128,2,8850:0:0:0:0:
320,192,8610,1,0,0:0:0:0:
192,192,8850,1,2,0:0:0:0:
448,192,8850,128,0,9090:0:0:0:0:
320,192,9090,1,0,0:0:0:0:
64,192,9330,1,8,0:0:0:0:
320,192,9570,1,0,0:0:0:0:
192,192,9690,1,0,0:0:0:0:
64,192,9810,128,2,10050:0:0:0:0:
448,192,9810,1,0,0:0:0:0:
320,192,10050,1,0,0:0:0:0:
64,192,10290,1,8,0:0:0:0:
192,192,10530,1,2,0:0:0:0:
448,192,10530,128,0,10770:0:0:0:0:
64,192,10770,128,2,11010:0:0:0:0:
320,192,10770,1,0,0:0:0:0:
192,192,11010,1,0,0:0:0:0:
448,192,11250,1,8,0:0:0:0:
64,192,11490,1,0,0:0:0:0:
320,192,11610,1,0,0:0:0:0:
192,192,11730,128,2,11970:0:0:0:0:
448,192,11730,1,0,0:0:0:0:
64,192,11970,1,0,0:0:0:0:
448,192,12210,1,8,0:0:0:0:
64,192,12450,1,2,0:0:0:0:
320,192,12450,128,0,12690:0:0:0:0:
192,192,12690,128,0,12930:0:0:0:0:
320,192,12930,1,2,0:0:0:0:
448,192,12930,1,0,0:0:0:0:
192,192,13170,128,8,13410:0:0:0:0:
320,192,13410,1,0,0:0:0:0:
64,192,13650,1,2,0:0:0:0:
448,192,13650,128,0,13890:0:0:0:0:
192,192,13890,1,0,0:0:0:0:
320,192,14130,128,8,14370:0:0:0:0:
64,192,14370,1,2,0:0:0:0:
448,192,14370,1,0,0:0:0:0:
192,192,14610,128,2,14850:0:0:0:0:
320,192,14610,1,0,0:0:0:0:
448,192,14850,1,0,0:0:0:0:
64,192,15090,1,8,0:0:0:0:
192,192,15090,1,0,0:0:0:60:snare.wav
320,192,15330,1,0,0:0:0:0:
192,192,15450,1,0,0:0:0:0:
64,192,15570,1,2,0:0:0:0:
448,192,15570,1,4,0:0:0:0:
448,192,15810,1,0,0:0:0:0:
64,192,16050,1,8,0:0:0:0:
192,192,16050,1,0,0:0:0:50:snare.wav
320,192,16170,1,0,0:0:0:0:
64,192,16290,1,0,0:0:0:0:
320,192,16530,1,2,0:0:0:0:
448,192,16530,128,0,16770:0:0:0:0:
192,192,16770,1,0,0:0:0:0:
320,192,16890,1,0,0:0:0:0:
64,192,17010,1,8,0:0:0:0:
448,192,17010,1,0,0:0:0:50:snare.wav
192,192,17250,1,0,0:0:0:0:
320,192,17370,1,2,0:0:0:0:
448,192,17370,1,0,0:0:0:0:
64,192,17490,1,0,0:0:0:0:
64,192,17730,1,2,0:0:0:0:
192,192,17730,1,0,0:0:0:0:
320,192,17970,1,8,0:0:0:0:
448,192,17970,1,0,0:0:0:50:snare.wav
192,192,18090,1,0,0:0:0:0:
448,192,18210,1,0,0:0:0:0:
64,192,18450,128,2,18690:0:0:0:0:
192,192,18450,1,0,0:0:0:0:
320,192,18690,1,0,0:0:0:0:
192,192,18810,1,0,0:0:0:0:
64,192,18930,1,8,0:0:0:0:
448,192,18930,1,0,0:0:0:50:snare.wav
320,192,19170,1,0,0:0:0:0:
320,192,19410,1,2,0:0:0:0:
448,192,19410,1,0,0:0:0:0:
64,192,19650,1,0,0:0:0:0:
320,192,19770,1,0,0:0:0:0:
64,192,19890,1,8,0:0:0:0:
192,192,19890,1,0,0:0:0:50:snare.wav
192,192,20130,1,2,0:0:0:0:
448,192,20130,1,0,0:0:0:0:
320,192,20370,1,2,0:0:0:0:
448,192,20370,1,0,0:0:0:0:
320,192,20610,1,0,0:0:0:0:
64,192,20730,1,0,0:0:0:0:
192,192,20850,1,8,0:0:0:0:
448,192,20850,1,0,0:0:0:50:snare.wav
192,192,21090,1,0,0:0:0:0:
64,192,21330,1,2,0:0:0:0:
320,192,21330,1,0,0:0:0:0:
64,192,21570,1,0,0:0:0:0:
320,192,21810,1,8,0:0:0:0:
448,192,21810,1,0,0:0:0:50:snare.wav
448,192,22050,1,0,0:0:0:0:
64,192,22290,1,2,0:0:0:0:
192,192,22290,128,0,22530:0:0:0:0:
448,192,22770,128,0,22890:0:0:0:0:
320,192,22890,128,0,23010:0:0:0:0:
192,192,23010,128,0,23130:0:0:0:0:
64,192,23130,128,0,23250:0:0:0:0:
320,192,23250,1,4,0:0:0:0:
448,192,23250,1,0,0:0:0:85:clap.wav
192,192,23490,1,0,0:0:0:0:
64,192,23730,1,8,0:0:0:0:
448,192,23730,1,0,0:0:0:0:
320,192,23970,1,0,0:0:0:0:
64,192,24210,128,0,24450:0:0:0:85:clap.wav
192,192,24210,1,0,0:0:0:0:
320,192,24450,1,0,0:0:0:0:
192,192,24570,1,0,0:0:0:85:clap.wav
448,192,24570,128,0,24810:0:0:0:0:
64,192,24690,1,8,0:0:0:0:
320,192,24930,1,0,0:0:0:85:clap.wav
448,192,25050,1,0,0:0:0:0:
64,192,25170,1,0,0:0:0:85:clap.wav
192,192,25170,1,0,0:0:0:0:
320,192,25410,1,0,0:0:0:0:
64,192,25650,1,8,0:0:0:0:
448,192,25650,1,0,0:0:0:0:
192,192,25890,1,0,0:0:0:0:
320,192,26130,1,0,0:0:0:85:clap.wav
448,192,26130,128,0,26370:0:0:0:0:
192,192,26370,1,0,0:0:0:0:
64,192,26490,128,0,26850:0:0:0:85:clap.wav
320,192,26490,1,0,0:0:0:0:
448,192,26610,1,8,0:0:0:0:
320,192,26850,1,0,0:0:0:85:clap.wav
192,192,26970,1,0,0:0:0:0:
320,192,27090,1,0,0:0:0:85:clap.wav
448,192,27090,1,0,0:0:0:0:
192,192,27330,1,0,0:0:0:0:
64,192,27570,1,8,0:0:0:0:
448,192,27570,1,0,0:0:0:0:
320,192,27810,1,0,0:0:0:0:
64,192,28050,128,0,28290:0:0:0:85:clap.wav
192,192,28050,1,0,0:0:0:0:
320,192,28290,1,0,0:0:0:0:
192,192,28410,1,0,0:0:0:85:clap.wav
448,192,28410,128,0,28650:0:0:0:0:
320,192,28770,1,0,0:0:0:85:clap.wav
448,192,28890,1,0,0:0:0:0:
64,192,29010,1,0,0:0:0:85:clap.wav
192,192,29010,1,0,0:0:0:0:
320,192,29250,1,0,0:0:0:0:
64,192,29490,1,8,0:0:0:0:
448,192,29490,1,0,0:0:0:0:
192,192,29730,1,0,0:0:0:0:
320,192,29970,1,0,0:0:0:85:clap.wav
448,192,29970,128,0,30210:0:0:0:0:
192,192,30210,1,0,0:0:0:0:
64,192,30330,128,0,30690:0:0:0:85:clap.wav
320,192,30330,1,0,0:0:0:0:
448,192,30450,1,8,0:0:0:0:
320,192,30690,1,8,0:0:0:0:
192,192,30810,1,0,0:0:0:0:
320,192,30930,1,8,0:0:0:0:
448,192,30930,1,0,0:0:0:70:Ch.wav
64,192,31090,1,8,0:0:0:0:
192,192,31250,1,8,0:0:0:0:
320,192,31410,1,8,0:0:0:0:
448,192,31410,1,0,0:0:0:0:
192,192,31570,1,8,0:0:0:0:
320,192,31730,1,8,0:0:0:0:
64,192,31890,1,8,0:0:0:0:
192,192,31890,1,0,0:0:0:0:
448,192,32050,1,8,0:0:0:0:
320,192,32210,1,8,0:0:0:0:
64,192,32370,1,8,0:0:0:0:
192,192,32370,1,0,0:0:0:0:
320,192,32530,1,8,0:0:0:0:
192,192,32690,1,8,0:0:0:0:
64,192,32850,1,8,0:0:0:0:
448,192,32850,128,0,33330:0:0:0:0:
320,192,33170,1,8,0:0:0:0:
64,192,33330,1,8,0:0:0:0:
192,192,33330,128,0,33810:0:0:0:0:
320,192,33650,1,8,0:0:0:0:
64,192,33810,128,8,34290:0:0:0:0:
448,192,33810,1,0,0:0:0:0:
192,192,34130,1,8,0:0:0:0:
320,192,34290,128,8,34770:0:0:0:0:
448,192,34290,1,0,0:0:0:0:
192,192,34610,1,0,0:0:0:0:
64,192,34770,1,2,0:0:0:0:
448,192,34770,1,8,0:0:0:0:
320,192,34930,1,8,0:0:0:0:
192,192,35090,1,8,0:0:0:0:
320,192,35250,1,2,0:0:0:0:
448,192,35250,1,8,0:0:0:0:
192,192,35410,1,8,0:0:0:0:
320,192,35570,1,8,0:0:0:0:
64,192,35730,1,2,0:0:0:0:
448,192,35730,1,8,0:0:0:0:
192,192,35890,1,8,0:0:0:0:
320,192,36050,1,8,0:0:0:0:
64,192,36210,1,2,0:0:0:0:
192,192,36210,1,8,0:0:0:0:
320,192,36370,1,8,0:0:0:0:
192,192,36530,1,8,0:0:0:0:
64,192,36690,1,2,0:0:0:0:
448,192,36690,1,0,0:0:0:45:snare 2.wav
320,192,36770,1,0,0:0:0:45:snare 2.wav
192,192,36850,1,0,0:0:0:45:snare 2.wav
448,192,36930,1,0,0:0:0:45:snare 2.wav
320,192,37010,1,0,0:0:0:45:snare 2.wav
64,192,37090,1,0,0:0:0:45:snare 2.wav
192,192,37170,1,0,0:0:0:45:snare 2.wav
320,192,37250,1,0,0:0:0:45:snare 2.wav
64,192,37330,1,0,0:0:0:45:snare 2.wav
192,192,37410,1,0,0:0:0:45:snare 2.wav
448,192,37490,1,0,0:0:0:45:snare 2.wav
320,192,37570,1,0,0:0:0:45:snare 2.wav
192,192,37650,1,0,0:0:0:0:
64,192,37890,1,0,0:0:0:0:
192,192,38130,1,2,0:0:0:0:
320,192,38130,1,0,0:0:0:60:snare.wav
448,192,38130,1,0,0:0:0:0:
64,192,38610,1,2,0:0:0:0:
192,192,38610,1,4,0:0:0:0:
448,192,38610,1,0,0:0:0:0:
320,192,38730,1,0,0:0:0:0:
64,192,38850,1,0,0:0:0:0:
192,192,38970,1,0,0:0:0:0:
320,192,39090,1,2,0:0:0:0:
448,192,39090,1,8,0:0:0:0:
64,192,39210,1,0,0:0:0:0:
448,192,39330,1,0,0:0:0:0:
64,192,39570,128,2,40050:0:0:0:0:
192,192,39570,1,0,0:0:0:0:
320,192,40050,1,2,0:0:0:0:
448,192,40050,128,8,40530:0:0:0:0:
64,192,40530,1,2,0:0:0:0:
192,192,40530,1,0,0:0:0:0:
320,192,40650,1,0,0:0:0:0:
192,192,40770,1,0,0:0:0:0:
64,192,40890,1,0,0:0:0:0:
320,192,41010,1,2,0:0:0:0:
448,192,41010,1,8,0:0:0:0:
192,192,41130,1,0,0:0:0:0:
320,192,41250,1,0,0:0:0:0:
64,192,41490,1,2,0:0:0:0:
192,192,41490,128,0,41970:0:0:0:0:
320,192,41970,128,2,42210:0:0:0:0:
448,192,41970,1,8,0:0:0:0:
64,192,42210,1,0,0:0:0:0:
192,192,42330,1,0,0:0:0:0:
320,192,42450,1,2,0:0:0:0:
448,192,42450,1,0,0:0:0:0:
64,192,42570,1,0,0:0:0:0:
448,192,42690,1,0,0:0:0:0:
320,192,42810,1,0,0:0:0:0:
64,192,42930,1,2,0:0:0:0:
192,192,42930,1,8,0:0:0:0:
448,192,43050,1,0,0:0:0:0:
64,192,43170,1,0,0:0:0:0:
192,192,43290,1,0,0:0:0:0:
320,192,43410,128,2,43650:0:0:0:0:
448,192,43410,1,0,0:0:0:0:
64,192,43650,128,0,43890:0:0:0:0:
192,192,43890,1,2,0:0:0:0:
448,192,43890,128,8,44130:0:0:0:0:
320,192,44130,128,0,44370:0:0:0:0:
64,192,44370,1,2,0:0:0:0:
192,192,44370,128,0,44850:0:0:0:0:
320,192,44610,1,0,0:0:0:0:
64,192,44850,1,2,0:0:0:0:
448,192,44850,1,8,0:0:0:0:
192,192,45090,1,0,0:0:0:0:
64,192,45210,1,0,0:0:0:0:
320,192,45330,1,2,0:0:0:0:
448,192,45330,128,0,45570:0:0:0:0:
192,192,45690,1,0,0:0:0:0:
64,192,45810,1,2,0:0:0:0:
448,192,45810,1,8,0:0:0:0:
320,192,46050,128,0,46170:0:0:0:0:
448,192,46170,128,0,46290:0:0:0:0:
192,192,46290,1,0,0:0:0:0:
192,192,46530,1,2,0:0:0:0:
320,192,46650,1,0,0:0:0:0:
64,192,46770,1,2,0:0:0:0:
448,192,46770,1,8,0:0:0:0:
192,192,46890,1,0,0:0:0:0:
448,192,47010,1,0,0:0:0:0:
320,192,47130,1,0,0:0:0:0:
64,192,47250,1,2,0:0:0:0:
192,192,47250,1,0,0:0:0:0:
320,192,47490,1,0,0:0:0:0:
192,192,47610,1,0,0:0:0:0:
64,192,47730,1,2,0:0:0:0:
448,192,47730,1,8,0:0:0:0:
320,192,47850,1,0,0:0:0:0:
64,192,47970,1,0,0:0:0:0:
192,192,48090,1,0,0:0:0:0:
320,192,48210,1,2,0:0:0:0:
448,192,48210,1,0,0:0:0:0:
448,192,48450,1,0,0:0:0:0:
192,192,48570,1,0,0:0:0:0:
64,192,48690,1,2,0:0:0:0:
320,192,48690,1,8,0:0:0:0:
320,192,48930,1,0,0:0:0:0:
64,192,49170,1,2,0:0:0:0:
192,192,49170,1,0,0:0:0:0:
64,192,49410,1,0,0:0:0:0:
320,192,49530,1,0,0:0:0:0:
192,192,49650,1,2,0:0:0:0:
448,192,49650,1,8,0:0:0:0:
192,192,49890,1,0,0:0:0:0:
320,192,50130,128,2,50370:0:0:0:0:
448,192,50130,1,0,0:0:0:0:
192,192,50370,128,0,50610:0:0:0:0:
64,192,50610,1,2,0:0:0:0:
448,192,50610,128,8,50850:0:0:0:0:
320,192,50850,128,0,51090:0:0:0:0:
64,192,51090,128,2,51330:0:0:0:0:
192,192,51090,1,0,0:0:0:0:
448,192,51330,128,0,51570:0:0:0:0:
192,192,51570,128,2,51810:0:0:0:0:
320,192,51570,1,8,0:0:0:0:
64,192,51810,128,0,52050:0:0:0:0:
320,192,52050,128,2,52290:0:0:0:0:
448,192,52050,1,0,0:0:0:0:
192,192,52290,1,0,0:0:0:0:
64,192,52530,128,2,52770:0:0:0:0:
320,192,52530,1,8,0:0:0:0:
448,192,52770,1,0,0:0:0:0:
64,192,53010,1,2,0:0:0:0:
192,192,53010,128,0,53250:0:0:0:0:
320,192,53250,128,8,53490:0:0:0:0:
448,192,53250,1,0,0:0:0:0:
64,192,53490,128,2,53730:0:0:0:0:
192,192,53490,1,8,0:0:0:0:
320,192,53730,1,0,0:0:0:0:
320,192,53970,1,2,0:0:0:0:
448,192,53970,1,4,0:0:0:0:
192,192,54090,1,0,0:0:0:0:
448,192,54210,1,0,0:0:0:0:
320,192,54330,1,0,0:0:0:0:
64,192,54450,1,2,0:0:0:0:
192,192,54450,1,8,0:0:0:0:
448,192,54570,1,0,0:0:0:0:
64,192,54690,1,0,0:0:0:0:
320,192,54930,1,2,0:0:0:0:
448,192,54930,128,0,55410:0:0:0:0:
64,192,55170,1,0,0:0:0:0:
64,192,55410,128,2,55650:0:0:0:0:
192,192,55410,1,8,0:0:0:0:
448,192,55650,1,0,0:0:0:0:
320,192,55890,1,2,0:0:0:0:
448,192,55890,1,0,0:0:0:0:
192,192,56010,1,0,0:0:0:0:
320,192,56130,1,0,0:0:0:0:
448,192,56250,1,0,0:0:0:0:
64,192,56370,1,2,0:0:0:0:
192,192,56370,1,8,0:0:0:0:
320,192,56490,1,0,0:0:0:0:
192,192,56610,1,0,0:0:0:0:
320,192,56850,128,2,57330:0:0:0:0:
448,192,56850,1,0,0:0:0:0:
192,192,57090,1,0,0:0:0:0:
64,192,57330,1,2,0:0:0:0:
192,192,57330,128,8,57570:0:0:0:0:
320,192,57570,1,0,0:0:0:0:
64,192,57810,1,2,0:0:0:0:
192,192,57810,1,0,0:0:0:0:
448,192,57930,1,0,0:0:0:0:
64,192,58050,1,0,0:0:0:0:
192,192,58170,1,0,0:0:0:0:
320,192,58290,1,2,0:0:0:0:
448,192,58290,1,8,0:0:0:0:
64,192,58410,1,0,0:0:0:0:
448,192,58530,1,0,0:0:0:0:
64,192,58770,1,2,0:0:0:0:
192,192,58770,128,0,59010:0:0:0:0:
448,192,59010,128,0,59250:0:0:0:0:
64,192,59250,128,2,59490:0:0:0:0:
320,192,59250,1,8,0:0:0:0:
192,192,59490,128,0,59730:0:0:0:0:
320,192,59730,128,2,60210:0:0:0:0:
448,192,59730,1,0,0:0:0:0:
192,192,59970,1,0,0:0:0:0:
64,192,60210,1,2,0:0:0:0:
448,192,60210,1,8,0:0:0:0:
320,192,60450,1,0,0:0:0:0:
448,192,60570,1,0,0:0:0:0:
64,192,60690,128,2,60930:0:0:0:0:
192,192,60690,1,0,0:0:0:0:
320,192,61050,1,0,0:0:0:0:
64,192,61170,1,2,0:0:0:0:
448,192,61170,1,8,0:0:0:0:
192,192,61410,128,0,61530:0:0:0:0:
64,192,61530,128,0,61650:0:0:0:0:
320,192,61650,1,2,0:0:0:0:
448,192,61650,128,0,61890:0:0:0:0:
64,192,61890,128,0,62130:0:0:0:0:
192,192,62130,128,2,62370:0:0:0:0:
448,192,62130,1,8,0:0:0:0:
320,192,62370,1,0,0:0:0:0:
448,192,62490,1,0,0:0:0:0:
64,192,62610,128,2,62850:0:0:0:0:
192,192,62610,1,0,0:0:0:0:
448,192,62850,128,0,63090:0:0:0:0:
64,192,63090,1,2,0:0:0:0:
320,192,63090,128,8,63330:0:0:0:0:
192,192,63330,1,0,0:0:0:0:
64,192,63450,1,0,0:0:0:0:
320,192,63570,1,2,0:0:0:0:
448,192,63570,128,0,63810:0:0:0:0:
192,192,63930,1,0,0:0:0:0:
64,192,64050,1,2,0:0:0:0:
320,192,64050,1,8,0:0:0:0:
448,192,64290,1,0,0:0:0:0:
64,192,64530,128,2,64770:0:0:0:0:
192,192,64530,1,0,0:0:0:0:
320,192,64770,1,0,0:0:0:0:
192,192,65010,1,2,0:0:0:0:
448,192,65010,1,8,0:0:0:0:
64,192,65250,1,0,0:0:0:0:
192,192,65370,1,0,0:0:0:0:
320,192,65490,128,2,65730:0:0:0:0:
448,192,65490,1,0,0:0:0:0:
64,192,65730,128,0,65970:0:0:0:0:
192,192,65970,128,2,66210:0:0:0:0:
448,192,65970,1,8,0:0:0:0:
320,192,66210,1,0,0:0:0:0:
448,192,66330,1,0,0:0:0:0:
64,192,66450,1,2,0:0:0:0:
192,192,66450,128,0,66690:0:0:0:0:
448,192,66690,128,0,66930:0:0:0:0:
192,192,66930,1,2,0:0:0:0:
320,192,66930,128,8,67170:0:0:0:0:
64,192,67170,128,0,67410:0:0:0:0:
320,192,67410,1,2,0:0:0:0:
448,192,67410,128,0,67650:0:0:0:0:
192,192,67650,1,0,0:0:0:0:
64,192,67890,1,2,0:0:0:0:
320,192,67890,128,8,68130:0:0:0:0:
448,192,68130,128,0,68370:0:0:0:0:
64,192,68370,128,2,68610:0:0:0:0:
192,192,68370,1,0,0:0:0:0:
320,192,68610,1,8,0:0:0:0:
448,192,68610,1,0,0:0:0:0:
64,192,68850,1,2,0:0:0:0:
448,192,68850,1,8,0:0:0:0:
192,192,69090,1,0,0:0:0:0:
64,192,69210,1,0,0:0:0:0:
320,192,69330,1,2,0:0:0:0:
448,192,69330,128,0,69570:0:0:0:0:
64,192,69570,128,0,69810:0:0:0:0:
192,192,69810,128,2,70050:0:0:0:0:
448,192,69810,1,8,0:0:0:0:
320,192,70050,1,0,0:0:0:0:
448,192,70170,1,0,0:0:0:0:
64,192,70290,128,2,70530:0:0:0:0:
192,192,70290,1,0,0:0:0:0:
448,192,70530,128,0,70770:0:0:0:0:
64,192,70770,1,2,0:0:0:0:
320,192,70770,128,8,71010:0:0:0:0:
192,192,71010,128,0,71250:0:0:0:0:
320,192,71250,128,2,72210:0:0:0:0:
448,192,71250,1,0,0:0:0:0:
64,192,71490,1,8,0:0:0:0:
64,192,71730,1,8,0:0:0:0:
192,192,72210,1,0,0:0:0:0:
64,192,72690,1,2,0:0:0:0:
192,192,72690,1,0,0:0:0:0:
320,192,72850,1,2,0:0:0:0:
448,192,72850,1,0,0:0:0:0:
64,192,73010,1,2,0:0:0:0:
192,192,73010,1,0,0:0:0:0:
320,192,73170,1,2,0:0:0:0:
448,192,73170,128,0,74610:0:0:0:0:
320,192,74610,1,0,0:0:0:0:
192,192,74770,1,0,0:0:0:0:
64,192,74930,1,0,0:0:0:0:
192,192,75090,128,0,76050:0:0:0:0:
320,192,76050,128,0,76530:0:0:0:0:
448,192,76770,1,0,0:0:0:0:
320,192,76890,1,0,0:0:0:0:
64,192,77010,1,2,0:0:0:0:
192,192,77010,128,4,77250:0:0:0:0:
448,192,77250,128,0,77490:0:0:0:0:
64,192,77490,1,0,0:0:0:0:
192,192,77610,1,0,0:0:0:0:
320,192,77730,128,0,77970:0:0:0:0:
64,192,77970,128,0,78210:0:0:0:65:snare 2.wav
448,192,77970,1,0,0:0:0:0:
320,192,78210,1,2,0:0:0:0:
448,192,78210,1,0,0:0:0:0:
192,192,78330,1,0,0:0:0:0:
64,192,78450,1,2,0:0:0:0:
320,192,78450,1,0,0:0:0:0:
192,192,78690,1,0,0:0:0:0:
320,192,78810,1,0,0:0:0:0:
448,192,78930,128,0,79170:0:0:0:0:
64,192,79170,1,2,0:0:0:0:
192,192,79170,128,0,79410:0:0:0:0:
320,192,79410,1,0,0:0:0:0:
448,192,79530,1,0,0:0:0:0:
64,192,79650,1,2,0:0:0:0:
192,192,79650,1,0,0:0:0:0:
320,192,79770,1,0,0:0:0:0:
64,192,79890,128,0,80130:0:0:0:65:snare 2.wav
448,192,79890,1,0,0:0:0:0:
320,192,80130,1,2,0:0:0:0:
448,192,80130,1,0,0:0:0:0:
192,192,80250,1,0,0:0:0:0:
64,192,80370,1,2,0:0:0:0:
320,192,80370,1,0,0:0:0:0:
448,192,80610,128,0,80850:0:0:0:0:
64,192,80850,128,4,81090:0:0:0:0:
192,192,81090,1,2,0:0:0:0:
320,192,81090,1,0,0:0:0:0:
448,192,81210,1,0,0:0:0:0:
192,192,81330,128,0,81570:0:0:0:0:
320,192,81570,128,0,81810:0:0:0:0:
64,192,81810,128,0,82050:0:0:0:65:snare 2.wav
448,192,81810,1,0,0:0:0:0:
192,192,82050,1,0,0:0:0:0:
448,192,82170,1,0,0:0:0:0:
320,192,82290,128,0,82530:0:0:0:0:
64,192,82530,1,2,0:0:0:0:
192,192,82530,1,0,0:0:0:0:
320,192,82770,1,2,0:0:0:0:
448,192,82770,128,0,83010:0:0:0:0:
192,192,83010,1,0,0:0:0:0:
320,192,83130,1,0,0:0:0:0:
64,192,83250,128,2,83490:0:0:0:0:
192,192,83250,1,0,0:0:0:0:
320,192,83490,1,0,0:0:0:0:
192,192,83610,1,0,0:0:0:0:
320,192,83730,128,2,83970:0:0:0:0:
448,192,83730,1,0,0:0:0:0:
64,192,83970,1,0,0:0:0:50:snareclap.wav
192,192,83970,1,0,0:0:0:0:
448,192,84210,128,0,84330:0:0:0:60:snareclap 2.wav
320,192,84330,1,0,0:0:0:60:snareclap 2.wav
64,192,84450,128,0,84570:0:0:0:60:snareclap 2.wav
192,192,84570,1,0,0:0:0:60:snareclap 2.wav
320,192,84690,1,4,0:0:0:0:
448,192,84690,1,0,0:0:0:85:clap.wav
64,192,84930,1,0,0:0:0:0:
192,192,85170,1,8,0:0:0:0:
320,192,85170,1,0,0:0:0:0:
448,192,85410,1,0,0:0:0:0:
64,192,85650,1,0,0:0:0:85:clap.wav
192,192,85650,128,0,85890:0:0:0:0:
448,192,85890,1,0,0:0:0:0:
64,192,86010,1,0,0:0:0:85:clap.wav
320,192,86010,128,0,86250:0:0:0:0:
192,192,86130,1,8,0:0:0:0:
448,192,86370,1,0,0:0:0:85:clap.wav
320,192,86490,1,0,0:0:0:0:
64,192,86610,1,0,0:0:0:85:clap.wav
192,192,86610,1,0,0:0:0:0:
448,192,86850,1,0,0:0:0:0:
192,192,87090,1,8,0:0:0:0:
320,192,87090,1,0,0:0:0:0:
64,192,87330,1,0,0:0:0:0:
320,192,87570,128,0,87810:0:0:0:85:clap.wav
448,192,87570,1,0,0:0:0:0:
64,192,87810,1,0,0:0:0:0:
192,192,87930,128,0,88170:0:0:0:85:clap.wav
448,192,87930,1,0,0:0:0:0:
320,192,88050,1,8,0:0:0:0:
448,192,88290,1,0,0:0:0:85:clap.wav
64,192,88410,1,0,0:0:0:0:
320,192,88530,1,0,0:0:0:85:clap.wav
448,192,88530,1,0,0:0:0:0:
64,192,88770,1,0,0:0:0:0:
192,192,89010,1,8,0:0:0:0:
320,192,89010,1,0,0:0:0:0:
448,192,89250,1,0,0:0:0:0:
64,192,89490,1,0,0:0:0:85:clap.wav
192,192,89490,128,0,89730:0:0:0:0:
448,192,89730,1,0,0:0:0:0:
64,192,89850,1,0,0:0:0:85:clap.wav
320,192,89850,128,0,90090:0:0:0:0:
192,192,89970,1,8,0:0:0:0:
448,192,90210,1,0,0:0:0:85:clap.wav
320,192,90330,1,0,0:0:0:0:
64,192,90450,1,0,0:0:0:85:clap.wav
192,192,90450,1,0,0:0:0:0:
448,192,90690,1,0,0:0:0:0:
192,192,90930,1,8,0:0:0:0:
320,192,90930,1,0,0:0:0:0:
64,192,91170,1,0,0:0:0:0:
320,192,91410,128,0,91650:0:0:0:85:clap.wav
448,192,91410,1,0,0:0:0:0:
64,192,91650,1,0,0:0:0:0:
192,192,91770,128,0,92010:0:0:0:85:clap.wav
448,192,91770,1,0,0:0:0:0:
320,192,91890,1,8,0:0:0:0:
448,192,92130,1,8,0:0:0:0:
64,192,92250,1,0,0:0:0:0:
320,192,92370,1,8,0:0:0:0:
448,192,92370,1,0,0:0:0:70:Ch.wav
192,192,92530,1,8,0:0:0:0:
320,192,92690,1,8,0:0:0:0:
64,192,92850,1,8,0:0:0:0:
448,192,92850,1,0,0:0:0:0:
192,192,93010,1,8,0:0:0:0:
320,192,93170,1,8,0:0:0:0:
64,192,93330,1,8,0:0:0:0:
192,192,93330,1,0,0:0:0:0:
320,192,93490,1,8,0:0:0:0:
192,192,93650,1,8,0:0:0:0:
64,192,93810,1,8,0:0:0:0:
448,192,93810,1,0,0:0:0:0:
320,192,93970,1,8,0:0:0:0:
192,192,94130,1,8,0:0:0:0:
320,192,94290,1,8,0:0:0:0:
448,192,94290,128,0,94770:0:0:0:0:
192,192,94610,1,8,0:0:0:0:
64,192,94770,1,8,0:0:0:0:
320,192,94770,128,0,95250:0:0:0:0:
448,192,95090,1,8,0:0:0:0:
64,192,95250,128,8,95730:0:0:0:0:
192,192,95250,1,0,0:0:0:0:
320,192,95570,1,8,0:0:0:0:
192,192,95730,128,8,96210:0:0:0:0:
448,192,95730,1,0,0:0:0:0:
64,192,96050,1,0,0:0:0:0:
320,192,96210,1,2,0:0:0:0:
448,192,96210,1,8,0:0:0:0:
64,192,96370,1,8,0:0:0:0:
448,192,96530,1,8,0:0:0:0:
64,192,96690,1,2,0:0:0:0:
192,192,96690,1,8,0:0:0:0:
448,192,96850,1,8,0:0:0:0:
64,192,97010,1,8,0:0:0:0:
320,192,97170,1,2,0:0:0:0:
448,192,97170,1,8,0:0:0:0:
192,192,97330,1,8,0:0:0:0:
320,192,97490,1,8,0:0:0:0:
64,192,97650,1,2,0:0:0:0:
192,192,97650,1,8,0:0:0:0:
320,192,97810,1,8,0:0:0:0:
192,192,97970,1,8,0:0:0:0:
64,192,98130,1,2,0:0:0:0:
448,192,98130,1,0,0:0:0:45:snare 2.wav
320,192,98210,1,0,0:0:0:45:snare 2.wav
192,192,98290,1,0,0:0:0:45:snare 2.wav
448,192,98370,1,0,0:0:0:45:snare 2.wav
320,192,98450,1,0,0:0:0:45:snare 2.wav
64,192,98530,1,0,0:0:0:45:snare 2.wav
192,192,98610,1,0,0:0:0:45:snare 2.wav
320,192,98690,1,0,0:0:0:45:snare 2.wav
64,192,98770,1,0,0:0:0:45:snare 2.wav
192,192,98850,1,0,0:0:0:45:snare 2.wav
448,192,98930,1,0,0:0:0:45:snare 2.wav
320,192,99010,1,0,0:0:0:45:snare 2.wav
192,192,99090,1,0,0:0:0:0:
64,192,99330,1,0,0:0:0:0:
192,192,99570,1,2,0:0:0:0:
320,192,99570,1,0,0:0:0:60:snare.wav
448,192,99570,1,0,0:0:0:0:
64,192,100050,1,2,0:0:0:0:
192,192,100050,1,4,0:0:0:0:
320,192,100050,1,0,0:0:0:0:
448,192,100170,1,0,0:0:0:0:
64,192,100290,1,0,0:0:0:0:
192,192,100410,1,0,0:0:0:0:
320,192,100530,1,2,0:0:0:0:
448,192,100530,1,8,0:0:0:0:
64,192,100650,1,0,0:0:0:0:
320,192,100770,1,0,0:0:0:0:
64,192,101010,128,2,101490:0:0:0:0:
192,192,101010,1,0,0:0:0:0:
448,192,101250,1,0,0:0:0:0:
320,192,101490,1,2,0:0:0:0:
448,192,101490,128,8,101730:0:0:0:0:
64,192,101730,1,0,0:0:0:0:
64,192,101970,1,2,0:0:0:0:
192,192,101970,1,0,0:0:0:0:
320,192,102090,1,0,0:0:0:0:
192,192,102210,1,0,0:0:0:0:
64,192,102330,1,0,0:0:0:0:
320,192,102450,1,2,0:0:0:0:
448,192,102450,1,8,0:0:0:0:
192,192,102570,1,0,0:0:0:0:
448,192,102690,1,0,0:0:0:0:
64,192,102930,1,2,0:0:0:0:
192,192,102930,128,0,103410:0:0:0:0:
320,192,103170,1,0,0:0:0:0:
320,192,103410,128,2,103650:0:0:0:0:
448,192,103410,1,8,0:0:0:0:
192,192,103650,1,0,0:0:0:0:
64,192,103890,1,2,0:0:0:0:
192,192,103890,1,0,0:0:0:0:
448,192,104010,1,0,0:0:0:0:
64,192,104130,1,0,0:0:0:0:
192,192,104250,1,0,0:0:0:0:
320,192,104370,1,2,0:0:0:0:
448,192,104370,1,8,0:0:0:0:
64,192,104490,1,0,0:0:0:0:
320,192,104610,1,0,0:0:0:0:
64,192,104850,1,2,0:0:0:0:
192,192,104850,128,0,105090:0:0:0:0:
448,192,105090,128,0,105330:0:0:0:0:
64,192,105330,128,2,105570:0:0:0:0:
320,192,105330,1,8,0:0:0:0:
192,192,105570,128,0,105810:0:0:0:0:
320,192,105810,128,2,106290:0:0:0:0:
448,192,105810,1,0,0:0:0:0:
192,192,106050,1,0,0:0:0:0:
64,192,106290,1,2,0:0:0:0:
448,192,106290,1,8,0:0:0:0:
320,192,106530,1,0,0:0:0:0:
448,192,106650,1,0,0:0:0:0:
64,192,106770,128,2,107010:0:0:0:0:
192,192,106770,1,0,0:0:0:0:
320,192,107130,1,0,0:0:0:0:
64,192,107250,1,2,0:0:0:0:
448,192,107250,1,8,0:0:0:0:
192,192,107490,128,0,107610:0:0:0:0:
64,192,107610,128,0,107730:0:0:0:0:
320,192,107730,128,2,107970:0:0:0:0:
448,192,107730,1,0,0:0:0:0:
64,192,107970,1,0,0:0:0:0:
192,192,107970,128,0,108210:0:0:0:0:
320,192,108210,1,2,0:0:0:0:
448,192,108210,128,8,108450:0:0:0:0:
192,192,108450,1,0,0:0:0:0:
320,192,108570,1,0,0:0:0:0:
64,192,108690,1,2,0:0:0:0:
192,192,108690,128,0,108930:0:0:0:0:
448,192,108930,128,0,109170:0:0:0:0:
64,192,109170,128,2,109410:0:0:0:0:
192,192,109170,1,8,0:0:0:0:
320,192,109410,1,0,0:0:0:0:
192,192,109530,1,0,0:0:0:0:
320,192,109650,128,2,109890:0:0:0:0:
448,192,109650,1,0,0:0:0:0:
192,192,110010,1,0,0:0:0:0:
64,192,110130,1,2,0:0:0:0:
448,192,110130,1,8,0:0:0:0:
320,192,110370,1,0,0:0:0:0:
64,192,110610,128,2,110850:0:0:0:0:
192,192,110610,1,0,0:0:0:0:
448,192,110850,1,0,0:0:0:0:
64,192,111090,1,2,0:0:0:0:
320,192,111090,1,8,0:0:0:0:
192,192,111330,1,0,0:0:0:0:
64,192,111450,1,0,0:0:0:0:
320,192,111570,128,2,111810:0:0:0:0:
448,192,111570,1,0,0:0:0:0:
192,192,111810,128,0,112050:0:0:0:0:
64,192,112050,128,2,112290:0:0:0:0:
448,192,112050,1,8,0:0:0:0:
320,192,112290,1,0,0:0:0:0:
448,192,112410,1,0,0:0:0:0:
64,192,112530,1,2,0:0:0:0:
192,192,112530,128,0,112770:0:0:0:0:
320,192,112770,128,0,113010:0:0:0:0:
64,192,113010,1,2,0:0:0:0:
448,192,113010,128,8,113250:0:0:0:0:
192,192,113250,128,0,113490:0:0:0:0:
320,192,113490,128,2,114450:0:0:0:0:
448,192,113490,1,0,0:0:0:0:
448,192,113730,1,0,0:0:0:0:
64,192,113970,1,2,0:0:0:0:
192,192,113970,1,8,0:0:0:0:
64,192,114210,1,0,0:0:0:0:
192,192,114450,1,2,0:0:0:0:
448,192,114450,1,0,0:0:0:0:
64,192,114690,1,8,0:0:0:0:
448,192,114690,1,0,0:0:0:0:
64,192,114930,1,2,0:0:0:0:
320,192,114930,1,8,0:0:0:0:
192,192,115090,1,0,0:0:0:0:
320,192,115250,1,0,0:0:0:0:
64,192,115410,1,2,0:0:0:0:
448,192,115410,128,4,117330:0:0:0:0:
192,192,115890,1,8,0:0:0:0:
192,192,116850,1,8,0:0:0:0:
64,192,117330,1,2,0:0:0:0:
192,192,117330,128,0,117810:0:0:0:0:
320,192,117570,1,8,0:0:0:0:
320,192,117810,128,8,118290:0:0:0:0:
64,192,118290,128,0,118770:0:0:0:0:
320,192,118770,1,2,0:0:0:0:
448,192,118770,1,8,0:0:0:0:
64,192,118930,1,2,0:0:0:0:
192,192,118930,1,0,0:0:0:0:
320,192,119090,1,2,0:0:0:0:
448,192,119090,1,0,0:0:0:0:
64,192,119250,1,2,0:0:0:0:
192,192,119250,128,0,121170:0:0:0:0:
320,192,119490,1,0,0:0:0:0:
448,192,119730,1,8,0:0:0:0:
320,192,119970,1,0,0:0:0:0:
64,192,120210,1,0,0:0:0:0:
320,192,120450,1,0,0:0:0:0:
448,192,120690,1,8,0:0:0:0:
320,192,120930,1,0,0:0:0:0:
64,192,121170,128,0,121650:0:0:0:0:
320,192,121650,1,8,0:0:0:0:
448,192,121650,128,0,122130:0:0:0:0:
192,192,122130,128,0,122610:0:0:0:0:
64,192,122610,1,8,0:0:0:0:
320,192,122610,128,0,123090:0:0:0:0:
64,192,123090,128,4,123570:0:0:0:0:
448,192,123090,1,0,0:0:0:0:
192,192,123810,1,0,0:0:0:0:
64,192,123930,1,0,0:0:0:0:
320,192,124050,1,0,0:0:0:0:
448,192,124050,128,0,124530:0:0:0:0:
64,192,124530,1,0,0:0:0:45:drumsnare.wav
192,192,124530,1,0,0:0:0:0:
192,192,124770,1,0,0:0:0:45:drumsnare.wav
320,192,125010,128,0,125490:0:0:0:0:
448,192,125010,1,0,0:0:0:0:
448,192,125730,1,0,0:0:0:0:
320,192,125850,1,0,0:0:0:0:
64,192,125970,1,0,0:0:0:0:
192,192,125970,128,0,126450:0:0:0:0:
64,192,126370,1,0,0:0:0:25:drumsnare.wav
320,192,126450,1,0,0:0:0:45:drumsnare.wav
448,192,126450,1,0,0:0:0:0:
448,192,126690,1,0,0:0:0:45:drumsnare.wav
64,192,126930,128,0,127650:0:0:0:0:
192,192,126930,1,0,0:0:0:0:
320,192,127650,128,0,127770:0:0:0:0:
192,192,127770,128,0,127890:0:0:0:0:
64,192,127890,1,0,0:0:0:0:
448,192,127890,128,0,128130:0:0:0:0:
192,192,128130,128,0,128370:0:0:0:0:
320,192,128370,128,0,128610:0:0:0:0:
64,192,128610,128,0,128850:0:0:0:0:
320,192,128850,1,0,0:0:0:60:drumtom1.wav
448,192,128850,128,0,129570:0:0:0:0:
320,192,129570,128,0,129690:0:0:0:0:
192,192,129690,128,0,129810:0:0:0:0:
64,192,129810,128,0,130050:0:0:0:50:drumtom2.wav
448,192,130050,1,0,0:0:0:25:drumsnare.wav
320,192,130210,1,0,0:0:0:35:drumsnare.wav
64,192,130290,1,0,0:0:0:45:drumsnare.wav
192,192,130290,1,0,0:0:0:0:
192,192,130530,1,0,0:0:0:45:drumsnare.wav
320,192,130770,1,0,0:0:0:60:drumkick.wav
448,192,130770,128,0,131130:0:0:0:60:drumcrash.wav
64,192,131130,128,0,131490:0:0:0:0:
320,192,131490,128,0,131730:0:0:0:0:
64,192,131730,1,0,0:0:0:0:
192,192,131730,128,0,132090:0:0:0:0:
448,192,132090,128,0,132450:0:0:0:0:
64,192,132450,128,0,132690:0:0:0:0:
320,192,132690,128,0,133050:0:0:0:60:drumkick.wav
448,192,132690,1,0,0:0:0:0:
192,192,133050,128,0,133410:0:0:0:0:
448,192,133410,128,0,133650:0:0:0:0:
64,192,133650,128,0,134010:0:0:0:45:drumsnare.wav
192,192,133650,1,0,0:0:0:0:
320,192,134010,128,0,134370:0:0:0:55:drumtom1.wav
192,192,134370,128,0,134610:0:0:0:55:drumtom2.wav
320,192,134610,1,0,0:0:0:60:drumkick.wav
448,192,134610,128,0,134970:0:0:0:85:drumcrash.wav
64,192,134970,128,0,135330:0:0:0:0:
320,192,135330,128,0,135570:0:0:0:0:
64,192,135570,128,0,135930:0:0:0:55:drumtom2.wav
192,192,135570,1,0,0:0:0:0:
320,192,135930,1,0,0:0:0:45:drumsnare.wav
448,192,135930,128,0,136290:0:0:0:0:
64,192,136290,1,0,0:0:0:45:drumsnare.wav
192,192,136290,128,0,136530:0:0:0:0:
320,192,136530,128,0,136890:0:0:0:60:drumkick.wav
448,192,136530,1,0,0:0:0:45:drumsnare.wav
64,192,136890,128,0,137250:0:0:0:45:drumsnare.wav
192,192,136890,1,0,0:0:0:0:
320,192,137250,1,0,0:0:0:45:drumsnare.wav
448,192,137250,128,0,137490:0:0:0:0:
64,192,137490,1,0,0:0:0:45:drumsnare.wav
192,192,137490,128,0,137850:0:0:0:0:
448,192,137850,1,0,0:0:0:25:drumsnare.wav
64,192,137970,1,0,0:0:0:35:drumsnare.wav
320,192,138090,1,0,0:0:0:45:drumsnare.wav
192,192,138210,1,0,0:0:0:55:drumsnare.wav
448,192,138330,1,0,0:0:0:65:drumsnare.wav
64,192,138450,1,2,0:0:0:0:
192,192,138450,1,0,0:0:0:0:
320,192,138610,1,0,0:0:0:32:drumsnare.wav
192,192,138770,1,0,0:0:0:32:drumsnare.wav
64,192,138930,1,10,0:0:0:0:
448,192,138930,1,0,0:0:0:32:drumsnare.wav
320,192,139090,1,0,0:0:0:32:drumsnare.wav
192,192,139250,1,0,0:0:0:32:drumsnare.wav
320,192,139410,1,2,0:0:0:0:
448,192,139410,1,0,0:0:0:32:drumsnare.wav
192,192,139570,1,0,0:0:0:32:drumsnare.wav
320,192,139730,1,0,0:0:0:32:drumsnare.wav
64,192,139890,1,10,0:0:0:0:
448,192,139890,1,0,0:0:0:32:drumsnare.wav
192,192,140050,1,0,0:0:0:32:drumsnare.wav
320,192,140210,1,0,0:0:0:32:drumsnare.wav
64,192,140370,1,2,0:0:0:0:
192,192,140370,1,0,0:0:0:32:drumsnare.wav
320,192,140530,1,0,0:0:0:32:drumsnare.wav
192,192,140690,1,0,0:0:0:32:drumsnare.wav
64,192,140850,1,10,0:0:0:0:
320,192,140850,1,0,0:0:0:32:drumsnare.wav
448,192,141010,1,0,0:0:0:32:drumsnare.wav
192,192,141170,1,0,0:0:0:32:drumsnare.wav
320,192,141330,1,2,0:0:0:0:
448,192,141330,1,0,0:0:0:32:drumsnare.wav
192,192,141490,1,0,0:0:0:32:drumsnare.wav
320,192,141650,1,0,0:0:0:32:drumsnare.wav
192,192,141810,1,10,0:0:0:0:
448,192,141810,1,0,0:0:0:32:drumsnare.wav
64,192,141970,1,0,0:0:0:32:drumsnare.wav
320,192,142130,1,0,0:0:0:32:drumsnare.wav
64,192,142290,1,2,0:0:0:0:
192,192,142290,1,0,0:0:0:0:
64,192,142450,1,2,0:0:0:0:
64,192,142610,1,2,0:0:0:0:
320,192,142770,1,2,0:0:0:0:
448,192,142770,1,8,0:0:0:0:
448,192,142930,1,2,0:0:0:0:
448,192,143090,1,2,0:0:0:0:
64,192,143250,1,2,0:0:0:0:
192,192,143250,1,0,0:0:0:0:
192,192,143410,1,2,0:0:0:0:
192,192,143570,1,2,0:0:0:0:
320,192,143730,1,2,0:0:0:0:
448,192,143730,1,8,0:0:0:0:
320,192,143890,1,2,0:0:0:0:
320,192,144050,1,2,0:0:0:0:
64,192,144210,128,2,145170:0:0:0:0:
192,192,144210,1,4,0:0:0:0:
448,192,145170,128,0,146130:0:0:0:0:
64,192,146130,1,0,0:0:0:0:
64,192,146370,1,0,0:0:0:0:
320,192,146610,1,8,0:0:0:0:
448,192,146610,1,0,0:0:0:0:
192,192,146730,1,0,0:0:0:0:
64,192,147090,1,0,0:0:0:0:
64,192,147570,1,8,0:0:0:0:
448,192,147570,1,0,0:0:0:0:
320,192,147810,1,0,0:0:0:0:
448,192,148050,1,0,0:0:0:0:
448,192,148290,1,0,0:0:0:0:
64,192,148530,1,8,0:0:0:0:
192,192,148530,1,0,0:0:0:0:
320,192,148650,1,0,0:0:0:0:
448,192,149010,1,0,0:0:0:0:
64,192,149490,1,8,0:0:0:0:
448,192,149490,1,0,0:0:0:0:
320,192,149730,1,0,0:0:0:0:
192,192,149970,1,0,0:0:0:0:
192,192,150210,1,0,0:0:0:0:
320,192,150450,1,8,0:0:0:0:
448,192,150450,1,0,0:0:0:0:
64,192,150570,1,0,0:0:0:0:
320,192,150930,1,0,0:0:0:0:
320,192,151170,1,0,0:0:0:0:
64,192,151410,1,8,0:0:0:0:
192,192,151410,1,0,0:0:0:0:
448,192,151530,1,0,0:0:0:0:
64,192,151890,1,0,0:0:0:0:
64,192,152130,1,0,0:0:0:0:
320,192,152370,1,8,0:0:0:0:
448,192,152370,1,0,0:0:0:0:
192,192,152490,1,0,0:0:0:0:
448,192,152850,1,0,0:0:0:0:
448,192,153210,1,0,0:0:0:0:
64,192,153330,128,8,153450:0:0:0:0:
192,192,153450,128,0,153570:0:0:0:0:
448,192,153570,128,0,153690:0:0:0:0:
320,192,153690,128,0,153810:0:0:0:0:
64,192,153810,1,0,0:0:0:80:clap.wav
192,192,153810,128,0,154050:0:0:0:0:
448,192,154050,128,0,154290:0:0:0:0:
64,192,154290,128,8,154530:0:0:0:0:
320,192,154290,1,0,0:0:0:0:
192,192,154530,128,0,154770:0:0:0:0:
320,192,154770,128,0,155010:0:0:0:80:clap.wav
448,192,154770,1,0,0:0:0:0:
64,192,155010,128,0,155250:0:0:0:0:
192,192,155250,1,8,0:0:0:0:
448,192,155250,128,0,155490:0:0:0:0:
320,192,155490,128,0,155730:0:0:0:0:
64,192,155730,1,0,0:0:0:80:clap.wav
192,192,155730,128,0,155970:0:0:0:0:
448,192,155970,128,0,156210:0:0:0:0:
64,192,156210,128,8,156450:0:0:0:0:
320,192,156210,1,0,0:0:0:0:
192,192,156450,128,0,156690:0:0:0:0:
320,192,156690,128,0,156930:0:0:0:80:clap.wav
448,192,156690,1,0,0:0:0:0:
64,192,156930,128,0,157170:0:0:0:0:
192,192,157170,1,8,0:0:0:0:
448,192,157170,128,0,157410:0:0:0:0:
64,192,157410,1,8,0:0:0:0:
320,192,157410,1,0,0:0:0:0:
64,192,157650,128,0,157890:0:0:0:80:clap.wav
192,192,157650,1,0,0:0:0:0:
320,192,157890,128,0,158130:0:0:0:0:
192,192,158130,128,8,158370:0:0:0:0:
448,192,158130,1,0,0:0:0:0:
64,192,158370,128,0,158610:0:0:0:0:
320,192,158610,1,0,0:0:0:70:clap.wav
448,192,158610,128,0,158850:0:0:0:0:
192,192,158850,128,0,159090:0:0:0:0:
64,192,159090,1,0,0:0:0:70:clap.wav
320,192,159090,128,0,159330:0:0:0:0:
448,192,159330,128,0,159570:0:0:0:0:
64,192,159570,128,0,159810:0:0:0:70:clap.wav
192,192,159570,1,0,0:0:0:0:
448,192,159810,1,0,0:0:0:0:
320,192,160050,128,0,160290:0:0:0:0:
192,192,160290,1,0,0:0:0:25:drumsnare.wav
64,192,160530,1,0,0:0:0:35:drumsnare.wav
192,192,160530,128,0,160770:0:0:0:0:
320,192,160770,1,8,0:0:0:0:
448,192,160770,1,0,0:0:0:0:
320,192,161010,1,8,0:0:0:0:
448,192,161010,1,0,0:0:0:0:
64,192,161490,1,2,0:0:0:0:
192,192,161490,1,4,0:0:0:0:
448,192,161490,1,0,0:0:0:0:
320,192,161610,1,0,0:0:0:0:
64,192,161730,1,0,0:0:0:0:
192,192,161850,1,0,0:0:0:0:
320,192,161970,1,2,0:0:0:0:
448,192,161970,1,8,0:0:0:0:
64,192,162090,1,0,0:0:0:0:
448,192,162210,1,0,0:0:0:0:
64,192,162450,128,2,162690:0:0:0:0:
192,192,162450,1,0,0:0:0:0:
320,192,162690,1,0,0:0:0:0:
320,192,162930,128,2,163170:0:0:0:0:
448,192,162930,1,8,0:0:0:0:
192,192,163170,1,0,0:0:0:0:
64,192,163410,1,2,0:0:0:0:
192,192,163410,1,0,0:0:0:0:
448,192,163530,1,0,0:0:0:0:
64,192,163650,1,0,0:0:0:0:
192,192,163770,1,0,0:0:0:0:
320,192,163890,1,2,0:0:0:0:
448,192,163890,1,8,0:0:0:0:
64,192,164010,1,0,0:0:0:0:
320,192,164130,1,0,0:0:0:0:
64,192,164370,1,2,0:0:0:0:
192,192,164370,128,0,164610:0:0:0:0:
448,192,164610,1,0,0:0:0:0:
320,192,164850,1,2,0:0:0:0:
448,192,164850,128,8,165090:0:0:0:0:
64,192,165090,128,0,165210:0:0:0:0:
320,192,165210,128,0,165330:0:0:0:0:
64,192,165330,1,2,0:0:0:0:
192,192,165330,1,0,0:0:0:0:
448,192,165450,1,0,0:0:0:0:
192,192,165570,1,0,0:0:0:0:
64,192,165690,1,0,0:0:0:0:
320,192,165810,1,2,0:0:0:0:
448,192,165810,1,8,0:0:0:0:
192,192,165930,1,0,0:0:0:0:
320,192,166050,1,0,0:0:0:0:
64,192,166290,1,2,0:0:0:0:
192,192,166290,1,0,0:0:0:0:
320,192,166410,1,0,0:0:0:0:
64,192,166530,1,0,0:0:0:0:
192,192,166650,1,0,0:0:0:0:
320,192,166770,1,2,0:0:0:0:
448,192,166770,1,8,0:0:0:0:
64,192,166890,1,0,0:0:0:0:
448,192,167010,128,0,167250:0:0:0:0:
64,192,167250,1,2,0:0:0:0:
192,192,167250,1,0,0:0:0:0:
320,192,167370,1,0,0:0:0:0:
448,192,167490,1,0,0:0:0:0:
64,192,167610,1,0,0:0:0:0:
192,192,167730,1,2,0:0:0:0:
320,192,167730,1,8,0:0:0:0:
448,192,167850,1,0,0:0:0:0:
192,192,167970,1,0,0:0:0:0:
64,192,168090,1,0,0:0:0:0:
320,192,168210,1,2,0:0:0:0:
448,192,168210,1,0,0:0:0:0:
192,192,168330,1,0,0:0:0:0:
64,192,168450,1,0,0:0:0:0:
448,192,168570,1,0,0:0:0:0:
192,192,168690,1,2,0:0:0:0:
320,192,168690,1,8,0:0:0:0:
448,192,168930,1,0,0:0:0:0:
320,192,169050,1,0,0:0:0:0:
64,192,169170,128,2,169410:0:0:0:0:
192,192,169170,1,0,0:0:0:0:
320,192,169410,128,0,169650:0:0:0:0:
192,192,169650,1,2,0:0:0:0:
448,192,169650,128,8,169890:0:0:0:0:
64,192,169890,1,0,0:0:0:0:
192,192,170010,1,0,0:0:0:0:
320,192,170130,1,2,0:0:0:0:
448,192,170130,128,0,170370:0:0:0:0:
192,192,170370,128,0,170610:0:0:0:0:
64,192,170610,128,2,170850:0:0:0:0:
320,192,170610,1,8,0:0:0:0:
448,192,170850,1,0,0:0:0:0:
320,192,170970,1,0,0:0:0:0:
64,192,171090,1,2,0:0:0:0:
192,192,171090,128,0,171330:0:0:0:0:
448,192,171450,1,0,0:0:0:0:
64,192,171570,1,2,0:0:0:0:
192,192,171570,1,8,0:0:0:0:
320,192,171690,1,0,0:0:0:0:
64,192,171810,1,0,0:0:0:0:
320,192,172050,1,2,0:0:0:0:
448,192,172050,128,0,172290:0:0:0:0:
192,192,172290,1,0,0:0:0:0:
64,192,172530,1,2,0:0:0:0:
320,192,172530,1,8,0:0:0:0:
448,192,172770,1,0,0:0:0:0:
320,192,172890,1,0,0:0:0:0:
64,192,173010,128,2,173250:0:0:0:0:
192,192,173010,1,0,0:0:0:0:
448,192,173250,128,0,173490:0:0:0:0:
64,192,173490,1,2,0:0:0:0:
320,192,173490,128,8,173730:0:0:0:0:
192,192,173730,1,0,0:0:0:0:
64,192,173850,1,0,0:0:0:0:
320,192,173970,1,2,0:0:0:0:
448,192,173970,128,0,174210:0:0:0:0:
64,192,174210,128,0,174450:0:0:0:0:
192,192,174450,128,2,174690:0:0:0:0:
448,192,174450,1,8,0:0:0:0:
320,192,174690,128,0,174930:0:0:0:0:
64,192,174930,128,2,175410:0:0:0:0:
192,192,174930,1,0,0:0:0:0:
448,192,175170,1,0,0:0:0:0:
320,192,175410,1,2,0:0:0:0:
448,192,175410,128,8,175650:0:0:0:0:
192,192,175650,128,0,175890:0:0:0:0:
64,192,175890,1,2,0:0:0:0:
320,192,175890,128,0,176130:0:0:0:0:
192,192,176130,1,8,0:0:0:0:
448,192,176130,1,0,0:0:0:0:
64,192,176370,1,2,0:0:0:0:
320,192,176370,1,8,0:0:0:0:
448,192,176610,1,0,0:0:0:0:
320,192,176730,1,0,0:0:0:0:
64,192,176850,128,2,177090:0:0:0:0:
192,192,176850,1,0,0:0:0:0:
320,192,177090,128,0,177330:0:0:0:0:
192,192,177330,1,2,0:0:0:0:
448,192,177330,128,8,177570:0:0:0:0:
64,192,177570,1,0,0:0:0:0:
192,192,177690,1,0,0:0:0:0:
320,192,177810,1,2,0:0:0:0:
448,192,177810,128,0,178050:0:0:0:0:
192,192,178050,128,0,178290:0:0:0:0:
64,192,178290,128,2,178530:0:0:0:0:
320,192,178290,1,8,0:0:0:0:
448,192,178530,128,0,178770:0:0:0:0:
64,192,178770,1,2,0:0:0:0:
192,192,178770,128,0,179730:0:0:0:0:
448,192,179010,1,8,0:0:0:0:
448,192,179250,1,8,0:0:0:0:
320,192,179730,1,0,0:0:0:0:
64,192,180210,1,2,0:0:0:0:
192,192,180210,1,0,0:0:0:0:
320,192,180370,1,2,0:0:0:0:
448,192,180370,1,0,0:0:0:0:
64,192,180530,1,2,0:0:0:0:
192,192,180530,1,0,0:0:0:0:
320,192,180690,1,2,0:0:0:0:
448,192,180690,128,0,182610:0:0:0:0:
64,192,182610,1,0,0:0:0:0:
