osu file format v14

[General]
AudioFilename: gochied.mp3
AudioLeadIn: 0
PreviewTime: 33531
Countdown: 0
SampleSet: Soft
StackLeniency: 0.7
Mode: 0
LetterboxInBreaks: 1
WidescreenStoryboard: 1

[Editor]
DistanceSpacing: 1
BeatDivisor: 3
GridSize: 32
TimelineZoom: 1.8

[Metadata]
Title:Poppin Jump*
TitleUnicode:ぽっぴんジャンプ♪
Artist:Chimame Tai
ArtistUnicode:チマメ隊
Creator:KuronumaSawako
Version:Normal
Source:ご注文はうさぎですか?
Tags:Gochuumon wa Usagi Desuka? Minase Inori Tokui Sora Murakawa Rie White Fox Koi Kafuu Chino Jouga Maya Natsu Megumi
BeatmapID:803827
BeatmapSetID:365498

[Difficulty]
HPDrainRate:4
CircleSize:3.5
OverallDifficulty:4
ApproachRate:5
SliderMultiplier:1.2
SliderTickRate:1

[Events]
//Background and Video events
0,0,"Gochuumon_wa_Usagi_Desu_ka__full_1737694.jpg",0,0
Video,0,"gochiusaed.avi"
//Break Periods
//Storyboard Layer 0 (Background)
//Storyboard Layer 1 (Fail)
//Storyboard Layer 2 (Pass)
//Storyboard Layer 3 (Foreground)
//Storyboard Sound Samples

[TimingPoints]
75,400,4,2,1,50,1,0
341,-100,4,2,2,50,0,0
875,-100,4,2,1,50,0,0
1008,-100,4,2,2,50,0,0
7275,-100,4,2,2,50,0,0
27275,-100,4,2,1,50,0,0
33265,-100,4,2,1,50,0,0
33275,-100,4,2,2,50,0,0
33675,-100,4,2,2,50,0,0
33808,-100,4,2,1,50,0,0
34075,-100,4,2,2,50,0,0
40075,-100,4,2,2,70,0,1
67141,-100,4,2,2,70,0,0
68875,-100,4,2,2,70,0,1
75275,-100,4,2,2,70,0,0
88741,-100,4,2,2,5,0,0

[Colours]
Combo1 : 213,182,89
Combo2 : 0,103,206
Combo3 : 150,202,254
Combo4 : 224,56,86
Combo5 : 255,151,151
Combo6 : 0,0,160

[HitObjects]
80,80,75,6,0,P|98:132|80:208,1,120,4|8,3:2|0:0,0:0:0:0:
119,310,875,1,0,3:0:0:0:
231,267,1275,1,2,3:2:0:0:
339,317,1675,6,0,P|399:325|475:314,1,120,4|8,0:0|0:0,0:0:0:0:
481,200,2475,1,2,3:2:0:0:
420,147,2741,2,0,L|416:92,1,40,0|8,0:0|0:0,0:0:0:0:
355,56,3141,2,0,P|277:42|176:55,1,160,2|8,3:2|0:0,0:0:0:0:
118,140,4075,1,2,3:2:0:0:
167,249,4475,1,8,0:0:0:0:
286,236,4875,6,0,L|411:253,2,120,2|8|2,3:2|0:0|3:2,0:0:0:0:
213,139,6075,1,8,0:0:0:0:
157,196,6341,2,0,P|124:272|158:351,1,160,2|8,3:2|0:0,0:0:0:0:
250,276,7275,1,2,3:0:0:0:
250,276,7675,1,2,0:0:0:0:
342,206,8075,6,0,P|394:196|475:208,1,120,2|8,3:2|0:0,0:0:0:0:
403,309,8875,1,2,3:2:0:0:
326,331,9141,2,0,P|322:306|320:274,1,40,0|8,0:0|0:0,0:0:0:0:
339,213,9541,2,0,P|346:138|340:44,1,160,2|8,3:2|0:0,0:0:0:0:
222,70,10475,1,0,3:0:0:0:
217,189,10875,1,2,0:0:0:0:
110,132,11275,6,0,P|52:114|-20:117,2,120,2|8|2,0:0|0:0|3:2,0:0:0:0:
123,251,12475,1,8,0:0:0:0:
174,312,12741,2,0,P|247:338|344:324,1,160,4|8,0:0|0:0,0:0:0:0:
426,261,13675,1,2,0:0:0:0:
454,144,14075,1,8,0:0:0:0:
372,56,14475,6,0,P|309:43|238:42,1,120,4|8,0:0|0:0,0:0:0:0:
149,102,15275,1,2,3:2:0:0:
100,165,15541,2,0,P|92:185|90:215,1,40,0|8,0:0|0:0,0:0:0:0:
144,261,15941,2,0,P|218:256|309:265,1,160,4|8,0:0|0:0,0:0:0:0:
378,292,16741,1,4,0:0:0:0:
456,152,17275,1,8,0:0:0:0:
456,152,17675,6,0,L|449:32,2,120,4|8|2,0:0|0:0|0:0,0:0:0:0:
344,195,18875,1,8,0:0:0:0:
301,127,19141,2,0,P|250:114|126:124,1,160,4|8,0:0|0:0,0:0:0:0:
65,210,20075,1,0,3:0:0:0:
140,303,20475,1,2,0:0:0:0:
240,253,20875,6,0,L|232:131,1,120,4|8,0:0|0:0,0:0:0:0:
300,34,21675,1,2,3:2:0:0:
371,70,21941,2,0,L|365:126,1,40,0|8,0:0|0:0,0:0:0:0:
437,147,22341,2,0,P|458:219|436:311,1,160,4|8,0:0|0:0,0:0:0:0:
374,345,23141,1,4,0:0:0:0:
255,236,23675,1,8,0:0:0:0:
162,312,24075,6,0,P|103:327|32:315,2,120,4|8|0,0:0|0:0|3:0,0:0:0:0:
132,195,25275,1,8,0:0:0:0:
167,123,25541,2,0,L|329:130,1,160,4|8,0:0|0:0,0:0:0:0:
446,139,26475,1,0,3:0:0:0:
483,253,26875,1,0,0:3:0:0:
378,312,27275,6,0,P|319:304|249:306,1,120,2|8,0:0|0:0,0:0:0:0:
110,115,28475,1,8,0:0:0:0:
197,32,28875,6,0,P|253:26|330:34,1,120,2|8,0:0|0:0,0:0:0:0:
459,223,30075,1,8,0:0:0:0:
339,235,30475,6,0,P|324:181|336:111,2,120,2|8|2,0:0|0:0|0:0,0:0:0:0:
254,320,31675,1,8,0:0:0:0:
144,271,32075,2,0,P|84:257|17:268,2,120,0|4|0,3:0|0:0|3:0,0:0:0:0:
218,176,33275,1,8,0:0:0:0:
328,222,33675,6,0,L|340:369,2,120,4|8|0,0:0|3:2|3:0,0:0:0:0:
349,144,34741,1,0,3:0:0:0:
264,59,35141,2,0,P|202:46|89:61,1,160,4|10,0:0|0:0,0:0:0:0:
37,154,36075,1,0,3:0:0:0:
92,260,36475,1,8,0:0:0:0:
205,300,36875,6,0,P|267:320|340:300,2,120,4|8|2,0:0|0:0|3:2,0:0:0:0:
181,182,38075,1,2,0:0:0:0:
207,64,38475,2,0,L|342:62,1,120,2|2,0:0|0:0,0:0:0:0:
419,139,39275,5,2,0:0:0:0:
376,251,39675,2,0,P|329:245|269:249,1,80,2|0,0:0|0:0,0:0:0:0:
264,270,40075,6,0,P|206:282|122:279,2,120,4|8|2,0:0|0:0|0:2,0:0:0:0:
288,152,41275,1,8,0:0:0:0:
312,75,41541,2,0,P|387:64|475:78,1,160,0|8,3:0|0:0,0:0:0:0:
504,191,42475,1,0,3:0:0:0:
389,227,42875,1,8,0:0:0:0:
290,158,43275,6,0,P|231:148|164:161,1,120,2|8,0:0|0:0,0:0:0:0:
90,246,44075,1,0,3:0:0:0:
3,163,44475,1,8,0:0:0:0:
18,84,44741,2,0,P|87:65|187:71,1,160,2|8,0:0|0:0,0:0:0:0:
238,170,45675,1,0,3:0:0:0:
336,112,46075,2,0,L|433:109,1,80,0|8,3:0|0:0,0:0:0:0:
449,131,46475,6,0,P|467:186|452:275,2,120,4|8|0,0:0|0:0|3:0,0:0:0:0:
352,202,47675,1,8,0:0:0:0:
290,253,47941,2,0,P|215:262|107:241,1,160,4|8,0:0|0:0,0:0:0:0:
53,158,48875,1,0,3:0:0:0:
93,44,49275,1,8,0:0:0:0:
201,80,49675,6,0,P|256:92|337:87,1,120,4|8,0:0|0:0,0:0:0:0:
423,150,50475,2,0,P|436:204|429:284,1,120,2|8,0:0|0:0,0:0:0:0:
325,321,51275,1,4,0:0:0:0:
214,273,51675,1,8,0:0:0:0:
147,173,52075,2,0,L|137:62,1,80,0|0,3:0|3:0,0:0:0:0:
161,59,52475,2,0,P|208:52|266:57,1,80,0|0,3:0|3:0,0:0:0:0:
268,81,52875,6,0,P|326:99|408:96,1,120,4|8,0:0|0:0,0:0:0:0:
494,50,53675,1,2,0:0:0:0:
465,124,53941,2,0,L|456:264,1,120,0|2,3:0|0:0,0:0:0:0:
312,311,54875,1,8,0:0:0:0:
196,280,55275,1,0,3:0:0:0:
160,165,55675,1,8,0:0:0:0:
243,79,56075,6,0,P|305:68|374:65,2,120,4|8|2,0:0|0:0|0:0,0:0:0:0:
124,59,57275,1,8,0:0:0:0:
83,127,57541,2,0,P|73:182|84:302,1,160,4|8,0:0|0:0,0:0:0:0:
194,321,58475,1,8,3:0:0:0:
228,206,58875,2,0,L|312:201,1,80,8|0,3:2|3:0,0:0:0:0:
338,175,59275,6,0,P|394:172|466:177,2,120,4|8|0,0:0|0:0|3:0,0:0:0:0:
286,283,60475,1,8,0:0:0:0:
208,264,60741,2,0,P|180:207|241:106,1,160,4|8,0:0|0:0,0:0:0:0:
310,49,61675,1,0,3:0:0:0:
412,110,62075,1,8,0:0:0:0:
327,194,62475,6,0,P|316:258|322:333,2,120,4|8|2,0:0|0:0|3:2,0:0:0:0:
287,80,63675,1,8,0:0:0:0:
214,175,64075,2,0,L|74:183,2,120,4|8|0,0:0|0:0|3:0,0:0:0:0:
332,195,65275,1,8,0:0:0:0:
447,160,65675,6,0,P|432:229|449:303,1,120,4|8,0:0|0:0,0:0:0:0:
327,322,66475,1,0,3:0:0:0:
241,237,66875,2,0,L|264:137,1,80,12|0,0:0|3:0,0:0:0:0:
224,64,68475,6,0,P|171:55|128:61,1,80,2|0,0:0|0:0,0:0:0:0:
115,83,68875,2,0,L|105:221,1,120,4|8,0:0|0:0,0:0:0:0:
197,280,69675,1,2,0:0:0:0:
261,232,69941,2,0,L|304:229,1,40,0|8,3:0|0:0,0:0:0:0:
372,193,70341,2,0,P|391:133|376:28,1,160,2|8,0:0|0:0,0:0:0:0:
279,103,71275,1,2,0:0:0:0:
165,64,71675,1,8,0:0:0:0:
75,152,72075,6,0,P|67:201|80:297,2,120,2|8|2,0:0|0:0|0:0,0:0:0:0:
181,207,73275,1,8,0:0:0:0:
239,153,73541,2,0,P|313:145|403:152,1,160,2|8,0:0|0:0,0:0:0:0:
466,249,74475,1,2,0:0:0:0:
350,282,74875,1,8,0:0:0:0:
246,220,75275,6,0,P|225:166|241:88,1,120,4|8,0:0|0:0,0:0:0:0:
343,60,76075,2,0,P|357:124|342:183,1,120,2|8,0:0|0:0,0:0:0:0:
321,252,76741,5,4,0:0:0:0:
173,315,77275,1,8,0:0:0:0:
107,270,77541,2,0,P|80:207|92:106,1,160,4|8,0:0|0:0,0:0:0:0:
185,47,78475,5,4,0:0:0:0:
296,92,78875,1,8,0:0:0:0:
362,47,79141,2,0,B|379:90|379:90|354:211,1,160,4|8,0:0|0:0,0:0:0:0:
294,253,79941,6,0,B|221:270|221:270|109:246,1,160,4|8,0:0|0:0,0:0:0:0:
78,198,80741,2,0,B|66:147|66:147|79:77,1,120,4|0,3:2|3:0,0:0:0:0:
99,46,81275,2,0,P|155:32|240:50,1,120,8|4,0:0|0:0,0:0:0:0:
399,192,82875,6,0,P|393:156|398:100,1,80,4|0,0:0|3:0,0:0:0:0:
263,204,83675,6,0,P|251:149|257:93,1,80,4|0,0:0|3:0,0:0:0:0:
186,272,84475,6,0,P|141:269|79:254,1,80,4|0,0:0|3:0,0:0:0:0:
42,115,85275,1,0,3:0:0:0:
256,192,85541,12,0,88741,0:0:0:0:
