osu file format v14

[General]
AudioFilename: audio.mp3
AudioLeadIn: 0
PreviewTime: 128412
Countdown: 0
SampleSet: Soft
StackLeniency: 0.7
Mode: 0
LetterboxInBreaks: 0
WidescreenStoryboard: 1

[Editor]
Bookmarks: 3993,61164,130136,156787
DistanceSpacing: 1.3
BeatDivisor: 3
GridSize: 32
TimelineZoom: 1

[Metadata]
Title:Hajimari no Shirushi
TitleUnicode:はじまりのしるし
Artist:Chima
ArtistUnicode:Chima
Creator:Gouhin
Version:Normal
Source:ゼロから始める魔法の書
Tags:grimoire of zero kara hajimeru mahou no sho タピオカ✕ミルクティー ed ending female vocals furry beast fallen rock jrock j-rock japanese anime revolver squilly
BeatmapID:3307960
BeatmapSetID:829304

[Difficulty]
HPDrainRate:3
CircleSize:3.5
OverallDifficulty:5
ApproachRate:6
SliderMultiplier:1.5
SliderTickRate:3

[Events]
//Background and Video events
0,0,"youhei.jpg",0,0
//Break Periods
2,88292,99665
//Storyboard Layer 0 (Background)
Sprite,Background,Centre,"SB/bwblur.png",320,240 S,0,88092,,0.3675345 F,0,88092,99873,1 F,0,99873,101556,1,0 S,0,183037,,0.3675345 F,0,183037,188151,1 S,0,0,,0.3675345 F,0,0,6514,0,1 F,0,179704,183454,0,1
Sprite,Background,Centre,"SB/blur.png",320,240 S,0,7354,,0.3675345 F,0,0,7354,0,1
Sprite,Background,Centre,"youhei.jpg",320,240 S,0,7354,,0.3675345 F,0,7354,,0,1 F,0,86409,88092,1,0 S,0,101560,,0.3675345 F,0,128445,130136,1,0 F,0,101556,126766,1 F,0,130136,181787,1 F,0,181787,183454,1,0
Sprite,Background,Centre,"sb/i stole this from wafer.png",0,0 S,2,130136,130988,0.3,0.06 F,2,130136,130988,1,0 P,0,130136,130988,A C,0,130136,,192,192,192 M,0,130136,130239,394,225,392.6074,248.3961 M,0,130239,130343,392.6074,248.3961,391.2148,271.7922 M,0,130343,130446,391.2148,271.7922,389.8221,295.1883 M,0,130446,130550,389.8221,295.1883,388.4295,318.5844 M,0,130550,130653,388.4295,318.5844,387.0369,341.9804 M,0,130653,130688,387.0369,341.9804,386.5727,349.7791
Sprite,Background,Centre,"sb/i stole this from wafer.png",0,0 S,2,130964,131540,0.3,0.06 F,2,130964,131540,1,0 P,0,130964,131540,A C,0,130964,,192,192,192 M,0,130964,131067,465,367,466.265,343.5967 M,0,131067,131171,466.265,343.5967,467.5301,320.1933 M,0,131171,131240,467.5301,320.1933,468.3734,304.5911
Sprite,Background,Centre,"sb/i stole this from wafer.png",503,230 S,2,131517,131817,0.3,0.06 F,2,131517,131817,1,0 P,0,131517,131817,A C,0,131517,,192,192,192
Sprite,Background,Centre,"sb/i stole this from wafer.png",0,0 S,2,131793,132369,0.3,0.06 F,2,131793,132369,1,0 P,0,131793,132369,A C,0,131793,,247,161,84 M,0,131793,131896,464,160,466.0899,136.8106 M,0,131896,132000,466.0899,136.8106,461.7816,113.9841 M,0,132000,132069,461.7816,113.9841,455.261,99.88191
Sprite,Background,Centre,"sb/i stole this from wafer.png",0,0 S,2,132345,132921,0.3,0.06 F,2,132345,132921,1,0 P,0,132345,132921,A C,0,132345,,247,161,84 M,0,132345,132448,377,76,355.8138,85.66302 M,0,132448,132552,355.8138,85.66302,338.0821,100.6738 M,0,132552,132621,338.0821,100.6738,329.0107,113.2875
Sprite,Background,Centre,"sb/i stole this from wafer.png",0,0 S,2,132898,133474,0.3,0.06 F,2,132898,133474,1,0 P,0,132898,133474,A C,0,132898,,247,161,84 M,0,132898,133001,348,192,366.2793,206.4227 M,0,133001,133105,366.2793,206.4227,387.7133,215.4087 M,0,133105,133174,387.7133,215.4087,403.0891,217.8958
Sprite,Background,Centre,"sb/i stole this from wafer.png",0,0 S,2,133450,134302,0.3,0.06 F,2,133450,134302,1,0 P,0,133450,134302,A C,0,133450,,247,161,84 M,0,133450,133553,464,160,459.9711,183.0886 M,0,133553,133657,459.9711,183.0886,455.9422,206.1772 M,0,133657,133760,455.9422,206.1772,451.9133,229.2659 M,0,133760,133864,451.9133,229.2659,447.8845,252.3545 M,0,133864,133967,447.8845,252.3545,443.8556,275.4431 M,0,133967,134002,443.8556,275.4431,442.5126,283.1393
Sprite,Background,Centre,"sb/i stole this from wafer.png",0,0 S,2,134279,135131,0.3,0.06 F,2,134279,135131,1,0 P,0,134279,135131,A C,0,134279,,247,161,84 M,0,134279,134382,430,363,428.116,386.3617 M,0,134382,134486,428.116,386.3617,426.232,409.7233 M,0,134486,134589,426.232,409.7233,425.604,417.5105 M,0,134589,134693,425.604,417.5105,427.488,394.1489 M,0,134693,134796,427.488,394.1489,429.372,370.7872 M,0,134796,134831,429.372,370.7872,430,363
Sprite,Background,Centre,"sb/i stole this from wafer.png",364,314 S,2,135108,135408,0.3,0.06 F,2,135108,135408,1,0 P,0,135108,135408,A C,0,135108,,192,192,192
Sprite,Background,Centre,"sb/i stole this from wafer.png",288,283 S,2,135384,135684,0.3,0.06 F,2,135384,135684,1,0 P,0,135384,135684,A C,0,135384,,192,192,192
Sprite,Background,Centre,"sb/i stole this from wafer.png",226,335 S,2,135660,135960,0.3,0.06 F,2,135660,135960,1,0 P,0,135660,135960,A C,0,135660,,192,192,192
Sprite,Background,Centre,"sb/i stole this from wafer.png",244,414 S,2,135937,136237,0.3,0.06 F,2,135937,136237,1,0 P,0,135937,136237,A C,0,135937,,247,161,84
Sprite,Background,Centre,"sb/i stole this from wafer.png",165,435 S,2,136213,136513,0.3,0.06 F,2,136213,136513,1,0 P,0,136213,136513,A C,0,136213,,247,161,84
Sprite,Background,Centre,"sb/i stole this from wafer.png",107,377 S,2,136489,136789,0.3,0.06 F,2,136489,136789,1,0 P,0,136489,136789,A C,0,136489,,247,161,84
Sprite,Background,Centre,"sb/i stole this from wafer.png",0,0 S,2,136765,137624,0.3,0.06 F,2,136765,137624,1,0 P,0,136765,137624,A C,0,136765,,192,192,192 M,0,136765,136869,148,308,144.6854,284.7981 M,0,136869,136974,144.6854,284.7981,141.3709,261.5961 M,0,136974,137079,141.3709,261.5961,138.0563,238.3942 M,0,137079,137184,138.0563,238.3942,134.7417,215.1922 M,0,137184,137289,134.7417,215.1922,131.4272,191.9903 M,0,137289,137324,131.4272,191.9903,130.3223,184.2563
Sprite,Background,Centre,"sb/i stole this from wafer.png",0,0 S,2,137604,138463,0.3,0.06 F,2,137604,138463,1,0 P,0,137604,138463,A C,0,137604,,192,192,192 M,0,137604,137708,79,121,99.01773,109.073 M,0,137708,137813,99.01773,109.073,121.4288,102.9066 M,0,137813,137918,121.4288,102.9066,144.675,103.3102 M,0,137918,138023,144.675,103.3102,166.8721,110.2551 M,0,138023,138128,166.8721,110.2551,186.2194,123.1841 M,0,138128,138163,186.2194,123.1841,191.8865,128.5481
Sprite,Background,Centre,"sb/i stole this from wafer.png",0,0 S,2,138443,139302,0.3,0.06 F,2,138443,139302,1,0 P,0,138443,139302,A C,0,138443,,192,192,192 M,0,138443,138547,235,196,257.6369,202.0733 M,0,138547,138652,257.6369,202.0733,280.2739,208.1467 M,0,138652,138757,280.2739,208.1467,302.9108,214.22 M,0,138757,138862,302.9108,214.22,323.8546,212.402 M,0,138862,138967,323.8546,212.402,342.0078,197.577 M,0,138967,139002,342.0078,197.577,348.0588,192.6353
Sprite,Background,Centre,"sb/i stole this from wafer.png",382,118 S,2,139282,139582,0.3,0.06 F,2,139282,139582,1,0 P,0,139282,139582,A C,0,139282,,247,161,84
Sprite,Background,Centre,"sb/i stole this from wafer.png",450,74 S,2,139562,139862,0.3,0.06 F,2,139562,139862,1,0 P,0,139562,139862,A C,0,139562,,247,161,84
Sprite,Background,Centre,"sb/i stole this from wafer.png",525,104 S,2,139841,140141,0.3,0.06 F,2,139841,140141,1,0 P,0,139841,140141,A C,0,139841,,247,161,84
Sprite,Background,Centre,"sb/i stole this from wafer.png",0,0 S,2,140121,140976,0.3,0.06 F,2,140121,140976,1,0 P,0,140121,140976,A C,0,140121,,192,192,192 M,0,140121,140225,560,177,557.3574,200.288 M,0,140225,140329,557.3574,200.288,554.7148,223.5761 M,0,140329,140433,554.7148,223.5761,552.0721,246.8641 M,0,140433,140537,552.0721,246.8641,549.4296,270.1522 M,0,140537,140641,549.4296,270.1522,546.7869,293.4402 M,0,140641,140676,546.7869,293.4402,545.9061,301.2029
Sprite,Background,Centre,"sb/i stole this from wafer.png",0,0 S,2,140954,141809,0.3,0.06 F,2,140954,141809,1,0 P,0,140954,141809,A C,0,140954,,192,192,192 M,0,140954,141058,487,358,469.4486,342.7271 M,0,141058,141162,469.4486,342.7271,448.21,333.408 M,0,141162,141266,448.21,333.408,425.1085,331.2799 M,0,141266,141370,425.1085,331.2799,402.5101,336.5656 M,0,141370,141474,402.5101,336.5656,382.7314,348.7305 M,0,141474,141509,382.7314,348.7305,377.1284,354.1183
Sprite,Background,Centre,"sb/i stole this from wafer.png",318,410 S,2,141787,142087,0.3,0.06 F,2,141787,142087,1,0 P,0,141787,142087,A C,0,141787,,247,161,84
Sprite,Background,Centre,"sb/i stole this from wafer.png",276,339 S,2,142065,142365,0.3,0.06 F,2,142065,142365,1,0 P,0,142065,142365,A C,0,142065,,247,161,84
Sprite,Background,Centre,"sb/i stole this from wafer.png",307,263 S,2,142343,142643,0.3,0.06 F,2,142343,142643,1,0 P,0,142343,142643,A C,0,142343,,247,161,84
Sprite,Background,Centre,"sb/i stole this from wafer.png",385,240 S,2,142621,142921,0.3,0.06 F,2,142621,142921,1,0 P,0,142621,142921,A C,0,142621,,192,192,192
Sprite,Background,Centre,"sb/i stole this from wafer.png",365,161 S,2,142898,143198,0.3,0.06 F,2,142898,143198,1,0 P,0,142898,143198,A C,0,142898,,192,192,192
Sprite,Background,Centre,"sb/i stole this from wafer.png",293,122 S,2,143176,143476,0.3,0.06 F,2,143176,143476,1,0 P,0,143176,143476,A C,0,143176,,192,192,192
Sprite,Background,Centre,"sb/i stole this from wafer.png",0,0 S,2,143454,144309,0.3,0.06 F,2,143454,144309,1,0 P,0,143454,144309,A C,0,143454,,247,161,84 M,0,143454,143558,233,177,209.7058,174.4118 M,0,143558,143662,209.7058,174.4118,186.4117,171.8235 M,0,143662,143766,186.4117,171.8235,163.1176,169.2353 M,0,143766,143870,163.1176,169.2353,139.8234,166.647 M,0,143870,143974,139.8234,166.647,116.5293,164.0588 M,0,143974,144009,116.5293,164.0588,108.7645,163.1961
Sprite,Background,Centre,"sb/i stole this from wafer.png",0,0 S,2,144287,145142,0.3,0.06 F,2,144287,145142,1,0 P,0,144287,145142,A C,0,144287,,247,161,84 M,0,144287,144391,94,243,96.82027,266.2672 M,0,144391,144495,96.82027,266.2672,99.64053,289.5344 M,0,144495,144599,99.64053,289.5344,100.5806,297.2901 M,0,144599,144703,100.5806,297.2901,97.76036,274.0229 M,0,144703,144807,97.76036,274.0229,94.94009,250.7557 M,0,144807,144842,94.94009,250.7557,94,243
Sprite,Background,Centre,"sb/i stole this from wafer.png",108,163 S,2,145121,145421,0.3,0.06 F,2,145121,145421,1,0 P,0,145121,145421,A C,0,145121,,192,192,192
Sprite,Background,Centre,"sb/i stole this from wafer.png",152,95 S,2,145398,145698,0.3,0.06 F,2,145398,145698,1,0 P,0,145398,145698,A C,0,145398,,192,192,192
Sprite,Background,Centre,"sb/i stole this from wafer.png",233,89 S,2,145676,145976,0.3,0.06 F,2,145676,145976,1,0 P,0,145676,145976,A C,0,145676,,192,192,192
Sprite,Background,Centre,"sb/i stole this from wafer.png",0,0 S,2,145954,146809,0.3,0.06 F,2,145954,146809,1,0 P,0,145954,146809,A C,0,145954,,192,192,192 M,0,145954,146058,280,154,302.9824,149.4035 M,0,146058,146162,302.9824,149.4035,325.9647,144.8071 M,0,146162,146266,325.9647,144.8071,333.6255,143.2749 M,0,146266,146370,333.6255,143.2749,310.6431,147.8714 M,0,146370,146474,310.6431,147.8714,287.6608,152.4678 M,0,146474,146509,287.6608,152.4678,280,154
Sprite,Background,Centre,"sb/i stole this from wafer.png",0,0 S,2,146787,147642,0.3,0.06 F,2,146787,147642,1,0 P,0,146787,147642,A C,0,146787,,247,161,84 M,0,146787,146891,216,204,207.3431,225.715 M,0,146891,146995,207.3431,225.715,202.594,248.5812 M,0,146995,147099,202.594,248.5812,202.1688,271.942 M,0,147099,147203,202.1688,271.942,206.0875,294.9916 M,0,147203,147307,206.0875,294.9916,214.493,316.8 M,0,147307,147342,214.493,316.8,218.1218,323.6964
Sprite,Background,Centre,"sb/i stole this from wafer.png",0,0 S,2,147621,148476,0.3,0.06 F,2,147621,148476,1,0 P,0,147621,148476,A C,0,147621,,247,161,84 M,0,147621,147725,293,355,316.1844,351.5653 M,0,147725,147829,316.1844,351.5653,339.3689,348.1305 M,0,147829,147933,339.3689,348.1305,362.5534,344.6958 M,0,147933,148037,362.5534,344.6958,385.7378,341.261 M,0,148037,148141,385.7378,341.261,408.9223,337.8263 M,0,148141,148176,408.9223,337.8263,416.6505,336.6814
Sprite,Background,Centre,"sb/i stole this from wafer.png",496,324 S,2,148454,148754,0.3,0.06 F,2,148454,148754,1,0 P,0,148454,148754,A C,0,148454,,192,192,192
Sprite,Background,Centre,"sb/i stole this from wafer.png",500,242 S,2,148732,149032,0.3,0.06 F,2,148732,149032,1,0 P,0,148732,149032,A C,0,148732,,192,192,192
Sprite,Background,Centre,"sb/i stole this from wafer.png",440,187 S,2,149009,149309,0.3,0.06 F,2,149009,149309,1,0 P,0,149009,149309,A C,0,149009,,192,192,192
Sprite,Background,Centre,"sb/i stole this from wafer.png",381,243 S,2,149287,149587,0.3,0.06 F,2,149287,149587,1,0 P,0,149287,149587,A C,0,149287,,247,161,84
Sprite,Background,Centre,"sb/i stole this from wafer.png",340,172 S,2,149565,149865,0.3,0.06 F,2,149565,149865,1,0 P,0,149565,149865,A C,0,149565,,247,161,84
Sprite,Background,Centre,"sb/i stole this from wafer.png",371,97 S,2,149843,150143,0.3,0.06 F,2,149843,150143,1,0 P,0,149843,150143,A C,0,149843,,247,161,84
Sprite,Background,Centre,"sb/i stole this from wafer.png",0,0 S,2,150121,150976,0.3,0.06 F,2,150121,150976,1,0 P,0,150121,150976,A C,0,150121,,192,192,192 M,0,150121,150225,295,67,271.5809,66.07067 M,0,150225,150329,271.5809,66.07067,248.1619,65.14134 M,0,150329,150433,248.1619,65.14134,224.7428,64.21201 M,0,150433,150537,224.7428,64.21201,201.3237,63.28269 M,0,150537,150641,201.3237,63.28269,177.9047,62.35336 M,0,150641,150676,177.9047,62.35336,170.0983,62.04358
Sprite,Background,Centre,"sb/i stole this from wafer.png",0,0 S,2,150954,151809,0.3,0.06 F,2,150954,151809,1,0 P,0,150954,151809,A C,0,150954,,192,192,192 M,0,150954,151058,108,114,99.24214,135.6518 M,0,151058,151162,99.24214,135.6518,95.06804,158.5989 M,0,151162,151266,95.06804,158.5989,95.95866,181.9151 M,0,151266,151370,95.95866,181.9151,101.8775,204.5 M,0,151370,151474,101.8775,204.5,112.5527,225.2857 M,0,151474,151509,112.5527,225.2857,117.0885,231.6408
Sprite,Background,Centre,"sb/i stole this from wafer.png",195,252 S,2,151787,152087,0.3,0.06 F,2,151787,152087,1,0 P,0,151787,152087,A C,0,151787,,247,161,84
Sprite,Background,Centre,"sb/i stole this from wafer.png",266,213 S,2,152065,152365,0.3,0.06 F,2,152065,152365,1,0 P,0,152065,152365,A C,0,152065,,247,161,84
Sprite,Background,Centre,"sb/i stole this from wafer.png",341,243 S,2,152343,152643,0.3,0.06 F,2,152343,152643,1,0 P,0,152343,152643,A C,0,152343,,247,161,84
Sprite,Background,Centre,"sb/i stole this from wafer.png",0,0 S,2,152621,153476,0.3,0.06 F,2,152621,153476,1,0 P,0,152621,153476,A C,0,152621,,247,161,84 M,0,152621,152725,363,321,381.981,334.6219 M,0,152725,152829,381.981,334.6219,403.1978,344.3381 M,0,152829,152933,403.1978,344.3381,425.9693,349.5028 M,0,152933,153037,425.9693,349.5028,449.3372,349.8906 M,0,153037,153141,449.3372,349.8906,472.2043,345.1261 M,0,153141,153176,472.2043,345.1261,479.5643,342.5784
Sprite,Background,Centre,"sb/i stole this from wafer.png",0,0 S,2,153454,154309,0.3,0.06 F,2,153454,154309,1,0 P,0,153454,154309,A C,0,153454,,192,192,192 M,0,153454,153558,521,273,513.8332,250.6851 M,0,153558,153662,513.8332,250.6851,506.6664,228.3703 M,0,153662,153766,506.6664,228.3703,499.4995,206.0554 M,0,153766,153870,499.4995,206.0554,492.3327,183.7405 M,0,153870,153974,492.3327,183.7405,485.1659,161.4257 M,0,153974,154009,485.1659,161.4257,482.777,153.9874
Sprite,Background,Centre,"sb/i stole this from wafer.png",0,0 S,2,154287,155142,0.3,0.06 F,2,154287,155142,1,0 P,0,154287,155142,A C,0,154287,,192,192,192 M,0,154287,154391,425,96,443.3158,81.7849 M,0,154391,154495,443.3158,81.7849,465.2985,74.5715 M,0,154495,154599,465.2985,74.5715,473.0599,74.02235 M,0,154599,154703,473.0599,74.02235,450.3163,78.48558 M,0,154703,154807,450.3163,78.48558,430.8062,90.81221 M,0,154807,154842,430.8062,90.81221,425,96
Sprite,Background,Centre,"sb/i stole this from wafer.png",371,157 S,2,155121,155421,0.3,0.06 F,2,155121,155421,1,0 P,0,155121,155421,A C,0,155121,,247,161,84
Sprite,Background,Centre,"sb/i stole this from wafer.png",296,188 S,2,155398,155698,0.3,0.06 F,2,155398,155698,1,0 P,0,155398,155698,A C,0,155398,,247,161,84
Sprite,Background,Centre,"sb/i stole this from wafer.png",222,153 S,2,155676,155976,0.3,0.06 F,2,155676,155976,1,0 P,0,155676,155976,A C,0,155676,,247,161,84
Sprite,Background,Centre,"sb/i stole this from wafer.png",251,77 S,2,155954,156254,0.3,0.06 F,2,155954,156254,1,0 P,0,155954,156254,A C,0,155954,,192,192,192
Sprite,Background,Centre,"sb/i stole this from wafer.png",172,56 S,2,156232,156532,0.3,0.06 F,2,156232,156532,1,0 P,0,156232,156532,A C,0,156232,,192,192,192
Sprite,Background,Centre,"sb/i stole this from wafer.png",105,102 S,2,156509,156809,0.3,0.06 F,2,156509,156809,1,0 P,0,156509,156809,A C,0,156509,,192,192,192
Sprite,Background,Centre,"sb/i stole this from wafer.png",0,0 S,2,156787,158198,0.3,0.06 F,2,156787,158198,1,0 P,0,156787,158198,A C,0,156787,,247,161,84 M,0,156787,156891,126,180,117.3665,201.7894 M,0,156891,156995,117.3665,201.7894,108.7329,223.5788 M,0,156995,157099,108.7329,223.5788,109.8006,244.0783 M,0,157099,157203,109.8006,244.0783,101.2921,265.9169 M,0,157203,157307,101.2921,265.9169,92.78361,287.7554 M,0,157307,157411,92.78361,287.7554,95.61978,280.4759 M,0,157411,157516,95.61978,280.4759,104.1283,258.6374 M,0,157516,157620,104.1283,258.6374,108.2947,237.393 M,0,157620,157724,108.2947,237.393,111.6108,216.3157 M,0,157724,157828,111.6108,216.3157,120.2443,194.5263 M,0,157828,157898,120.2443,194.5263,126,180
Sprite,Background,Centre,"sb/i stole this from wafer.png",191,228 S,2,158176,158476,0.3,0.06 F,2,158176,158476,1,0 P,0,158176,158476,A C,0,158176,,247,161,84
Sprite,Background,Centre,"sb/i stole this from wafer.png",0,0 S,2,158454,159309,0.3,0.06 F,2,158454,159309,1,0 P,0,158454,159309,A C,0,158454,,247,161,84 M,0,158454,158558,258,183,279.3765,173.545 M,0,158558,158662,279.3765,173.545,302.082,168.1043 M,0,158662,158766,302.082,168.1043,325.4152,167.1232 M,0,158766,158870,325.4152,167.1232,348.5108,170.6409 M,0,158870,158974,348.5108,170.6409,370.5117,178.5306 M,0,158974,159009,370.5117,178.5306,377.459,182.0868
Sprite,Background,Centre,"sb/i stole this from wafer.png",0,0 S,2,159287,159864,0.3,0.06 F,2,159287,159864,1,0 P,0,159287,159864,A C,0,159287,,247,161,84 M,0,159287,159391,421,250,417.9207,273.2343 M,0,159391,159495,417.9207,273.2343,414.8415,296.4687 M,0,159495,159564,414.8415,296.4687,412.7887,311.9583
Sprite,Background,Centre,"sb/i stole this from wafer.png",405,393 S,2,159843,160143,0.3,0.06 F,2,159843,160143,1,0 P,0,159843,160143,A C,0,159843,,192,192,192
Sprite,Background,Centre,"sb/i stole this from wafer.png",0,0 S,2,160121,160976,0.3,0.06 F,2,160121,160976,1,0 P,0,160121,160976,A C,0,160121,,192,192,192 M,0,160121,160225,332,355,311.6729,343.4968 M,0,160225,160329,311.6729,343.4968,289.4636,336.3738 M,0,160329,160433,289.4636,336.3738,266.2307,334.2264 M,0,160433,160537,266.2307,334.2264,243.0713,337.1608 M,0,160537,160641,243.0713,337.1608,221.0807,345.0451 M,0,160641,160676,221.0807,345.0451,214.1928,348.7166
Sprite,Background,Centre,"sb/i stole this from wafer.png",0,0 S,2,160954,161809,0.3,0.06 F,2,160954,161809,1,0 P,0,160954,161809,A C,0,160954,,192,192,192 M,0,160954,161058,153,402,129.738,399.137 M,0,161058,161162,129.738,399.137,106.476,396.274 M,0,161162,161266,106.476,396.274,98.72205,395.3196 M,0,161266,161370,98.72205,395.3196,121.984,398.1826 M,0,161370,161474,121.984,398.1826,145.246,401.0457 M,0,161474,161509,145.246,401.0457,153,402
Sprite,Background,Centre,"sb/i stole this from wafer.png",0,0 S,2,161787,162642,0.3,0.06 F,2,161787,162642,1,0 P,0,161787,162642,A C,0,161787,,247,161,84 M,0,161787,161891,140,321,135.9269,297.9191 M,0,161891,161995,135.9269,297.9191,131.8538,274.8383 M,0,161995,162099,131.8538,274.8383,127.7807,251.7574 M,0,162099,162203,127.7807,251.7574,123.7076,228.6765 M,0,162203,162307,123.7076,228.6765,119.6345,205.5957 M,0,162307,162342,119.6345,205.5957,118.2768,197.9021
Sprite,Background,Centre,"sb/i stole this from wafer.png",0,0 S,2,162621,163476,0.3,0.06 F,2,162621,163476,1,0 P,0,162621,163476,A C,0,162621,,247,161,84 M,0,162621,162725,199,197,194.0892,174.0828 M,0,162725,162829,194.0892,174.0828,189.1783,151.1655 M,0,162829,162933,189.1783,151.1655,193.137,129.493 M,0,162933,163037,193.137,129.493,190.8148,106.9762 M,0,163037,163141,190.8148,106.9762,185.7789,84.08612 M,0,163141,163176,185.7789,84.08612,184.1003,76.45609
Sprite,Background,Centre,"sb/i stole this from wafer.png",0,0 S,2,163454,164865,0.3,0.06 F,2,163454,164865,1,0 P,0,163454,164865,A C,0,163454,,192,192,192 M,0,163454,163558,265,84,287.4511,77.54034 M,0,163558,163662,287.4511,77.54034,310.6382,79.39182 M,0,163662,163766,310.6382,79.39182,332.3758,88.11038 M,0,163766,163870,332.3758,88.11038,354.9702,93.88611 M,0,163870,163974,354.9702,93.88611,378.1111,91.01515 M,0,163974,164078,378.1111,91.01515,370.518,92.83884 M,0,164078,164183,370.518,92.83884,347.2314,92.86802 M,0,164183,164287,347.2314,92.86802,325.207,85.0055 M,0,164287,164391,325.207,85.0055,303.021,77.68478 M,0,164391,164495,303.021,77.68478,279.7785,78.98306 M,0,164495,164565,279.7785,78.98306,265,84
Sprite,Background,Centre,"sb/i stole this from wafer.png",290,160 S,2,164842,165142,0.3,0.06 F,2,164842,165142,1,0 P,0,164842,165142,A C,0,164842,,192,192,192
Sprite,Background,Centre,"sb/i stole this from wafer.png",0,0 S,2,165120,166531,0.3,0.06 F,2,165120,166531,1,0 P,0,165120,166531,A C,0,165120,,247,161,84 M,0,165120,165224,247,229,251.2424,252.0504 M,0,165224,165328,251.2424,252.0504,255.4848,275.1007 M,0,165328,165432,255.4848,275.1007,259.7272,298.151 M,0,165432,165536,259.7272,298.151,263.9696,321.2014 M,0,165536,165640,263.9696,321.2014,268.212,344.2517 M,0,165640,165744,268.212,344.2517,266.7979,336.5683 M,0,165744,165849,266.7979,336.5683,262.5555,313.5179 M,0,165849,165953,262.5555,313.5179,258.313,290.4676 M,0,165953,166057,258.313,290.4676,254.0707,267.4172 M,0,166057,166161,254.0707,267.4172,249.8283,244.3669 M,0,166161,166231,249.8283,244.3669,247,229
Sprite,Background,Centre,"sb/i stole this from wafer.png",200,162 S,2,166509,166809,0.3,0.06 F,2,166509,166809,1,0 P,0,166509,166809,A C,0,166509,,247,161,84
Sprite,Background,Centre,"sb/i stole this from wafer.png",0,0 S,2,166787,167642,0.3,0.06 F,2,166787,167642,1,0 P,0,166787,167642,A C,0,166787,,247,161,84 M,0,166787,166891,157,92,177.257,80.3234 M,0,166891,166995,177.257,80.3234,199.2057,72.33467 M,0,166995,167099,199.2057,72.33467,222.2491,68.51115 M,0,167099,167203,222.2491,68.51115,245.6048,68.98332 M,0,167203,167307,245.6048,68.98332,268.4791,73.73596 M,0,167307,167342,268.4791,73.73596,275.8616,76.24776
Sprite,Background,Centre,"sb/i stole this from wafer.png",0,0 S,2,167621,168476,0.3,0.06 F,2,167621,168476,1,0 P,0,167621,168476,A C,0,167621,,247,161,84 M,0,167621,167725,330,137,353.0084,132.5357 M,0,167725,167829,353.0084,132.5357,376.0168,128.0714 M,0,167829,167933,376.0168,128.0714,383.6862,126.5833 M,0,167933,168037,383.6862,126.5833,360.6779,131.0476 M,0,168037,168141,360.6779,131.0476,337.6695,135.5119 M,0,168141,168176,337.6695,135.5119,330,137
Sprite,Background,Centre,"sb/i stole this from wafer.png",0,0 S,2,168454,169031,0.3,0.06 F,2,168454,169031,1,0 P,0,168454,169031,A C,0,168454,,192,192,192 M,0,168454,168558,250,155,253.6025,178.159 M,0,168558,168662,253.6025,178.159,252.4017,170.4393 M,0,168662,168731,252.4017,170.4393,250,155
Sprite,Background,Centre,"sb/i stole this from wafer.png",187,103 S,2,169009,169309,0.3,0.06 F,2,169009,169309,1,0 P,0,169009,169309,A C,0,169009,,192,192,192
Sprite,Background,Centre,"sb/i stole this from wafer.png",0,0 S,2,169287,169864,0.3,0.06 F,2,169287,169864,1,0 P,0,169287,169864,A C,0,169287,,192,192,192 M,0,169287,169391,119,148,122.0575,171.2372 M,0,169391,169495,122.0575,171.2372,125.1151,194.4744 M,0,169495,169564,125.1151,194.4744,127.1534,209.9659
Sprite,Background,Centre,"sb/i stole this from wafer.png",138,290 S,2,169842,170142,0.3,0.06 F,2,169842,170142,1,0 P,0,169842,170142,A C,0,169842,,192,192,192
Sprite,Background,Centre,"sb/i stole this from wafer.png",0,0 S,2,170120,170975,0.3,0.06 F,2,170120,170975,1,0 P,0,170120,170975,A C,0,170120,,247,161,84 M,0,170120,170224,188,354,208.7257,364.7984 M,0,170224,170328,208.7257,364.7984,231.0548,371.6093 M,0,170328,170432,231.0548,371.6093,254.2963,373.9212 M,0,170432,170536,254.2963,373.9212,277.5579,371.6391 M,0,170536,170640,277.5579,371.6391,299.8224,364.5541 M,0,170640,170675,299.8224,364.5541,306.8998,361.2977
Sprite,Background,Centre,"sb/i stole this from wafer.png",0,0 S,2,61164,62025,0.3,0.06 F,2,61164,62025,1,0 P,0,61164,62025,A C,0,61164,,247,161,84 M,0,61164,61269,357,408,360.7765,384.8688 M,0,61269,61374,360.7765,384.8688,364.5531,361.7375 M,0,61374,61479,364.5531,361.7375,368.3296,338.6063 M,0,61479,61584,368.3296,338.6063,372.1061,315.475 M,0,61584,61689,372.1061,315.475,375.8826,292.3438 M,0,61689,61725,375.8826,292.3438,377.1415,284.6334
Sprite,Background,Centre,"sb/i stole this from wafer.png",0,0 S,2,62005,62585,0.3,0.06 F,2,62005,62585,1,0 P,0,62005,62585,A C,0,62005,,247,161,84 M,0,62005,62110,421,216,399.7691,206.4371 M,0,62110,62215,399.7691,206.4371,376.8003,202.802 M,0,62215,62285,376.8003,202.802,361.2743,204.0817
Sprite,Background,Centre,"sb/i stole this from wafer.png",299,256 S,2,62566,62866,0.3,0.06 F,2,62566,62866,1,0 P,0,62566,62866,A C,0,62566,,247,161,84
Sprite,Background,Centre,"sb/i stole this from wafer.png",0,0 S,2,62847,63427,0.3,0.06 F,2,62847,63427,1,0 P,0,62847,63427,A C,0,62847,,192,192,192 M,0,62847,62952,252,189,256.1227,166.0897 M,0,62952,63057,256.1227,166.0897,253.5877,143.015 M,0,63057,63127,253.5877,143.015,248.0535,128.5186
Sprite,Background,Centre,"sb/i stole this from wafer.png",0,0 S,2,63408,63988,0.3,0.06 F,2,63408,63988,1,0 P,0,63408,63988,A C,0,63408,,192,192,192 M,0,63408,63513,177,87,154.9368,94.44193 M,0,63513,63618,154.9368,94.44193,135.8523,107.6743 M,0,63618,63688,135.8523,107.6743,125.6762,119.3961
Sprite,Background,Centre,"sb/i stole this from wafer.png",0,0 S,2,63969,64549,0.3,0.06 F,2,63969,64549,1,0 P,0,63969,64549,A C,0,63969,,192,192,192 M,0,63969,64074,121,200,137.2279,216.4455 M,0,64074,64179,137.2279,216.4455,158.5091,225.1757 M,0,64179,64249,158.5091,225.1757,173.9621,225.6283
Sprite,Background,Centre,"sb/i stole this from wafer.png",0,0 S,2,64530,65391,0.3,0.06 F,2,64530,65391,1,0 P,0,64530,65391,A C,0,64530,,192,192,192 M,0,64530,64635,252,189,275.2346,185.9226 M,0,64635,64740,275.2346,185.9226,298.4692,182.8452 M,0,64740,64845,298.4692,182.8452,321.7037,179.7677 M,0,64845,64950,321.7037,179.7677,344.9384,176.6903 M,0,64950,65055,344.9384,176.6903,368.1729,173.6129 M,0,65055,65091,368.1729,173.6129,375.9178,172.5871
Sprite,Background,Centre,"sb/i stole this from wafer.png",0,0 S,2,65371,66232,0.3,0.06 F,2,65371,66232,1,0 P,0,65371,66232,A C,0,65371,,192,192,192 M,0,65371,65476,455,158,456.7976,134.6315 M,0,65476,65581,456.7976,134.6315,458.5952,111.2631 M,0,65581,65686,458.5952,111.2631,459.1943,103.4736 M,0,65686,65791,459.1943,103.4736,457.3968,126.842 M,0,65791,65896,457.3968,126.842,455.5992,150.2105 M,0,65896,65932,455.5992,150.2105,455,158
Sprite,Background,Centre,"sb/i stole this from wafer.png",455,239 S,2,66213,66513,0.3,0.06 F,2,66213,66513,1,0 P,0,66213,66513,A C,0,66213,,247,161,84
Sprite,Background,Centre,"sb/i stole this from wafer.png",394,293 S,2,66493,66793,0.3,0.06 F,2,66493,66793,1,0 P,0,66493,66793,A C,0,66493,,247,161,84
Sprite,Background,Centre,"sb/i stole this from wafer.png",316,267 S,2,66774,67074,0.3,0.06 F,2,66774,67074,1,0 P,0,66774,67074,A C,0,66774,,247,161,84
Sprite,Background,Centre,"sb/i stole this from wafer.png",335,188 S,2,67054,67354,0.3,0.06 F,2,67054,67354,1,0 P,0,67054,67354,A C,0,67054,,192,192,192
Sprite,Background,Centre,"sb/i stole this from wafer.png",262,151 S,2,67335,67635,0.3,0.06 F,2,67335,67635,1,0 P,0,67335,67635,A C,0,67335,,192,192,192
Sprite,Background,Centre,"sb/i stole this from wafer.png",192,193 S,2,67615,67915,0.3,0.06 F,2,67615,67915,1,0 P,0,67615,67915,A C,0,67615,,192,192,192
Sprite,Background,Centre,"sb/i stole this from wafer.png",0,0 S,2,67896,68757,0.3,0.06 F,2,67896,68757,1,0 P,0,67896,68757,A C,0,67896,,247,161,84 M,0,67896,68001,172,271,175.5638,294.165 M,0,68001,68106,175.5638,294.165,179.1277,317.3299 M,0,68106,68211,179.1277,317.3299,182.6915,340.4949 M,0,68211,68316,182.6915,340.4949,186.2554,363.6599 M,0,68316,68421,186.2554,363.6599,189.8192,386.8248 M,0,68421,68457,189.8192,386.8248,191.0071,394.5464
Sprite,Background,Centre,"sb/i stole this from wafer.png",0,0 S,2,68737,69317,0.3,0.06 F,2,68737,69317,1,0 P,0,68737,69317,A C,0,68737,,247,161,84 M,0,68737,68842,264,428,286.6698,433.329 M,0,68842,68947,286.6698,433.329,309.8682,432.197 M,0,68947,69017,309.8682,432.197,324.7108,427.6555
Sprite,Background,Centre,"sb/i stole this from wafer.png",370,360 S,2,69298,69598,0.3,0.06 F,2,69298,69598,1,0 P,0,69298,69598,A C,0,69298,,247,161,84
Sprite,Background,Centre,"sb/i stole this from wafer.png",0,0 S,2,69579,70440,0.3,0.06 F,2,69579,70440,1,0 P,0,69579,70440,A C,0,69579,,192,192,192 M,0,69579,69684,443,395,443,371.5625 M,0,69684,69789,443,371.5625,443,348.125 M,0,69789,69894,443,348.125,438.2161,325.7488 M,0,69894,69999,438.2161,325.7488,435.7065,302.8053 M,0,69999,70104,435.7065,302.8053,435.3286,279.3708 M,0,70104,70140,435.3286,279.3708,435.2026,271.5594
Sprite,Background,Centre,"sb/i stole this from wafer.png",436,190 S,2,70420,70720,0.3,0.06 F,2,70420,70720,1,0 P,0,70420,70720,A C,0,70420,,192,192,192
Sprite,Background,Centre,"sb/i stole this from wafer.png",374,137 S,2,70701,71001,0.3,0.06 F,2,70701,71001,1,0 P,0,70701,71001,A C,0,70701,,192,192,192
Sprite,Background,Centre,"sb/i stole this from wafer.png",294,152 S,2,70981,71281,0.3,0.06 F,2,70981,71281,1,0 P,0,70981,71281,A C,0,70981,,192,192,192
Sprite,Background,Centre,"sb/i stole this from wafer.png",0,0 S,2,71262,72123,0.3,0.06 F,2,71262,72123,1,0 P,0,71262,72123,A C,0,71262,,247,161,84 M,0,71262,71367,271,230,247.8141,226.5748 M,0,71367,71472,247.8141,226.5748,224.6283,223.1496 M,0,71472,71577,224.6283,223.1496,201.4424,219.7244 M,0,71577,71682,201.4424,219.7244,178.2565,216.2993 M,0,71682,71787,178.2565,216.2993,155.0706,212.8741 M,0,71787,71823,155.0706,212.8741,147.342,211.7323
Sprite,Background,Centre,"sb/i stole this from wafer.png",0,0 S,2,72103,72964,0.3,0.06 F,2,72103,72964,1,0 P,0,72103,72964,A C,0,72103,,247,161,84 M,0,72103,72208,105,142,111.4838,119.4772 M,0,72208,72313,111.4838,119.4772,117.9677,96.95441 M,0,72313,72418,117.9677,96.95441,120.129,89.44681 M,0,72418,72523,120.129,89.44681,113.6451,111.9696 M,0,72523,72628,113.6451,111.9696,107.1613,134.4924 M,0,72628,72664,107.1613,134.4924,105,142
Sprite,Background,Centre,"sb/i stole this from wafer.png",147,211 S,2,72945,73245,0.3,0.06 F,2,72945,73245,1,0 P,0,72945,73245,A C,0,72945,,192,192,192
Sprite,Background,Centre,"sb/i stole this from wafer.png",109,282 S,2,73225,73525,0.3,0.06 F,2,73225,73525,1,0 P,0,73225,73525,A C,0,73225,,192,192,192
Sprite,Background,Centre,"sb/i stole this from wafer.png",148,353 S,2,73506,73806,0.3,0.06 F,2,73506,73806,1,0 P,0,73506,73806,A C,0,73506,,192,192,192
Sprite,Background,Centre,"sb/i stole this from wafer.png",203,294 S,2,73786,74086,0.3,0.06 F,2,73786,74086,1,0 P,0,73786,74086,A C,0,73786,,247,161,84
Sprite,Background,Centre,"sb/i stole this from wafer.png",272,335 S,2,74067,74367,0.3,0.06 F,2,74067,74367,1,0 P,0,74067,74367,A C,0,74067,,247,161,84
Sprite,Background,Centre,"sb/i stole this from wafer.png",348,308 S,2,74347,74647,0.3,0.06 F,2,74347,74647,1,0 P,0,74347,74647,A C,0,74347,,247,161,84
Sprite,Background,Centre,"sb/i stole this from wafer.png",0,0 S,2,74628,75208,0.3,0.06 F,2,74628,75208,1,0 P,0,74628,75208,A C,0,74628,,192,192,192 M,0,74628,74733,408,253,431.1288,256.7916 M,0,74733,74838,431.1288,256.7916,454.2575,260.5832 M,0,74838,74908,454.2575,260.5832,469,263
Sprite,Background,Centre,"SB/leaf 1.png",0,0 S,0,71262,,0.37 M,4,71262,74628,0,-100,136,379 F,0,74628,75469,1,0 S,0,168454,,0.37 M,4,166787,170121,0,-100,136,379 F,0,168454,170121,1,0
Sprite,Background,Centre,"SB/leaf 3.png",0,0 S,0,71262,,0.43 M,4,71262,74628,500,-100,530,221 F,0,74628,75469,1,0 S,0,168454,,0.43 M,4,168454,170121,500,-100,530,221 F,0,168454,170121,1,0
Sprite,Background,Centre,"SB/pixel.png",320,240 V,0,3993,,854,480 F,0,5673,7354,0,1 C,0,3993,,255,255,255
Sprite,Background,Centre,"SB/pixel.png",320,240 V,0,7354,,854,480 C,0,7354,,255,255,255 F,0,7354,9034,1,0 F,0,61164,62844,0.2,0 F,0,156787,158467,0.2,0 F,0,170121,171801,0.2,0 F,0,101555,103235,1,0 F,0,130136,131816,1,0
//Storyboard Layer 1 (Fail)
//Storyboard Layer 2 (Pass)
//Storyboard Layer 3 (Foreground)
//Storyboard Sound Samples

[TimingPoints]
3993,840.336134453781,4,2,0,50,1,0
6514,-80,4,2,0,50,0,0
54413,843.881856540084,4,2,0,50,1,0
54413,-80,4,2,0,50,0,0
61164,841.514726507714,4,2,0,50,1,0
61164,-80,4,2,0,50,0,1
74628,-80,4,2,0,50,0,0
101556,840.336134453781,4,2,0,50,1,0
128446,845.070422535211,4,2,0,50,1,0
130136,828.729281767956,4,2,0,50,1,0
130136,-80,4,2,0,50,0,1
136765,839.160839160839,4,2,0,50,1,1
136765,-80,4,2,0,50,0,1
140121,833.333333333333,4,2,0,50,1,1
140121,-80,4,2,0,50,0,1
156787,-80,4,2,0,50,0,0
182898,-80,4,2,0,60,0,0
183176,-80,4,2,0,70,0,0

[Colours]
Combo1 : 192,192,192
Combo2 : 247,161,84

[HitObjects]
403,281,6514,6,0,L|394:338,2,31.25
412,200,7074,1,0,0:0:0:0:
337,231,7354,6,0,P|277:243|203:216,1,125,2|0,1:2|0:0,0:0:0:0:
169,159,8194,2,0,L|186:77,1,62.5
230,33,8754,1,0,0:0:0:0:
278,98,9035,2,0,B|361:118|361:118|429:77,1,125,0|0,0:0|1:0,0:0:0:0:
471,123,9875,2,0,P|475:97|466:60,2,62.5,0|2|0,1:0|0:0|1:0,0:0:0:0:
417,183,10715,6,0,L|405:353,1,125,0|0,3:0|0:0,0:0:0:0:
342,356,11556,2,0,P|311:367|271:353,1,62.5,0|0,1:0|0:0,0:0:0:0:
230,298,12116,1,0,3:0:0:0:
165,346,12396,2,0,B|100:350,2,62.5,0|0|0,3:0|1:0|0:0,0:0:0:0:
230,298,13236,1,0,1:0:0:0:
282,360,13516,1,0,0:0:0:0:
345,309,13796,1,0,0:0:0:0:
401,367,14077,6,0,B|393:241,1,125,4|2,1:2|0:0,0:0:0:0:
384,161,14917,1,0,1:0:0:0:
314,118,15197,1,0,3:0:0:0:
239,150,15477,1,2,0:0:0:0:
207,224,15757,2,0,L|31:191,1,125,0|0,1:0|0:0,0:0:0:0:
125,130,16598,2,0,L|43:116,2,62.5,0|0|2,1:0|0:0|0:0,0:0:0:0:
192,84,17438,6,0,P|202:47|188:-3,1,62.5,0|0,1:0|0:0,0:0:0:0:
121,47,17998,1,2,0:0:0:0:
125,130,18278,2,0,L|155:294,1,125,0|0,1:0|1:0,0:0:0:0:
162,333,19119,5,4,1:2:0:0:
224,280,19399,1,0,0:0:0:0:
302,300,19679,1,0,3:0:0:0:
358,241,19959,5,8,1:3:0:0:
427,282,20239,1,0,0:0:0:0:
488,229,20519,1,2,0:3:0:0:
450,156,20799,6,0,L|456:30,1,125,6|0,1:2|3:0,0:0:0:0:
377,51,21640,2,0,P|313:29|232:67,1,125,0|0,1:0|3:0,0:0:0:0:
227,118,22480,2,0,P|163:140|82:102,1,125,6|0,0:0|0:0,0:0:0:0:
63,58,23320,1,0,1:0:0:0:
63,58,24161,6,0,B|76:215,1,125,6|2,0:0|0:0,0:0:0:0:
43,258,25001,2,0,P|71:262|135:233,1,62.5,0|0,1:0|0:0,0:0:0:0:
166,203,25561,1,0,1:0:0:0:
208,272,25841,2,0,L|230:87,1,125,0|0,1:0|0:0,0:0:0:0:
173,83,26682,2,0,P|241:66|292:100,1,125,4|0,1:2|1:0,0:0:0:0:
330,159,27522,6,0,L|323:242,2,62.5,0|0|2,1:0|1:0|0:0,0:0:0:0:
405,130,28362,2,0,L|488:144,1,62.5,4|0,1:2|0:0,0:0:0:0:
490,218,28922,1,0,3:0:0:0:
468,296,29203,2,0,P|409:279|333:317,1,125,0|0,1:0|3:0,0:0:0:0:
305,366,30043,1,0,1:0:0:0:
246,309,30323,1,2,0:0:0:0:
176,350,30603,1,2,0:0:0:0:
121,289,30883,6,0,L|150:146,1,125,0|0,1:0|0:0,0:0:0:0:
169,88,31724,2,0,B|228:70|266:95|266:95|306:120|361:97,1,187.5,4|6,1:2|3:0,0:0:0:0:
489,18,33124,1,2,0:0:0:0:
450,89,33404,2,0,L|439:190,2,62.5,0|2|0,1:0|0:0|1:0,0:0:0:0:
392,31,34245,6,0,B|318:10|318:10|221:43,1,125,4|0,0:1|0:0,0:0:0:0:
230,95,35085,2,0,L|240:176,1,62.5,0|0,1:0|0:0,0:0:0:0:
253,236,35645,1,0,3:0:0:0:
318,187,35925,2,0,P|374:169|454:198,1,125,4|0,1:2|0:0,0:0:0:0:
493,242,36766,1,2,1:2:0:0:
493,242,37606,6,0,L|469:368,1,125,4|2,1:0|0:0,0:0:0:0:
395,331,38446,2,0,P|357:324|310:347,1,62.5,0|0,1:0|0:0,0:0:0:0:
262,366,39007,1,2,0:3:0:0:
192,323,39287,2,0,L|206:176,1,125,4|0,3:2|0:0,0:0:0:0:
157,131,40127,2,0,P|220:162|303:128,1,125,4|2,1:0|0:0,0:0:0:0:
319,86,40967,6,0,L|388:79,2,62.5,0|4|0,1:0|1:2|1:0,0:0:0:0:
273,18,41808,1,0,1:0:0:0:
227,85,42088,1,0,0:0:0:0:
152,53,42368,1,0,3:0:0:0:
109,122,42648,2,0,B|91:155|111:191|111:191|132:229|109:282,1,125,0|2,1:0|0:0,0:0:0:0:
86,315,43488,2,0,L|182:324,2,62.5,4|2|0,1:2|0:0|1:0,0:0:0:0:
121,241,44329,6,0,L|287:254,1,125,0|2,1:0|0:0,0:0:0:0:
322,276,45169,2,0,P|325:244|315:213,1,62.5,4|2,1:2|0:2,0:0:0:0:
250,167,45729,1,2,0:0:0:0:
179,126,46009,2,0,P|171:97|184:63,1,62.5,4|0,1:0|0:0,0:0:0:0:
245,15,46570,1,0,3:0:0:0:
314,56,46850,5,0,0:0:0:0:
324,136,47130,1,2,1:2:0:0:
250,167,47410,1,0,0:0:0:0:
191,111,47690,6,0,L|216:286,1,125,4|0,0:2|0:0,0:0:0:0:
178,309,48530,2,0,P|213:315|256:302,1,62.5,0|0,1:0|0:0,0:0:0:0:
297,254,49091,1,0,3:0:0:0:
350,314,49371,2,0,B|332:153,1,125,0|2,1:0|0:0,0:0:0:0:
407,150,50211,2,0,L|426:303,1,125,0|2,1:0|0:0,0:0:0:0:
422,355,51051,5,0,1:0:0:0:
350,314,51331,1,0,1:0:0:0:
280,355,51612,1,2,0:0:0:0:
226,293,51892,2,0,P|165:274|84:309,1,125,8|4,3:0|0:3,0:0:0:0:
57,353,52732,2,0,P|31:297|76:212,1,125,4|0,1:2|3:0,0:0:0:0:
87,168,53572,2,0,L|24:153,2,62.5,4|0|0,1:2|0:0|0:0,0:0:0:0:
144,225,54413,6,0,B|167:182|167:182|151:94,1,125,4|2,1:0|0:0,0:0:0:0:
224,68,55256,2,0,L|244:197,1,125,0|0,1:0|3:0,0:0:0:0:
259,271,56100,2,0,P|322:292|383:268,1,125,4|2,1:2|0:0,0:0:0:0:
421,207,56944,2,0,L|509:223,2,62.5,0|0|4,1:0|1:0|0:0,0:0:0:0:
342,190,57788,6,0,P|336:124|370:69,1,125,0|2,1:0|0:0,0:0:0:0:
291,38,58632,2,0,L|205:24,1,62.5,4|2,1:2|0:0,0:0:0:0:
148,20,59194,1,2,1:2:0:0:
92,79,59476,6,0,L|111:228,1,125,0|2,1:0|0:0,0:0:0:0:
121,283,60320,5,0,1:0:0:0:
191,242,60601,1,6,1:2:0:0:
263,277,60882,1,0,0:0:0:0:
293,352,61164,6,0,L|317:205,1,125,4|0,1:0|3:0,0:0:0:0:
357,160,62005,2,0,P|321:147|281:153,1,62.5,8|0,0:0|0:0,0:0:0:0:
235,200,62566,1,0,1:0:0:0:
188,133,62847,6,0,P|190:87|161:45,1,62.5,4|2,1:2|0:0,0:0:0:0:
113,31,63408,2,0,P|72:51|48:97,1,62.5,0|8,1:0|0:0,0:0:0:0:
57,144,63969,2,0,P|82:166|132:162,1,62.5,2|2,0:0|0:1,0:0:0:0:
188,133,64530,2,0,L|339:113,1,125,4|2,1:0|0:0,0:0:0:0:
391,102,65371,2,0,L|396:37,2,62.5,8|0|0,0:0|0:0|3:0,0:0:0:0:
391,183,66213,5,0,1:0:0:0:
330,237,66493,1,2,0:0:0:0:
252,211,66774,1,0,3:0:0:0:
271,132,67054,5,8,0:0:0:0:
198,95,67335,1,2,0:0:0:0:
128,137,67615,1,0,1:0:0:0:
108,215,67896,6,0,B|128:345,1,125,4|2,1:0|0:0,0:0:0:0:
200,372,68737,2,0,P|235:378|284:357,1,62.5,8|0,0:0|0:0,0:0:0:0:
306,304,69298,1,0,1:0:0:0:
379,339,69579,6,0,B|379:280|379:280|372:265|372:265|371:203,1,125,4|0,1:2|3:0,0:0:0:0:
372,134,70420,1,2,1:1:0:0:
310,81,70701,1,2,0:0:0:0:
230,96,70981,1,0,1:0:0:0:
207,174,71262,6,0,L|31:148,1,125,8|0,0:0|3:0,0:0:0:0:
41,86,72103,2,0,L|60:20,2,62.5,0|10|8,1:0|1:2|1:2,0:0:0:0:
83,155,72945,5,4,1:3:0:0:
45,226,73225,1,2,0:1:0:0:
84,297,73506,1,2,0:1:0:0:
139,238,73786,5,6,0:0:0:0:
208,279,74067,1,8,0:3:0:0:
284,252,74347,1,2,0:1:0:0:
344,197,74628,6,0,L|405:207,1,62.5,4|0,0:2|0:0,0:0:0:0:
485,222,75189,1,2,0:0:0:0:
459,144,75469,6,0,P|453:113|465:76,1,62.5,4|0,0:2|0:0,0:0:0:0:
508,18,76030,1,0,3:0:0:0:
426,11,76311,6,0,L|290:27,1,125,0|2,1:0|0:3,0:0:0:0:
221,14,77152,2,0,P|224:44|236:73,1,62.5,0|2,1:0|0:0,0:0:0:0:
303,120,77713,1,4,0:0:0:0:
289,200,77994,6,0,P|224:178|147:201,1,125,0|0,1:2|3:0,0:0:0:0:
134,260,78835,1,0,1:0:0:0:
85,194,79116,2,0,L|91:116,1,62.5
100,50,79677,1,0,0:0:0:0:
198,179,80238,6,0,P|233:187|277:163,1,62.5,2|0,0:0|1:0,0:0:0:0:
299,109,80799,1,0,1:2:0:0:
360,161,81079,2,0,L|378:251,1,62.5,2|0,0:0|1:0,0:0:0:0:
216,270,81921,6,0,P|256:261|292:274,2,62.5,2|0|0,0:0|1:0|3:0,0:0:0:0:
179,342,82762,1,2,0:0:0:0:
115,291,83043,6,0,B|82:285|56:306|56:306|32:328|0:322,2,125,4|2|0,1:0|0:0|0:0,0:0:0:0:
276,265,84726,6,0,P|311:274|355:261,1,62.5,0|8,1:0|0:3,0:0:0:0:
314,192,85287,1,0,1:0:0:0:
391,166,85567,2,0,L|401:89,1,62.5,4|0,0:1|1:0,0:0:0:0:
372,26,86128,5,0,1:0:0:0:
303,70,86409,2,0,P|272:78|236:63,1,62.5,4|0,3:0|1:0,0:0:0:0:
183,14,86970,1,4,0:0:0:0:
113,56,87250,1,6,3:2:0:0:
39,21,87531,5,6,3:2:0:0:
44,101,87811,1,2,1:0:0:0:
45,182,88092,5,6,1:0:0:0:
256,192,100715,5,0,1:0:0:0:
194,245,100996,1,6,0:0:0:0:
123,205,101276,1,0,0:0:0:0:
73,246,101556,6,0,B|86:135,1,100,4|0,0:1|0:0,0:0:0:0:
97,72,102396,2,0,L|245:51,2,150,0|0|2,1:0|1:0|1:2,0:0:0:0:
97,72,104917,6,0,P|78:121|97:177,1,100,4|2,1:0|0:0,0:0:0:0:
156,198,105757,1,2,0:3:0:0:
223,165,106037,1,0,1:0:0:0:
290,196,106317,1,0,0:0:0:0:
349,149,106598,2,0,B|354:49,1,100,0|2,1:0|0:0,0:0:0:0:
287,17,107438,6,0,P|257:12|206:24,1,50
180,62,107998,1,0,0:0:0:0:
159,134,108278,1,0,1:0:0:0:
190,202,108559,1,8,1:3:0:0:
154,267,108838,2,0,L|168:383,1,100,2|0,3:0|0:0,0:0:0:0:
241,371,109679,5,6,0:0:0:0:
292,316,109959,1,0,1:0:0:0:
356,353,110239,2,0,L|430:335,1,50,6|4,0:0|1:2,0:0:0:0:
475,316,110799,1,2,1:2:0:0:
437,251,111079,2,0,P|436:223|448:195,1,50,6|4,0:0|1:2,0:0:0:0:
485,140,111640,6,0,L|357:154,1,100,4|0,1:0|0:0,0:0:0:0:
310,156,112480,1,4,3:2:0:0:
268,93,112760,5,0,1:0:0:0:
198,120,113040,1,0,1:2:0:0:
140,72,113320,2,0,P|84:60|34:81,1,100,0|0,1:0|1:0,0:0:0:0:
21,145,114161,5,2,1:2:0:0:
64,205,114441,1,8,1:0:0:0:
134,180,114721,1,4,1:2:0:0:
189,230,115001,6,0,P|246:247|295:222,1,100,4|0,1:0|0:0,0:0:0:0:
323,171,115841,2,0,L|341:72,1,100,2|0,3:2|3:0,0:0:0:0:
279,30,116682,6,0,P|225:17|151:45,1,100,4|2,1:0|0:0,0:0:0:0:
135,84,117522,2,0,L|153:188,1,100,0|2,1:0|0:1,0:0:0:0:
168,255,118362,5,0,1:0:0:0:
93,249,118642,1,0,1:0:0:0:
55,314,118923,1,2,0:0:0:0:
114,359,119203,2,0,L|224:348,1,100,8|4,3:0|0:3,0:0:0:0:
280,383,120043,2,0,P|290:335|249:281,1,100,4|0,1:2|3:0,0:0:0:0:
199,257,120883,5,0,0:0:0:0:
247,200,121163,1,2,3:0:0:0:
319,219,121443,1,2,1:2:0:0:
369,162,121724,6,0,L|335:36,1,100,4|2,1:0|0:0,0:0:0:0:
277,28,122564,2,0,P|251:42|213:41,1,50,0|0,1:0|0:0,0:0:0:0:
157,31,123124,1,0,3:0:0:0:
93,70,123404,2,0,B|128:194,1,100,4|2,1:2|0:0,0:0:0:0:
135,240,124245,2,0,L|55:235,2,50,0|0|4,1:0|1:0|0:0,0:0:0:0:
193,287,125085,6,0,P|243:298|297:272,1,100,0|2,1:0|0:0,0:0:0:0:
331,220,125925,2,0,L|317:153,1,50,4|2,1:2|0:0,0:0:0:0:
302,98,126485,1,2,1:2:0:0:
235,62,126766,5,0,1:0:0:0:
182,115,127046,1,0,1:0:0:0:
115,80,127326,1,2,0:0:0:0:
66,22,127606,5,0,1:0:0:0:
28,86,127886,1,6,1:2:0:0:
56,155,128166,1,0,0:0:0:0:
126,179,128446,6,0,L|125:241,2,50,4|0|0,1:0|0:0|0:0,0:0:0:0:
176,123,129291,2,0,P|227:103|289:134,1,100
330,169,130136,6,0,L|320:337,1,125,4|0,1:0|3:0,0:0:0:0:
401,311,130964,2,0,L|407:200,1,62.5,8|0,0:0|0:0,0:0:0:0:
439,174,131517,1,0,1:0:0:0:
400,104,131793,6,0,P|400:64|371:21,1,62.5,4|2,1:2|0:0,0:0:0:0:
313,20,132345,2,0,P|278:40|255:86,1,62.5,0|8,1:0|0:0,0:0:0:0:
284,136,132898,2,0,P|306:153|346:162,1,62.5,2|2,0:0|0:1,0:0:0:0:
400,104,133450,2,0,L|374:253,1,125,4|2,1:0|0:0,0:0:0:0:
366,307,134279,2,0,L|361:369,2,62.5,8|0|0,0:0|0:0|3:0,0:0:0:0:
300,258,135108,5,0,1:0:0:0:
224,227,135384,1,2,0:0:0:0:
162,279,135660,1,0,3:0:0:0:
180,358,135937,5,8,0:0:0:0:
101,379,136213,1,2,0:0:0:0:
43,321,136489,1,0,1:0:0:0:
84,252,136765,6,0,B|66:126,1,125,4|2,1:0|0:0,0:0:0:0:
15,65,137604,2,0,P|81:47|131:76,1,125,8|0,0:0|1:0,0:0:0:0:
171,140,138443,2,0,B|253:162|253:162|313:113,1,125,4|0,1:2|3:0,0:0:0:0:
318,62,139282,5,2,1:1:0:0:
386,18,139562,1,2,0:0:0:0:
461,48,139841,1,0,1:0:0:0:
496,121,140121,6,0,L|480:262,1,125,8|0,0:0|3:0,0:0:0:0:
423,302,140954,2,0,P|348:277|298:322,1,125,0|8,1:0|1:2,0:0:0:0:
254,354,141787,5,4,1:3:0:0:
212,283,142065,1,2,0:1:0:0:
243,207,142343,1,2,0:1:0:0:
321,184,142621,5,6,0:0:0:0:
301,105,142898,1,8,0:3:0:0:
229,66,143176,1,2,0:1:0:0:
169,121,143454,6,0,L|16:104,1,125,4|2,1:0|0:1,0:0:0:0:
30,187,144287,2,0,L|38:253,2,62.5,8|0|2,0:0|0:0|0:1,0:0:0:0:
44,107,145121,5,6,1:1:0:0:
88,39,145398,1,0,0:0:0:0:
169,33,145676,1,0,1:0:0:0:
216,98,145954,2,0,L|286:84,2,62.5,8|0|2,0:0|0:0|0:0,0:0:0:0:
152,148,146787,6,2,P|138:216|169:289,1,125,4|2,0:0|0:0,0:1:0:0:
229,299,147621,2,0,L|364:279,1,125,8|4,0:0|0:0,0:0:0:0:
432,268,148454,5,4,1:0:0:0:
436,186,148732,1,0,0:0:0:0:
376,131,149009,1,4,1:2:0:0:
317,187,149287,5,2,1:2:0:0:
276,116,149565,1,2,0:3:0:0:
307,41,149843,1,4,1:2:0:0:
231,11,150121,6,0,L|105:6,1,125,4|2,1:0|0:0,0:0:0:0:
44,58,150954,2,0,P|31:120|70:193,1,125,8|4,0:0|0:0,0:0:0:0:
131,196,151787,5,0,1:0:0:0:
202,157,152065,1,0,0:0:0:0:
277,187,152343,1,0,0:0:0:0:
299,265,152621,2,0,P|385:294|432:279,1,125,8|2,0:0|1:2,0:0:0:0:
457,217,153454,6,0,B|413:80,1,125,4|2,1:0|0:0,0:0:0:0:
361,40,154287,2,0,P|389:21|425:20,2,62.5,2|0|8,1:2|1:0|0:3,0:0:0:0:
307,101,155121,5,4,0:3:0:0:
232,132,155398,1,0,1:0:0:0:
158,97,155676,1,0,1:0:0:0:
187,21,155954,5,12,0:0:0:0:
108,0,156232,1,8,0:0:0:0:
41,46,156509,1,8,1:3:0:0:
62,124,156787,6,0,B|41:177|41:177|47:185|47:185|17:262,2,125,4|2|2,1:0|0:1|0:0,0:0:0:0:
127,172,158176,1,2,0:3:0:0:
194,127,158454,2,0,P|263:111|326:134,1,125,0|2,1:0|0:1,0:0:0:0:
357,194,159287,2,0,L|346:277,1,62.5,8|0,0:0|0:0,0:0:0:0:
341,337,159843,5,0,1:0:0:0:
268,299,160121,2,0,P|207:278|120:319,1,125,2|2,1:0|0:3,0:0:0:0:
89,346,160954,2,0,L|24:338,2,62.5,8|4|2,0:0|1:2|0:0,0:0:0:0:
76,265,161787,6,0,L|52:129,1,125,4|2,1:0|0:0,0:0:0:0:
135,141,162621,2,0,B|123:85|123:85|131:70|131:70|120:20,1,125,4|2,1:0|0:0,0:0:0:0:
201,28,163454,6,0,B|269:-1|264:74|357:14,2,125,4|2|0,1:0|0:0|0:0,0:0:0:0:
226,104,164842,1,2,0:3:0:0:
183,173,165120,6,0,L|213:336,2,125,2|2|8,1:0|0:1|0:0,0:0:0:0:
136,106,166509,1,2,0:1:0:0:
93,36,166787,2,0,P|171:12|243:37,1,125,2|0,1:0|1:0,0:0:0:0:
266,81,167621,2,0,L|333:68,2,62.5,8|2|0,0:0|0:0|1:0,0:0:0:0:
186,99,168454,6,0,L|193:144,2,31.25,0|8|2,1:0|0:3|0:0,0:0:0:0:
123,47,169009,1,8,0:0:0:0:
55,92,169287,2,0,L|65:168,1,62.5,8|8,1:2|0:3,0:0:0:0:
74,234,169842,1,4,0:3:0:0:
124,298,170120,6,2,P|185:318|277:280,1,125,4|0,0:1|0:0,0:1:0:0:
297,244,170954,2,0,L|379:250,1,62.5,8|2,0:0|3:2,0:0:0:0:
440,254,171509,1,2,3:2:0:0:
486,187,171787,2,0,P|498:123|467:54,1,125,2|0,3:2|0:0,0:0:0:0:
402,36,172621,5,8,0:0:0:0:
336,83,172898,1,0,0:0:0:0:
258,58,173176,1,2,2:2:0:0:
195,110,173454,6,0,L|208:196,1,62.5,2|0,2:2|2:0,2:0:0:0:
218,251,174009,1,0,2:0:0:0:
143,219,174287,5,8,2:0:0:0:
66,246,174565,1,0,2:0:0:0:
56,326,174843,1,2,2:2:0:0:
129,360,175121,2,0,L|281:338,1,125,2|0,2:2|2:0,2:0:0:0:
333,331,175954,5,10,2:2:0:0:
400,285,176232,1,2,2:2:0:0:
400,203,176509,1,2,2:2:0:0:
333,155,176787,2,0,L|351:-1,1,125,2|2,2:2|2:0,2:2:0:0:
265,28,177621,2,0,P|229:15|196:27,1,62.5,8|0,2:0|2:0,2:0:0:0:
173,94,178176,1,2,2:2:0:0:
180,174,178454,6,0,B|147:180|122:158|122:158|97:136|64:142,1,125,6|2,2:2|2:2,2:2:0:0:
76,223,179287,2,0,B|53:375,1,125,14|2,2:2|2:0,2:0:0:0:
135,322,180121,2,0,L|125:390,2,62.5,2|0|0,2:2|2:2|2:2,2:0:0:0:
200,273,180954,2,0,L|190:211,2,62.5,0|0|0,2:2|2:2|2:2,2:0:0:0:
248,337,181787,5,10,2:2:0:0:
301,275,182065,1,8,2:2:0:0:
380,290,182343,1,8,2:2:0:0:
402,367,182620,5,2,2:2:0:0:
472,327,182898,1,2,2:2:0:0:
466,245,183176,1,2,2:2:0:0:
256,192,183454,12,0,184704,2:0:0:0:
