osu file format v14

[General]
AudioFilename: audio.mp3
AudioLeadIn: 0
PreviewTime: 57673
Countdown: 0
SampleSet: Soft
StackLeniency: 0.7
Mode: 0
LetterboxInBreaks: 0
WidescreenStoryboard: 0

[Editor]
Bookmarks: 3869,17295,30768,44242,57673,71006,84339
DistanceSpacing: 1.6
BeatDivisor: 6
GridSize: 4
TimelineZoom: 1

[Metadata]
Title:Hajimari no Shirushi (Anime Size)
TitleUnicode:はじまりのしるし (Anime Size)
Artist:Chima
ArtistUnicode:Chima
Creator:Lilyanna
Version:ezekyanna's Mercenary
Source:ゼロから始める魔法の書
Tags:magic witch witchcraft sorcery furry furries mercenary beastfallen ezek Zero Kara Hajimeru Mahou no Sho Ending ED
BeatmapID:1292861
BeatmapSetID:612207

[Difficulty]
HPDrainRate:6.5
CircleSize:4.5
OverallDifficulty:7.5
ApproachRate:7.5
SliderMultiplier:2.6
SliderTickRate:1

[Events]
//Background and Video events
Video,0,"zero.avi"
0,0,"Mercenary.jpg",0,0
//Break Periods
//Storyboard Layer 0 (Background)
//Storyboard Layer 1 (Fail)
//Storyboard Layer 2 (Pass)
//Storyboard Layer 3 (Foreground)
//Storyboard Sound Samples

[TimingPoints]
3869,839.160839160839,4,2,1,40,1,0
17295,842.105263157895,4,2,1,40,1,0
50137,800,4,2,1,40,1,0
50937,842.105263157895,4,2,1,40,1,0
57673,833.333333333333,4,2,1,55,1,1
57673,-80,4,2,1,55,0,1
84339,-100,4,2,1,55,0,0
88922,-100,4,2,1,5,0,0

[Colours]
Combo1 : 140,140,140
Combo2 : 36,146,255
Combo3 : 179,89,0

[HitObjects]
256,332,3029,5,0,3:0:0:0:
256,332,3169,1,0,3:0:0:0:
256,332,3309,2,0,L|256:244,1,86.6666666666667,8|4,3:0|3:0,0:0:0:0:
184,12,3869,5,4,0:0:0:0:
280,100,4148,1,0,0:0:0:0:
152,116,4428,1,0,0:0:0:0:
331,36,4708,2,0,P|360:109|304:178,1,173.333333333333,0|0,3:0|0:0,0:0:0:0:
87,281,5547,5,2,0:0:0:0:
207,317,5827,1,0,0:0:0:0:
142,222,6106,1,0,0:0:0:0:
270,366,6386,2,0,P|287:314|206:237,1,173.333333333333,0|0,3:0|0:0,0:0:0:0:
364,336,7225,6,0,L|454:343,1,86.6666666666667,2|0,0:0|0:0,0:0:0:0:
495,223,7785,1,0,0:0:0:0:
420,116,8064,2,0,P|383:140|363:179,1,86.6666666666667,0|0,3:0|0:0,0:0:0:0:
304,315,8624,1,0,0:0:0:0:
304,315,8903,6,0,P|341:291|361:252,1,86.6666666666667,2|0,0:0|0:0,0:0:0:0:
237,208,9463,1,0,0:0:0:0:
363,176,9743,1,0,3:0:0:0:
304,315,10022,1,0,0:0:0:0:
279,130,10302,1,0,0:0:0:0:
391,330,10582,6,0,P|309:314|234:359,1,173.333333333333,2|0,0:0|0:0,0:0:0:0:
65,356,11421,2,0,P|109:352|148:324,1,86.6666666666667,0|0,3:0|0:0,0:0:0:0:
39,162,11980,1,0,0:0:0:0:
39,162,12260,6,0,P|-2:229|9:320,1,173.333333333333,2|0,0:0|0:0,0:0:0:0:
124,260,13099,1,0,3:0:0:0:
241,203,13379,1,0,0:0:0:0:
230,332,13659,1,0,0:0:0:0:
194,137,13938,6,0,P|240:122|321:203,1,173.333333333333,2|0,0:0|0:0,0:0:0:0:
334,65,14778,1,0,3:0:0:0:
241,203,15057,1,0,0:0:0:0:
408,114,15337,1,0,0:0:0:0:
169,149,15617,6,0,P|157:231|220:291,1,173.333333333333,4|0,0:0|0:0,0:0:0:0:
386,173,16456,1,0,3:0:0:0:
356,181,16736,1,0,0:0:0:0:
326,189,17015,1,0,0:0:0:0:
296,198,17295,6,0,P|267:148|297:40,1,173.333333333333,2|0,0:0|0:0,0:0:0:0:
169,155,18137,2,0,P|198:205|168:313,1,173.333333333333,0|0,3:0|0:0,0:0:0:0:
85,247,18979,2,0,P|56:197|86:89,1,173.333333333333,2|0,0:0|0:0,0:0:0:0:
249,135,19821,1,0,3:0:0:0:
120,26,20102,2,0,P|61:21|34:35,1,86.6666666666667
268,60,20663,5,2,0:0:0:0:
207,211,20944,1,0,0:0:0:0:
192,69,21224,1,0,0:0:0:0:
290,202,21505,1,0,3:0:0:0:
163,142,21786,1,0,0:0:0:0:
324,120,22066,1,0,0:0:0:0:
107,198,22347,6,0,P|87:149|94:110,1,86.6666666666667,2|0,0:0|0:0,0:0:0:0:
125,18,22909,1,0,0:0:0:0:
188,225,23189,2,0,P|208:274|201:313,2,86.6666666666667,0|0|0,3:0|0:0|0:0,0:0:0:0:
323,195,24031,5,2,0:0:0:0:
361,293,24312,1,0,0:0:0:0:
457,172,24593,1,0,0:0:0:0:
441,306,24873,2,0,P|411:358|352:368,1,86.6666666666667,0|0,3:0|0:0,0:0:0:0:
361,293,25435,1,0,0:0:0:0:
416,231,25716,6,0,P|335:216|280:279,1,173.333333333333,2|0,0:0|0:0,0:0:0:0:
209,200,26558,1,0,3:0:0:0:
280,278,26838,1,0,0:0:0:0:
149,281,27119,1,0,0:0:0:0:
138,122,27400,5,2,0:0:0:0:
209,200,27680,1,0,0:0:0:0:
274,110,27961,1,0,0:0:0:0:
77,81,28242,2,0,P|65:119|77:165,1,86.6666666666667,0|0,3:0|0:0,0:0:0:0:
209,200,28803,1,0,0:0:0:0:
287,31,29084,6,0,P|345:82|316:180,1,173.333333333333,2|0,0:0|0:0,0:0:0:0:
434,208,29926,1,0,3:0:0:0:
328,168,30207,1,0,0:0:0:0:
272,266,30487,1,0,0:0:0:0:
81,195,30768,6,0,P|134:194|184:296,1,173.333333333333,2|0,0:0|0:0,0:0:0:0:
27,273,31610,2,0,L|46:100,1,173.333333333333,0|0,3:0|0:0,0:0:0:0:
179,30,32452,6,0,L|160:203,1,173.333333333333,2|0,0:0|0:0,0:0:0:0:
268,332,33295,2,0,P|311:350|432:332,1,173.333333333333,0|0,3:0|0:0,0:0:0:0:
325,170,34137,5,2,0:0:0:0:
469,190,34417,1,0,0:0:0:0:
336,267,34698,1,0,0:0:0:0:
318,72,34979,2,0,P|354:48|397:43,1,86.6666666666667,0|0,3:0|0:0,0:0:0:0:
223,153,35540,1,0,0:0:0:0:
223,153,35821,6,0,P|180:108|208:4,1,173.333333333333,2|0,0:0|0:0,0:0:0:0:
21,59,36663,2,0,P|64:104|36:208,1,173.333333333333,2|0,0:0|0:0,0:0:0:0:
100,345,37505,5,2,0:0:0:0:
100,345,37645,1,0,0:0:0:0:
100,345,37786,1,0,0:0:0:0:
255,260,38066,1,0,0:0:0:0:
127,197,38347,2,0,B|100:197|100:197|72:205|72:205|42:205,1,86.6666666666667,0|0,3:0|0:0,0:0:0:0:
238,121,38909,1,0,0:0:0:0:
238,121,39189,6,0,B|292:121|292:121|349:137|349:137|409:137,1,173.333333333333,2|0,0:0|0:0,0:0:0:0:
237,47,40031,2,0,P|187:66|189:175,1,173.333333333333,0|0,3:0|0:0,0:0:0:0:
295,338,40873,5,2,0:0:0:0:
334,213,41154,1,0,0:0:0:0:
184,262,41435,1,0,0:0:0:0:
377,303,41716,1,0,3:0:0:0:
219,354,41996,1,0,0:0:0:0:
228,160,42277,1,0,0:0:0:0:
228,160,42558,6,0,L|221:71,1,86.6666666666667,2|0,0:0|0:0,0:0:0:0:
65,61,43119,2,0,L|71:149,1,86.6666666666667,0|0,0:0|3:0,0:0:0:0:
263,203,43680,2,0,L|256:114,1,86.6666666666667
53,89,44242,6,0,L|59:174,2,86.6666666666667,2|0|0,0:0|0:0|0:0,0:0:0:0:
97,255,45084,2,0,B|137:219|135:161|135:161|151:199|199:225,1,173.333333333333,0|0,3:0|0:0,0:0:0:0:
390,96,45926,6,0,L|383:181,2,86.6666666666667,2|0|0,0:0|0:0|0:0,0:0:0:0:
342,257,46768,2,0,B|302:221|304:163|304:163|288:201|240:227,1,173.333333333333,0|0,3:0|0:0,0:0:0:0:
217,83,47610,5,2,0:0:0:0:
178,212,47891,1,0,0:0:0:0:
260,214,48172,1,0,0:0:0:0:
146,134,48452,2,0,P|99:122|38:137,1,86.6666666666667,0|0,3:0|0:0,0:0:0:0:
217,306,49014,1,0,0:0:0:0:
377,213,49295,6,0,P|380:161|374:126,2,86.6666666666667,2|0|0,0:0|0:0|0:0,0:0:0:0:
269,35,50137,2,0,P|266:87|272:122,2,86.6666666666667,0|0|0,3:0|0:0|0:0,0:0:0:0:
156,171,50937,5,2,0:0:0:0:
97,265,51217,1,0,0:0:0:0:
67,105,51498,1,0,0:0:0:0:
178,279,51779,2,0,P|144:330|37:323,1,173.333333333333,0|0,3:0|0:0,0:0:0:0:
273,206,52621,5,2,0:0:0:0:
333,109,52901,1,0,0:0:0:0:
363,274,53182,1,0,0:0:0:0:
252,95,53463,2,0,P|286:44|393:51,1,173.333333333333,0|0,3:0|0:0,0:0:0:0:
193,150,54305,6,0,P|173:97|182:56,2,86.6666666666667,2|0|0,0:0|0:0|0:0,0:0:0:0:
263,261,55147,2,0,P|280:314|270:354,2,86.6666666666667,0|0|0,3:0|0:0|0:0,0:0:0:0:
193,150,55989,1,2,0:0:0:0:
206,310,56270,1,0,0:0:0:0:
135,190,56551,1,0,3:0:0:0:
274,343,56832,1,4,0:0:0:0:
89,247,57112,2,0,P|63:200|66:162,1,86.6666666666667
274,343,57673,6,0,P|237:377|174:378,1,108.333333333333,2|0,0:0|0:0,0:0:0:0:
21,281,58228,1,0,0:0:0:0:
206,310,58506,1,0,3:0:0:0:
26,352,58784,1,0,0:0:0:0:
206,310,59061,1,0,0:0:0:0:
184,112,59339,6,0,P|168:56|184:8,1,108.333333333333,2|0,0:0|0:0,0:0:0:0:
304,124,59895,2,0,P|320:180|304:228,1,108.333333333333,0|0,0:0|3:0,0:0:0:0:
184,340,60450,2,0,P|169:288|185:237,1,108.333333333333
357,29,61006,6,0,P|364:79|360:136,1,108.333333333333,2|0,0:0|0:0,0:0:0:0:
213,165,61561,1,0,0:0:0:0:
285,28,61839,2,0,P|294:99|288:138,1,108.333333333333,0|0,3:0|0:0,0:0:0:0:
161,8,62395,1,0,0:0:0:0:
359,136,62673,5,2,0:0:0:0:
119,72,62950,1,0,0:0:0:0:
189,297,63228,1,0,0:0:0:0:
256,58,63506,1,0,3:0:0:0:
75,227,63784,1,0,0:0:0:0:
336,254,64061,1,0,0:0:0:0:
97,114,64339,6,0,P|55:105|-16:128,1,108.333333333333,2|0,0:0|0:0,0:0:0:0:
163,167,64895,1,0,0:0:0:0:
78,20,65173,1,0,3:0:0:0:
51,192,65450,1,0,0:0:0:0:
185,90,65728,1,0,0:0:0:0:
16,256,66006,6,0,P|56:276|120:276,1,108.333333333333,2|0,0:0|0:0,0:0:0:0:
312,232,66561,2,0,B|268:204|268:204|205:212,1,108.333333333333,0|0,0:0|3:0,0:0:0:0:
356,340,67117,2,0,P|394:358|460:352,1,108.333333333333
252,272,67673,6,0,L|230:384,2,108.333333333333,2|0|0,0:0|0:0|0:0,0:0:0:0:
197,54,68506,1,0,0:0:0:0:
241,176,68784,1,0,0:0:0:0:
325,77,69061,1,0,0:0:0:0:
144,160,69339,5,2,0:0:0:0:
337,199,69617,1,0,0:0:0:0:
117,81,69895,1,0,0:0:0:0:
291,260,70173,1,4,0:0:0:0:
193,25,70450,1,0,0:0:0:0:
224,304,70728,1,0,0:0:0:0:
396,49,71006,6,0,P|398:92|359:153,1,108.333333333333,2|0,0:0|0:0,0:0:0:0:
179,36,71561,1,0,0:0:0:0:
294,169,71839,1,0,3:0:0:0:
139,113,72117,1,0,0:0:0:0:
314,81,72395,1,0,0:0:0:0:
314,81,72673,6,0,P|369:82|414:118,1,108.333333333333,2|0,0:0|0:0,0:0:0:0:
184,183,73228,1,0,0:0:0:0:
184,183,73506,2,0,P|129:182|83:149,1,108.333333333333,0|0,3:0|0:0,0:0:0:0:
272,161,74061,1,0,0:0:0:0:
353,75,74339,6,0,P|408:76|457:111,1,108.333333333333,2|0,0:0|0:0,0:0:0:0:
246,81,74895,1,0,0:0:0:0:
272,161,75173,1,0,3:0:0:0:
360,257,75450,1,0,0:0:0:0:
380,147,75728,1,0,0:0:0:0:
235,235,76006,5,4,0:0:0:0:
246,81,76284,1,0,0:0:0:0:
290,288,76561,1,0,0:0:0:0:
108,208,76839,1,0,3:0:0:0:
323,95,77117,1,0,0:0:0:0:
186,285,77395,1,0,0:0:0:0:
77,136,77673,6,0,P|40:171|38:242,1,108.333333333333,2|0,0:0|0:0,0:0:0:0:
167,102,78228,1,0,0:0:0:0:
167,102,78506,2,0,P|204:67|205:0,2,108.333333333333,0|0|0,3:0|0:0|0:0,0:0:0:0:
116,295,79339,6,0,L|105:182,1,108.333333333333,2|0,0:0|0:0,0:0:0:0:
140,34,79895,1,0,0:0:0:0:
187,174,80172,1,0,3:0:0:0:
89,96,80450,1,0,0:0:0:0:
245,120,80728,1,0,0:0:0:0:
352,342,81006,6,0,P|363:282|348:233,1,108.333333333333,2|0,0:0|0:0,0:0:0:0:
341,114,81561,1,0,0:0:0:0:
341,114,81839,1,0,3:0:0:0:
237,48,82117,1,0,0:0:0:0:
128,106,82395,1,0,0:0:0:0:
263,314,82672,5,2,0:0:0:0:
206,117,82950,1,0,0:0:0:0:
138,243,83228,1,0,0:0:0:0:
328,190,83506,1,0,3:0:0:0:
71,158,83784,1,0,0:0:0:0:
230,37,84061,1,0,0:0:0:0:
127,62,84339,6,0,L|17:58,2,86.6666666666667,2|0|0,0:0|0:0|0:0,0:0:0:0:
314,64,85172,2,0,L|408:59,2,86.6666666666667,0|0|0,3:0|0:0|0:0,0:0:0:0:
268,181,86006,5,2,0:0:0:0:
213,255,86284,1,0,0:0:0:0:
299,270,86561,1,0,0:0:0:0:
247,160,86839,5,0,0:0:0:0:
219,278,87117,1,0,0:0:0:0:
318,246,87394,1,0,3:0:0:0:
256,192,87672,12,0,88922,0:0:0:0:
