osu file format v14

[General]
AudioFilename: audio.mp3
AudioLeadIn: 0
PreviewTime: 57673
Countdown: 0
SampleSet: Soft
StackLeniency: 0.7
Mode: 0
LetterboxInBreaks: 0
WidescreenStoryboard: 0

[Editor]
DistanceSpacing: 1.4
BeatDivisor: 6
GridSize: 8
TimelineZoom: 1

[Metadata]
Title:Hajimari no Shirushi (Anime Size)
TitleUnicode:はじまりのしるし (Anime Size)
Artist:Chima
ArtistUnicode:Chima
Creator:Lilyanna
Version:Normal
Source:ゼロから始める魔法の書
Tags:magic witch witchcraft sorcery furry furries mercenary beastfallen ezek Zero Kara Hajimeru Mahou no Sho Ending ED
BeatmapID:1292080
BeatmapSetID:612207

[Difficulty]
HPDrainRate:5
CircleSize:4
OverallDifficulty:5
ApproachRate:5
SliderMultiplier:1.7
SliderTickRate:1

[Events]
//Background and Video events
Video,0,"zero.avi"
0,0,"B2.jpg",0,0
//Break Periods
//Storyboard Layer 0 (Background)
//Storyboard Layer 1 (Fail)
//Storyboard Layer 2 (Pass)
//Storyboard Layer 3 (Foreground)
//Storyboard Sound Samples

[TimingPoints]
3869,839.160839160839,4,2,1,40,1,0
17295,842.105263157895,4,2,1,40,1,0
50137,800,4,2,1,40,1,0
50937,842.105263157895,4,2,1,40,1,0
57673,833.333333333333,4,2,1,55,1,1
57673,-100,4,2,1,55,0,1
84339,-100,4,2,1,55,0,0
88922,-100,4,2,1,5,0,0

[Colours]
Combo1 : 131,131,131
Combo2 : 128,128,192
Combo3 : 255,157,111
Combo4 : 184,113,255

[HitObjects]
399,68,3869,6,0,P|394:110|395:141,1,56.6666666666667,4|0,0:0|0:0,0:0:0:0:
406,203,4428,1,0,0:0:0:0:
327,192,4708,2,0,P|281:183|205:202,1,113.333333333333,0|0,3:0|0:0,0:0:0:0:
180,266,5547,2,0,P|134:270|114:269,1,56.6666666666667,2|0,0:0|0:0,0:0:0:0:
48,242,6106,1,0,0:0:0:0:
107,188,6386,2,0,P|60:163|-8:187,1,113.333333333333,0|0,3:0|0:0,0:0:0:0:
48,242,7225,6,0,P|43:284|44:315,2,56.6666666666667,2|0|0,0:0|0:0|0:0,0:0:0:0:
117,280,8064,2,0,B|174:264|174:294|233:280,1,113.333333333333,0|0,3:0|0:0,0:0:0:0:
308,277,8903,2,0,P|303:235|304:204,1,56.6666666666667,2|0,0:0|0:0,0:0:0:0:
333,147,9463,1,0,0:0:0:0:
394,96,9743,2,0,P|394:53|388:33,2,56.6666666666667,0|0|0,3:0|0:0|0:0,0:0:0:0:
333,147,10582,6,0,P|253:153|208:138,1,113.333333333333,2|0,0:0|0:0,0:0:0:0:
197,219,11421,2,0,L|205:294,2,56.6666666666667,0|0|0,3:0|0:0|0:0,0:0:0:0:
135,172,12260,2,0,P|133:119|179:64,1,113.333333333333,2|0,0:0|0:0,0:0:0:0:
246,73,13099,2,0,P|288:70|318:64,2,56.6666666666667,0|0|0,3:0|0:0|0:0,0:0:0:0:
166,71,13938,6,0,P|124:66|93:67,1,56.6666666666667,2|0,0:0|0:0,0:0:0:0:
37,100,14498,1,0,0:0:0:0:
74,173,14778,2,0,P|79:215|78:246,2,56.6666666666667,0|0|0,3:0|0:0|0:0,0:0:0:0:
150,148,15617,2,0,P|155:198|155:268,1,113.333333333333,4|0,0:0|0:0,0:0:0:0:
225,299,16456,2,0,P|271:276|338:281,1,113.333333333333,0|0,3:0|0:0,0:0:0:0:
330,201,17295,6,0,P|282:197|250:205,2,56.6666666666667,2|0|0,0:0|0:0|0:0,0:0:0:0:
400,239,18137,2,0,P|450:227|519:249,1,113.333333333333,0|0,3:0|0:0,0:0:0:0:
504,323,18979,2,0,P|453:334|384:312,1,113.333333333333,2|0,0:0|0:0,0:0:0:0:
324,281,19821,2,0,L|258:287,2,56.6666666666667,0|0|0,3:0|0:0|0:0,0:0:0:0:
343,202,20663,6,0,P|338:157|341:121,1,56.6666666666667,2|0,0:0|0:0,0:0:0:0:
353,67,21224,1,0,0:0:0:0:
275,42,21505,2,0,L|209:48,2,56.6666666666667,0|0|0,3:0|0:0|0:0,0:0:0:0:
258,119,22347,2,0,L|121:129,1,113.333333333333,2|0,0:0|0:0,0:0:0:0:
77,86,23189,2,0,P|66:123|112:203,1,113.333333333333,0|0,3:0|0:0,0:0:0:0:
167,217,24031,6,0,P|173:256|169:288,1,56.6666666666667,2|0,0:0|0:0,0:0:0:0:
116,330,24593,1,0,0:0:0:0:
189,359,24873,2,0,B|228:355|228:355|263:358|263:358|316:356,1,113.333333333333,0|0,3:0|0:0,0:0:0:0:
353,297,25716,2,0,B|343:236|343:236|356:170,1,113.333333333333,2|0,0:0|0:0,0:0:0:0:
376,106,26558,2,0,L|378:40,2,56.6666666666667,0|0|0,3:0|0:0|0:0,0:0:0:0:
297,97,27400,6,0,P|269:55|197:43,1,113.333333333333,2|0,0:0|0:0,0:0:0:0:
220,119,28242,2,0,L|218:175,1,56.6666666666667,0|0,3:0|0:0,0:0:0:0:
211,254,28803,1,0,0:0:0:0:
138,222,29084,2,0,P|131:252|171:324,1,113.333333333333,2|0,0:0|0:0,0:0:0:0:
246,326,29926,2,0,P|285:322|312:328,2,56.6666666666667,0|0|0,3:0|0:0|0:0,0:0:0:0:
167,321,30768,6,0,P|128:325|101:319,2,56.6666666666667,2|0|0,0:0|0:0|0:0,0:0:0:0:
210,254,31610,2,0,B|197:200|224:200|213:141,1,113.333333333333,0|0,3:0|0:0,0:0:0:0:
283,103,32452,2,0,P|291:129|292:158,2,56.6666666666667,2|0|0,0:0|0:0|0:0,0:0:0:0:
210,68,33295,2,0,P|169:82|144:166,1,113.333333333333,0|0,3:0|0:0,0:0:0:0:
177,211,34137,6,0,P|181:250|175:277,2,56.6666666666667,2|0|0,0:0|0:0|0:0,0:0:0:0:
103,241,34979,2,0,P|99:280|105:307,1,56.6666666666667,0|0,3:0|0:0,0:0:0:0:
164,346,35540,1,0,0:0:0:0:
240,324,35821,2,0,P|279:320|306:326,2,56.6666666666667,2|0|0,0:0|0:0|0:0,0:0:0:0:
197,256,36663,2,0,P|262:240|327:251,1,113.333333333333,0|0,3:0|0:0,0:0:0:0:
381,216,37505,6,0,L|389:147,2,56.6666666666667,2|0|0,0:0|0:0|0:0,0:0:0:0:
459,201,38347,2,0,L|467:132,1,56.6666666666667,0|0,3:0|0:0,0:0:0:0:
419,79,38909,1,0,0:0:0:0:
344,52,39189,2,0,P|294:38|215:62,1,113.333333333333,2|0,0:0|0:0,0:0:0:0:
163,84,40031,2,0,L|94:92,2,56.6666666666667,0|0|0,3:0|0:0|0:0,0:0:0:0:
222,136,40873,6,0,L|291:144,2,56.6666666666667,2|0|0,0:0|0:0|0:0,0:0:0:0:
168,195,41716,2,0,L|99:203,1,56.6666666666667,0|0,3:0|0:0,0:0:0:0:
46,246,42277,1,0,0:0:0:0:
116,281,42558,2,0,L|253:264,1,113.333333333333,2|0,0:0|0:0,0:0:0:0:
304,242,43400,1,0,3:0:0:0:
351,178,43680,2,0,L|348:110,1,56.6666666666667,0|0,0:0|0:0,0:0:0:0:
424,96,44242,6,0,L|427:211,1,113.333333333333,2|0,0:0|0:0,0:0:0:0:
395,281,45084,2,0,P|350:280|332:283,1,56.6666666666667,0|0,3:0|0:0,0:0:0:0:
260,293,45645,1,0,0:0:0:0:
185,320,45926,2,0,P|126:325|63:313,1,113.333333333333,2|0,0:0|0:0,0:0:0:0:
79,235,46768,2,0,P|138:230|201:242,1,113.333333333333,0|0,3:0|0:0,0:0:0:0:
265,273,47610,6,0,P|306:277|330:272,1,56.6666666666667,2|0,0:0|0:0,0:0:0:0:
379,219,48172,1,0,0:0:0:0:
325,160,48452,2,0,P|284:156|260:161,2,56.6666666666667,0|0|0,3:0|0:0|0:0,0:0:0:0:
399,132,49295,2,0,P|421:77|392:9,1,113.333333333333,2|0,0:0|0:0,0:0:0:0:
337,75,50137,2,0,P|296:71|272:76,1,56.6666666666667,0|0,3:0|0:0,0:0:0:0:
206,104,50670,1,0,0:0:0:0:
142,149,50937,6,0,P|101:153|77:148,1,56.6666666666667,2|0,0:0|0:0,0:0:0:0:
17,109,51498,1,0,0:0:0:0:
18,188,51779,2,0,P|29:251|19:307,1,113.333333333333,0|0,3:0|0:0,0:0:0:0:
86,345,52621,2,0,P|127:349|151:344,1,56.6666666666667,2|0,0:0|0:0,0:0:0:0:
201,294,53182,1,0,0:0:0:0:
256,351,53463,2,0,P|330:348|386:358,1,113.333333333333,0|0,3:0|0:0,0:0:0:0:
447,359,54305,5,2,0:0:0:0:
421,283,54586,2,0,P|414:224|432:167,1,113.333333333333,0|0,0:0|3:0,0:0:0:0:
489,121,55428,1,0,0:0:0:0:
413,97,55708,1,0,0:0:0:0:
333,89,55989,2,0,L|276:88,2,56.6666666666667,2|0|0,0:0|0:0|3:0,0:0:0:0:
379,24,56831,1,4,0:0:0:0:
413,97,57112,1,0,0:0:0:0:
284,193,57673,6,0,L|148:212,1,113.333333333333,2|0,0:0|0:0,0:0:0:0:
100,242,58506,2,0,L|43:249,2,56.6666666666667,0|0|0,3:0|0:0|0:0,0:0:0:0:
92,163,59339,2,0,P|87:118|137:62,1,113.333333333333,2|0,0:0|0:0,0:0:0:0:
164,136,60173,1,0,3:0:0:0:
220,80,60450,2,0,L|213:23,1,56.6666666666667,0|0,0:0|0:0,0:0:0:0:
291,5,61006,6,0,B|300:82|300:82|356:102|362:167,1,170,2|0,0:0|3:0,0:0:0:0:
280,158,62117,1,0,0:0:0:0:
286,239,62395,1,0,0:0:0:0:
221,285,62673,2,0,L|147:290,2,56.6666666666667,2|0|0,0:0|0:0|0:0,0:0:0:0:
282,334,63506,2,0,L|356:339,2,56.6666666666667,0|0|0,3:0|0:0|0:0,0:0:0:0:
317,262,64339,6,0,L|435:273,1,113.333333333333,2|0,0:0|0:0,0:0:0:0:
412,194,65173,2,0,L|355:190,2,56.6666666666667,0|0|0,3:0|0:0|0:0,0:0:0:0:
440,120,66006,2,0,L|310:112,1,113.333333333333,2|0,0:0|0:0,0:0:0:0:
247,121,66839,2,0,L|248:187,2,56.6666666666667,0|0|0,3:0|0:0|0:0,0:0:0:0:
167,114,67673,6,0,P|113:141|30:63,1,170,2|0,0:0|0:0,0:0:0:0:
109,63,68784,1,0,0:0:0:0:
180,25,69061,1,0,0:0:0:0:
241,77,69339,2,0,L|307:78,2,56.6666666666667,2|0|0,0:0|0:0|0:0,0:0:0:0:
262,153,70173,2,0,L|328:154,2,56.6666666666667,4|0|0,0:0|0:0|0:0,0:0:0:0:
285,228,71006,6,0,L|417:230,1,113.333333333333,2|0,0:0|0:0,0:0:0:0:
372,304,71839,2,0,L|315:303,1,56.6666666666667,0|0,3:0|0:0,0:0:0:0:
236,292,72395,1,0,0:0:0:0:
183,351,72673,2,0,P|161:317|185:231,1,113.333333333333,2|0,0:0|0:0,0:0:0:0:
189,170,73506,2,0,P|190:137|183:106,2,56.6666666666667,0|0|0,3:0|0:0|0:0,0:0:0:0:
247,221,74339,6,0,B|335:205|335:237|415:221,1,170,2|0,0:0|3:0,0:0:0:0:
485,181,75450,1,0,0:0:0:0:
414,145,75728,1,0,0:0:0:0:
458,79,76006,2,0,P|488:74|521:75,2,56.6666666666667,4|0|0,0:0|0:0|0:0,0:0:0:0:
378,74,76839,2,0,P|348:79|315:78,2,56.6666666666667,0|0|0,3:0|0:0|0:0,0:0:0:0:
414,145,77673,6,0,P|419:175|377:255,1,113.333333333333,2|0,0:0|0:0,0:0:0:0:
310,224,78506,2,0,P|305:194|306:161,1,56.6666666666667,0|0,3:0|0:0,0:0:0:0:
293,89,79061,1,0,0:0:0:0:
213,101,79339,2,0,B|154:94|154:94|86:108,1,113.333333333333,2|0,0:0|0:0,0:0:0:0:
35,150,80172,1,0,3:0:0:0:
103,190,80450,2,0,L|163:178,1,56.6666666666667,0|0,0:0|0:0,0:0:0:0:
238,190,81006,6,0,B|282:230|330:237|330:237|338:199|371:163,1,170,2|0,0:0|3:0,0:0:0:0:
389,105,82117,1,0,0:0:0:0:
413,29,82395,1,0,0:0:0:0:
335,43,82672,2,0,L|269:46,2,56.6666666666667,2|0|0,0:0|0:0|0:0,0:0:0:0:
310,118,83506,2,0,L|244:121,2,56.6666666666667,0|0|0,3:0|0:0|0:0,0:0:0:0:
375,163,84339,6,0,P|393:216|389:272,1,113.333333333333,2|0,0:0|0:0,0:0:0:0:
312,251,85172,2,0,P|308:307|326:360,1,113.333333333333,0|0,3:0|0:0,0:0:0:0:
256,192,86006,12,0,88922,0:0:0:0:
