osu file format v14

[General]
AudioFilename: audio.mp3
AudioLeadIn: 0
PreviewTime: 57673
Countdown: 0
SampleSet: Soft
StackLeniency: 0.7
Mode: 0
LetterboxInBreaks: 0
WidescreenStoryboard: 0

[Editor]
DistanceSpacing: 1.5
BeatDivisor: 6
GridSize: 32
TimelineZoom: 1

[Metadata]
Title:Hajimari no Shirushi (Anime Size)
TitleUnicode:はじまりのしるし (Anime Size)
Artist:Chima
ArtistUnicode:Chima
Creator:Lilyanna
Version:Hard
Source:ゼロから始める魔法の書
Tags:magic witch witchcraft sorcery furry furries mercenary beastfallen ezek Zero Kara Hajimeru Mahou no Sho Ending ED
BeatmapID:1292079
BeatmapSetID:612207

[Difficulty]
HPDrainRate:6
CircleSize:4
OverallDifficulty:7
ApproachRate:7
SliderMultiplier:2.3
SliderTickRate:1

[Events]
//Background and Video events
Video,0,"zero.avi"
0,0,"B4.jpg",0,0
//Break Periods
//Storyboard Layer 0 (Background)
//Storyboard Layer 1 (Fail)
//Storyboard Layer 2 (Pass)
//Storyboard Layer 3 (Foreground)
//Storyboard Sound Samples

[TimingPoints]
3869,839.160839160839,4,2,1,40,1,0
17295,842.105263157895,4,2,1,40,1,0
50137,800,4,2,1,40,1,0
50937,842.105263157895,4,2,1,40,1,0
57673,833.333333333333,4,2,1,55,1,1
57673,-100,4,2,1,55,0,1
84339,-100,4,2,1,55,0,0
88922,-100,4,2,1,5,0,0

[Colours]
Combo1 : 131,131,131
Combo2 : 128,128,192
Combo3 : 255,157,111
Combo4 : 184,113,255

[HitObjects]
157,84,3869,5,4,0:0:0:0:
249,152,4148,1,0,0:0:0:0:
140,191,4428,1,0,0:0:0:0:
245,237,4708,2,0,P|304:217|324:116,1,153.333333333333,0|0,3:0|0:0,0:0:0:0:
346,26,5547,1,2,0:0:0:0:
465,15,5827,1,0,0:0:0:0:
415,118,6106,1,0,0:0:0:0:
496,260,6386,2,0,L|509:355,2,76.6666666666667,0|0|0,3:0|0:0|0:0,0:0:0:0:
381,267,7225,5,2,0:0:0:0:
309,177,7505,1,0,0:0:0:0:
211,238,7785,1,0,0:0:0:0:
108,185,8064,1,0,3:0:0:0:
206,124,8344,1,0,0:0:0:0:
309,177,8624,1,0,0:0:0:0:
398,105,8903,2,0,L|395:28,1,76.6666666666667,2|0,0:0|0:0,0:0:0:0:
477,188,9463,1,0,0:0:0:0:
402,276,9743,2,0,L|405:355,2,76.6666666666667,0|0|0,3:0|0:0|0:0,0:0:0:0:
330,186,10582,5,2,0:0:0:0:
217,170,10861,1,0,0:0:0:0:
267,274,11141,1,0,0:0:0:0:
149,212,11421,2,0,P|140:165|151:129,2,76.6666666666667,0|0|0,3:0|0:0|0:0,0:0:0:0:
267,55,12260,2,0,B|193:71|193:42|94:58,1,153.333333333333,2|0,0:0|0:0,0:0:0:0:
44,134,13099,2,0,B|42:193|42:193|49:227|49:227|47:300,1,153.333333333333,0|0,3:0|0:0,0:0:0:0:
162,292,13938,6,0,L|162:371,2,76.6666666666667,2|0|0,0:0|0:0|0:0,0:0:0:0:
206,185,14778,2,0,L|206:106,2,76.6666666666667,0|0|0,3:0|0:0|0:0,0:0:0:0:
321,185,15617,2,0,L|321:106,1,76.6666666666667,4|0,0:0|0:0,0:0:0:0:
420,50,16176,1,0,0:0:0:0:
435,164,16456,2,0,L|435:243,1,76.6666666666667,0|0,3:0|0:0,0:0:0:0:
336,299,17015,1,0,0:0:0:0:
223,321,17295,6,0,P|164:303|68:330,1,153.333333333333,2|0,0:0|0:0,0:0:0:0:
44,213,18137,2,0,L|38:136,2,76.6666666666667,0|0|0,3:0|0:0|0:0,0:0:0:0:
122,128,18979,2,0,B|124:86|79:56|79:56|132:55|172:27,1,153.333333333333,2|0,0:0|0:0,0:0:0:0:
256,64,19821,2,0,L|333:58,2,76.6666666666667,0|0|0,3:0|0:0|0:0,0:0:0:0:
346,167,20663,5,2,0:0:0:0:
432,90,20944,1,0,0:0:0:0:
442,204,21224,1,0,0:0:0:0:
354,278,21505,2,0,L|360:355,2,76.6666666666667,0|0|0,3:0|0:0|0:0,0:0:0:0:
244,243,22347,2,0,L|250:320,2,76.6666666666667,2|0|0,0:0|0:0|0:0,0:0:0:0:
133,202,23189,2,0,L|123:41,1,153.333333333333,0|0,3:0|0:0,0:0:0:0:
40,244,24031,5,2,0:0:0:0:
135,309,24312,1,0,0:0:0:0:
223,235,24593,1,0,0:0:0:0:
318,298,24873,2,0,P|337:225|307:157,1,153.333333333333,0|0,3:0|0:0,0:0:0:0:
223,235,25716,2,0,P|192:166|211:93,1,153.333333333333,2|0,0:0|0:0,0:0:0:0:
320,57,26558,2,0,P|365:61|404:57,2,76.6666666666667,0|0|0,3:0|0:0|0:0,0:0:0:0:
211,93,27400,5,2,0:0:0:0:
104,49,27680,1,0,0:0:0:0:
121,162,27961,1,0,0:0:0:0:
216,97,28242,1,0,3:0:0:0:
103,72,28522,1,0,0:0:0:0:
139,181,28803,1,0,0:0:0:0:
76,278,29084,2,0,P|160:295|230:251,1,153.333333333333,2|0,0:0|0:0,0:0:0:0:
278,168,29926,1,0,3:0:0:0:
326,272,30207,1,0,0:0:0:0:
377,169,30487,1,0,0:0:0:0:
428,66,30768,5,2,0:0:0:0:
377,169,31049,1,0,0:0:0:0:
329,65,31329,1,0,0:0:0:0:
220,103,31610,2,0,B|148:87|148:128|69:100,1,153.333333333333,0|0,3:0|0:0,0:0:0:0:
47,213,32452,2,0,L|53:293,2,76.6666666666667,2|0|0,0:0|0:0|0:0,0:0:0:0:
69,100,33295,2,0,B|148:128|148:87|220:103,1,153.333333333333,0|0,3:0|0:0,0:0:0:0:
300,21,34137,5,2,0:0:0:0:
219,102,34417,1,0,0:0:0:0:
298,185,34698,1,0,0:0:0:0:
382,106,34979,2,0,L|467:108,1,76.6666666666667,0|0,3:0|0:0,0:0:0:0:
298,185,35540,1,0,0:0:0:0:
197,240,35821,2,0,L|112:238,2,76.6666666666667,2|0|0,0:0|0:0|0:0,0:0:0:0:
116,322,36663,2,0,P|63:298|52:195,1,153.333333333333,0|0,3:0|0:0,0:0:0:0:
56,96,37505,5,2,0:0:0:0:
106,68,37645,1,0,0:0:0:0:
159,46,37786,1,0,0:0:0:0:
227,139,38066,1,0,0:0:0:0:
259,249,38347,2,0,L|251:332,1,76.6666666666667,0|0,3:0|0:0,0:0:0:0:
341,147,38908,1,0,0:0:0:0:
440,88,39189,2,0,L|448:5,2,76.6666666666667,2|0|0,0:0|0:0|0:0,0:0:0:0:
450,202,40031,2,0,L|442:285,2,76.6666666666667,0|0|0,3:0|0:0|0:0,0:0:0:0:
440,88,40873,5,2,0:0:0:0:
326,80,41153,1,0,0:0:0:0:
297,191,41434,1,0,0:0:0:0:
216,108,41716,2,0,L|134:107,1,76.6666666666667,0|0,3:0|0:0,0:0:0:0:
297,191,42277,1,0,0:0:0:0:
242,292,42558,2,0,P|322:305|382:266,1,153.333333333333,2|0,0:0|0:0,0:0:0:0:
297,191,43400,1,0,3:0:0:0:
184,214,43680,2,0,P|122:226|94:227,1,76.6666666666667,0|0,0:0|0:0,0:0:0:0:
130,113,44242,6,0,P|192:101|220:100,2,76.6666666666667,2|0|0,0:0|0:0|0:0,0:0:0:0:
201,22,45084,2,0,P|239:61|344:53,1,153.333333333333,0|0,3:0|0:0,0:0:0:0:
395,157,45926,2,0,P|333:169|305:170,2,76.6666666666667,2|0|0,0:0|0:0|0:0,0:0:0:0:
324,248,46768,2,0,P|286:209|181:217,1,153.333333333333,0|0,3:0|0:0,0:0:0:0:
157,321,47610,5,2,0:0:0:0:
192,209,47891,1,0,0:0:0:0:
94,147,48172,1,0,0:0:0:0:
197,96,48452,2,0,P|203:46|223:12,1,76.6666666666667,0|0,3:0|0:0,0:0:0:0:
305,112,49014,1,0,0:0:0:0:
304,112,49295,2,0,P|298:162|278:196,2,76.6666666666667,2|0|0,0:0|0:0|0:0,0:0:0:0:
375,210,50137,2,0,P|360:258|335:289,2,76.6666666666667,0|0|0,3:0|0:0|0:0,0:0:0:0:
426,113,50937,6,0,P|440:64|465:33,2,76.6666666666667,2|0|0,0:0|0:0|0:0,0:0:0:0:
476,216,51779,2,0,P|459:288|376:323,1,153.333333333333,0|0,3:0|0:0,0:0:0:0:
280,298,52621,2,0,P|265:346|240:377,2,76.6666666666667,2|0|0,0:0|0:0|0:0,0:0:0:0:
230,195,53463,2,0,P|247:123|330:88,1,153.333333333333,0|0,3:0|0:0,0:0:0:0:
420,46,54305,5,2,0:0:0:0:
312,87,54586,2,0,B|243:70|244:105|155:84,1,153.333333333333,0|0,0:0|3:0,0:0:0:0:
136,199,55428,2,0,L|142:286,1,76.6666666666667
167,64,55989,1,2,0:0:0:0:
51,76,56270,1,0,0:0:0:0:
132,159,56551,1,0,3:0:0:0:
179,51,56831,1,4,0:0:0:0:
135,182,57112,2,0,L|141:269,1,76.6666666666667
340,333,57673,6,0,L|334:256,1,76.6666666666667,2|0,0:0|0:0,0:0:0:0:
411,170,58228,1,0,0:0:0:0:
333,255,58506,1,0,3:0:0:0:
250,174,58784,2,0,L|163:171,1,76.6666666666667,0|0,0:0|0:0,0:0:0:0:
223,67,59339,2,0,L|299:69,1,76.6666666666667,2|0,0:0|0:0,0:0:0:0:
357,169,59895,1,0,0:0:0:0:
299,69,60173,1,0,3:0:0:0:
415,111,60450,2,0,P|437:153|423:211,1,76.6666666666667,0|0,0:0|0:0,0:0:0:0:
368,326,61006,6,0,P|346:284|360:226,2,76.6666666666667,2|0|0,0:0|0:0|0:0,0:0:0:0:
271,204,61839,2,0,L|193:208,2,76.6666666666667,0|0|0,3:0|0:0|0:0,0:0:0:0:
357,128,62673,1,2,0:0:0:0:
439,209,62950,1,0,0:0:0:0:
502,112,63228,1,0,0:0:0:0:
334,124,63506,1,0,3:0:0:0:
400,27,63783,1,0,0:0:0:0:
481,108,64061,1,0,0:0:0:0:
262,40,64339,6,0,L|171:51,1,76.6666666666667,2|0,0:0|0:0,0:0:0:0:
46,65,64895,1,0,0:0:0:0:
127,145,65173,1,0,3:0:0:0:
41,221,65450,2,0,L|41:312,1,76.6666666666667,0|0,0:0|0:0,0:0:0:0:
139,237,66006,2,0,P|189:218|287:253,1,153.333333333333,2|0,0:0|0:0,0:0:0:0:
345,342,66839,1,0,3:0:0:0:
378,231,67117,2,0,L|379:154,1,76.6666666666667
449,28,67673,6,0,L|448:105,2,76.6666666666667,2|0|0,0:0|0:0|0:0,0:0:0:0:
319,101,68506,2,0,L|320:24,2,76.6666666666667
201,154,69339,1,2,0:0:0:0:
281,236,69617,1,0,0:0:0:0:
184,299,69895,1,0,0:0:0:0:
117,181,70173,1,4,0:0:0:0:
10,257,70451,1,0,0:0:0:0:
102,343,70728,1,0,0:0:0:0:
115,99,71006,6,0,P|65:114|38:153,1,76.6666666666667,2|0,0:0|0:0,0:0:0:0:
221,114,71561,1,0,0:0:0:0:
117,181,71839,1,0,3:0:0:0:
246,193,72117,2,0,P|274:177|301:125,1,76.6666666666667
151,263,72673,2,0,L|158:346,1,76.6666666666667,2|0,0:0|0:0,0:0:0:0:
239,270,73228,1,0,0:0:0:0:
117,181,73506,1,0,3:0:0:0:
249,139,73784,2,0,L|242:56,1,76.6666666666667,0|0,0:0|0:0,0:0:0:0:
353,91,74339,6,0,L|360:174,2,76.6666666666667,2|0|0,0:0|0:0|0:0,0:0:0:0:
467,107,75173,2,0,L|460:30,2,76.6666666666667,0|0|0,3:0|0:0|0:0,0:0:0:0:
461,221,76006,1,4,0:0:0:0:
359,167,76284,1,0,0:0:0:0:
312,271,76561,1,0,0:0:0:0:
255,108,76839,1,0,3:0:0:0:
359,167,77117,1,0,0:0:0:0:
312,271,77394,1,0,0:0:0:0:
210,216,77673,6,0,P|133:215|71:272,1,153.333333333333,2|0,0:0|0:0,0:0:0:0:
173,322,78506,1,0,3:0:0:0:
76,261,78784,2,0,P|61:189|64:170,1,76.6666666666667,0|0,0:0|0:0,0:0:0:0:
124,63,79339,2,0,P|139:135|136:154,1,76.6666666666667,2|0,0:0|0:0,0:0:0:0:
247,176,79895,2,0,L|330:184,2,76.6666666666667,0|0|0,0:0|3:0|0:0,0:0:0:0:
138,137,80728,1,0,0:0:0:0:
171,312,81006,5,2,0:0:0:0:
91,240,81284,1,0,0:0:0:0:
138,137,81561,1,0,0:0:0:0:
190,34,81839,2,0,L|280:39,2,76.6666666666667,0|0|0,3:0|0:0|0:0,0:0:0:0:
138,137,82672,1,2,0:0:0:0:
47,66,82950,1,0,0:0:0:0:
45,181,83228,1,0,0:0:0:0:
188,207,83506,1,0,0:0:0:0:
184,316,83784,1,0,0:0:0:0:
84,261,84062,1,0,3:0:0:0:
255,352,84339,6,0,P|256:284|233:250,2,76.6666666666667,2|0|0,0:0|0:0|0:0,0:0:0:0:
339,346,85172,2,0,P|335:269|294:201,1,153.333333333333,0|0,3:0|0:0,0:0:0:0:
197,69,86006,1,2,0:0:0:0:
131,122,86284,1,0,0:0:0:0:
195,175,86561,1,0,0:0:0:0:
110,231,86839,1,0,0:0:0:0:
221,309,87117,1,0,0:0:0:0:
85,337,87395,1,0,3:0:0:0:
256,192,87672,12,0,88922,0:0:0:0:
