osu file format v14

[General]
AudioFilename: audio.mp3
AudioLeadIn: 0
PreviewTime: 57673
Countdown: 0
SampleSet: Soft
StackLeniency: 0.7
Mode: 0
LetterboxInBreaks: 0
WidescreenStoryboard: 0

[Editor]
DistanceSpacing: 1
BeatDivisor: 6
GridSize: 32
TimelineZoom: 1

[Metadata]
Title:Hajimari no Shirushi (Anime Size)
TitleUnicode:はじまりのしるし (Anime Size)
Artist:Chima
ArtistUnicode:Chima
Creator:Lilyanna
Version:Easy
Source:ゼロから始める魔法の書
Tags:magic witch witchcraft sorcery furry furries mercenary beastfallen ezek Zero Kara Hajimeru Mahou no Sho Ending ED
BeatmapID:1292078
BeatmapSetID:612207

[Difficulty]
HPDrainRate:3
CircleSize:3.5
OverallDifficulty:3
ApproachRate:3
SliderMultiplier:1.4
SliderTickRate:1

[Events]
//Background and Video events
0,0,"B1.jpg",0,0
Video,0,"zero.avi"
//Break Periods
//Storyboard Layer 0 (Background)
//Storyboard Layer 1 (Fail)
//Storyboard Layer 2 (Pass)
//Storyboard Layer 3 (Foreground)
//Storyboard Sound Samples

[TimingPoints]
3869,839.160839160839,4,2,1,40,1,0
17295,842.105263157895,4,2,1,40,1,0
50137,800,4,2,1,40,1,0
50937,842.105263157895,4,2,1,40,1,0
57673,833.333333333333,4,2,1,55,1,1
57673,-100,4,2,1,55,0,1
84339,-100,4,2,1,55,0,0
88922,-100,4,2,1,5,0,0

[Colours]
Combo1 : 119,119,187
Combo2 : 0,164,82
Combo3 : 0,118,236
Combo4 : 255,149,98

[HitObjects]
274,63,3869,6,0,P|340:73|409:149,1,140,4|0,0:0|3:0,0:0:0:0:
283,204,5547,1,2,0:0:0:0:
143,201,6386,1,0,3:0:0:0:
154,64,7225,2,0,P|88:74|24:137,1,140,2|0,0:0|3:0,0:0:0:0:
143,201,8903,2,0,B|147:274|147:274|91:328,1,140,2|0,0:0|3:0,0:0:0:0:
35,195,10582,6,0,B|31:122|31:122|87:68,2,140,2|0|2,0:0|3:0|0:0,0:0:0:0:
99,321,13099,1,0,3:0:0:0:
155,193,13938,2,0,B|229:183|229:183|297:188,1,140,2|0,0:0|3:0,0:0:0:0:
297,327,15617,2,0,B|223:337|223:337|155:332,1,140,4|0,0:0|3:0,0:0:0:0:
44,257,17295,5,2,0:0:0:0:
163,181,18137,2,0,P|182:124|156:33,1,140,0|2,3:0|0:0,0:0:0:0:
41,111,19821,1,0,3:0:0:0:
92,241,20663,2,0,P|150:258|239:232,2,140,2|0|2,0:0|3:0|0:0,0:0:0:0:
158,116,23189,1,0,3:0:0:0:
285,57,24031,6,0,B|332:52|332:52|376:58|376:58|437:55,1,140,2|0,0:0|3:0,0:0:0:0:
442,194,25716,2,0,B|393:196|393:196|349:190|349:190|302:195,1,140,2|0,0:0|3:0,0:0:0:0:
163,212,27400,2,0,P|163:286|197:348,2,140,2|0|2,0:0|3:0|0:0,0:0:0:0:
247,100,29926,1,0,3:0:0:0:
122,36,30768,5,2,0:0:0:0:
34,145,31610,2,0,B|26:231|26:231|47:301,1,140,0|2,3:0|0:0,0:0:0:0:
159,357,33295,1,0,3:0:0:0:
293,317,34137,2,0,P|379:303|431:323,2,140,2|0|2,0:0|3:0|0:0,0:0:0:0:
156,344,36663,1,0,3:0:0:0:
154,204,37505,6,0,B|159:134|153:54,1,140,2|0,0:0|3:0,0:0:0:0:
13,64,39189,2,0,B|8:134|14:214,1,140,2|0,0:0|3:0,0:0:0:0:
116,298,40873,2,0,B|175:284|175:284|252:300,1,140,2|0,0:0|3:0,0:0:0:0:
320,178,42558,2,0,B|379:191|379:191|428:178,2,93.3333333333333,2|0|0,0:0|3:0|0:0,0:0:0:0:
349,89,44242,6,0,P|297:88|232:147,1,140,2|0,0:0|3:0,0:0:0:0:
300,266,45926,2,0,P|252:315|184:320,1,140,2|0,0:0|3:0,0:0:0:0:
70,234,47610,2,0,B|68:145|68:145|87:83,2,140,2|0|2,0:0|3:0|0:0,0:0:0:0:
189,321,50137,1,0,3:0:0:0:
268,214,50937,6,0,B|263:137|263:137|288:76,1,140,2|0,0:0|3:0,0:0:0:0:
426,82,52621,2,0,B|449:140|449:140|444:217,1,140,2|0,0:0|3:0,0:0:0:0:
368,335,54305,2,0,B|292:312|292:347|226:330,1,140,2|0,0:0|3:0,0:0:0:0:
120,243,55989,1,2,0:0:0:0:
247,184,56831,1,4,0:0:0:0:
380,232,57673,6,0,B|376:180|376:180|381:138|381:138|372:84,1,140,2|0,0:0|3:0,0:0:0:0:
244,37,59339,2,0,B|175:50|175:50|100:35,1,140,2|0,0:0|3:0,0:0:0:0:
15,142,61006,2,0,B|22:186|22:186|17:228|17:228|21:280,1,140,2|0,0:0|3:0,0:0:0:0:
144,348,62673,1,2,0:0:0:0:
131,208,63506,1,0,3:0:0:0:
246,289,64339,6,0,P|323:301|388:292,1,140,2|0,0:0|3:0,0:0:0:0:
477,188,66006,2,0,P|489:111|480:46,1,140,2|0,0:0|3:0,0:0:0:0:
355,111,67673,2,0,B|287:90|287:122|212:105,1,140,2|0,0:0|0:0,0:0:0:0:
91,42,69339,1,2,0:0:0:0:
122,178,70173,1,4,0:0:0:0:
52,299,71006,6,0,B|97:309|97:309|143:303|143:303|204:310,1,140,2|0,0:0|3:0,0:0:0:0:
330,315,72673,2,0,B|377:309|377:309|423:315|423:315|468:305,1,140,2|0,0:0|3:0,0:0:0:0:
420,173,74339,2,0,P|430:109|400:31,1,140,2|0,0:0|3:0,0:0:0:0:
288,119,76006,1,4,0:0:0:0:
158,66,76839,1,0,3:0:0:0:
53,158,77673,6,0,B|70:230|54:304,1,140,2|0,0:0|3:0,0:0:0:0:
196,328,79339,2,0,B|266:307|341:329,1,140,2|0,0:0|3:0,0:0:0:0:
468,284,81006,2,0,B|443:209|470:145,1,140,2|0,0:0|3:0,0:0:0:0:
377,40,82672,1,2,0:0:0:0:
321,168,83506,1,0,3:0:0:0:
241,55,84339,6,0,P|181:37|98:67,1,140,2|0,0:0|3:0,0:0:0:0:
256,192,86006,12,0,88922,0:0:0:0:
