osu file format v14

[General]
AudioFilename: audio.mp3
AudioLeadIn: 0
PreviewTime: 57673
Countdown: 0
SampleSet: Soft
StackLeniency: 0.7
Mode: 0
LetterboxInBreaks: 0
WidescreenStoryboard: 0

[Editor]
DistanceSpacing: 1.3
BeatDivisor: 6
GridSize: 32
TimelineZoom: 1

[Metadata]
Title:Hajimari no Shirushi (Anime Size)
TitleUnicode:はじまりのしるし (Anime Size)
Artist:Chima
ArtistUnicode:Chima
Creator:Lilyanna
Version:Advanced
Source:ゼロから始める魔法の書
Tags:magic witch witchcraft sorcery furry furries mercenary beastfallen ezek Zero Kara Hajimeru Mahou no Sho Ending ED
BeatmapID:1292077
BeatmapSetID:612207

[Difficulty]
HPDrainRate:6
CircleSize:3.9
OverallDifficulty:6
ApproachRate:6
SliderMultiplier:2
SliderTickRate:1

[Events]
//Background and Video events
Video,0,"zero.avi"
0,0,"B3.png",0,0
//Break Periods
//Storyboard Layer 0 (Background)
//Storyboard Layer 1 (Fail)
//Storyboard Layer 2 (Pass)
//Storyboard Layer 3 (Foreground)
//Storyboard Sound Samples

[TimingPoints]
3869,839.160839160839,4,2,1,40,1,0
17295,842.105263157895,4,2,1,40,1,0
50137,800,4,2,1,40,1,0
50937,842.105263157895,4,2,1,40,1,0
57673,833.333333333333,4,2,1,55,1,1
57673,-100,4,2,1,55,0,1
84339,-100,4,2,1,55,0,0
88922,-100,4,2,1,5,0,0

[Colours]
Combo1 : 131,131,131
Combo2 : 128,128,192
Combo3 : 255,72,72
Combo4 : 184,113,255

[HitObjects]
93,49,3869,5,4,0:0:0:0:
59,128,4148,1,0,0:0:0:0:
145,116,4428,1,0,0:0:0:0:
223,79,4708,2,0,P|230:127|163:202,1,133.333333333333,0|0,3:0|0:0,0:0:0:0:
109,238,5547,2,0,L|40:245,2,66.6666666666667,2|0|0,0:0|0:0|0:0,0:0:0:0:
182,284,6386,2,0,L|251:291,2,66.6666666666667,0|0|0,3:0|0:0|0:0,0:0:0:0:
109,237,7225,5,2,0:0:0:0:
163,169,7505,1,0,0:0:0:0:
105,103,7785,1,0,0:0:0:0:
171,48,8064,2,0,L|240:41,2,66.6666666666667,0|0|0,3:0|0:0|0:0,0:0:0:0:
105,103,8903,1,2,0:0:0:0:
163,169,9183,1,0,0:0:0:0:
109,237,9463,1,0,0:0:0:0:
116,323,9743,2,0,L|47:330,2,66.6666666666667,0|0|0,3:0|0:0|0:0,0:0:0:0:
193,283,10582,5,2,0:0:0:0:
270,321,10862,1,0,0:0:0:0:
348,284,11141,1,0,0:0:0:0:
383,205,11421,2,0,P|385:164|376:128,1,66.6666666666667,0|0,3:0|0:0,0:0:0:0:
360,54,11980,1,0,0:0:0:0:
286,100,12260,2,0,P|221:115|150:91,1,133.333333333333,2|0,0:0|0:0,0:0:0:0:
98,158,13099,2,0,P|113:223|89:294,1,133.333333333333,0|0,3:0|0:0,0:0:0:0:
153,348,13938,5,2,0:0:0:0:
235,320,14218,1,0,0:0:0:0:
317,347,14498,1,0,0:0:0:0:
398,318,14778,2,0,L|473:318,2,66.6666666666667,0|0|0,3:0|0:0|0:0,0:0:0:0:
349,246,15617,2,0,L|274:246,2,66.6666666666667,4|0|0,0:0|0:0|0:0,0:0:0:0:
398,175,16456,2,0,L|473:175,2,66.6666666666667,0|0|0,3:0|0:0|0:0,0:0:0:0:
329,122,17295,6,0,L|254:122,1,66.6666666666667,2|0,0:0|0:0,0:0:0:0:
175,120,17856,1,0,0:0:0:0:
100,75,18137,2,0,P|85:117|133:198,1,133.333333333333,0|0,3:0|0:0,0:0:0:0:
208,203,18979,2,0,B|242:225|252:270|252:270|290:265|314:272,1,133.333333333333,2|0,0:0|0:0,0:0:0:0:
387,289,19821,2,0,P|441:292|465:299,2,66.6666666666667,0|0|0,3:0|0:0|0:0,0:0:0:0:
403,203,20663,6,0,P|457:206|481:213,2,66.6666666666667,2|0|0,0:0|0:0|0:0,0:0:0:0:
327,159,21505,2,0,P|273:156|249:149,2,66.6666666666667,0|0|0,3:0|0:0|0:0,0:0:0:0:
404,119,22347,1,2,0:0:0:0:
376,36,22628,1,0,0:0:0:0:
299,77,22909,1,0,0:0:0:0:
220,41,23189,2,0,P|166:44|142:51,1,66.6666666666667,0|0,3:0|0:0,0:0:0:0:
72,78,23751,1,0,0:0:0:0:
138,133,24031,6,0,L|141:210,2,66.6666666666667,2|0|0,0:0|0:0|0:0,0:0:0:0:
59,169,24873,2,0,L|62:246,1,66.6666666666667,0|0,3:0|0:0,0:0:0:0:
63,322,25435,1,0,0:0:0:0:
146,300,25716,2,0,B|195:298|195:298|226:304|226:304|287:299,1,133.333333333333,2|0,0:0|0:0,0:0:0:0:
364,308,26558,1,0,3:0:0:0:
424,246,26838,1,0,0:0:0:0:
379,171,27119,1,0,0:0:0:0:
295,194,27400,6,0,P|289:155|291:114,2,66.6666666666667,2|0|0,0:0|0:0|0:0,0:0:0:0:
211,169,28242,2,0,P|211:129|220:89,2,66.6666666666667,0|0|0,3:0|0:0|0:0,0:0:0:0:
147,228,29084,2,0,P|101:249|79:344,1,133.333333333333,2|0,0:0|0:0,0:0:0:0:
160,314,29926,1,0,3:0:0:0:
227,260,30207,1,0,0:0:0:0:
248,343,30487,1,0,0:0:0:0:
311,284,30768,6,0,L|384:286,2,66.6666666666667,2|0|0,0:0|0:0|0:0,0:0:0:0:
294,198,31610,2,0,L|432:201,1,133.333333333333,0|0,3:0|0:0,0:0:0:0:
471,126,32452,2,0,P|470:71|479:49,2,66.6666666666667,2|0|0,0:0|0:0|0:0,0:0:0:0:
383,125,33295,2,0,B|374:86|386:49|386:49|349:57|322:51,1,133.333333333333,0|0,3:0|0:0,0:0:0:0:
246,77,34137,6,0,P|203:80|166:73,2,66.6666666666667,2|0|0,0:0|0:0|0:0,0:0:0:0:
240,163,34979,2,0,P|197:166|160:159,1,66.6666666666667,0|0,3:0|0:0,0:0:0:0:
101,114,35540,1,0,0:0:0:0:
82,199,35821,2,0,L|78:276,2,66.6666666666667,2|0|0,0:0|0:0|0:0,0:0:0:0:
101,114,36663,2,0,P|152:75|225:88,1,133.333333333333,0|0,3:0|0:0,0:0:0:0:
300,108,37505,6,0,P|336:112|377:107,2,66.6666666666667,2|0|0,0:0|0:0|0:0,0:0:0:0:
217,83,38347,1,0,3:0:0:0:
238,166,38628,1,0,0:0:0:0:
205,246,38909,1,0,0:0:0:0:
122,271,39189,2,0,P|153:315|246:322,1,133.333333333333,2|0,0:0|0:0,0:0:0:0:
307,294,40031,2,0,P|343:290|384:295,2,66.6666666666667,0|0|0,3:0|0:0|0:0,0:0:0:0:
228,329,40873,5,2,0:0:0:0:
236,242,41154,1,0,0:0:0:0:
314,205,41435,1,0,0:0:0:0:
354,128,41716,2,0,P|356:89|352:54,1,66.6666666666667,0|0,3:0|0:0,0:0:0:0:
278,17,42277,1,0,0:0:0:0:
244,96,42558,2,0,P|186:108|99:93,1,133.333333333333,2|0,0:0|0:0,0:0:0:0:
46,42,43400,1,0,3:0:0:0:
37,128,43680,2,0,L|46:213,1,66.6666666666667,0|0,0:0|0:0,0:0:0:0:
57,282,44242,6,0,B|98:275|121:239|121:239|137:264|189:279,1,133.333333333333,2|0,0:0|0:0,0:0:0:0:
189,187,45084,1,0,3:0:0:0:
304,316,45645,1,0,0:0:0:0:
390,309,45926,2,0,P|356:247|288:229,1,133.333333333333,2|0,0:0|0:0,0:0:0:0:
302,141,46768,2,0,P|363:118|392:60,1,133.333333333333,0|0,3:0|0:0,0:0:0:0:
305,53,47610,5,2,0:0:0:0:
229,98,47891,1,0,0:0:0:0:
156,49,48172,1,0,0:0:0:0:
84,98,48452,2,0,L|76:189,1,66.6666666666667,0|0,3:0|0:0,0:0:0:0:
83,251,49014,1,0,0:0:0:0:
155,203,49295,2,0,L|160:136,2,66.6666666666667,2|0|0,0:0|0:0|0:0,0:0:0:0:
232,250,50137,2,0,L|224:341,2,66.6666666666667,0|0|0,3:0|0:0|0:0,0:0:0:0:
289,190,50937,6,0,L|294:123,1,66.6666666666667,2|0,0:0|0:0,0:0:0:0:
351,58,51498,1,0,0:0:0:0:
397,131,51779,2,0,L|387:274,1,133.333333333333,0|0,3:0|0:0,0:0:0:0:
304,294,52621,2,0,L|226:303,1,66.6666666666667,2|0,0:0|0:0,0:0:0:0:
151,307,53182,1,0,0:0:0:0:
70,274,53463,2,0,B|67:223|67:223|74:184|74:184|66:138,1,133.333333333333,0|0,3:0|0:0,0:0:0:0:
29,63,54305,5,2,0:0:0:0:
115,72,54586,2,0,B|180:64|180:87|262:70,1,133.333333333333,0|0,0:0|3:0,0:0:0:0:
330,45,55428,1,0,0:0:0:0:
311,129,55708,1,0,0:0:0:0:
321,215,55989,2,0,L|323:301,2,66.6666666666667,2|0|0,0:0|0:0|3:0,0:0:0:0:
311,129,56831,1,4,0:0:0:0:
390,163,57112,2,0,L|476:165,1,66.6666666666667,0|0,0:0|0:0,0:0:0:0:
491,245,57673,6,0,L|338:241,1,133.333333333333,2|0,0:0|0:0,0:0:0:0:
375,326,58506,1,0,3:0:0:0:
288,321,58784,2,0,L|221:319,1,66.6666666666667,0|0,0:0|0:0,0:0:0:0:
154,376,59339,2,0,P|137:343|171:246,1,133.333333333333,2|0,0:0|0:0,0:0:0:0:
193,174,60173,1,0,3:0:0:0:
130,114,60450,2,0,L|63:112,1,66.6666666666667,0|0,0:0|0:0,0:0:0:0:
24,34,61006,6,0,L|177:39,1,133.333333333333,2|0,0:0|0:0,0:0:0:0:
243,38,61839,1,0,3:0:0:0:
208,118,62117,1,0,0:0:0:0:
251,194,62395,1,0,0:0:0:0:
185,250,62673,2,0,L|113:253,2,66.6666666666667,2|0|0,0:0|0:0|0:0,0:0:0:0:
257,299,63506,2,0,L|329:302,2,66.6666666666667,0|0|0,3:0|0:0|0:0,0:0:0:0:
303,225,64339,6,0,L|448:231,1,133.333333333333,2|0,0:0|0:0,0:0:0:0:
485,158,65173,1,0,3:0:0:0:
399,148,65450,2,0,L|316:144,1,66.6666666666667,0|0,0:0|0:0,0:0:0:0:
245,154,66006,2,0,P|255:104|324:57,1,133.333333333333,2|0,0:0|0:0,0:0:0:0:
406,57,66839,2,0,L|474:53,2,66.6666666666667,0|0|0,3:0|0:0|0:0,0:0:0:0:
318,57,67673,6,0,L|179:51,1,133.333333333333,2|0,0:0|0:0,0:0:0:0:
210,134,68506,2,0,L|142:130,2,66.6666666666667
261,204,69339,1,2,0:0:0:0:
214,277,69617,1,0,0:0:0:0:
253,357,69895,1,0,0:0:0:0:
314,292,70173,2,0,L|382:296,2,66.6666666666667,4|0|0,0:0|0:0|0:0,0:0:0:0:
346,211,71006,6,0,L|480:220,1,133.333333333333,2|0,0:0|0:0,0:0:0:0:
500,135,71839,1,0,3:0:0:0:
420,99,72117,2,0,L|416:32,1,66.6666666666667,0|0,0:0|0:0,0:0:0:0:
329,28,72673,2,0,L|340:166,1,133.333333333333,2|0,0:0|0:0,0:0:0:0:
400,222,73506,1,0,3:0:0:0:
340,285,73784,2,0,L|273:281,1,66.6666666666667,0|0,0:0|0:0,0:0:0:0:
211,341,74339,6,0,P|187:294|223:211,1,133.333333333333,2|0,0:0|0:0,0:0:0:0:
271,158,75173,2,0,L|276:81,2,66.6666666666667,0|0|0,3:0|0:0|0:0,0:0:0:0:
210,221,76006,1,4,0:0:0:0:
159,150,76284,1,0,0:0:0:0:
109,220,76561,1,0,0:0:0:0:
49,156,76839,2,0,L|44:79,2,66.6666666666667,0|0|0,3:0|0:0|0:0,0:0:0:0:
30,245,77673,6,0,P|58:287|143:298,1,133.333333333333,2|0,0:0|0:0,0:0:0:0:
109,220,78506,1,0,3:0:0:0:
195,228,78784,2,0,L|261:223,1,66.6666666666667,0|0,0:0|0:0,0:0:0:0:
317,290,79339,2,0,L|383:285,2,66.6666666666667,2|0|0,0:0|0:0|0:0,0:0:0:0:
261,222,80172,1,0,3:0:0:0:
311,151,80450,2,0,L|378:146,1,66.6666666666667,0|0,0:0|0:0,0:0:0:0:
445,201,81006,6,0,L|512:196,2,66.6666666666667,2|0|0,0:0|0:0|0:0,0:0:0:0:
436,287,81839,2,0,L|502:282,2,66.6666666666667,0|0|0,3:0|0:0|0:0,0:0:0:0:
349,277,82672,1,2,0:0:0:0:
273,320,82950,1,0,0:0:0:0:
198,276,83228,1,0,0:0:0:0:
112,292,83506,2,0,L|46:287,2,66.6666666666667,0|0|0,3:0|0:0|0:0,0:0:0:0:
118,205,84339,6,0,L|184:200,2,66.6666666666667,2|0|0,0:0|0:0|0:0,0:0:0:0:
82,126,85172,2,0,L|214:115,1,133.333333333333,0|0,3:0|0:0,0:0:0:0:
256,192,86006,12,0,88922,0:0:0:0:
