osu file format v14

[General]
AudioFilename: audio.mp3
AudioLeadIn: 0
PreviewTime: -1
Countdown: 1
SampleSet: Normal
StackLeniency: 0.7
Mode: 0
LetterboxInBreaks: 0
WidescreenStoryboard: 0

[Editor]
DistanceSpacing: 1.6
BeatDivisor: 4
GridSize: 4
TimelineZoom: 1

[Metadata]
Title:The Final Blow
TitleUnicode:The Final Blow
Artist:ChillaKu
ArtistUnicode:ChillaKu
Creator:DeZpair
Version:Chill
Source:
Tags:Chill, Oriental
BeatmapID:1434248
BeatmapSetID:678298

[Difficulty]
HPDrainRate:6
CircleSize:3.7
OverallDifficulty:8
ApproachRate:8
SliderMultiplier:1.4
SliderTickRate:1

[Events]
//Background and Video events
0,0,"stock-photo-4732122.jpg",0,0
//Break Periods
//Storyboard Layer 0 (Background)
//Storyboard Layer 1 (Fail)
//Storyboard Layer 2 (Pass)
//Storyboard Layer 3 (Foreground)
//Storyboard Sound Samples

[TimingPoints]
4781.31868131868,333.333333333333,4,1,0,100,1,0
29764,-66.6666666666667,4,1,0,100,0,0
62130,-100,4,1,0,100,0,0
112447,-66.6666666666667,4,1,0,100,0,0
113762,-100,4,1,0,100,0,0

[HitObjects]
256,192,463,12,0,2463,0:0:0:0:
68,188,4785,5,0,0:0:0:0:
236,72,5114,2,0,L|280:72,1,35
312,196,5781,2,0,L|356:196,1,35
320,228,5947,2,0,L|364:228,1,35
452,288,7281,2,0,P|432:288|416:288,1,35
408,288,7447,1,0,0:0:0:0:
380,288,7614,2,0,L|308:288,1,70
136,232,8447,2,0,P|156:232|172:232,1,35
192,232,8614,1,0,0:0:0:0:
216,232,8780,5,0,0:0:0:0:
236,296,9114,2,0,P|292:244|256:192,1,140
208,112,10031,2,0,L|252:112,1,35
352,112,10447,1,0,0:0:0:0:
340,160,11114,2,0,P|336:220|280:240,1,105
264,204,11781,1,0,0:0:0:0:
264,204,11947,1,0,0:0:0:0:
260,200,12114,2,0,P|208:148|268:104,1,140
416,96,12781,5,0,0:0:0:0:
384,192,13447,2,0,L|340:192,1,35
288,88,13947,2,0,L|244:88,1,35
288,68,14114,2,0,L|144:68,1,140
92,72,14781,1,0,0:0:0:0:
100,224,15114,1,0,0:0:0:0:
304,68,15447,1,0,0:0:0:0:
512,196,15781,2,0,L|476:196,1,35
384,192,16447,1,0,0:0:0:0:
356,192,16614,6,0,L|284:192,1,70
284,192,16947,1,0,0:0:0:0:
256,168,17114,2,0,P|200:120|128:120,1,140
172,184,17947,1,0,0:0:0:0:
172,312,18114,1,0,0:0:0:0:
112,192,18281,2,0,P|64:212|76:248,1,70
116,288,18781,1,0,0:0:0:0:
248,292,19114,6,0,L|332:232,1,70
320,124,19447,1,0,0:0:0:0:
176,72,19614,1,0,0:0:0:0:
256,240,19781,2,0,B|348:296|340:288,2,70
144,168,20447,2,0,L|200:116,1,70
240,72,20781,1,0,0:0:0:0:
408,124,21114,2,0,P|372:240|336:256,1,140
196,256,21781,2,0,L|116:256,1,70
88,256,22114,1,0,0:0:0:0:
88,164,22447,2,0,L|124:164,1,35
88,136,22781,2,0,L|180:136,1,70
288,168,23447,1,0,0:0:0:0:
224,264,24114,1,0,0:0:0:0:
116,244,24447,5,0,0:0:0:0:
104,224,24614,6,0,L|52:224,1,35
108,192,25114,2,0,L|192:104,1,105
256,64,25781,1,0,0:0:0:0:
412,184,26114,1,0,0:0:0:0:
412,224,26447,2,0,L|376:224,1,35
296,220,26781,1,0,0:0:0:0:
184,224,27114,2,0,L|148:224,1,35
172,204,27281,2,0,L|136:204,1,35
56,196,27447,5,0,0:0:0:0:
132,116,27614,1,0,0:0:0:0:
216,208,27781,1,0,0:0:0:0:
312,120,28114,1,0,0:0:0:0:
252,248,28447,1,0,0:0:0:0:
252,248,28614,1,0,0:0:0:0:
248,240,28781,2,0,L|208:240,1,35
220,212,29114,2,0,L|180:212,1,35
136,244,29447,1,0,0:0:0:0:
60,192,29781,6,0,L|96:192,1,35
64,208,29947,2,0,L|100:208,1,35
72,232,30114,2,0,L|108:232,1,35
80,256,30281,2,0,L|116:256,1,35
88,276,30447,2,0,L|124:276,1,35
168,252,30781,2,0,P|240:216|216:176,1,140
196,104,31447,1,0,0:0:0:0:
272,60,31614,2,0,P|328:92|320:132,1,105.000004005432
156,212,32114,5,0,0:0:0:0:
260,280,32447,2,0,P|352:272|364:228,1,105.000004005432
396,196,33114,1,0,0:0:0:0:
396,196,33281,1,0,0:0:0:0:
396,196,33447,1,0,0:0:0:0:
356,88,33781,2,0,P|272:60|176:124,1,210.000008010865
312,264,34447,1,0,0:0:0:0:
392,168,34781,1,0,0:0:0:0:
312,264,35114,5,0,0:0:0:0:
312,144,35281,1,0,0:0:0:0:
312,144,35447,2,0,P|236:108|144:188,1,210.000008010865
124,72,36114,1,0,0:0:0:0:
16,144,36447,1,0,0:0:0:0:
48,248,36781,2,0,P|140:304|244:268,1,210.000008010865
276,216,37447,2,0,P|336:128|432:124,1,210.000008010865
484,224,38114,2,0,P|372:308|272:268,1,210.000008010865
300,208,38781,6,0,P|152:124|84:148,1,210.000008010865
52,256,39447,2,0,B|136:120|212:408|256:108|312:268|364:200|464:272,1,420.000016021729
452,188,40447,1,0,0:0:0:0:
452,188,40614,1,0,0:0:0:0:
452,188,40781,1,0,0:0:0:0:
368,100,41114,2,0,P|248:88|156:168,1,210.000008010865
104,216,41781,1,0,0:0:0:0:
184,276,42114,2,0,P|432:268|424:136,1,420.000016021729
288,96,43114,5,0,0:0:0:0:
288,96,43281,1,0,0:0:0:0:
288,96,43447,2,0,P|148:128|132:184,1,210.000008010865
240,256,44114,1,0,0:0:0:0:
244,252,44281,2,0,L|296:252,1,52.5000020027161
244,252,44447,2,0,L|300:252,1,52.5000020027161
432,208,44781,1,0,0:0:0:0:
356,104,45114,2,0,P|248:64|136:120,1,210.000008010865
80,156,45781,5,0,0:0:0:0:
80,156,45947,2,0,P|248:168|280:208,1,210.000008010865
404,280,46781,2,0,P|316:328|224:252,1,210.000008010865
136,168,47447,2,0,B|288:68|248:104,1,105.000004005432
248,96,47781,1,0,0:0:0:0:
404,176,48114,1,0,0:0:0:0:
312,276,48281,1,0,0:0:0:0:
280,160,48447,1,0,0:0:0:0:
188,160,48781,6,0,B|180:236|96:200|84:180,1,105.000004005432
40,180,49114,1,0,0:0:0:0:
48,80,49447,2,0,P|200:96|192:136,1,210.000008010865
204,100,50114,2,0,P|316:128|380:60,1,210.000008010865
432,192,50781,1,0,0:0:0:0:
276,176,50947,1,0,0:0:0:0:
356,304,51114,1,0,0:0:0:0:
200,320,51447,1,0,0:0:0:0:
140,232,51781,2,0,P|96:160|216:84,1,210.000008010865
336,80,52281,1,0,0:0:0:0:
332,220,52781,6,0,P|220:280|120:240,1,210.000008010865
96,224,53447,1,0,0:0:0:0:
96,108,53781,2,0,P|252:68|308:96,1,210.000008010865
296,204,54447,2,0,P|160:248|68:204,1,210.000008010865
40,196,54947,1,0,0:0:0:0:
40,196,55114,1,0,0:0:0:0:
140,92,55447,2,0,P|100:204|168:244,1,210.000008010865
256,284,56114,2,0,P|404:216|392:148,1,210.000008010865
260,84,56781,6,0,P|160:116|92:224,1,210.000008010865
296,216,59781,2,0,L|340:248,8,52.5000020027161
232,216,60781,1,0,0:0:0:0:
88,152,61114,1,0,0:0:0:0:
244,72,61447,1,0,0:0:0:0:
112,240,61781,1,0,0:0:0:0:
120,108,62114,2,0,L|164:92,9,35
304,92,63114,1,0,0:0:0:0:
304,92,63281,1,0,0:0:0:0:
304,92,63447,1,0,0:0:0:0:
384,208,63781,5,0,0:0:0:0:
216,180,64114,1,0,0:0:0:0:
296,316,64447,1,0,0:0:0:0:
180,284,64781,2,0,P|136:220|176:180,1,140
169,181,65447,2,0,L|213:157,3,35
260,124,66114,1,0,0:0:0:0:
340,232,66447,1,0,0:0:0:0:
392,88,66781,2,0,P|312:64|256:72,1,140
132,112,67447,5,0,0:0:0:0:
180,220,67781,1,0,0:0:0:0:
256,164,67947,1,0,0:0:0:0:
176,216,68114,1,0,0:0:0:0:
280,296,68447,1,0,0:0:0:0:
104,280,68781,2,0,P|64:204|108:156,1,140
208,160,69447,2,0,L|264:144,4,35
360,88,70114,1,0,0:0:0:0:
456,192,70447,5,0,0:0:0:0:
364,300,70781,1,0,0:0:0:0:
320,176,71114,1,0,0:0:0:0:
284,304,71447,1,0,0:0:0:0:
240,180,71781,1,0,0:0:0:0:
196,304,72114,1,0,0:0:0:0:
96,220,72447,1,0,0:0:0:0:
96,220,72781,2,0,L|48:216,8,35
88,132,73781,5,0,0:0:0:0:
88,132,73947,1,0,0:0:0:0:
88,132,74114,1,0,0:0:0:0:
272,96,74447,2,0,P|344:128|328:184,1,140
184,260,75114,1,0,0:0:0:0:
120,196,75447,2,0,P|124:144|212:112,1,140
372,116,76114,1,0,0:0:0:0:
436,256,76447,1,0,0:0:0:0:
288,208,76781,1,0,0:0:0:0:
388,152,77114,1,0,0:0:0:0:
296,300,77447,1,0,0:0:0:0:
452,268,77781,1,0,0:0:0:0:
268,176,78114,6,0,P|260:104|196:88,1,140
112,112,78614,1,0,0:0:0:0:
52,196,78781,1,0,0:0:0:0:
152,284,79114,2,0,P|256:236|256:212,1,140
256,116,79781,1,0,0:0:0:0:
352,200,79947,1,0,0:0:0:0:
224,220,80114,1,0,0:0:0:0:
380,96,80447,1,0,0:0:0:0:
396,236,80781,1,0,0:0:0:0:
176,232,81114,5,0,0:0:0:0:
308,112,81281,1,0,0:0:0:0:
300,264,81447,1,0,0:0:0:0:
168,108,81781,1,0,0:0:0:0:
112,212,82114,2,0,P|204:272|256:272,1,140
320,248,82781,1,0,0:0:0:0:
316,28,83114,1,0,0:0:0:0:
96,32,83447,1,0,0:0:0:0:
92,248,83781,5,0,0:0:0:0:
240,244,84114,1,0,0:0:0:0:
240,104,84447,1,0,0:0:0:0:
88,104,84781,2,0,L|40:136,12,35
140,232,87447,6,0,P|208:280|260:264,1,140
260,188,88114,2,0,L|336:188,1,70
268,156,88447,2,0,L|344:156,1,70
338,156,88781,1,0,0:0:0:0:
448,160,89114,2,0,P|452:216|376:260,1,140
288,252,89781,2,0,L|244:252,1,35
276,228,89947,2,0,L|232:228,1,35
268,212,90114,2,0,L|224:212,1,35
256,200,90281,2,0,L|176:200,1,70
128,204,90781,5,0,0:0:0:0:
128,116,91114,2,0,L|176:116,1,35
128,100,91281,2,0,L|176:100,1,35
180,100,91447,1,0,0:0:0:0:
232,104,91781,2,0,P|292:136|280:200,1,140
192,208,92447,2,0,P|152:232|180:264,1,70
164,268,92781,1,0,0:0:0:0:
276,268,93114,2,0,L|316:268,1,35
348,268,93447,5,0,0:0:0:0:
452,172,93781,1,0,0:0:0:0:
452,172,93947,1,0,0:0:0:0:
452,172,94114,1,0,0:0:0:0:
260,96,94447,2,0,L|192:96,1,35
256,136,94781,2,0,L|176:136,1,70
80,136,95114,1,0,0:0:0:0:
168,248,95447,1,0,0:0:0:0:
264,132,95781,6,0,P|332:92|392:116,1,140
420,248,96447,1,0,0:0:0:0:
348,304,96614,1,0,0:0:0:0:
232,308,96947,2,0,P|176:272|184:252,1,70
176,152,97447,1,0,0:0:0:0:
308,96,97781,1,0,0:0:0:0:
260,264,98114,1,0,0:0:0:0:
192,192,98447,2,0,L|168:160,1,35
152,92,98781,6,0,P|212:72|292:112,1,140
192,184,99281,2,0,L|160:216,1,35
196,204,99447,2,0,L|164:236,1,35
104,268,99781,1,0,0:0:0:0:
180,140,100114,1,0,0:0:0:0:
272,144,100614,2,0,L|352:144,1,70
342,144,100947,1,0,0:0:0:0:
404,148,101114,2,0,P|452:216|424:272,1,140
328,260,101781,5,0,0:0:0:0:
328,260,101947,1,0,0:0:0:0:
328,260,102114,1,0,0:0:0:0:
192,208,102281,2,0,L|132:136,1,70
248,72,102781,1,0,0:0:0:0:
344,168,103114,1,0,0:0:0:0:
180,232,103447,1,0,0:0:0:0:
144,136,103781,2,0,P|252:96|288:120,1,140
316,188,104447,6,0,L|248:216,1,70
192,248,105114,2,0,L|152:248,1,35
184,224,105447,2,0,L|44:224,1,140
108,112,106114,1,0,0:0:0:0:
240,184,106447,1,0,0:0:0:0:
112,256,106781,1,0,0:0:0:0:
164,120,107114,1,0,0:0:0:0:
288,120,107281,1,0,0:0:0:0:
164,120,107447,5,0,0:0:0:0:
168,156,107614,2,0,P|184:200|220:200,1,70
268,168,108114,1,0,0:0:0:0:
408,172,108447,2,0,P|392:284|356:292,1,140
256,288,108947,1,0,0:0:0:0:
136,288,109114,2,0,P|88:252|96:176,1,140
256,192,109781,2,0,L|332:192,1,70
332,156,110114,2,0,L|240:156,1,70
140,160,110447,5,0,0:0:0:0:
216,84,110614,1,0,0:0:0:0:
284,164,110781,1,0,0:0:0:0:
224,280,111114,2,0,L|308:280,1,70
296,312,111447,2,0,L|200:312,1,70
132,312,111781,1,0,0:0:0:0:
84,192,112114,1,0,0:0:0:0:
188,96,112447,6,0,L|224:96,1,35
192,116,112614,2,0,L|228:116,1,35
196,136,112781,2,0,L|232:136,1,35
204,156,112947,2,0,L|152:156,6,52.5000020027161
120,144,113781,1,0,0:0:0:0:
256,72,114114,1,0,0:0:0:0:
384,152,114447,2,0,L|348:152,1,35
256,128,114781,1,0,0:0:0:0:
144,200,115114,6,0,L|108:200,1,35
112,88,115447,1,0,0:0:0:0:
296,116,115781,2,0,L|236:116,1,35
260,156,116114,2,0,L|424:156,1,140
280,304,116781,2,0,P|196:284|180:212,1,140
192,136,117447,2,0,P|264:92|336:104,1,140
388,184,117947,2,0,P|388:228|356:240,1,70
284,276,118447,1,0,0:0:0:0:
132,224,118781,1,0,0:0:0:0:
