osu file format v14

[General]
AudioFilename: audio.mp3
AudioLeadIn: 0
PreviewTime: 65101
Countdown: 0
SampleSet: Soft
StackLeniency: 0.4
Mode: 0
LetterboxInBreaks: 0
WidescreenStoryboard: 0

[Editor]
Bookmarks: 1226,1976,17976,33976,49976,65976,81976,97976,113976,129976,146207,160670,177899,193899,209899,217899,223399
DistanceSpacing: 1
BeatDivisor: 4
GridSize: 32
TimelineZoom: 1.350002

[Metadata]
Title:Let the Wind Tell You
TitleUnicode:让风告诉你
Artist:ChiliChill feat. Hua Ling, Miao*Jiang, Yan Ning ccccc, kinsen
ArtistUnicode:ChiliChill feat. 花玲,喵☆酱,宴宁ccccc,kinsen
Creator:lit120
Version:Normal
Source:
Tags:Rang Feng Gao Su Ni 米哈游 MiHoYo Genshin Impact 原神 拜年纪 Original Fansong 可莉 Klee 七七 Qiqi 温迪 Venti 魈 Xiao 黑鹿原 Kurattes 冯子明 山口進也 Salit Lahav 胡静成 庞阔 张浩 毕芳 郎莹 李昕达 九紫天诚 YIHE Studio Yu H. YuH_ChiliChill CuSummer Chinese Pop Cpop C-pop -Hakurei-
BeatmapID:2859907
BeatmapSetID:1384241

[Difficulty]
HPDrainRate:5
CircleSize:3.5
OverallDifficulty:5
ApproachRate:5
SliderMultiplier:1.1
SliderTickRate:1

[Events]
//Background and Video events
0,0,"let the wind tell you.jpg",0,0
Video,-200,"genshin fansong.avi"
//Break Periods
2,82176,96776
2,146407,159470
//Storyboard Layer 0 (Background)
//Storyboard Layer 1 (Fail)
//Storyboard Layer 2 (Pass)
//Storyboard Layer 3 (Foreground)
//Storyboard Layer 4 (Overlay)
//Storyboard Sound Samples

[TimingPoints]
-24,500,4,2,1,60,1,0
1226,-100,4,2,1,30,0,0
1976,-100,4,2,1,60,0,0
17976,-100,4,2,2,85,0,0
33976,-100,4,2,1,75,0,0
49976,-100,4,2,3,75,0,0
65976,-100,4,2,2,85,0,1
81976,-100,4,2,1,50,0,0
97976,-100,4,2,3,75,0,0
129976,-100,4,2,2,85,0,1
143726,508.474576271186,4,2,1,85,1,1
143980,521.739130434783,4,2,1,75,1,1
144501,512.820512820513,4,2,1,75,1,1
145013,545.454545454546,4,2,1,75,1,1
145558,560.747663551402,4,2,1,75,1,1
146118,535.714285714286,4,2,1,75,1,1
146207,491.803278688525,4,2,1,75,1,0
146698,560.747663551402,4,2,1,75,1,0
147258,582.52427184466,4,2,1,75,1,0
147840,603.015075376884,4,2,1,75,1,0
148443,588.235294117647,4,2,1,75,1,0
149325,638.297872340426,4,2,1,75,1,0
149963,500,4,2,1,75,1,0
150275,535.714285714286,4,2,1,75,1,0
150364,566.037735849057,4,2,1,75,1,0
150552,750,4,2,1,75,1,0
150677,555.555555555556,4,2,1,75,1,0
150862,714.285714285714,4,2,1,75,1,0
151219,600,4,2,1,75,1,0
151519,705.882352941176,4,2,1,75,1,0
151871,722.89156626506,4,2,1,75,1,0
152111,689.655172413793,4,2,1,75,1,0
152455,800,4,2,1,75,1,0
152721,631.578947368421,4,2,1,75,1,0
153352,612.244897959184,4,2,1,75,1,0
154576,612.244897959184,4,2,1,75,1,0
154882,727.272727272727,4,2,1,75,1,0
155245,600,4,2,1,75,1,0
155845,625,4,2,1,75,1,0
156470,659.340659340659,4,2,1,75,1,0
159766,588.235294117647,4,2,1,50,1,0
160060,638.297872340426,4,2,1,50,1,0
160379,609.137055837563,4,2,1,50,1,0
160670,517.241379310345,4,2,1,50,1,0
161187,547.945205479452,4,2,1,50,1,0
161734,524.017467248908,4,2,1,50,1,0
162520,538.116591928251,4,2,1,50,1,0
162789,508.474576271186,4,2,1,50,1,0
164822,500,4,2,1,50,1,0
167822,413.793103448276,4,2,1,50,1,0
168028,500,4,2,1,50,1,0
168278,545.454545454546,4,2,1,50,1,0
168550,571.428571428571,4,2,1,50,1,0
168835,502.092050209205,4,2,1,65,1,0
172851,500,4,2,1,65,1,0
173601,545.454545454546,4,2,1,65,1,0
174964,500,4,2,1,60,1,0
175464,480,4,2,1,60,1,0
175944,474.308300395257,4,2,1,60,1,0
176181,500,4,2,1,65,1,0
176681,468.75,4,2,1,65,1,0
177149,500,4,2,1,80,1,0
177899,500,4,2,2,90,1,1
193899,-100,4,2,2,80,0,0
201899,-100,4,2,2,75,0,0
209899,-100,4,2,2,70,0,0
214899,-100,4,2,2,67,0,0
215899,-100,4,2,2,65,0,0
216399,-100,4,2,2,60,0,0
216899,-100,4,2,2,55,0,0
217149,-100,4,2,2,50,0,0
217399,-100,4,2,2,45,0,0
217649,-100,4,2,2,40,0,0
217899,-100,4,2,2,30,0,0
218399,-100,4,2,2,27,0,0
218899,-100,4,2,2,25,0,0
219399,-100,4,2,2,22,0,0
219899,-100,4,2,2,20,0,0
220399,-100,4,2,2,17,0,0
220899,-100,4,2,2,15,0,0
221399,-100,4,2,2,12,0,0
221899,-100,4,2,2,10,0,0
222399,-100,4,2,2,7,0,0
222899,-100,4,2,2,5,0,0

[Colours]
Combo1 : 105,124,129
Combo2 : 126,211,154
Combo3 : 202,191,230
Combo4 : 205,84,84

[HitObjects]
34,107,1226,6,0,L|24:43,2,55
79,137,1976,2,0,P|139:122|192:118,1,110,6|2,0:0|0:0,0:0:0:0:
263,39,2976,2,0,P|323:54|376:58,1,110,2|2,0:0|0:0,0:0:0:0:
455,128,3976,2,0,L|444:188,1,55,2|2,0:0|0:0,0:0:0:0:
400,214,4476,2,0,L|411:274,1,55,2|2,0:0|0:0,0:0:0:0:
436,316,4976,2,0,P|374:303|324:318,1,110,2|2,0:0|0:0,0:0:0:0:
240,379,5976,5,2,0:0:0:0:
187,282,6476,2,0,P|194:221|196:171,1,110,2|2,0:0|0:0,0:0:0:0:
291,118,7476,2,0,P|240:87|222:37,1,110,2|2,0:0|0:0,0:0:0:0:
117,8,8476,1,2,0:0:0:0:
33,79,8976,1,2,0:0:0:0:
33,79,9226,2,0,L|6:27,2,55,2|2|2,0:0|0:0|0:0,0:0:0:0:
69,120,9976,6,0,P|68:191|53:246,1,110,6|2,0:0|0:0,0:0:0:0:
53,338,10976,1,2,0:0:0:0:
53,338,11226,2,0,L|19:381,2,55,2|2|2,0:0|0:0|0:0,0:0:0:0:
100,309,11976,2,0,P|153:311|221:334,1,110,2|2,0:0|0:0,0:0:0:0:
302,381,12976,2,0,L|424:373,1,110,2|2,0:0|0:0,0:0:0:0:
445,329,13726,1,2,0:0:0:0:
445,329,13976,6,0,P|447:269|431:205,1,110,2|2,0:0|0:0,0:0:0:0:
399,180,14726,1,0,0:0:0:0:
399,180,14976,2,0,P|397:120|413:56,1,110,2|2,0:0|0:0,0:0:0:0:
439,27,15726,1,0,0:0:0:0:
439,27,15976,1,0,0:0:0:0:
234,108,16976,2,0,P|161:99|105:93,1,110,2|2,0:0|0:0,0:0:0:0:
21,56,17976,6,0,P|40:139|44:184,1,110,6|10,3:2|3:2,0:0:0:0:
142,208,18976,2,0,P|123:291|119:336,1,110,2|10,3:2|3:2,0:0:0:0:
153,359,19726,1,2,0:0:0:0:
153,359,19976,2,0,P|208:348|266:344,1,110,2|10,3:2|3:2,0:0:0:0:
340,267,20976,2,0,L|328:205,1,55,2|2,3:2|0:0,0:0:0:0:
284,182,21476,2,0,L|296:120,1,55,10|2,3:2|0:0,0:0:0:0:
329,85,21976,5,2,3:2:0:0:
424,30,22476,2,0,P|433:92|450:153,1,110,10|2,3:2|3:2,0:0:0:0:
499,232,23476,2,0,P|490:275|485:309,1,55,10|2,3:2|0:0,0:0:0:0:
475,339,23976,1,2,3:2:0:0:
370,373,24476,1,8,3:2:0:0:
340,267,24976,2,0,P|290:286|273:287,1,55,2|2,3:2|0:0,0:0:0:0:
253,327,25476,2,0,P|203:308|186:307,1,55,10|2,3:2|0:0,0:0:0:0:
163,268,25976,6,0,P|181:193|191:131,1,110,6|10,3:2|3:2,0:0:0:0:
237,63,26976,1,2,3:2:0:0:
237,63,27226,2,0,P|281:73|298:74,2,55,2|10|2,0:0|3:2|0:0,0:0:0:0:
197,24,27976,1,2,3:2:0:0:
106,86,28476,2,0,L|47:79,1,55,10|2,3:2|0:0,0:0:0:0:
1,55,28976,2,0,P|22:121|29:181,1,110,2|10,3:2|3:2,0:0:0:0:
8,212,29726,1,2,0:0:0:0:
8,212,29976,6,0,L|16:330,1,110,2|10,3:2|3:2,0:0:0:0:
109,379,30976,1,2,3:2:0:0:
190,305,31476,1,10,3:2:0:0:
190,305,31726,2,0,P|271:320|324:327,1,110,2|2,0:0|0:0,0:0:0:0:
353,326,32476,1,10,3:2:0:0:
431,249,32976,2,0,L|420:175,1,55,2|2,3:2|0:0,0:0:0:0:
410,140,33476,1,10,3:2:0:0:
336,58,33976,5,6,3:2:0:0:
336,58,34226,2,0,P|279:74|221:83,1,110,2|0,0:0|0:0,0:0:0:0:
129,33,35226,1,2,0:0:0:0:
61,120,35726,2,0,P|73:184|79:237,1,110,2|2,0:0|0:0,0:0:0:0:
86,283,36476,1,2,3:2:0:0:
161,362,36976,1,2,3:2:0:0:
161,362,37226,2,0,L|233:352,1,55,2|2,0:0|3:2,0:0:0:0:
300,284,37976,6,0,L|359:296,1,55,2|2,3:2|0:0,0:0:0:0:
402,320,38476,2,0,P|406:261|418:199,1,110,2|0,3:2|3:2,0:0:0:0:
436,160,39226,1,2,0:0:0:0:
490,64,39726,2,0,P|426:72|381:72,1,110,2|2,0:0|0:0,0:0:0:0:
337,37,40476,2,0,L|280:43,1,55,0|2,3:2|0:0,0:0:0:0:
228,53,40976,1,2,3:2:0:0:
154,135,41476,1,2,3:2:0:0:
235,208,41976,6,0,L|229:265,1,55,6|2,3:2|0:0,0:0:0:0:
178,285,42476,2,0,L|184:342,1,55,10|2,3:2|0:0,0:0:0:0:
143,377,42976,2,0,P|85:362|29:358,1,110,2|8,3:2|3:2,0:0:0:0:
2,253,43976,2,0,P|24:191|34:130,1,110,0|10,3:2|3:2,0:0:0:0:
26,92,44726,1,2,0:0:0:0:
26,92,44976,2,0,P|88:114|149:124,1,110,2|8,3:2|3:2,0:0:0:0:
228,69,45976,6,0,L|240:130,1,55,2|2,3:2|0:0,0:0:0:0:
290,140,46476,2,0,L|278:201,1,55,10|2,3:2|0:0,0:0:0:0:
244,236,46976,1,2,3:2:0:0:
316,318,47476,1,10,3:2:0:0:
316,318,47726,2,0,P|375:305|446:298,1,110,2|2,0:0|0:0,0:0:0:0:
471,270,48476,1,10,3:2:0:0:
500,164,48976,2,0,L|488:92,1,55,2|8,3:2|0:2,0:0:0:0:
480,54,49476,1,10,3:2:0:0:
378,14,49976,6,0,P|321:53|262:72,1,110,6|10,3:2|0:2,0:0:0:0:
228,69,50726,2,0,L|101:57,1,110,2|2,0:0|3:2,0:0:0:0:
64,48,51476,1,10,0:2:0:0:
10,144,51976,1,2,3:2:0:0:
85,224,52476,1,10,0:2:0:0:
85,224,52726,2,0,P|91:293|89:338,1,110,2|2,0:0|3:2,0:0:0:0:
128,372,53476,2,0,L|189:364,1,55,10|2,0:2|3:2,0:0:0:0:
235,348,53976,5,2,3:2:0:0:
311,268,54476,1,10,0:2:0:0:
311,268,54726,2,0,P|367:291|436:303,1,110,2|2,0:0|3:2,0:0:0:0:
470,306,55476,1,10,0:2:0:0:
496,199,55976,1,2,3:2:0:0:
496,199,56226,2,0,L|486:128,1,55,2|8,0:0|0:2,0:0:0:0:
437,124,56726,2,0,L|447:53,1,55,2|2,0:0|0:0,0:0:0:0:
406,29,57226,2,0,P|356:42|338:45,1,55,2|10,3:2|0:2,0:0:0:0:
307,74,57726,1,2,0:0:0:0:
307,74,57976,6,0,P|249:42|169:43,1,110,6|10,3:2|0:2,0:0:0:0:
151,45,58726,1,2,0:0:0:0:
56,101,59226,1,2,3:2:0:0:
56,101,59476,1,10,0:2:0:0:
118,191,59976,1,2,3:2:0:0:
118,191,60226,2,0,L|191:183,1,55,2|10,0:0|0:2,0:0:0:0:
223,163,60726,2,0,P|252:188|337:207,1,110,2|2,0:0|3:2,0:0:0:0:
374,204,61476,1,10,0:2:0:0:
477,168,61976,6,0,P|457:245|449:304,1,110,2|10,3:2|0:2,0:0:0:0:
487,317,62726,2,0,P|410:338|355:360,1,110,2|2,0:0|3:2,0:0:0:0:
332,372,63476,1,10,0:2:0:0:
242,308,63976,2,0,P|176:330|77:359,1,165,2|0,3:2|0:0,0:0:0:0:
22,265,65226,2,0,L|11:209,2,55,2|2|2,3:2|0:0|0:0,0:0:0:0:
76,274,65976,5,6,3:2:0:0:
153,195,66476,2,0,P|169:119|172:53,1,110,10|2,3:2|3:2,0:0:0:0:
245,5,67476,1,10,0:0:0:0:
349,40,67976,2,0,L|369:97,1,55,2|2,3:2|0:0,0:0:0:0:
409,127,68476,2,0,L|389:184,1,55,10|2,3:2|0:0,0:0:0:0:
343,206,68976,2,0,P|407:212|438:278,1,110,2|10,3:2|3:2,0:0:0:0:
445,299,69726,1,2,0:0:0:0:
445,299,69976,6,0,L|329:292,1,110,2|10,3:2|3:2,0:0:0:0:
256,369,70976,1,2,3:2:0:0:
177,292,71476,2,0,L|122:295,1,55,10|0,3:2|0:0,0:0:0:0:
67,299,71976,1,2,3:2:0:0:
102,194,72476,2,0,L|218:187,1,110,10|2,3:2|3:2,0:0:0:0:
228,135,73226,1,2,0:0:0:0:
228,135,73476,2,0,L|283:135,1,55,10|2,0:0|0:2,0:0:0:0:
300,187,73976,6,0,L|410:194,1,110,6|10,3:2|3:2,0:0:0:0:
510,148,74976,1,2,3:2:0:0:
464,48,75476,1,10,3:2:0:0:
364,94,75976,2,0,L|294:107,2,55,2|2|10,3:2|0:0|0:0,0:0:0:0:
368,39,76726,1,2,0:0:0:0:
368,39,76976,2,0,P|309:20|251:23,1,110,2|10,3:2|3:2,0:0:0:0:
164,72,77976,5,2,3:2:0:0:
111,168,78476,2,0,P|120:250|120:288,1,110,10|2,3:2|3:2,0:0:0:0:
155,320,79226,1,0,0:0:0:0:
155,320,79476,2,0,L|224:312,1,55,10|0,3:2|0:0,0:0:0:0:
264,309,79976,2,0,P|330:344|381:351,1,110,2|10,3:2|3:2,0:0:0:0:
459,294,80976,2,0,L|445:225,1,55,2|2,3:2|0:0,0:0:0:0:
412,198,81476,2,0,L|426:129,1,55,10|2,3:2|0:0,0:0:0:0:
442,92,81976,5,6,0:2:0:0:
461,271,97976,6,0,P|403:295|345:301,1,110,6|10,3:2|0:2,0:0:0:0:
318,341,98726,2,0,P|260:317|202:311,1,110,2|2,0:0|3:2,0:0:0:0:
167,340,99476,1,10,0:2:0:0:
63,301,99976,1,2,3:2:0:0:
109,203,100476,1,10,0:2:0:0:
109,203,100726,2,0,P|109:139|100:85,1,110,2|2,0:0|3:2,0:0:0:0:
127,44,101476,2,0,P|170:53|195:57,1,55,8|0,0:2|3:2,0:0:0:0:
235,65,101976,5,2,3:2:0:0:
340,33,102476,1,10,0:2:0:0:
340,33,102726,2,0,P|334:87|328:151,1,110,2|2,0:0|3:2,0:0:0:0:
326,197,103476,1,10,0:2:0:0:
425,244,103976,2,0,P|431:308|430:363,1,110,2|10,3:2|0:2,0:0:0:0:
382,380,104726,1,2,0:0:0:0:
284,328,105226,1,2,3:2:0:0:
284,328,105476,2,0,L|226:336,1,55,10|2,0:2|0:0,0:0:0:0:
177,354,105976,6,0,P|121:332|44:323,1,110,2|10,3:2|0:2,0:0:0:0:
17,323,106726,1,2,0:0:0:0:
7,213,107226,1,2,3:2:0:0:
7,213,107476,2,0,L|13:139,1,55,10|2,0:2|0:0,0:0:0:0:
34,108,107976,1,2,3:2:0:0:
125,47,108476,1,10,0:2:0:0:
125,47,108726,1,2,0:0:0:0:
186,138,109226,2,0,L|174:206,2,55,2|10|2,3:2|0:2|3:2,0:0:0:0:
234,112,109976,6,0,P|296:127|350:124,1,110,2|10,3:2|0:2,0:0:0:0:
384,90,110726,2,0,P|402:151|431:196,1,110,2|2,0:0|3:2,0:0:0:0:
478,209,111476,1,8,0:2:0:0:
496,317,111976,1,2,3:2:0:0:
396,364,112476,1,8,0:2:0:0:
396,364,112726,2,0,P|327:354|261:349,1,110,2|2,0:0|3:2,0:0:0:0:
231,348,113476,1,8,0:2:0:0:
157,265,113976,6,0,P|106:291|44:307,1,110,6|8,3:2|0:2,0:0:0:0:
20,262,114726,2,0,P|31:203|37:143,1,110,2|2,0:0|3:2,0:0:0:0:
4,108,115476,2,0,L|10:49,1,55,8|2,0:2|0:0,0:0:0:0:
56,23,115976,1,2,3:2:0:0:
153,74,116476,1,8,0:2:0:0:
153,74,116726,2,0,P|213:65|282:61,1,110,2|2,0:0|3:2,0:0:0:0:
308,91,117476,2,0,L|363:85,1,55,8|2,0:2|3:2,0:0:0:0:
409,55,117976,6,0,P|396:138|397:204,1,110,2|8,3:2|0:2,0:0:0:0:
487,224,118976,2,0,P|500:307|499:373,1,110,2|10,0:0|0:2,0:0:0:0:
398,372,119976,2,0,L|333:363,1,55,2|2,3:2|0:0,0:0:0:0:
321,314,120476,2,0,L|256:323,1,55,10|2,0:2|0:0,0:0:0:0:
232,364,120976,2,0,L|167:355,2,55,2|2|10,0:0|3:2|0:2,0:0:0:0:
206,256,121976,6,0,P|132:273|75:277,1,110,6|8,3:2|0:2,0:0:0:0:
43,269,122726,1,2,0:0:0:0:
16,162,123226,1,2,3:2:0:0:
16,162,123476,2,0,L|88:170,1,55,8|2,0:2|0:0,0:0:0:0:
124,154,123976,2,0,P|181:171|243:178,1,110,2|8,3:2|0:2,0:0:0:0:
333,218,124976,1,2,0:0:0:0:
333,218,125226,2,0,L|340:283,2,55,2|8|2,3:2|0:2|3:2,0:0:0:0:
370,177,125976,6,0,P|403:117|421:57,1,110,2|8,3:2|0:2,0:0:0:0:
379,37,126726,1,2,0:0:0:0:
379,37,126976,2,0,L|316:48,1,55,2|2,0:0|3:2,0:0:0:0:
270,57,127476,1,8,0:2:0:0:
170,103,127976,2,0,P|160:47|151:18,2,82.5,2|2|2,3:2|0:0|0:0,0:0:0:0:
194,151,128976,1,2,0:0:0:0:
194,151,129226,2,0,P|233:175|273:200,2,55,2|10|2,3:2|0:2|0:0,0:0:0:0:
140,147,129976,6,0,P|69:151|16:140,1,110,6|10,3:2|3:2,0:0:0:0:
2,250,130976,1,2,3:2:0:0:
111,252,131476,1,10,3:2:0:0:
192,325,131976,2,0,L|184:391,2,55,2|2|10,3:2|0:0|3:2,0:0:0:0:
226,282,132726,1,2,0:0:0:0:
226,282,132976,2,0,L|292:290,1,55,2|2,3:2|0:0,0:0:0:0:
319,327,133476,2,0,L|385:319,1,55,10|2,3:2|0:0,0:0:0:0:
416,286,133976,5,2,3:2:0:0:
468,189,134476,2,0,P|442:123|426:60,1,110,10|2,3:2|3:2,0:0:0:0:
347,14,135476,2,0,P|331:66|310:117,1,110,10|2,3:2|3:2,0:0:0:0:
211,164,136476,2,0,L|99:158,1,110,10|2,3:2|3:2,0:0:0:0:
49,175,137226,1,2,0:0:0:0:
49,175,137476,2,0,P|41:243|48:268,1,55,10|2,3:2|0:0,0:0:0:0:
63,278,137976,6,0,P|152:271|197:274,1,110,6|10,3:2|3:2,0:0:0:0:
252,348,138976,2,0,L|324:342,1,55,2|0,3:2|0:0,0:0:0:0:
361,339,139476,1,10,3:2:0:0:
467,365,139976,1,2,3:2:0:0:
437,261,140476,2,0,L|442:194,1,55,10|2,3:2|0:0,0:0:0:0:
409,160,140976,2,0,P|356:182|290:200,1,110,2|10,3:2|3:2,0:0:0:0:
252,210,141726,1,2,0:0:0:0:
252,210,141976,6,0,L|116:203,1,110,2|10,3:2|3:2,0:0:0:0:
56,273,142976,1,2,3:2:0:0:
1,178,143476,2,0,L|11:110,1,55,10|0,3:2|0:0,0:0:0:0:
40,78,143980,6,0,P|102:101|173:102,1,110,2|10,3:2|3:2,0:0:0:0:
220,175,145013,2,0,P|282:152|353:151,1,110,2|10,3:2|3:2,0:0:0:0:
421,40,146207,5,6,0:2:0:0:
53,39,160670,6,0,P|65:92|86:151,1,110,6|2,0:2|0:2,0:0:0:0:
188,177,161734,2,0,P|176:230|155:289,1,110,2|2,0:2|0:2,0:0:0:0:
242,359,162789,6,0,P|311:348|362:344,1,110,2|2,0:2|0:2,0:0:0:0:
404,356,163551,1,2,0:2:0:0:
404,356,163805,2,0,P|379:283|376:211,1,110,2|2,0:2|0:2,0:0:0:0:
446,164,164822,5,2,0:0:0:0:
398,64,165322,2,0,P|453:49|512:22,2,110,2|2|2,0:0|0:0|0:0,0:0:0:0:
293,96,166822,2,0,L|225:0,2,110,2|2|2,0:2|0:2|0:2,0:0:0:0:
291,321,168835,6,0,P|236:308|177:306,1,110,6|2,0:2|0:2,0:0:0:0:
79,344,169839,2,0,P|92:289|94:230,1,110,2|2,0:2|0:2,0:0:0:0:
56,132,170843,1,2,0:2:0:0:
164,147,171345,2,0,L|218:129,1,55,2|2,0:2|0:2,0:0:0:0:
268,110,171847,2,0,P|316:138|376:157,1,110,2|2,0:2|0:2,0:0:0:0:
475,132,172851,6,0,P|466:198|466:244,1,110,2|0,0:2|0:0,0:0:0:0:
481,289,173601,1,2,0:2:0:0:
481,289,173873,2,0,P|422:287|369:298,1,110,2|2,0:2|0:2,0:0:0:0:
279,356,174964,1,2,0:2:0:0:
192,100,176181,6,0,L|187:41,2,55,2|2|2,0:2|0:2|0:2,0:0:0:0:
89,123,177149,2,0,L|84:64,2,55,2|2|2,0:2|0:2|0:2,0:0:0:0:
67,173,177899,6,0,P|76:242|81:301,1,110,6|10,3:2|3:2,0:0:0:0:
176,334,178899,1,2,3:2:0:0:
188,224,179399,1,10,3:2:0:0:
283,169,179899,2,0,P|336:186|400:191,1,110,2|10,3:2|3:2,0:0:0:0:
443,177,180649,1,2,0:0:0:0:
443,177,180899,2,0,P|430:130|421:50,1,110,2|10,3:2|3:2,0:0:0:0:
322,20,181899,5,2,3:2:0:0:
229,79,182399,2,0,L|149:73,1,55,10|0,3:2|0:0,0:0:0:0:
151,24,182899,2,0,L|71:30,1,55,2|0,3:2|0:0,0:0:0:0:
54,64,183399,2,0,P|71:135|77:196,1,110,10|2,3:2|3:2,0:0:0:0:
15,263,184399,1,10,3:2:0:0:
107,322,184899,1,2,3:2:0:0:
107,322,185149,2,0,L|118:375,2,55,2|10|2,0:0|3:2|0:0,0:0:0:0:
151,289,185899,6,0,P|216:310|287:326,1,110,4|10,3:2|3:2,0:0:0:0:
365,331,186899,2,0,L|423:325,1,55,2|0,3:2|0:0,0:0:0:0:
474,319,187399,1,10,3:2:0:0:
495,211,187899,2,0,L|504:135,2,55,2|2|10,3:2|0:0|3:2,0:0:0:0:
442,228,188649,1,2,0:0:0:0:
442,228,188899,2,0,P|348:208|287:205,1,110,2|10,3:2|3:2,0:0:0:0:
256,128,189899,5,2,3:2:0:0:
177,206,190399,2,0,P|123:214|70:228,1,110,10|2,3:2|3:2,0:0:0:0:
17,244,191149,1,0,0:0:0:0:
17,244,191399,2,0,L|29:110,1,110,10|2,3:2|3:2,0:0:0:0:
63,30,192399,2,0,L|130:45,1,55,10|0,3:2|0:0,0:0:0:0:
164,69,192899,1,2,3:2:0:0:
164,69,193149,2,0,L|164:132,2,55,2|10|2,0:0|3:2|0:0,0:0:0:0:
211,42,193899,6,0,P|279:64|344:74,1,110,6|10,3:2|3:2,0:0:0:0:
421,36,194899,1,2,3:2:0:0:
488,122,195399,2,0,L|479:198,1,55,10|0,3:2|0:0,0:0:0:0:
433,203,195899,2,0,P|348:187|289:185,1,110,2|10,3:2|3:2,0:0:0:0:
276,212,196649,1,2,0:0:0:0:
276,212,196899,2,0,L|284:342,1,110,2|10,3:2|3:2,0:0:0:0:
186,375,197899,5,2,3:2:0:0:
90,322,198399,2,0,L|96:212,1,110,10|2,3:2|3:2,0:0:0:0:
2,155,199399,2,0,L|8:45,1,110,10|2,3:2|3:2,0:0:0:0:
114,13,200399,1,10,3:2:0:0:
191,91,200899,1,2,3:2:0:0:
191,91,201149,2,0,L|181:155,2,55,2|10|2,0:0|3:2|0:0,0:0:0:0:
237,61,201899,6,0,P|308:85|364:92,1,110,6|10,3:2|3:2,0:0:0:0:
375,134,202649,1,0,0:0:0:0:
375,134,202899,2,0,P|332:206|311:274,1,110,2|10,3:2|3:2,0:0:0:0:
263,323,203899,2,0,L|324:334,1,55,2|2,3:2|0:0,0:0:0:0:
352,375,204399,2,0,L|413:364,1,55,10|2,3:2|0:0,0:0:0:0:
447,329,204899,2,0,P|465:269|471:210,1,110,2|10,3:2|3:2,0:0:0:0:
464,167,205649,1,2,0:0:0:0:
464,167,205899,6,0,L|476:48,1,110,2|10,3:2|3:2,0:0:0:0:
377,6,206899,1,2,3:2:0:0:
279,56,207399,2,0,L|222:50,1,55,10|0,3:2|0:0,0:0:0:0:
172,31,207899,2,0,P|191:109|199:157,1,110,2|8,3:2|3:2,0:0:0:0:
152,239,208899,1,0,3:2:0:0:
152,239,209149,2,0,L|152:312,2,55,2|10|2,0:0|3:2|0:0,0:0:0:0:
115,197,209899,6,0,P|84:158|92:87,1,110,6|10,3:2|3:2,0:0:0:0:
172,31,210899,1,2,3:2:0:0:
268,84,211399,2,0,L|342:78,1,55,10|0,3:2|0:0,0:0:0:0:
374,61,211899,2,0,P|357:136|350:189,1,110,2|10,3:2|3:2,0:0:0:0:
436,239,212899,2,0,P|423:266|407:301,1,55,2|0,3:2|0:0,0:0:0:0:
426,342,213399,2,0,P|396:344|357:347,1,55,10|2,3:2|0:0,0:0:0:0:
331,384,213899,5,2,3:2:0:0:
252,307,214399,2,0,P|190:327|121:344,1,110,10|2,3:2|3:2,0:0:0:0:
58,272,215399,2,0,L|75:200,1,55,10|0,3:2|0:0,0:0:0:0:
82,164,215899,1,2,3:2:0:0:
155,82,216399,2,0,P|202:95|279:109,1,110,10|2,3:2|3:2,0:0:0:0:
306,73,217149,2,0,L|297:17,2,55,2|10|2,0:0|3:2|0:0,0:0:0:0:
352,103,217899,5,6,3:2:0:0:
256,192,218149,12,0,223399,0:0:0:0:
