osu file format v14

[General]
AudioFilename: audio.mp3
AudioLeadIn: 0
PreviewTime: 65101
Countdown: 0
SampleSet: Soft
StackLeniency: 0.4
Mode: 0
LetterboxInBreaks: 0
WidescreenStoryboard: 1

[Editor]
Bookmarks: 1226,1976,17976,33976,49976,65976,81976,97976,113976,129976,146207,160670,177899,193899,209899,217899,223399
DistanceSpacing: 1.1
BeatDivisor: 4
GridSize: 32
TimelineZoom: 2.650002

[Metadata]
Title:Let the Wind Tell You
TitleUnicode:让风告诉你
Artist:ChiliChill feat. Hua Ling, Miao*Jiang, Yan Ning ccccc, kinsen
ArtistUnicode:ChiliChill feat. 花玲,喵☆酱,宴宁ccccc,kinsen
Creator:lit120
Version:Insane
Source:
Tags:Rang Feng Gao Su Ni 米哈游 MiHoYo Genshin Impact 原神 拜年纪 Original Fansong 可莉 Klee 七七 Qiqi 温迪 Venti 魈 Xiao 黑鹿原 Kurattes 冯子明 山口進也 Salit Lahav 胡静成 庞阔 张浩 毕芳 郎莹 李昕达 九紫天诚 YIHE Studio Yu H. YuH_ChiliChill CuSummer Chinese Pop Cpop C-pop -Hakurei-
BeatmapID:2859906
BeatmapSetID:1384241

[Difficulty]
HPDrainRate:6
CircleSize:4
OverallDifficulty:7
ApproachRate:8
SliderMultiplier:1.7
SliderTickRate:1

[Events]
//Background and Video events
0,0,"let the wind tell you.jpg",0,0
Video,-200,"genshin fansong.avi"
//Break Periods
2,146407,159016
//Storyboard Layer 0 (Background)
//Storyboard Layer 1 (Fail)
//Storyboard Layer 2 (Pass)
//Storyboard Layer 3 (Foreground)
//Storyboard Layer 4 (Overlay)
//Storyboard Sound Samples

[TimingPoints]
-24,500,4,2,1,60,1,0
1226,-200,4,2,1,30,0,0
1976,-133.333333333333,4,2,1,60,0,0
16976,-200,4,2,1,60,0,0
17476,-62.5,4,2,1,60,0,0
17851,-133.333333333333,4,2,1,5,0,0
17976,-83.3333333333333,4,2,2,85,0,0
33976,-100,4,2,1,75,0,0
41851,-100,4,2,1,5,0,0
41976,-100,4,2,1,75,0,0
49851,-100,4,2,1,5,0,0
49976,-100,4,2,3,75,0,0
63976,-133.333333333333,4,2,3,75,0,0
65976,-83.3333333333333,4,2,2,85,0,1
81976,-133.333333333333,4,2,1,50,0,0
96976,-100,4,2,1,25,0,0
97476,-200,4,2,1,50,0,0
97851,-100,4,2,1,25,0,0
97976,-100,4,2,3,75,0,0
103726,-100,4,2,3,5,0,0
103976,-100,4,2,3,75,0,0
127976,-133.333333333333,4,2,3,75,0,0
129976,-83.3333333333333,4,2,2,85,0,1
143726,508.474576271186,4,2,1,85,1,1
143726,-83.3333333333333,4,2,1,85,0,1
143980,521.739130434783,4,2,1,75,1,0
143980,-83.3333333333333,4,2,2,75,0,1
144501,512.820512820513,4,2,1,75,1,0
144501,-83.3333333333333,4,2,2,75,0,1
145013,545.454545454546,4,2,1,75,1,0
145013,-83.3333333333333,4,2,2,75,0,1
145558,560.747663551402,4,2,1,75,1,0
145558,-83.3333333333333,4,2,2,75,0,1
146118,535.714285714286,4,2,1,75,1,0
146207,491.803278688525,4,2,1,75,1,0
146698,560.747663551402,4,2,1,75,1,0
147258,582.52427184466,4,2,1,75,1,0
147840,603.015075376884,4,2,1,75,1,0
148443,588.235294117647,4,2,1,75,1,0
149325,638.297872340426,4,2,1,75,1,0
149963,500,4,2,1,75,1,0
150275,535.714285714286,4,2,1,75,1,0
150364,566.037735849057,4,2,1,75,1,0
150552,750,4,2,1,75,1,0
150677,555.555555555556,4,2,1,75,1,0
150862,714.285714285714,4,2,1,75,1,0
151219,600,4,2,1,75,1,0
151519,705.882352941176,4,2,1,75,1,0
151871,722.89156626506,4,2,1,75,1,0
152111,689.655172413793,4,2,1,75,1,0
152455,800,4,2,1,75,1,0
152721,631.578947368421,4,2,1,75,1,0
153352,612.244897959184,4,2,1,75,1,0
154576,612.244897959184,4,2,1,75,1,0
154882,727.272727272727,4,2,1,75,1,0
155245,600,4,2,1,75,1,0
155845,625,4,2,1,75,1,0
156470,659.340659340659,4,2,1,75,1,0
159766,588.235294117647,4,2,1,50,1,0
160060,638.297872340426,4,2,1,50,1,0
160060,-200,4,2,1,50,0,0
160379,609.137055837563,4,2,1,50,1,0
160670,517.241379310345,4,2,1,50,1,0
160670,-133.333333333333,4,2,1,50,0,0
161187,547.945205479452,4,2,1,50,1,0
161187,-133.333333333333,4,2,1,50,0,0
161734,524.017467248908,4,2,1,50,1,0
161734,-133.333333333333,4,2,1,50,0,0
162520,538.116591928251,4,2,1,50,1,0
162789,508.474576271186,4,2,1,50,1,0
162789,-133.333333333333,4,2,1,50,0,0
164822,500,4,2,1,50,1,0
164822,-133.333333333333,4,2,1,50,0,0
167822,413.793103448276,4,2,1,50,1,0
168028,500,4,2,1,50,1,0
168278,545.454545454546,4,2,1,50,1,0
168278,-133.333333333333,4,2,1,50,0,0
168550,571.428571428571,4,2,1,50,1,0
168835,502.092050209205,4,2,1,50,1,0
168835,-133.333333333333,4,2,1,65,0,0
172851,500,4,2,1,60,1,0
172851,-133.333333333333,4,2,1,65,0,0
173601,545.454545454546,4,2,1,60,1,0
173601,-133.333333333333,4,2,1,65,0,0
174964,500,4,2,1,60,1,0
175464,480,4,2,1,60,1,0
175464,-333.333333333333,4,2,1,65,0,0
175944,474.308300395257,4,2,1,60,1,0
176181,500,4,2,1,65,1,0
176681,468.75,4,2,1,65,1,0
177149,500,4,2,1,70,1,0
177149,-62.5,4,2,1,80,0,0
177899,500,4,2,1,90,1,1
177899,-71.4285714285714,4,2,2,90,0,1
193899,-71.4285714285714,4,2,2,80,0,0
201899,-71.4285714285714,4,2,2,75,0,0
209899,-71.4285714285714,4,2,2,70,0,0
214899,-71.4285714285714,4,2,2,67,0,0
215899,-71.4285714285714,4,2,2,65,0,0
216399,-71.4285714285714,4,2,2,60,0,0
216899,-71.4285714285714,4,2,2,55,0,0
217149,-71.4285714285714,4,2,2,50,0,0
217399,-71.4285714285714,4,2,2,45,0,0
217649,-71.4285714285714,4,2,2,40,0,0
217899,-71.4285714285714,4,2,2,30,0,0
218399,-71.4285714285714,4,2,2,27,0,0
218899,-71.4285714285714,4,2,2,25,0,0
219399,-71.4285714285714,4,2,2,22,0,0
219899,-71.4285714285714,4,2,2,20,0,0
220399,-71.4285714285714,4,2,2,17,0,0
220899,-71.4285714285714,4,2,2,15,0,0
221399,-71.4285714285714,4,2,2,12,0,0
221899,-71.4285714285714,4,2,2,10,0,0
222399,-71.4285714285714,4,2,2,7,0,0
222899,-71.4285714285714,4,2,2,5,0,0

[Colours]
Combo1 : 105,124,129
Combo2 : 126,211,154
Combo3 : 202,191,230
Combo4 : 205,84,84

[HitObjects]
34,274,1226,6,0,L|24:325,2,42.5
127,216,1976,6,0,P|179:240|212:248,1,63.7500024318696,6|0,0:0|0:0,0:0:0:0:
292,384,2476,2,0,P|287:326|277:294,1,63.7500024318696,2|0,0:0|0:0,0:0:0:0:
356,157,2976,1,2,0:0:0:0:
356,157,3226,2,0,P|308:190|285:214,2,63.7500024318696,2|2|2,0:0|0:0|0:0,0:0:0:0:
259,252,3976,5,2,0:0:0:0:
359,280,4226,1,2,0:0:0:0:
231,150,4476,1,2,0:0:0:0:
183,325,4726,1,2,0:0:0:0:
227,129,4976,2,0,P|224:65|231:2,1,127.500004863739,2|2,0:0|0:0,0:0:0:0:
126,62,5726,1,2,0:0:0:0:
126,62,5851,1,2,0:0:0:0:
126,62,5976,6,0,P|86:53|60:45,1,63.7500024318696,2|0,0:0|0:0,0:0:0:0:
165,144,6476,2,0,P|195:135|227:129,1,63.7500024318696,2|0,0:0|0:0,0:0:0:0:
72,276,6976,2,0,P|73:226|56:123,1,127.500004863739,2|2,0:0|0:0,0:0:0:0:
372,28,7976,6,0,P|371:78|388:181,2,127.500004863739,2|2|2,0:0|0:0|0:0,0:0:0:0:
480,147,9226,1,2,0:0:0:0:
480,147,9476,2,0,P|478:179|472:212,1,63.7500024318696,2|2,0:0|0:0,0:0:0:0:
346,315,9976,6,0,P|391:297|420:288,1,63.7500024318696,6|0,0:0|0:0,0:0:0:0:
284,216,10476,2,0,B|235:225|235:225|212:244|212:244|149:255,1,127.500004863739,2|2,0:0|0:0,0:0:0:0:
74,278,11226,1,2,0:0:0:0:
185,161,11476,1,2,0:0:0:0:
231,316,11726,1,2,0:0:0:0:
358,224,11976,6,0,P|319:234|286:241,1,63.7500024318696,2|2,0:0|0:0,0:0:0:0:
191,89,12476,2,0,P|200:128|204:154,1,63.7500024318696,2|2,0:0|0:0,0:0:0:0:
301,15,12976,2,0,P|335:44|434:46,1,127.500004863739,2|2,0:0|0:0,0:0:0:0:
486,8,13726,1,2,0:0:0:0:
501,155,13976,6,0,P|494:124|490:92,1,63.7500024318696,2|0,0:0|0:0,0:0:0:0:
384,231,14476,1,2,0:0:0:0:
481,172,14726,1,0,0:0:0:0:
341,127,14976,2,0,P|305:138|273:142,1,63.7500024318696,2|0,0:0|0:0,0:0:0:0:
195,309,15476,2,0,P|231:298|263:294,1,63.7500024318696,2|0,0:0|0:0,0:0:0:0:
268,218,15976,5,0,0:0:0:0:
44,124,16976,6,0,B|34:64,1,42.5,2|2,0:0|0:0,0:0:0:0:
32,47,17476,6,0,B|44:124|44:124|27:171|27:171|41:266,1,204,2|0,0:0|0:0,0:0:0:0:
128,334,17976,6,0,P|173:300|321:292,1,203.999993774414,6|10,3:2|3:2,0:0:0:0:
424,373,18726,1,2,0:0:0:0:
424,373,18851,1,2,0:0:0:0:
424,373,18976,2,0,P|409:338|403:307,1,50.9999984436036,2|0,3:2|0:0,0:0:0:0:
502,206,19226,2,0,P|494:230|483:253,1,50.9999984436036,2|0,0:0|0:0,0:0:0:0:
307,112,19476,2,0,P|333:146|398:164,1,101.999996887207,10|2,3:2|0:0,0:0:0:0:
476,91,19851,1,2,0:0:0:0:
485,71,19976,6,0,L|384:80,1,101.999996887207,2|0,3:2|0:0,0:0:0:0:
185,196,20476,2,0,L|286:204,1,101.999996887207,10|2,3:2|0:0,0:0:0:0:
197,29,20976,1,2,3:2:0:0:
164,21,21101,1,10,0:2:0:0:
132,25,21226,1,2,0:0:0:0:
102,41,21351,1,2,0:0:0:0:
80,65,21476,2,0,P|81:113|96:150,1,50.9999984436036,10|0,3:2|0:0,0:0:0:0:
179,246,21726,2,0,P|185:221|185:196,1,50.9999984436036,2|0,0:0|0:0,0:0:0:0:
6,298,21976,6,0,P|54:279|104:270,1,101.999996887207,2|0,3:2|0:0,0:0:0:0:
344,382,22476,2,0,B|234:396|277:289|156:326,1,203.999993774414,10|2,3:2|3:2,0:0:0:0:
359,196,23226,2,0,P|342:236|324:296,1,101.999996887207,2|10,0:0|3:2,0:0:0:0:
226,123,23726,1,2,0:0:0:0:
226,123,23851,1,2,0:0:0:0:
226,123,23976,6,0,P|245:75|260:27,1,101.999996887207,2|2,3:2|0:0,0:0:0:0:
453,109,24476,2,0,P|387:90|348:89,1,101.999996887207,8|0,3:2|0:0,0:0:0:0:
462,212,24976,1,2,3:2:0:0:
471,243,25101,1,10,0:2:0:0:
477,275,25226,1,2,0:2:0:0:
478,308,25351,1,2,0:2:0:0:
476,340,25476,1,10,3:2:0:0:
351,384,25726,1,2,0:0:0:0:
351,384,25851,1,2,0:0:0:0:
351,384,25976,6,0,P|306:375|244:369,1,101.999996887207,6|0,3:2|0:0,0:0:0:0:
123,257,26476,2,0,P|177:283|238:177,1,203.999993774414,10|2,3:2|3:2,0:0:0:0:
108,41,27226,1,2,0:0:0:0:
108,41,27351,1,2,0:0:0:0:
108,41,27476,2,0,P|119:81|134:158,1,101.999996887207,10|2,3:2|0:0,0:0:0:0:
276,39,27976,5,2,3:2:0:0:
151,147,28226,1,2,0:0:0:0:
356,243,28476,1,10,3:2:0:0:
248,137,28726,1,2,0:0:0:0:
118,337,28976,5,2,3:2:0:0:
118,337,29101,1,8,0:2:0:0:
118,337,29226,1,10,0:0:0:0:
7,168,29476,2,0,P|46:177|62:178,1,50.9999984436036,10|0,3:2|0:0,0:0:0:0:
187,254,29726,2,0,P|148:245|132:244,1,50.9999984436036,2|0,0:0|0:0,0:0:0:0:
276,38,29976,6,0,P|259:87|247:136,1,101.999996887207,2|0,3:2|0:0,0:0:0:0:
335,223,30351,1,0,0:0:0:0:
370,242,30476,2,0,P|357:192|341:144,1,101.999996887207,10|2,3:2|0:0,0:0:0:0:
230,325,30976,5,2,3:2:0:0:
253,352,31101,1,2,0:0:0:0:
283,371,31226,1,2,0:0:0:0:
319,378,31351,1,2,0:0:0:0:
355,372,31476,2,0,P|454:361|496:358,1,101.999996887207,10|2,3:2|0:0,0:0:0:0:
512,159,31976,5,0,3:2:0:0:
415,88,32226,1,2,0:0:0:0:
367,85,32351,1,2,0:0:0:0:
324,106,32476,1,10,3:2:0:0:
296,143,32601,1,2,0:0:0:0:
267,180,32726,1,2,0:0:0:0:
225,201,32851,1,2,0:0:0:0:
177,199,32976,6,0,P|122:194|101:187,1,50.9999984436036,2|10,3:2|0:2,0:0:0:0:
29,112,33226,2,0,P|53:105|79:105,1,50.9999984436036,2|2,0:0|0:0,0:0:0:0:
253,1,33476,2,0,P|222:74|211:123,1,101.999996887207,10|0,3:2|0:0,0:0:0:0:
75,329,33976,6,0,P|70:282|60:236,1,85,6|2,3:2|0:0,0:0:0:0:
174,363,34476,2,0,P|95:343|16:393,1,170,2|0,3:2|3:2,0:0:0:0:
180,232,35226,2,0,P|214:252|262:269,1,85,2|0,0:0|3:2,0:0:0:0:
348,362,35726,6,0,P|348:322|339:272,1,85,2|0,0:0|3:2,0:0:0:0:
377,152,36226,1,2,0:0:0:0:
377,152,36476,2,0,P|342:171|303:204,1,85,2|0,3:2|0:0,0:0:0:0:
161,47,36976,1,2,3:2:0:0:
217,122,37226,1,2,0:0:0:0:
254,37,37476,1,2,3:2:0:0:
475,205,37976,6,0,P|431:195|389:190,1,85,2|2,3:2|0:0,0:0:0:0:
483,45,38476,2,0,P|490:117|507:216,1,170,2|0,3:2|3:2,0:0:0:0:
319,125,39226,2,0,P|361:119|402:110,1,85,2|0,0:0|3:2,0:0:0:0:
253,20,39726,6,0,P|240:60|224:99,1,85,2|0,0:0|3:2,0:0:0:0:
221,273,40226,2,0,P|233:233|250:194,1,85,2|0,0:0|3:2,0:0:0:0:
74,121,40726,1,2,0:0:0:0:
5,182,40976,1,2,3:2:0:0:
54,31,41226,1,2,0:0:0:0:
162,150,41476,2,0,P|149:226|139:300,1,127.5,2|0,3:2|0:0,0:0:0:0:
138,312,41976,5,6,3:2:0:0:
241,373,42226,1,2,0:0:0:0:
241,373,42351,1,2,0:0:0:0:
241,373,42476,2,0,P|294:363|331:356,1,85,10|2,3:2|0:0,0:0:0:0:
424,194,42976,2,0,P|414:238|405:283,1,85,2|2,3:2|0:0,0:0:0:0:
401,174,43351,2,0,P|367:143|333:113,1,85,2|2,0:0|0:0,0:0:0:0:
429,164,43726,2,0,P|472:150|515:135,1,85,2|0,0:0|3:2,0:0:0:0:
337,29,44226,5,2,0:0:0:0:
305,25,44351,1,2,0:0:0:0:
273,27,44476,1,10,3:2:0:0:
243,36,44601,1,2,0:0:0:0:
214,51,44726,1,2,0:0:0:0:
120,198,44976,2,0,P|104:158|95:95,1,85,2|2,3:2|0:0,0:0:0:0:
214,189,45351,2,0,P|205:230|190:270,1,85,2|2,0:0|0:0,0:0:0:0:
91,313,45726,2,0,P|131:299|173:293,1,85,2|2,0:0|3:2,0:0:0:0:
404,245,46226,5,2,0:0:0:0:
376,330,46476,1,10,3:2:0:0:
315,263,46726,1,2,0:0:0:0:
464,312,46976,5,2,3:2:0:0:
343,177,47226,1,2,0:0:0:0:
287,348,47476,1,10,3:2:0:0:
339,151,47726,6,0,B|356:94|322:41|322:41|347:49|373:80,1,170,2|2,0:0|0:0,0:0:0:0:
512,185,48476,2,0,P|472:167|431:158,1,85,10|2,3:2|0:0,0:0:0:0:
284,263,48976,1,2,3:2:0:0:
209,176,49226,1,8,0:2:0:0:
209,176,49476,2,0,P|221:111|228:43,1,127.5,10|0,3:2|0:0,0:0:0:0:
208,19,49976,5,6,3:2:0:0:
89,65,50226,1,2,0:0:0:0:
93,85,50351,1,2,0:0:0:0:
96,106,50476,1,10,0:2:0:0:
100,127,50601,1,2,0:0:0:0:
103,148,50726,1,2,0:0:0:0:
209,176,50976,1,2,0:0:0:0:
204,196,51101,1,2,0:0:0:0:
201,217,51226,1,2,3:2:0:0:
197,238,51351,1,2,0:0:0:0:
194,259,51476,2,0,P|187:316|185:362,1,85,10|2,0:2|0:0,0:0:0:0:
344,228,51976,5,2,3:2:0:0:
425,331,52226,1,2,0:0:0:0:
404,325,52351,1,2,0:0:0:0:
383,320,52476,1,10,0:2:0:0:
362,316,52601,1,2,0:0:0:0:
341,314,52726,1,2,0:0:0:0:
421,178,52976,1,2,0:0:0:0:
442,176,53101,1,2,3:2:0:0:
463,172,53226,1,2,3:2:0:0:
484,167,53351,1,2,0:0:0:0:
505,161,53476,2,0,P|512:113|510:74,1,85,10|2,0:2|3:2,0:0:0:0:
344,20,53976,5,2,3:2:0:0:
263,87,54226,1,2,0:0:0:0:
241,83,54351,1,2,0:0:0:0:
221,79,54476,1,10,0:2:0:0:
200,74,54601,1,2,0:0:0:0:
179,69,54726,1,2,0:0:0:0:
64,195,54976,1,2,0:0:0:0:
84,189,55101,1,2,0:0:0:0:
105,184,55226,1,2,3:2:0:0:
126,180,55351,1,2,0:0:0:0:
147,177,55476,2,0,P|195:184|235:191,1,85,10|2,0:2|0:0,0:0:0:0:
334,338,55976,5,2,3:2:0:0:
334,338,56226,2,0,P|317:293|309:251,1,85,2|8,0:0|0:2,0:0:0:0:
147,379,56726,2,0,P|164:334|172:292,1,85,2|2,0:0|0:0,0:0:0:0:
132,218,57101,1,0,3:2:0:0:
108,207,57226,2,0,L|23:222,1,85,2|10,3:2|0:2,0:0:0:0:
0,142,57601,1,0,3:2:0:0:
12,119,57726,2,0,L|54:126,1,42.5,2|0,0:0|0:0,0:0:0:0:
173,24,57976,5,6,3:2:0:0:
253,96,58226,1,2,0:0:0:0:
251,117,58351,1,2,0:0:0:0:
249,138,58476,1,10,0:2:0:0:
247,159,58601,1,2,0:0:0:0:
245,180,58726,1,2,0:0:0:0:
337,257,58976,1,2,0:0:0:0:
356,249,59101,1,2,0:0:0:0:
377,243,59226,1,2,3:2:0:0:
398,239,59351,1,2,0:0:0:0:
419,236,59476,2,0,L|510:240,1,85,10|2,0:2|0:0,0:0:0:0:
349,381,59976,5,2,3:2:0:0:
270,324,60226,1,2,0:0:0:0:
249,320,60351,1,2,0:0:0:0:
227,318,60476,1,10,0:2:0:0:
206,317,60601,1,2,0:0:0:0:
185,318,60726,1,2,0:0:0:0:
78,221,60976,1,2,0:0:0:0:
99,221,61101,1,2,3:2:0:0:
120,221,61226,1,2,3:2:0:0:
141,219,61351,1,2,0:0:0:0:
162,215,61476,2,0,P|175:167|166:121,1,85,10|2,0:2|3:2,0:0:0:0:
31,10,61976,5,2,3:2:0:0:
131,47,62226,1,2,0:0:0:0:
152,46,62351,1,2,0:0:0:0:
173,46,62476,1,10,0:2:0:0:
194,44,62601,1,2,0:0:0:0:
215,43,62726,1,2,0:0:0:0:
410,1,62976,1,2,0:0:0:0:
390,9,63101,1,2,0:0:0:0:
375,23,63226,1,2,3:2:0:0:
365,42,63351,1,2,0:0:0:0:
362,63,63476,2,0,L|372:150,1,85,10|0,0:2|0:0,0:0:0:0:
447,355,63976,6,0,B|462:305|429:266|429:266|376:276|361:326,1,191.250007295609,2|0,3:2|0:0,0:0:0:0:
203,381,65101,1,0,3:2:0:0:
203,381,65226,2,0,L|193:300,1,63.7500024318696,2|2,3:2|0:0,0:0:0:0:
191,285,65601,1,0,3:2:0:0:
191,285,65726,1,2,0:0:0:0:
16,74,65976,6,0,B|89:77|89:77|128:111|128:111|214:116,1,203.999993774414,6|10,3:2|3:2,0:0:0:0:
293,15,66726,1,2,0:0:0:0:
293,15,66851,1,2,0:0:0:0:
293,15,66976,2,0,P|281:57|277:79,1,50.9999984436036,2|0,3:2|0:0,0:0:0:0:
366,176,67226,2,0,P|360:151|352:126,1,50.9999984436036,2|0,0:0|0:0,0:0:0:0:
162,211,67476,2,0,P|220:193|271:190,1,101.999996887207,10|0,3:2|0:0,0:0:0:0:
428,356,67976,5,2,3:2:0:0:
266,280,68226,1,2,0:0:0:0:
490,128,68476,1,10,3:2:0:0:
381,261,68726,1,2,0:0:0:0:
279,64,68976,1,2,3:2:0:0:
279,64,69101,1,8,0:2:0:0:
279,64,69226,1,8,0:0:0:0:
162,162,69476,2,0,P|200:153|228:151,1,50.9999984436036,10|0,3:2|0:0,0:0:0:0:
77,35,69726,2,0,P|115:44|143:46,1,50.9999984436036,2|0,0:0|0:0,0:0:0:0:
10,199,69976,6,0,P|25:257|34:303,1,101.999996887207,2|2,3:2|0:0,0:0:0:0:
89,362,70351,1,2,0:0:0:0:
117,374,70476,2,0,P|127:324|140:274,1,101.999996887207,10|0,3:2|0:0,0:0:0:0:
333,158,70976,1,2,3:2:0:0:
305,176,71101,1,2,0:0:0:0:
274,188,71226,1,2,0:0:0:0:
241,193,71351,1,2,0:0:0:0:
207,190,71476,2,0,P|154:187|101:182,1,101.999996887207,10|0,3:2|0:0,0:0:0:0:
258,33,71976,6,0,P|304:57|364:70,1,101.999996887207,2|2,3:2|0:0,0:0:0:0:
435,31,72351,1,2,0:0:0:0:
457,10,72476,2,0,P|447:77|440:245,1,203.999993774414,10|2,3:2|3:2,0:0:0:0:
502,384,73226,1,2,0:0:0:0:
488,348,73351,1,2,0:0:0:0:
462,319,73476,1,10,3:2:0:0:
428,301,73601,1,2,0:0:0:0:
388,295,73726,1,2,0:0:0:0:
352,305,73851,1,2,0:0:0:0:
320,328,73976,6,0,P|256:326|218:321,1,101.999996887207,6|0,3:2|0:0,0:0:0:0:
127,114,74476,2,0,P|165:171|138:217,1,101.999996887207,10|2,3:2|0:0,0:0:0:0:
81,250,74851,1,2,0:0:0:0:
52,261,74976,2,0,L|-15:254,1,50.9999984436036,2|0,3:2|0:0,0:0:0:0:
108,363,75226,1,2,0:0:0:0:
108,363,75351,1,2,0:0:0:0:
108,363,75476,2,0,P|160:348|218:342,1,101.999996887207,10|0,3:2|0:0,0:0:0:0:
460,242,75976,5,2,3:2:0:0:
421,366,76226,1,2,0:0:0:0:
287,162,76476,1,10,3:2:0:0:
326,286,76726,1,2,0:0:0:0:
499,118,76976,1,2,3:2:0:0:
499,118,77101,1,8,0:2:0:0:
499,118,77226,1,8,0:0:0:0:
338,2,77476,2,0,P|349:70|352:137,1,101.999996887207,10|2,3:2|0:0,0:0:0:0:
287,162,77851,1,2,0:0:0:0:
256,167,77976,6,0,P|224:166|200:163,1,50.9999984436036,2|0,3:2|0:0,0:0:0:0:
118,249,78226,2,0,P|143:246|168:245,1,50.9999984436036,2|0,0:0|0:0,0:0:0:0:
294,381,78476,2,0,P|285:331|281:281,1,101.999996887207,10|0,3:2|0:0,0:0:0:0:
160,57,78976,1,2,3:2:0:0:
160,57,79101,1,2,0:0:0:0:
160,57,79226,1,2,0:0:0:0:
261,121,79476,2,0,P|312:116|363:109,1,101.999996887207,10|0,3:2|0:0,0:0:0:0:
134,178,79976,5,2,3:2:0:0:
108,174,80101,1,2,0:0:0:0:
83,171,80226,1,2,0:0:0:0:
58,168,80351,1,2,0:0:0:0:
32,166,80476,2,0,P|19:225|15:266,1,101.999996887207,10|0,3:2|0:0,0:0:0:0:
128,373,80976,1,2,3:2:0:0:
128,373,81101,1,8,0:2:0:0:
128,373,81226,1,10,0:0:0:0:
337,207,81476,1,10,3:2:0:0:
297,182,81601,1,2,0:0:0:0:
251,183,81726,1,2,0:0:0:0:
213,210,81851,1,2,0:0:0:0:
197,253,81976,6,0,P|207:315|216:378,1,127.500004863739,6|2,0:2|0:2,0:0:0:0:
426,265,82976,2,0,P|415:202|406:139,1,127.500004863739,2|2,0:2|0:2,0:0:0:0:
457,73,83726,1,2,0:2:0:0:
328,13,83976,6,0,P|360:17|392:20,1,63.7500024318696,2|2,0:2|0:2,0:0:0:0:
259,122,84476,2,0,P|290:117|322:115,1,63.7500024318696,2|2,0:2|0:2,0:0:0:0:
158,9,84976,2,0,P|165:60|173:164,1,127.500004863739,2|2,0:2|0:2,0:0:0:0:
156,217,85726,1,2,0:2:0:0:
30,321,85976,6,0,P|65:308|94:301,1,63.7500024318696,2|0,0:2|0:0,0:0:0:0:
77,163,86476,2,0,P|70:199|62:228,1,63.7500024318696,2|0,0:2|0:0,0:0:0:0:
190,282,86976,2,0,P|161:258|140:236,1,63.7500024318696,2|0,0:2|0:0,0:0:0:0:
256,130,87476,1,2,0:2:0:0:
256,130,87726,1,2,0:2:0:0:
369,239,87976,6,0,P|346:261|322:282,1,63.7500024318696,2|0,0:2|0:0,0:0:0:0:
448,225,88476,2,0,P|440:194|435:163,1,63.7500024318696,2|0,0:2|0:0,0:0:0:0:
421,301,88976,2,0,P|452:309|482:321,1,63.7500024318696,2|0,0:2|0:0,0:0:0:0:
369,239,89476,1,2,0:2:0:0:
369,239,89726,1,2,0:2:0:0:
174,289,89976,6,0,P|205:295|237:300,1,63.7500024318696,6|0,0:2|0:0,0:0:0:0:
289,213,90476,2,0,B|296:166|296:166|289:135|289:135|301:59,1,127.500004863739,2|2,0:2|0:2,0:0:0:0:
349,23,91226,1,0,0:0:0:0:
378,100,91476,2,0,P|420:91|448:86,1,63.7500024318696,2|2,0:2|0:2,0:0:0:0:
292,177,91976,6,0,P|250:168|222:163,1,63.7500024318696,2|2,0:2|0:2,0:0:0:0:
90,223,92476,1,2,0:2:0:0:
214,148,92726,1,2,0:2:0:0:
113,71,92976,2,0,P|126:120|129:137,1,63.7500024318696,2|0,0:2|0:0,0:0:0:0:
205,310,93476,1,2,0:2:0:0:
205,310,93726,1,2,0:2:0:0:
326,247,93976,6,0,P|285:258|260:263,1,63.7500024318696,2|0,0:2|0:0,0:0:0:0:
84,373,94476,2,0,P|125:362|150:357,1,63.7500024318696,2|0,0:2|0:0,0:0:0:0:
64,253,94976,2,0,P|32:246|2:237,1,63.7500024318696,2|0,0:2|0:0,0:0:0:0:
120,78,95476,1,2,0:2:0:0:
120,78,95726,1,2,0:2:0:0:
191,127,95976,6,0,B|269:102|361:118|361:118|372:84|341:70|311:66|302:110,1,255.000009727478,2|0,0:2|0:0,0:0:0:0:
311,87,97476,6,0,P|316:131|318:162,1,63.75
274,215,97976,6,0,P|333:191|380:278,1,170,6|10,3:2|0:2,0:0:0:0:
284,338,98726,2,0,P|224:331|180:328,1,85,2|0,0:0|0:0,0:0:0:0:
19,272,99226,1,2,3:2:0:0:
5,298,99351,1,2,0:0:0:0:
16,325,99476,1,10,0:2:0:0:
168,190,99726,1,2,0:0:0:0:
195,136,99851,1,2,0:0:0:0:
154,92,99976,6,0,P|102:99|51:104,1,85,2|0,3:2|0:0,0:0:0:0:
256,8,100476,1,10,0:2:0:0:
358,92,100726,2,0,P|410:99|461:104,1,85,2|0,0:0|0:0,0:0:0:0:
495,173,101101,1,0,3:2:0:0:
503,196,101226,2,0,P|491:250|485:287,1,85,2|8,3:2|0:2,0:0:0:0:
418,344,101601,1,2,0:0:0:0:
386,370,101726,2,0,P|381:339|378:325,1,42.5,0|0,3:2|0:0,0:0:0:0:
293,280,101976,6,0,P|241:294|121:316,1,170,2|10,3:2|0:2,0:0:0:0:
19,181,102726,2,0,P|31:247|36:287,1,85,2|0,0:0|0:0,0:0:0:0:
39,305,103101,1,0,0:0:0:0:
39,305,103226,1,2,3:2:0:0:
153,190,103476,1,10,0:2:0:0:
153,190,103601,2,0,P|159:154|163:138,1,42.5
20,27,103976,6,0,B|123:1|81:82|185:60,1,170,2|10,3:2|0:2,0:0:0:0:
308,13,104726,2,0,P|293:82|280:161,1,127.5,2|2,0:0|3:2,0:0:0:0:
286,183,105226,1,2,3:2:0:0:
381,274,105476,1,10,0:2:0:0:
381,274,105601,2,0,P|430:263|471:259,1,85,2|2,3:2|0:0,0:0:0:0:
370,298,105976,6,0,P|322:287|196:274,1,170,6|10,3:2|0:2,0:0:0:0:
29,362,106726,2,0,P|63:358|136:342,1,85,2|0,0:0|0:0,0:0:0:0:
180,196,107226,1,2,3:2:0:0:
182,166,107351,1,2,0:0:0:0:
184,136,107476,1,10,0:2:0:0:
9,23,107726,1,2,0:0:0:0:
13,83,107851,1,2,0:0:0:0:
17,143,107976,6,0,P|71:159|103:76,1,127.5,2|0,3:2|0:0,0:0:0:0:
115,70,108476,1,10,0:2:0:0:
244,6,108726,2,0,P|251:53|263:91,1,85,2|0,0:0|0:0,0:0:0:0:
313,155,109101,1,0,3:2:0:0:
333,169,109226,1,2,3:2:0:0:
355,167,109351,1,2,0:0:0:0:
378,165,109476,1,10,0:2:0:0:
401,163,109601,1,2,0:0:0:0:
424,161,109726,1,2,3:2:0:0:
447,159,109851,1,2,0:0:0:0:
470,157,109976,6,0,P|482:99|485:68,1,85,2|0,3:2|0:0,0:0:0:0:
369,264,110476,1,10,0:2:0:0:
369,264,110601,1,2,0:0:0:0:
369,264,110726,2,0,P|374:306|382:347,1,85,2|0,0:0|0:0,0:0:0:0:
261,258,111226,1,2,3:2:0:0:
100,379,111476,2,0,P|150:365|202:359,1,85,8|0,0:2|0:0,0:0:0:0:
44,181,111976,5,2,3:2:0:0:
44,181,112226,2,0,P|59:227|70:273,1,85,2|8,0:0|0:2,0:0:0:0:
182,113,112726,2,0,P|125:120|69:75,1,127.5,2|0,0:0|3:2,0:0:0:0:
64,42,113226,1,2,3:2:0:0:
204,21,113476,1,8,0:2:0:0:
204,21,113601,2,0,P|256:33|291:41,1,85,0|0,3:2|0:0,0:0:0:0:
379,4,113976,6,0,B|370:68|370:68|342:102|342:102|332:168,1,170,6|8,3:2|0:2,0:0:0:0:
407,325,114726,1,2,0:0:0:0:
407,325,114851,1,2,0:0:0:0:
407,325,114976,2,0,P|422:274|427:233,1,85,2|2,0:0|3:2,0:0:0:0:
308,179,115351,2,0,P|314:220|327:261,1,85,2|2,0:0|0:0,0:0:0:0:
237,361,115726,2,0,P|252:323|258:310,1,42.5,2|0,0:0|0:0,0:0:0:0:
135,220,115976,5,2,3:2:0:0:
135,220,116226,2,0,P|80:239|40:248,1,85,2|8,0:0|0:2,0:0:0:0:
137,46,116726,1,2,0:0:0:0:
137,46,116851,1,2,0:0:0:0:
137,46,116976,2,0,P|150:84|156:99,1,42.5,2|0,0:0|3:2,0:0:0:0:
229,158,117226,1,2,3:2:0:0:
229,158,117351,2,0,P|236:138|242:117,1,42.5,2|8,0:0|0:2,0:0:0:0:
339,38,117601,1,2,0:0:0:0:
339,38,117726,2,0,P|301:47|283:49,1,42.5,2|0,3:2|0:0,0:0:0:0:
393,159,117976,6,0,B|449:165|503:127|503:127|505:151|481:182,1,170,2|8,3:2|0:2,0:0:0:0:
380,273,118726,1,2,0:0:0:0:
380,273,118851,1,2,0:0:0:0:
380,273,118976,2,0,P|321:259|282:256,1,85,2|2,0:0|3:2,0:0:0:0:
114,157,119476,2,0,P|156:151|197:140,1,85,10|2,0:0|0:2,0:0:0:0:
263,77,119851,1,2,0:0:0:0:
273,53,119976,5,2,3:2:0:0:
216,249,120226,1,2,0:0:0:0:
114,157,120476,5,10,0:0:0:0:
171,353,120726,1,2,0:0:0:0:
320,294,120976,5,2,0:0:0:0:
320,294,121101,1,0,3:0:0:0:
320,294,121226,1,2,3:2:0:0:
261,145,121476,1,10,0:0:0:0:
261,145,121601,2,0,P|322:127|378:102,1,85,0|0,3:2|0:0,0:0:0:0:
414,52,121976,6,0,P|395:135|385:220,1,170,6|8,3:2|0:2,0:0:0:0:
473,367,122726,1,2,0:0:0:0:
473,367,122851,1,2,0:0:0:0:
473,367,122976,2,0,P|456:308|437:249,1,85,2|2,0:0|3:2,0:0:0:0:
344,209,123351,2,0,P|364:216|385:220,1,42.5,2|10,0:0|0:0,0:0:0:0:
488,113,123601,1,2,0:0:0:0:
488,113,123726,2,0,P|468:120|447:123,1,42.5,2|0,0:0|0:0,0:0:0:0:
292,30,123976,5,2,3:2:0:0:
292,30,124226,2,0,P|244:41|193:49,1,85,2|8,0:0|0:2,0:0:0:0:
66,143,124726,1,2,0:0:0:0:
66,143,124851,1,2,0:0:0:0:
66,143,124976,2,0,P|83:107|92:89,1,42.5,2|0,0:0|3:2,0:0:0:0:
235,196,125226,1,2,3:2:0:0:
221,207,125351,2,0,P|179:202|137:198,1,85,2|2,0:0|0:0,0:0:0:0:
41,248,125726,2,0,P|57:278|67:303,1,42.5,2|0,3:2|0:0,0:0:0:0:
176,357,125976,6,0,B|238:346|238:346|266:317|266:317|344:306,1,170,2|8,3:2|0:2,0:0:0:0:
474,372,126726,1,2,0:0:0:0:
448,328,126851,1,2,0:0:0:0:
472,283,126976,2,0,P|477:254|478:231,1,42.5,2|0,0:0|0:0,0:0:0:0:
338,129,127226,1,2,3:2:0:0:
318,161,127351,2,0,P|319:182|323:203,1,42.5,2|8,0:0|0:2,0:0:0:0:
493,130,127601,1,2,0:0:0:0:
505,93,127726,2,0,P|503:71|499:50,1,42.5,2|0,0:0|0:0,0:0:0:0:
351,10,127976,5,2,3:2:0:0:
351,10,128101,1,2,0:0:0:0:
253,99,128351,2,0,P|199:90|166:86,1,63.7500024318696,2|2,0:0|0:0,0:0:0:0:
117,20,128726,2,0,P|123:49|124:60,1,31.8750012159348,2|2,0:0|0:0,0:0:0:0:
53,149,128976,2,0,P|55:133|59:117,1,31.8750012159348,2|0,0:0|3:2,0:0:0:0:
125,217,129226,6,0,P|121:255|117:283,1,63.7500024318696,2|10,3:2|0:2,0:0:0:0:
114,319,129601,1,0,3:2:0:0:
114,319,129726,1,2,0:0:0:0:
257,110,129976,6,0,P|242:58|230:7,1,101.999996887207,6|0,3:2|0:0,0:0:0:0:
369,175,130476,2,0,P|358:233|355:299,1,101.999996887207,10|2,3:2|0:0,0:0:0:0:
396,350,130851,1,2,0:0:0:0:
425,359,130976,2,0,L|482:353,1,50.9999984436036,2|0,3:2|0:0,0:0:0:0:
467,150,131226,1,2,0:0:0:0:
467,150,131351,1,2,0:0:0:0:
467,150,131476,2,0,P|419:167|369:175,1,101.999996887207,10|0,3:2|0:0,0:0:0:0:
63,60,131976,5,2,3:2:0:0:
38,220,132226,1,2,0:0:0:0:
199,244,132476,1,10,3:2:0:0:
223,81,132726,1,2,0:0:0:0:
423,227,132976,5,2,3:2:0:0:
438,329,133226,1,2,0:0:0:0:
334,345,133476,1,10,3:2:0:0:
319,240,133726,1,2,0:0:0:0:
319,240,133851,1,2,0:0:0:0:
319,240,133976,6,0,P|322:184|334:131,1,101.999996887207,2|2,3:2|0:0,0:0:0:0:
381,72,134351,1,2,0:0:0:0:
411,68,134476,2,0,L|515:77,1,101.999996887207,10|0,3:2|0:0,0:0:0:0:
293,1,134976,1,2,3:2:0:0:
271,14,135101,1,2,0:0:0:0:
248,25,135226,1,2,0:0:0:0:
224,33,135351,1,2,0:0:0:0:
199,39,135476,2,0,P|149:36|95:31,1,101.999996887207,10|0,3:2|0:0,0:0:0:0:
2,197,135976,5,2,3:2:0:0:
89,133,136226,1,2,0:0:0:0:
89,133,136351,1,2,0:0:0:0:
89,133,136476,2,0,P|125:148|156:153,1,50.9999984436036,10|0,3:2|0:0,0:0:0:0:
205,210,136726,2,0,P|180:216|157:227,1,50.9999984436036,2|0,0:0|0:0,0:0:0:0:
64,303,136976,1,2,3:2:0:0:
69,327,137101,1,8,0:2:0:0:
78,352,137226,5,10,0:0:0:0:
123,325,137351,1,2,0:0:0:0:
175,326,137476,1,10,3:2:0:0:
219,353,137601,1,2,0:0:0:0:
263,381,137726,1,2,0:0:0:0:
315,382,137851,1,2,0:0:0:0:
361,355,137976,6,0,P|366:288|374:226,1,101.999996887207,6|0,3:2|0:0,0:0:0:0:
275,35,138476,1,10,3:2:0:0:
353,108,138726,1,2,0:0:0:0:
353,108,138851,1,2,0:0:0:0:
353,108,138976,2,0,P|408:94|461:87,1,101.999996887207,2|0,3:2|0:0,0:0:0:0:
287,210,139476,2,0,P|232:196|179:189,1,101.999996887207,10|2,3:2|0:0,0:0:0:0:
108,227,139851,1,2,0:0:0:0:
91,252,139976,5,2,3:2:0:0:
2,136,140226,1,2,0:0:0:0:
235,98,140476,1,10,3:2:0:0:
74,277,140726,1,2,0:0:0:0:
202,358,140976,1,2,3:2:0:0:
202,358,141101,1,8,0:2:0:0:
202,358,141226,1,8,0:0:0:0:
287,210,141476,2,0,P|290:235|294:260,1,50.9999984436036,10|0,3:2|0:0,0:0:0:0:
376,335,141726,2,0,P|379:309|383:284,1,50.9999984436036,2|0,0:0|0:0,0:0:0:0:
506,140,141976,6,0,P|451:161|393:160,1,101.999996887207,2|0,3:2|0:0,0:0:0:0:
166,24,142476,2,0,P|217:22|270:71,1,101.999996887207,10|2,3:2|0:0,0:0:0:0:
230,183,142851,1,2,0:0:0:0:
205,200,142976,2,0,L|195:99,1,101.999996887207,2|0,3:2|0:0,0:0:0:0:
7,40,143476,2,0,P|14:71|22:102,1,50.9999984436036,10|0,3:2|0:0,0:0:0:0:
101,188,143726,2,0,P|107:163|115:133,1,50.9999984436036,2|0,0:0|0:0,0:0:0:0:
17,298,143980,6,0,P|67:289|134:286,1,101.999996887207,2|2,3:2|0:0,0:0:0:0:
201,336,144371,1,2,0:0:0:0:
229,350,144501,2,0,P|279:359|346:362,1,101.999996887207,10|0,3:2|0:0,0:0:0:0:
443,41,145013,5,2,3:2:0:0:
443,41,145194,2,0,P|446:77|451:147,1,67.9999979248048,8|0,0:0|0:0,0:0:0:0:
323,215,145558,6,0,P|359:186|346:234,1,127.499996109009,10|0,3:2|0:0,0:0:0:0:
216,99,146207,5,6,0:2:0:0:
484,74,159766,5,0,0:0:0:0:
484,74,160060,2,0,L|477:116,1,42.5
391,176,160670,6,0,P|351:165|319:162,1,63.7500024318696,6|0,0:2|0:0,0:0:0:0:
258,223,161187,2,0,P|287:193|306:167,1,63.7500024318696,2|0,0:2|0:0,0:0:0:0:
283,84,161734,2,0,P|293:124|306:153,1,63.7500024318696,2|0,0:2|0:0,0:0:0:0:
196,23,162258,2,0,P|185:63|172:92,1,63.7500024318696,2|0,0:2|0:0,0:0:0:0:
114,219,162789,5,2,0:2:0:0:
192,165,163043,1,2,0:2:0:0:
78,109,163297,1,2,0:2:0:0:
136,296,163551,1,2,0:2:0:0:
13,355,163805,2,0,P|69:325|147:326,1,127.500004863739,2|2,0:2|0:2,0:0:0:0:
207,369,164568,1,2,0:2:0:0:
265,231,164822,6,0,P|257:262|254:294,1,63.7500024318696,2|0,0:2|0:0,0:0:0:0:
168,178,165322,2,0,P|164:146|156:115,1,63.7500024318696,2|0,0:2|0:0,0:0:0:0:
343,41,165822,2,0,P|296:85|223:70,1,127.500004863739,2|2,0:2|0:2,0:0:0:0:
402,171,166822,2,0,P|463:166|508:209,2,127.500004863739,2|2|2,0:2|0:2|0:2,0:0:0:0:
292,170,168028,5,2,0:0:0:0:
292,170,168278,2,0,P|300:201|304:233,1,63.7500024318696,2|2,0:2|0:2,0:0:0:0:
438,322,168835,6,0,P|406:314|370:308,1,63.7500024318696,6|0,0:2|0:0,0:0:0:0:
231,374,169337,2,0,P|266:368|298:356,1,63.7500024318696,2|0,0:2|0:0,0:0:0:0:
193,265,169839,2,0,B|128:247|143:300|71:287,1,127.500004863739,2|2,0:2|0:2,0:0:0:0:
227,56,170843,5,2,0:2:0:0:
240,140,171094,1,2,0:2:0:0:
156,153,171345,1,2,0:2:0:0:
143,69,171596,1,2,0:2:0:0:
240,140,171847,2,0,P|290:129|334:127,1,63.7500024318696,2|2,0:2|0:2,0:0:0:0:
407,9,172349,2,0,P|390:46|393:79,1,63.7500024318696,2|2,0:2|0:2,0:0:0:0:
452,253,172851,6,0,P|460:190|467:107,1,127.500004863739,2|0,0:2|0:0,0:0:0:0:
375,174,173601,1,2,0:2:0:0:
447,282,173873,2,0,P|492:268|515:264,1,63.7500024318696,2|2,0:2|0:2,0:0:0:0:
378,382,174419,2,0,P|368:344|358:317,1,63.7500024318696,2|2,0:2|0:2,0:0:0:0:
260,251,174964,5,2,0:2:0:0:
260,251,175464,6,0,P|266:208|269:187,1,50.9999984436036
320,59,176181,6,0,P|322:80|327:100,1,42.5,2|0,0:2|0:0,0:0:0:0:
245,72,176431,2,0,P|247:93|252:113,1,42.5,2|0,0:2|0:0,0:0:0:0:
170,85,176681,2,0,P|172:106|177:126,1,42.5,2|0,0:2|0:0,0:0:0:0:
26,323,177149,6,0,P|39:277|49:239,1,68,2|0,0:2|0:0,0:0:0:0:
97,352,177399,2,0,P|110:306|120:268,1,68,2|0,0:2|0:0,0:0:0:0:
168,381,177649,2,0,P|181:335|191:297,1,68,2|0,0:2|0:0,0:0:0:0:
478,191,177899,6,0,B|346:171|400:278|260:251,1,237.999992736817,6|10,3:2|3:2,0:0:0:0:
141,148,178649,1,2,0:0:0:0:
141,148,178774,1,2,0:0:0:0:
141,148,178899,2,0,P|158:196|169:229,1,59.4999981842042,2|0,3:2|0:0,0:0:0:0:
296,68,179149,2,0,P|279:116|268:149,1,59.4999981842042,2|0,0:0|0:0,0:0:0:0:
383,318,179399,2,0,P|369:258|366:197,1,118.999996368408,10|2,3:2|0:0,0:0:0:0:
409,116,179774,1,2,0:0:0:0:
437,95,179899,5,2,3:2:0:0:
305,21,180149,1,2,0:0:0:0:
143,216,180399,1,10,3:2:0:0:
275,142,180649,1,2,0:0:0:0:
377,316,180899,1,2,3:2:0:0:
377,316,181024,1,8,0:0:0:0:
377,316,181149,1,8,0:0:0:0:
275,142,181399,2,0,P|254:219|245:277,1,118.999996368408,10|2,3:2|0:0,0:0:0:0:
295,362,181774,1,2,0:0:0:0:
324,381,181899,5,2,3:2:0:0:
431,252,182149,1,2,0:0:0:0:
431,252,182274,1,2,0:0:0:0:
431,252,182399,2,0,P|416:171|411:117,1,118.999996368408,10|0,3:2|0:0,0:0:0:0:
187,65,182899,2,0,P|233:103|291:109,1,118.999996368408,2|2,3:2|0:0,0:0:0:0:
364,28,183274,1,2,0:0:0:0:
390,3,183399,2,0,L|272:10,1,118.999996368408,10|0,3:2|0:0,0:0:0:0:
4,132,183899,5,2,3:2:0:0:
115,77,184149,1,2,0:0:0:0:
115,77,184274,1,2,0:0:0:0:
115,77,184399,2,0,P|91:143|77:196,1,118.999996368408,10|0,3:2|0:0,0:0:0:0:
257,312,184899,1,2,3:2:0:0:
234,283,185024,1,10,0:2:0:0:
201,266,185149,1,2,0:0:0:0:
164,267,185274,1,2,0:0:0:0:
131,283,185399,2,0,P|129:337|136:365,1,59.4999981842042,10|0,3:2|0:0,0:0:0:0:
230,190,185649,2,0,P|232:136|225:108,1,59.4999981842042,2|0,0:0|0:0,0:0:0:0:
375,337,185899,6,0,P|454:322|510:315,1,118.999996368408,4|0,3:2|0:0,0:0:0:0:
334,144,186399,2,0,P|275:135|216:123,1,118.999996368408,10|2,3:2|0:0,0:0:0:0:
137,84,186774,1,2,0:0:0:0:
112,58,186899,2,0,L|126:0,1,59.4999981842042,2|0,3:2|0:0,0:0:0:0:
7,136,187149,2,0,L|21:193,1,59.4999981842042,2|0,0:0|0:0,0:0:0:0:
223,246,187399,2,0,P|164:234|105:225,1,118.999996368408,10|0,3:2|0:0,0:0:0:0:
280,378,187899,5,2,3:2:0:0:
400,270,188149,1,2,0:0:0:0:
195,155,188399,1,10,3:2:0:0:
439,60,188649,1,2,0:0:0:0:
318,233,188899,1,2,3:2:0:0:
318,233,189024,1,8,0:2:0:0:
318,233,189149,1,8,0:0:0:0:
196,2,189399,2,0,P|202:46|202:73,1,59.4999981842042,10|0,3:2|0:0,0:0:0:0:
333,142,189649,2,0,P|328:112|326:82,1,59.4999981842042,2|0,0:0|0:0,0:0:0:0:
117,210,189899,6,0,P|183:188|240:189,1,118.999996368408,2|0,3:2|0:0,0:0:0:0:
425,340,190399,2,0,P|365:326|298:315,1,118.999996368408,10|2,3:2|0:0,0:0:0:0:
198,346,190774,1,2,0:0:0:0:
228,363,190899,2,0,L|238:297,1,59.4999981842042,2|0,3:2|0:0,0:0:0:0:
100,225,191149,2,0,L|108:283,1,59.4999981842042,2|0,0:0|0:0,0:0:0:0:
254,139,191399,2,0,P|264:78|279:-3,1,118.999996368408,10|0,3:2|0:0,0:0:0:0:
20,111,191899,6,0,P|81:99|142:92,1,118.999996368408,2|0,3:2|0:0,0:0:0:0:
406,7,192399,2,0,B|397:97|397:97|353:140|353:140|345:236,1,237.999992736817,10|2,3:2|3:2,0:0:0:0:
389,318,193024,1,8,0:2:0:0:
422,330,193149,2,0,P|451:324|491:306,1,59.4999981842042,10|0,0:0|0:0,0:0:0:0:
316,222,193399,2,0,P|244:235|161:249,1,118.999996368408,10|2,3:2|0:0,0:0:0:0:
110,184,193774,1,2,0:0:0:0:
98,150,193899,6,0,P|105:79|110:16,1,118.999996368408,6|0,3:2|0:0,0:0:0:0:
0,249,194399,2,0,P|7:320|12:383,1,118.999996368408,10|0,3:2|0:0,0:0:0:0:
266,292,194899,1,2,3:2:0:0:
242,263,195024,1,2,0:0:0:0:
209,247,195149,1,2,0:0:0:0:
172,247,195274,1,2,0:0:0:0:
139,262,195399,1,10,3:2:0:0:
12,115,195649,1,2,0:0:0:0:
12,115,195774,1,2,0:0:0:0:
12,115,195899,6,0,P|53:125|82:128,1,59.4999981842042,2|0,3:2|0:0,0:0:0:0:
193,20,196149,2,0,P|163:24|134:32,1,59.4999981842042,2|0,0:0|0:0,0:0:0:0:
260,174,196399,2,0,P|267:145|270:115,1,59.4999981842042,10|0,3:2|0:0,0:0:0:0:
99,225,196649,2,0,P|102:254|109:283,1,59.4999981842042,2|0,0:0|0:0,0:0:0:0:
234,371,196899,1,2,3:2:0:0:
234,371,197024,1,8,0:2:0:0:
234,371,197149,1,8,0:0:0:0:
391,275,197399,1,10,3:2:0:0:
387,245,197524,1,2,0:0:0:0:
384,215,197649,1,2,0:0:0:0:
382,186,197774,1,2,0:0:0:0:
381,156,197899,6,0,P|381:96|388:37,1,118.999996368408,2|0,3:2|0:0,0:0:0:0:
241,225,198399,2,0,P|240:165|233:106,1,118.999996368408,10|2,3:2|0:0,0:0:0:0:
167,32,198774,1,2,0:0:0:0:
132,21,198899,2,0,P|64:30|7:35,1,118.999996368408,2|0,3:2|0:0,0:0:0:0:
159,208,199399,1,10,3:2:0:0:
29,305,199649,1,2,0:0:0:0:
29,305,199774,1,2,0:0:0:0:
29,305,199899,6,0,P|97:296|154:291,1,118.999996368408,2|2,3:2|0:0,0:0:0:0:
272,350,200274,1,2,0:0:0:0:
290,380,200399,2,0,P|230:374|171:366,1,118.999996368408,10|0,3:2|0:0,0:0:0:0:
299,202,200899,1,2,3:2:0:0:
342,195,201024,1,10,0:2:0:0:
383,212,201149,1,2,0:0:0:0:
410,247,201274,1,2,0:0:0:0:
416,290,201399,2,0,P|414:325|414:356,1,59.4999981842042,10|0,3:2|0:0,0:0:0:0:
503,155,201649,1,2,0:0:0:0:
503,155,201774,1,2,0:0:0:0:
503,155,201899,6,0,P|493:114|483:32,1,118.999996368408,6|2,3:2|0:0,0:0:0:0:
400,6,202274,1,2,0:0:0:0:
370,26,202399,2,0,P|362:52|351:93,1,59.4999981842042,10|0,3:2|0:0,0:0:0:0:
275,179,202649,2,0,P|267:150|258:121,1,59.4999981842042,2|0,0:0|0:0,0:0:0:0:
85,33,202899,2,0,P|154:45|207:49,1,118.999996368408,2|0,3:2|0:0,0:0:0:0:
382,231,203399,2,0,P|313:219|260:215,1,118.999996368408,10|2,3:2|0:0,0:0:0:0:
179,269,203774,1,2,0:0:0:0:
165,301,203899,6,0,P|159:330|156:359,1,59.4999981842042,2|0,3:2|0:0,0:0:0:0:
43,222,204149,2,0,P|48:251|51:280,1,59.4999981842042,2|0,0:0|0:0,0:0:0:0:
221,150,204399,2,0,P|174:169|140:175,1,59.4999981842042,10|0,3:2|0:0,0:0:0:0:
0,62,204649,2,0,P|28:70|55:83,1,59.4999981842042,2|0,0:0|0:0,0:0:0:0:
245,11,204899,1,2,3:2:0:0:
245,11,205024,1,8,0:2:0:0:
245,11,205149,1,8,0:0:0:0:
356,165,205399,2,0,P|295:146|234:131,1,118.999996368408,10|2,3:2|0:0,0:0:0:0:
377,329,205899,5,2,3:2:0:0:
472,242,206149,1,2,0:0:0:0:
472,242,206274,1,2,0:0:0:0:
472,242,206399,2,0,P|465:183|461:114,1,118.999996368408,10|0,3:2|0:0,0:0:0:0:
188,296,206899,1,2,3:2:0:0:
216,262,207024,1,2,0:0:0:0:
256,241,207149,1,2,0:0:0:0:
300,237,207274,1,2,0:0:0:0:
342,249,207399,1,10,3:2:0:0:
223,93,207649,1,2,0:0:0:0:
223,93,207774,1,2,0:0:0:0:
223,93,207899,6,0,P|158:108|107:117,1,118.999996368408,2|2,3:2|0:0,0:0:0:0:
32,56,208274,1,2,0:0:0:0:
5,32,208399,2,0,P|15:102|23:169,1,118.999996368408,8|0,3:2|0:0,0:0:0:0:
192,356,208899,1,0,3:2:0:0:
192,356,209024,1,8,0:2:0:0:
192,356,209149,2,0,P|162:318|138:305,1,59.4999981842042,2|0,0:0|0:0,0:0:0:0:
8,273,209399,2,0,P|55:266|79:251,1,59.4999981842042,10|0,3:2|0:0,0:0:0:0:
171,155,209649,2,0,P|153:199|153:227,1,59.4999981842042,2|0,0:0|0:0,0:0:0:0:
336,325,209899,6,0,P|424:306|462:300,1,118.999996368408,6|0,3:2|0:0,0:0:0:0:
301,164,210399,2,0,P|242:153|184:140,1,118.999996368408,10|0,3:2|0:0,0:0:0:0:
469,65,210899,2,0,P|461:94|456:124,1,59.4999981842042,2|0,3:2|0:0,0:0:0:0:
340,21,211149,1,2,0:0:0:0:
340,21,211274,1,2,0:0:0:0:
340,21,211399,2,0,P|284:42|201:62,1,118.999996368408,10|0,3:2|0:0,0:0:0:0:
28,205,211899,6,0,L|20:134,1,59.4999981842042,2|0,3:2|0:0,0:0:0:0:
140,305,212149,2,0,L|148:234,1,59.4999981842042,2|0,0:0|0:0,0:0:0:0:
336,178,212399,2,0,P|295:199|255:217,1,59.4999981842042,10|0,3:2|0:0,0:0:0:0:
112,87,212649,2,0,P|138:99|165:113,1,59.4999981842042,2|0,0:0|0:0,0:0:0:0:
340,21,212899,1,2,3:2:0:0:
340,21,213024,1,10,0:0:0:0:
340,21,213149,1,8,0:0:0:0:
476,134,213399,1,10,3:2:0:0:
469,163,213524,1,2,0:0:0:0:
464,192,213649,1,2,0:0:0:0:
458,221,213774,1,2,0:0:0:0:
453,250,213899,6,0,P|445:327|441:389,1,118.999996368408,2|0,3:2|0:0,0:0:0:0:
188,210,214399,2,0,P|260:232|324:247,1,118.999996368408,10|2,3:2|0:0,0:0:0:0:
379,185,214774,1,2,0:0:0:0:
396,153,214899,2,0,P|390:95|380:20,1,118.999996368408,2|0,3:2|0:0,0:0:0:0:
176,190,215399,1,10,3:2:0:0:
55,91,215649,1,2,0:0:0:0:
55,91,215774,1,2,0:0:0:0:
55,91,215899,6,0,P|120:102|190:112,1,118.999996368408,2|2,3:2|0:0,0:0:0:0:
284,37,216274,1,2,0:0:0:0:
306,9,216399,2,0,P|247:17|188:27,1,118.999996368408,10|0,3:2|0:0,0:0:0:0:
2,264,216899,1,2,3:2:0:0:
26,227,217024,1,10,0:0:0:0:
64,204,217149,1,2,0:0:0:0:
108,200,217274,1,2,0:0:0:0:
149,214,217399,2,0,P|154:244|158:273,1,59.4999981842042,10|0,3:2|0:0,0:0:0:0:
255,373,217649,2,0,P|259:343|264:314,1,59.4999981842042,2|0,0:0|0:0,0:0:0:0:
372,122,217899,5,6,3:2:0:0:
256,192,218024,12,0,223399,0:0:0:0:
