osu file format v14

[General]
AudioFilename: audio.mp3
AudioLeadIn: 0
PreviewTime: 65101
Countdown: 0
SampleSet: Soft
StackLeniency: 0.4
Mode: 0
LetterboxInBreaks: 0
WidescreenStoryboard: 1

[Editor]
Bookmarks: 1226,1976,17976,33976,49976,65976,81976,97976,113976,129976,146207,160670,177899,193899,209899,217899,223399
DistanceSpacing: 1
BeatDivisor: 4
GridSize: 32
TimelineZoom: 2.050002

[Metadata]
Title:Let the Wind Tell You
TitleUnicode:让风告诉你
Artist:ChiliChill feat. Hua Ling, Miao*Jiang, Yan Ning ccccc, kinsen
ArtistUnicode:ChiliChill feat. 花玲,喵☆酱,宴宁ccccc,kinsen
Creator:lit120
Version:Hard
Source:
Tags:Rang Feng Gao Su Ni 米哈游 MiHoYo Genshin Impact 原神 拜年纪 Original Fansong 可莉 Klee 七七 Qiqi 温迪 Venti 魈 Xiao 黑鹿原 Kurattes 冯子明 山口進也 Salit Lahav 胡静成 庞阔 张浩 毕芳 郎莹 李昕达 九紫天诚 YIHE Studio Yu H. YuH_ChiliChill CuSummer Chinese Pop Cpop C-pop -Hakurei-
BeatmapID:2859904
BeatmapSetID:1384241

[Difficulty]
HPDrainRate:6
CircleSize:4
OverallDifficulty:6
ApproachRate:7
SliderMultiplier:1.5
SliderTickRate:1

[Events]
//Background and Video events
0,0,"let the wind tell you.jpg",0,0
Video,-200,"genshin fansong.avi"
//Break Periods
2,82176,97076
2,146407,158866
//Storyboard Layer 0 (Background)
//Storyboard Layer 1 (Fail)
//Storyboard Layer 2 (Pass)
//Storyboard Layer 3 (Foreground)
//Storyboard Layer 4 (Overlay)
//Storyboard Sound Samples

[TimingPoints]
-24,500,4,2,1,60,1,0
1226,-133.333333333333,4,2,1,30,0,0
1976,-133.333333333333,4,2,1,60,0,0
17851,-133.333333333333,4,2,1,5,0,0
17976,-100,4,2,2,85,0,0
33976,-133.333333333333,4,2,1,75,0,0
49851,-133.333333333333,4,2,1,5,0,0
49976,-100,4,2,3,75,0,0
65976,-100,4,2,2,85,0,1
81976,-133.333333333333,4,2,1,50,0,0
97976,-100,4,2,3,75,0,0
129976,-100,4,2,2,85,0,1
143726,508.474576271186,4,2,1,85,1,1
143726,-100,4,2,1,85,0,1
143980,521.739130434783,4,2,1,75,1,1
143980,-100,4,2,2,75,0,1
144501,512.820512820513,4,2,1,75,1,1
145013,545.454545454546,4,2,1,75,1,1
145013,-100,4,2,2,75,0,1
145558,560.747663551402,4,2,1,75,1,1
146118,535.714285714286,4,2,1,75,1,1
146207,491.803278688525,4,2,1,75,1,0
146698,560.747663551402,4,2,1,75,1,0
147258,582.52427184466,4,2,1,75,1,0
147840,603.015075376884,4,2,1,75,1,0
148443,588.235294117647,4,2,1,75,1,0
149325,638.297872340426,4,2,1,75,1,0
149963,500,4,2,1,75,1,0
150275,535.714285714286,4,2,1,75,1,0
150364,566.037735849057,4,2,1,75,1,0
150552,750,4,2,1,75,1,0
150677,555.555555555556,4,2,1,75,1,0
150862,714.285714285714,4,2,1,75,1,0
151219,600,4,2,1,75,1,0
151519,705.882352941176,4,2,1,75,1,0
151871,722.89156626506,4,2,1,75,1,0
152111,689.655172413793,4,2,1,75,1,0
152455,800,4,2,1,75,1,0
152721,631.578947368421,4,2,1,75,1,0
153352,612.244897959184,4,2,1,75,1,0
154576,612.244897959184,4,2,1,75,1,0
154882,727.272727272727,4,2,1,75,1,0
155245,600,4,2,1,75,1,0
155845,625,4,2,1,75,1,0
156470,659.340659340659,4,2,1,75,1,0
159766,588.235294117647,4,2,1,50,1,0
160060,638.297872340426,4,2,1,50,1,0
160060,-133.333333333333,4,2,1,50,0,0
160379,609.137055837563,4,2,1,50,1,0
160670,517.241379310345,4,2,1,50,1,0
160670,-133.333333333333,4,2,1,50,0,0
161187,547.945205479452,4,2,1,50,1,0
161187,-133.333333333333,4,2,1,50,0,0
161734,524.017467248908,4,2,1,50,1,0
161734,-133.333333333333,4,2,1,50,0,0
162520,538.116591928251,4,2,1,50,1,0
162789,508.474576271186,4,2,1,50,1,0
162789,-133.333333333333,4,2,1,50,0,0
164822,500,4,2,1,50,1,0
164822,-133.333333333333,4,2,1,50,0,0
167822,413.793103448276,4,2,1,50,1,0
168028,500,4,2,1,50,1,0
168278,545.454545454546,4,2,1,50,1,0
168278,-133.333333333333,4,2,1,50,0,0
168550,571.428571428571,4,2,1,50,1,0
168835,502.092050209205,4,2,1,50,1,0
168835,-133.333333333333,4,2,1,65,0,0
172851,500,4,2,1,60,1,0
172851,-133.333333333333,4,2,1,65,0,0
173601,545.454545454546,4,2,1,60,1,0
173601,-133.333333333333,4,2,1,65,0,0
174964,500,4,2,1,60,1,0
175464,480,4,2,1,60,1,0
175464,-133.333333333333,4,2,1,65,0,0
175944,474.308300395257,4,2,1,60,1,0
176181,500,4,2,1,65,1,0
176181,-133.333333333333,4,2,1,65,0,0
176681,468.75,4,2,1,65,1,0
177149,500,4,2,1,70,1,0
177149,-133.333333333333,4,2,1,80,0,0
177899,500,4,2,2,90,1,1
193899,-100,4,2,2,80,0,0
201899,-100,4,2,2,75,0,0
209899,-100,4,2,2,70,0,0
214899,-100,4,2,2,67,0,0
215899,-100,4,2,2,65,0,0
216399,-100,4,2,2,60,0,0
216899,-100,4,2,2,55,0,0
217149,-100,4,2,2,50,0,0
217399,-100,4,2,2,45,0,0
217649,-100,4,2,2,40,0,0
217899,-100,4,2,2,30,0,0
218399,-100,4,2,2,27,0,0
218899,-100,4,2,2,25,0,0
219399,-100,4,2,2,22,0,0
219899,-100,4,2,2,20,0,0
220399,-100,4,2,2,17,0,0
220899,-100,4,2,2,15,0,0
221399,-100,4,2,2,12,0,0
221899,-100,4,2,2,10,0,0
222399,-100,4,2,2,7,0,0
222899,-100,4,2,2,5,0,0

[Colours]
Combo1 : 105,124,129
Combo2 : 126,211,154
Combo3 : 202,191,230
Combo4 : 205,84,84

[HitObjects]
390,19,1226,6,0,P|437:14|469:11,2,56.2500021457673
322,70,1976,2,0,P|258:87|193:94,2,112.500004291535,6|2|2,0:0|0:0|0:0,0:0:0:0:
400,103,3226,2,0,P|447:98|479:95,2,56.2500021457673,2|2|2,0:0|0:0|0:0,0:0:0:0:
332,154,3976,6,0,P|336:191|341:227,1,56.2500021457673,2|2,0:0|0:0,0:0:0:0:
400,268,4476,2,0,P|395:305|390:341,1,56.2500021457673,2|2,0:0|0:0,0:0:0:0:
318,363,4976,2,0,P|242:347|158:341,1,112.500004291535,2|2,0:0|0:0,0:0:0:0:
132,382,5726,1,2,0:0:0:0:
68,326,5976,6,0,P|71:287|76:249,1,56.2500021457673,2|0,0:0|0:0,0:0:0:0:
45,189,6476,2,0,P|97:222|166:178,1,112.500004291535,2|2,0:0|0:0,0:0:0:0:
289,293,7476,2,0,P|319:283|347:282,1,56.2500021457673,2|0,0:0|0:0,0:0:0:0:
417,241,7976,6,0,L|402:81,2,112.500004291535,2|2|2,0:0|0:0|0:0,0:0:0:0:
470,306,9226,2,0,L|475:362,2,56.2500021457673,2|2|2,0:0|0:0|0:0,0:0:0:0:
500,228,9976,6,0,L|485:68,2,112.500004291535,6|2|2,0:0|0:0|0:0,0:0:0:0:
470,306,11226,2,0,L|475:362,2,56.2500021457673,2|2|2,0:0|0:0|0:0,0:0:0:0:
417,241,11976,6,0,L|412:185,1,56.2500021457673,2|2,0:0|0:0,0:0:0:0:
350,127,12476,2,0,P|309:138|273:145,1,56.2500021457673,2|2,0:0|0:0,0:0:0:0:
210,141,12976,2,0,P|176:184|180:239,1,112.500004291535,2|2,0:0|0:0,0:0:0:0:
197,322,13726,1,2,0:0:0:0:
276,292,13976,6,0,P|317:303|341:307,1,56.2500021457673,2|0,0:0|0:0,0:0:0:0:
394,361,14476,2,0,P|380:290|415:242,1,112.500004291535,2|2,0:0|0:0,0:0:0:0:
511,132,15476,2,0,P|472:155|451:165,1,56.2500021457673,2|2,0:0|0:0,0:0:0:0:
379,171,15976,1,0,0:0:0:0:
379,171,16976,5,2,0:0:0:0:
379,171,17476,2,0,L|291:158,1,84.3750032186509,2|0,0:0|0:0,0:0:0:0:
260,136,17976,6,0,P|264:193|185:220,1,150,6|10,3:2|3:2,0:0:0:0:
120,172,18726,1,2,0:0:0:0:
120,172,18851,1,2,0:0:0:0:
120,172,18976,2,0,L|130:95,1,75,2|0,3:2|0:0,0:0:0:0:
51,72,19476,2,0,L|41:146,1,75,10|2,3:2|0:0,0:0:0:0:
2,218,19976,6,0,P|30:262|59:358,1,150,2|10,3:2|3:2,0:0:0:0:
137,381,20726,1,2,0:0:0:0:
187,315,20976,2,0,P|260:335|337:348,1,150,2|10,3:2|3:2,0:0:0:0:
414,318,21726,1,2,0:0:0:0:
414,318,21851,1,2,0:0:0:0:
414,318,21976,6,0,P|397:268|392:243,1,75,2|0,3:2|0:0,0:0:0:0:
314,218,22476,2,0,P|331:168|336:143,1,75,10|0,3:2|0:0,0:0:0:0:
398,93,22976,1,2,3:2:0:0:
398,93,23226,2,0,P|431:114|477:117,1,75,2|10,0:0|3:2,0:0:0:0:
458,36,23726,1,2,0:0:0:0:
458,36,23851,1,2,0:0:0:0:
458,36,23976,6,0,P|373:52|301:61,1,150,2|8,3:2|3:2,0:0:0:0:
243,12,24726,1,0,0:0:0:0:
195,79,24976,1,2,3:2:0:0:
269,134,25226,1,2,0:0:0:0:
269,134,25351,1,2,0:0:0:0:
269,134,25476,2,0,P|277:177|283:213,1,75,10|2,3:2|0:0,0:0:0:0:
361,233,25976,6,0,P|353:276|347:312,1,75,6|0,3:2|0:0,0:0:0:0:
282,356,26476,2,0,P|222:313|149:319,1,150,10|2,3:2|3:2,0:0:0:0:
81,366,27226,2,0,L|5:382,2,75,2|10|2,0:0|3:2|0:0,0:0:0:0:
75,283,27976,6,0,P|81:236|84:176,1,75,2|2,3:2|0:0,0:0:0:0:
14,162,28476,2,0,P|8:114|5:54,1,75,10|2,3:2|0:0,0:0:0:0:
65,30,28976,2,0,P|113:45|148:50,1,75,2|2,3:2|0:0,0:0:0:0:
204,97,29476,1,10,3:2:0:0:
257,34,29726,1,2,0:0:0:0:
323,82,29976,6,0,P|316:165|311:241,1,150,2|10,3:2|3:2,0:0:0:0:
254,291,30726,2,0,P|325:252|389:300,1,150,2|0,0:0|0:0,0:0:0:0:
443,335,31476,1,10,3:2:0:0:
493,269,31726,6,0,P|485:186|480:110,1,150,2|2,0:0|0:0,0:0:0:0:
416,67,32476,2,0,P|369:85|338:93,1,75,10|2,3:2|0:0,0:0:0:0:
280,40,32976,1,2,3:2:0:0:
211,81,33226,1,2,0:0:0:0:
211,81,33351,1,2,0:0:0:0:
211,81,33476,2,0,P|175:71|141:57,1,75,10|0,3:2|0:0,0:0:0:0:
58,46,33976,6,0,P|75:113|77:127,1,56.2500021457673,6|2,3:2|0:0,0:0:0:0:
124,166,34476,2,0,P|101:227|76:310,1,112.500004291535,2|0,3:2|3:2,0:0:0:0:
131,343,35226,2,0,L|201:332,1,56.2500021457673,2|0,0:2|3:2,0:0:0:0:
245,273,35726,6,0,L|315:284,1,56.2500021457673,2|0,0:2|3:2,0:0:0:0:
352,348,36226,2,0,L|422:337,1,56.2500021457673,2|0,0:2|3:2,0:0:0:0:
469,281,36726,2,0,L|483:212,2,56.2500021457673,2|2|2,0:0|3:2|0:0,0:0:0:0:
388,257,37476,1,2,3:2:0:0:
477,114,37976,6,0,P|439:138|412:147,1,56.2500021457673,2|2,3:2|0:0,0:0:0:0:
344,152,38476,2,0,L|205:145,1,112.500004291535,2|0,3:2|3:2,0:0:0:0:
159,101,39226,2,0,L|167:31,1,56.2500021457673,2|0,0:0|3:2,0:0:0:0:
84,21,39726,6,0,L|77:76,1,56.2500021457673,2|0,0:0|3:2,0:0:0:0:
22,140,40226,2,0,P|41:184|51:217,1,56.2500021457673,2|0,0:0|3:2,0:0:0:0:
98,255,40726,2,0,P|79:299|69:332,2,56.2500021457673,2|2|2,0:0|3:2|0:0,0:0:0:0:
159,197,41476,1,2,3:2:0:0:
288,305,41976,5,6,3:2:0:0:
365,264,42226,1,2,0:0:0:0:
365,264,42351,1,2,0:0:0:0:
365,264,42476,2,0,P|356:213|353:187,1,56.2500021457673,10|2,3:2|0:0,0:0:0:0:
380,127,42976,2,0,P|426:144|437:148,1,56.2500021457673,2|2,3:2|0:0,0:0:0:0:
474,140,43351,2,0,P|482:188|484:199,1,56.2500021457673,2|2,0:0|0:0,0:0:0:0:
509,227,43726,2,0,P|471:258|462:265,1,56.2500021457673,2|0,0:0|3:2,0:0:0:0:
433,344,44226,5,2,0:0:0:0:
433,344,44351,1,2,0:0:0:0:
433,344,44476,2,0,L|477:354,2,28.1250010728836,8|2|2,3:2|0:0|0:0,0:0:0:0:
357,383,44976,2,0,P|313:380|290:380,1,56.2500021457673,2|2,3:2|0:0,0:0:0:0:
258,383,45351,1,2,0:0:0:0:
194,335,45601,1,2,0:0:0:0:
190,332,45726,2,0,P|146:335|123:335,1,56.2500021457673,2|2,0:2|3:2,0:0:0:0:
68,281,46226,6,0,P|24:278|1:278,2,56.2500021457673,2|10|2,0:2|3:2|0:0,0:0:0:0:
133,227,46976,1,2,3:2:0:0:
133,227,47226,2,0,P|123:182|121:161,1,56.2500021457673,2|10,0:0|3:2,0:0:0:0:
147,90,47726,6,0,P|97:79|59:31,1,112.500004291535,2|2,0:2|0:0,0:0:0:0:
140,6,48476,2,0,L|227:18,1,56.2500021457673,10|2,3:2|0:2,0:0:0:0:
256,71,48976,1,2,3:2:0:0:
320,132,49226,1,8,0:0:0:0:
320,132,49476,2,0,L|403:120,1,84.3750032186509,10|0,3:2|0:2,0:0:0:0:
431,89,49976,6,0,P|413:178|477:209,1,150,6|10,3:2|0:2,0:0:0:0:
505,270,50726,2,0,P|494:333|485:369,1,75,2|0,0:0|0:2,0:0:0:0:
421,380,51226,1,2,3:2:0:0:
421,380,51351,1,2,0:2:0:0:
421,380,51476,1,10,0:2:0:0:
269,315,51976,6,0,P|221:299|109:303,1,150,2|10,3:2|0:2,0:0:0:0:
47,334,52726,2,0,P|100:276|75:225,1,112.5,2|2,0:0|3:2,0:0:0:0:
65,220,53226,1,2,3:2:0:0:
3,166,53476,2,0,L|20:79,1,75,10|2,0:2|3:2,0:0:0:0:
94,62,53976,6,0,P|146:86|237:103,1,150,2|10,3:2|0:2,0:0:0:0:
305,148,54726,2,0,P|357:124|422:114,1,75,2|2,0:0|0:2,0:0:0:0:
461,148,55226,1,2,3:2:0:0:
461,148,55351,1,2,0:0:0:0:
461,148,55476,1,10,0:2:0:0:
375,12,55976,5,2,3:2:0:0:
375,12,56226,2,0,L|299:30,1,75,2|8,0:0|0:2,0:0:0:0:
236,78,56726,2,0,L|160:60,1,75,2|2,0:0|0:0,0:0:0:0:
81,46,57226,2,0,P|92:115|98:178,1,75,2|10,3:2|0:2,0:0:0:0:
56,194,57726,1,2,0:0:0:0:
116,250,57976,6,0,P|185:244|275:240,1,150,6|10,3:2|0:2,0:0:0:0:
343,213,58726,2,0,P|340:277|343:315,1,75,2|2,0:2|0:2,0:2:0:0:
347,377,59226,1,2,3:2:0:0:
347,377,59351,1,2,0:0:0:0:
347,377,59476,1,10,0:0:0:0:
487,290,59976,5,2,3:2:0:0:
487,290,60226,2,0,L|479:207,1,75,2|10,0:0|0:2,0:0:0:0:
408,172,60726,2,0,P|474:161|464:103,1,112.5,2|2,0:0|3:2,0:0:0:0:
457,90,61226,1,2,3:2:0:0:
376,70,61476,2,0,P|313:84|275:89,1,75,10|2,0:2|3:2,0:0:0:0:
225,55,61976,6,0,P|258:142|201:172,1,150,2|10,3:2|0:2,0:0:0:0:
160,221,62726,2,0,P|226:260|243:281,1,75,2|2,0:0|0:2,0:0:0:0:
239,348,63226,1,2,3:2:0:0:
239,348,63351,1,2,0:0:0:0:
239,348,63476,1,10,0:2:0:0:
74,368,63976,6,0,B|58:219|58:219|104:289,1,225,2|0,3:2|0:0,0:0:0:0:
145,123,65226,2,0,L|153:37,2,75,2|2|2,3:2|0:0|0:0,0:0:0:0:
205,178,65976,6,0,P|271:168|315:132,1,75,6|0,3:2|0:0,0:0:0:0:
342,113,66476,2,0,P|408:123|452:159,1,75,10|0,3:2|0:0,0:0:0:0:
468,189,66976,2,0,P|453:280|446:360,1,150,2|10,3:2|3:2,0:0:0:0:
288,381,67976,6,0,P|245:371|210:366,1,75,2|2,3:2|0:0,0:0:0:0:
168,298,68476,2,0,P|125:308|90:313,1,75,10|2,3:2|0:0,0:0:0:0:
29,363,68976,1,2,3:2:0:0:
29,363,69101,1,8,0:2:0:0:
29,363,69226,1,8,0:0:0:0:
18,281,69476,2,0,P|32:246|43:211,1,75,10|2,3:2|0:0,0:0:0:0:
115,170,69976,6,0,P|101:135|90:99,1,75,2|0,3:2|0:0,0:0:0:0:
141,34,70476,2,0,P|188:48|221:54,1,75,10|0,3:2|0:0,0:0:0:0:
288,19,70976,2,0,P|240:68|287:138,1,150,2|10,3:2|3:2,0:0:0:0:
359,159,71726,1,2,0:0:0:0:
359,159,71851,1,2,0:0:0:0:
359,159,71976,6,0,P|427:150|453:149,1,75,2|0,3:2|0:0,0:0:0:0:
484,84,72476,2,0,P|456:161|450:260,1,150,10|2,3:2|3:2,0:0:0:0:
438,316,73226,1,2,0:0:0:0:
438,316,73351,1,2,0:0:0:0:
438,316,73476,2,0,L|467:354,2,37.5,10|2|2,3:2|0:0|0:0,0:0:0:0:
356,302,73976,6,0,P|357:356|358:380,1,75,6|0,3:2|0:0,0:0:0:0:
277,357,74476,2,0,P|276:303|275:279,1,75,10|0,3:2|0:0,0:0:0:0:
211,230,74976,2,0,P|161:258|45:270,1,150,2|10,3:2|3:2,0:0:0:0:
7,119,75976,6,0,P|54:128|94:134,1,75,2|2,3:2|0:0,0:0:0:0:
126,63,76476,2,0,P|173:54|213:48,1,75,10|2,3:2|0:0,0:0:0:0:
279,99,76976,1,2,3:2:0:0:
279,99,77101,1,8,0:2:0:0:
279,99,77226,1,8,0:0:0:0:
349,141,77476,2,0,P|386:135|423:128,1,75,10|2,3:2|0:0,0:0:0:0:
497,163,77976,6,0,P|479:220|474:255,1,75,2|0,3:2|0:0,0:0:0:0:
421,296,78476,2,0,P|439:353|444:388,1,75,10|0,3:2|0:0,0:0:0:0:
360,381,78976,2,0,L|197:365,1,150,2|10,3:2|3:2,0:0:0:0:
129,352,79726,1,2,0:0:0:0:
127,347,79851,1,2,0:0:0:0:
125,342,79976,6,0,P|118:292|107:258,1,75,2|0,3:2|0:0,0:0:0:0:
161,202,80476,2,0,P|186:134|177:34,1,150,10|2,3:2|3:2,0:0:0:0:
171,22,81101,1,8,0:2:0:0:
171,22,81226,1,10,0:0:0:0:
98,61,81476,1,10,3:2:0:0:
40,17,81726,1,2,0:0:0:0:
40,17,81851,1,2,0:0:0:0:
40,17,81976,5,6,0:2:0:0:
429,250,97976,6,0,P|385:273|281:295,1,150,6|10,3:2|0:2,0:0:0:0:
218,339,98726,2,0,P|174:316|122:304,1,75,2|0,0:0|0:2,0:0:0:0:
81,282,99226,1,2,0:2:0:0:
81,282,99351,1,2,0:2:0:0:
81,282,99476,1,10,0:2:0:0:
132,217,99726,1,2,0:0:0:0:
132,217,99851,1,2,0:0:0:0:
132,217,99976,6,0,P|140:158|137:55,1,150,2|10,3:2|0:2,0:0:0:0:
205,19,100726,2,0,P|246:35|312:50,1,112.5,2|0,0:0|3:2,0:0:0:0:
353,55,101226,2,0,L|453:72,1,75,2|8,3:2|0:2,0:0:0:0:
458,93,101601,1,2,0:0:0:0:
458,93,101726,1,0,3:2:0:0:
428,170,101976,6,0,L|278:158,1,150,2|10,3:2|0:2,0:0:0:0:
254,237,102726,2,0,L|403:248,1,150,2|2,0:0|3:2,0:0:0:0:
379,327,103476,1,10,0:2:0:0:
219,369,103976,6,0,P|170:349|62:334,1,150,2|10,3:2|0:2,0:0:0:0:
36,260,104726,2,0,P|110:250|174:224,1,112.5,2|2,0:0|3:2,0:0:0:0:
177,211,105226,1,2,3:2:0:0:
213,137,105476,1,10,0:2:0:0:
213,137,105601,2,0,L|209:47,1,75,2|2,3:2|0:0,0:0:0:0:
243,38,105976,6,0,P|288:54|394:69,1,150,2|10,3:2|0:2,0:0:0:0:
470,80,106726,2,0,P|456:125|440:184,1,75,2|0,0:0|0:2,0:0:0:0:
436,239,107226,1,2,3:2:0:0:
436,239,107351,1,2,0:2:0:0:
436,239,107476,1,10,0:2:0:0:
370,285,107726,1,2,0:0:0:0:
370,285,107851,1,2,0:0:0:0:
370,285,107976,6,0,P|307:272|206:269,1,150,2|10,3:2|0:2,0:0:0:0:
182,195,108726,2,0,P|247:175|270:107,1,112.5,2|0,0:0|3:2,0:0:0:0:
279,99,109226,1,2,3:2:0:0:
217,44,109476,2,0,L|136:58,1,75,10|2,0:2|3:2,0:0:0:0:
62,40,109976,6,0,P|74:134|68:220,1,150,2|10,3:2|0:2,0:0:0:0:
15,249,110726,2,0,P|58:226|106:310,1,150,2|2,0:0|3:2,0:0:0:0:
146,367,111476,1,8,0:2:0:0:
306,329,111976,6,0,P|361:345|464:368,1,150,2|8,3:2|0:2,0:0:0:0:
495,295,112726,2,0,L|506:168,1,112.5,2|0,0:0|3:2,0:0:0:0:
509,141,113226,1,2,3:2:0:0:
437,102,113476,1,8,0:2:0:0:
437,102,113601,2,0,P|402:119|362:133,1,75,0|0,3:2|0:0,0:0:0:0:
327,140,113976,6,0,L|162:146,1,150,6|8,3:2|0:2,0:0:0:0:
110,116,114726,1,2,0:0:0:0:
110,116,114851,1,2,0:0:0:0:
110,116,114976,2,0,L|128:35,1,75,2|2,0:0|3:2,0:0:0:0:
153,11,115351,2,0,P|200:25|241:32,1,75,2|2,0:0|0:0,0:0:0:0:
264,44,115726,1,2,0:0:0:0:
339,9,115976,6,0,P|380:20|490:45,1,150,2|8,3:2|0:2,0:0:0:0:
511,131,116726,1,2,0:0:0:0:
511,131,116851,1,2,0:0:0:0:
511,131,116976,2,0,P|495:169|483:220,1,75,2|2,0:0|3:2,0:0:0:0:
449,219,117351,2,0,P|465:257|477:308,1,75,2|2,0:0|0:0,0:0:0:0:
496,324,117726,1,2,3:2:0:0:
426,368,117976,6,0,P|361:355|267:353,1,150,2|8,3:2|0:2,0:0:0:0:
197,372,118726,1,2,0:0:0:0:
197,372,118851,1,2,0:0:0:0:
197,372,118976,2,0,L|121:364,1,75,2|2,0:0|3:2,0:0:0:0:
109,282,119476,2,0,L|183:289,1,75,10|2,0:2|0:0,0:0:0:0:
253,245,119976,6,0,P|262:199|266:150,1,75,2|2,3:2|0:0,0:0:0:0:
207,111,120476,2,0,P|176:111|123:90,1,75,10|2,0:2|0:0,0:0:0:0:
63,79,120976,1,2,0:0:0:0:
63,79,121101,1,0,3:2:0:0:
63,79,121226,1,2,3:2:0:0:
54,161,121476,1,10,0:2:0:0:
54,161,121601,2,0,P|58:198|65:234,1,75,0|0,3:2|0:0,0:0:0:0:
94,265,121976,6,0,P|46:273|71:368,1,150,6|8,3:2|0:2,0:0:0:0:
136,373,122726,1,2,0:0:0:0:
136,373,122851,1,2,0:0:0:0:
136,373,122976,2,0,P|192:365|228:363,1,75,2|2,0:0|3:2,0:0:0:0:
239,334,123351,2,0,P|295:342|331:344,1,75,2|2,0:0|0:0,0:0:0:0:
348,365,123726,1,2,0:0:0:0:
425,336,123976,6,0,P|416:293|401:158,1,150,2|8,3:2|0:2,0:0:0:0:
453,122,124726,1,2,0:0:0:0:
453,122,124851,1,2,0:0:0:0:
453,122,124976,2,0,P|461:80|466:48,1,75,2|2,0:0|3:2,0:0:0:0:
436,18,125351,2,0,P|388:27|344:35,1,75,2|2,0:0|0:0,0:0:0:0:
321,38,125726,1,2,3:2:0:0:
251,81,125976,6,0,P|198:58|88:43,1,150,2|8,3:2|0:2,0:0:0:0:
38,84,126726,1,2,0:0:0:0:
38,84,126851,1,2,0:0:0:0:
38,84,126976,2,0,P|56:132|63:158,1,75,2|2,0:0|3:2,0:0:0:0:
95,180,127351,2,0,P|77:228|70:254,1,75,2|2,0:0|0:0,0:0:0:0:
50,287,127726,1,2,0:0:0:0:
86,361,127976,5,2,3:2:0:0:
86,361,128101,2,0,L|7:367,2,75,2|2|2,0:0|0:0|0:0,0:0:0:0:
127,358,128726,1,2,0:0:0:0:
186,301,128976,1,2,0:0:0:0:
186,301,129101,1,0,3:2:0:0:
186,301,129226,2,0,P|184:256|186:218,2,75,2|10|2,3:2|0:2|0:0,0:0:0:0:
243,360,129976,6,0,P|302:350|346:348,1,75,6|0,3:2|0:0,0:0:0:0:
360,278,130476,2,0,P|322:274|285:266,1,75,10|0,3:2|0:0,0:0:0:0:
258,188,130976,2,0,L|276:36,1,150,2|10,3:2|3:2,0:0:0:0:
112,12,131976,6,0,P|98:57|79:103,1,75,2|2,3:2|0:0,0:0:0:0:
29,140,132476,2,0,P|43:185|62:231,1,75,10|2,3:2|0:0,0:0:0:0:
133,259,132976,1,2,3:2:0:0:
133,259,133101,1,8,0:2:0:0:
133,259,133226,1,10,0:0:0:0:
183,194,133476,2,0,P|220:189|258:188,1,75,10|2,3:2|0:0,0:0:0:0:
316,245,133976,6,0,P|320:282|322:319,1,75,2|0,3:2|0:0,0:0:0:0:
382,375,134476,2,0,P|423:342|447:322,1,75,10|0,3:2|0:0,0:0:0:0:
512,288,134976,2,0,P|501:239|484:131,1,150,2|10,3:2|3:2,0:0:0:0:
505,60,135726,1,2,0:0:0:0:
507,55,135851,1,2,0:0:0:0:
509,50,135976,6,0,P|471:69|413:85,1,75,2|0,3:2|0:0,0:0:0:0:
365,44,136476,2,0,P|394:108|339:152,1,150,10|2,3:2|3:2,0:0:0:0:
265,148,137226,1,2,0:0:0:0:
265,148,137351,1,2,0:0:0:0:
265,148,137476,2,0,L|260:193,2,37.5,10|2|2,3:2|0:0|0:0,0:0:0:0:
216,81,137976,6,0,P|145:96|113:100,1,75,6|0,3:2|0:0,0:0:0:0:
95,164,138476,2,0,P|131:170|168:179,1,75,10|0,3:2|0:0,0:0:0:0:
203,253,138976,2,0,P|204:323|128:371,1,150,2|10,3:2|3:2,0:0:0:0:
14,268,139976,6,0,P|5:199|5:179,1,75,2|2,3:2|0:0,0:0:0:0:
31,115,140476,2,0,P|40:46|40:26,1,75,10|2,3:2|0:0,0:0:0:0:
124,18,140976,1,2,3:2:0:0:
124,18,141101,1,8,0:2:0:0:
124,18,141226,1,8,0:0:0:0:
195,59,141476,2,0,P|251:53|302:52,1,75,10|2,3:2|0:0,0:0:0:0:
342,91,141976,6,0,L|428:82,1,75,2|0,3:2|0:0,0:0:0:0:
491,117,142476,2,0,P|470:186|465:214,1,75,10|0,3:2|0:0,0:0:0:0:
506,270,142976,2,0,P|447:241|439:324,1,150,2|10,3:2|3:2,0:0:0:0:
354,353,143726,1,2,0:0:0:0:
352,358,143853,1,2,0:0:0:0:
350,363,143980,6,0,P|281:332|207:325,1,150,2|10,3:2|3:2,0:0:0:0:
65,263,145013,6,0,P|139:255|207:225,1,150,2|10,3:2|3:2,0:0:0:0:
305,30,146207,5,6,0:2:0:0:
447,321,159766,5,0,0:0:0:0:
447,321,160060,2,0,L|392:315,1,56.2500021457673
323,244,160670,6,0,L|267:250,1,56.2500021457673,6|0,0:2|0:0,0:0:0:0:
207,310,161187,2,0,L|151:303,1,56.2500021457673,2|0,0:2|0:0,0:0:0:0:
79,259,161734,2,0,P|107:328|68:393,1,112.500004291535,2|2,0:2|0:2,0:0:0:0:
4,213,162789,6,0,L|13:151,1,56.2500021457673,2|2,0:2|0:2,0:0:0:0:
81,109,163297,2,0,P|117:127|165:136,1,56.2500021457673,2|2,0:2|0:2,0:0:0:0:
204,174,163805,2,0,P|265:152|325:145,1,112.500004291535,2|2,0:2|0:2,0:0:0:0:
376,199,164568,1,2,0:2:0:0:
430,135,164822,6,0,P|423:62|421:15,1,112.500004291535,2|2,0:2|0:2,0:0:0:0:
504,170,165822,2,0,P|511:243|513:290,1,112.500004291535,2|2,0:2|0:2,0:0:0:0:
373,377,166822,2,0,P|435:356|489:352,2,112.500004291535,2|2|2,0:2|0:2|0:2,0:0:0:0:
305,312,168028,5,2,0:2:0:0:
305,312,168278,2,0,P|263:324|238:333,1,56.2500021457673,2|2,0:2|0:2,0:0:0:0:
182,260,168835,6,0,P|200:211|213:188,1,56.2500021457673,6|0,0:2|0:0,0:0:0:0:
273,162,169337,2,0,L|351:171,1,56.2500021457673,2|0,0:2|0:0,0:0:0:0:
410,190,169839,2,0,P|374:148|400:81,1,112.500004291535,2|2,0:2|0:2,0:0:0:0:
237,12,170843,6,0,P|197:22|176:25,1,56.2500021457673,2|2,0:2|0:2,0:0:0:0:
148,101,171345,2,0,P|108:91|87:88,1,56.2500021457673,2|2,0:2|0:2,0:0:0:0:
17,51,171847,2,0,P|46:21|68:0,2,56.2500021457673,2|2|2,0:2|0:2|0:2,0:0:0:0:
23,136,172600,1,2,0:2:0:0:
23,136,172851,6,0,P|27:188|36:265,1,112.500004291535,2|0,0:2|0:0,0:0:0:0:
89,310,173601,1,2,0:2:0:0:
89,310,173873,2,0,L|161:305,1,56.2500021457673,2|2,0:2|0:2,0:0:0:0:
190,234,174419,2,0,L|262:239,1,56.2500021457673,2|2,0:2|0:2,0:0:0:0:
296,305,174964,5,2,0:2:0:0:
296,305,175464,6,0,P|365:303|416:300,1,112.500004291535
464,250,176181,6,0,L|521:242,2,56.2500021457673,2|2|2,0:2|0:2|0:2,0:0:0:0:
337,150,177149,2,0,L|280:142,2,56.2500021457673,2|2|2,0:2|0:2|0:2,0:0:0:0:
411,114,177899,6,0,P|426:74|428:34,1,75,6|0,3:2|0:0,0:0:0:0:
348,22,178399,2,0,L|258:36,1,75,10|0,3:2|0:0,0:0:0:0:
201,73,178899,2,0,P|136:83|27:90,1,150,2|10,3:2|3:2,0:0:0:0:
5,157,179649,1,2,0:0:0:0:
3,162,179774,1,2,0:0:0:0:
1,167,179899,6,0,P|14:212|24:247,1,75,2|2,3:2|0:0,0:0:0:0:
21,321,180399,2,0,P|66:308|101:298,1,75,10|2,3:2|0:0,0:0:0:0:
183,306,180899,1,2,3:2:0:0:
183,306,181024,1,8,0:2:0:0:
183,306,181149,1,8,0:0:0:0:
265,307,181399,2,0,P|301:296|337:286,1,75,10|2,3:2|0:0,0:0:0:0:
379,214,181899,6,0,P|365:154|355:124,1,75,2|0,3:2|0:0,0:0:0:0:
282,116,182399,2,0,P|296:56|306:26,1,75,10|0,3:2|0:0,0:0:0:0:
374,7,182899,2,0,P|406:37|505:83,1,150,2|10,3:2|3:2,0:0:0:0:
492,170,183649,1,2,0:0:0:0:
492,170,183774,1,2,0:0:0:0:
492,170,183899,6,0,P|486:226|484:251,1,75,2|0,3:2|0:0,0:0:0:0:
505,324,184399,2,0,P|464:273|388:324,1,150,10|2,3:2|3:2,0:0:0:0:
331,353,185149,1,2,0:0:0:0:
331,353,185274,1,2,0:0:0:0:
331,353,185399,2,0,L|283:360,2,37.5,10|2|2,3:2|0:0|0:0,0:0:0:0:
318,272,185899,6,0,L|222:286,1,75,4|0,3:2|0:0,0:0:0:0:
177,331,186399,2,0,L|81:317,1,75,10|0,3:2|0:0,0:0:0:0:
23,296,186899,2,0,P|56:229|26:146,1,150,2|10,3:2|3:2,0:0:0:0:
8,82,187649,1,2,0:0:0:0:
6,77,187774,1,2,0:0:0:0:
4,72,187899,6,0,P|56:84|104:90,1,75,2|2,3:2|0:0,0:0:0:0:
131,150,188399,2,0,P|183:138|231:132,1,75,10|2,3:2|0:0,0:0:0:0:
256,70,188899,1,2,3:2:0:0:
256,70,189024,1,8,0:2:0:0:
256,70,189149,1,8,0:0:0:0:
307,134,189399,2,0,P|344:140|381:150,1,75,10|2,3:2|0:0,0:0:0:0:
440,206,189899,6,0,L|448:280,1,75,2|0,3:2|0:0,0:0:0:0:
465,361,190399,2,0,P|404:348|373:344,1,75,10|0,3:2|0:0,0:0:0:0:
309,359,190899,2,0,P|283:296|201:314,1,150,2|10,3:2|3:2,0:0:0:0:
137,339,191649,1,2,0:0:0:0:
135,334,191774,1,2,0:0:0:0:
133,329,191899,6,0,P|126:279|115:245,1,75,2|0,3:2|0:0,0:0:0:0:
86,179,192399,2,0,P|152:145|199:87,1,150,10|2,3:2|3:2,0:0:0:0:
229,59,193024,1,8,0:2:0:0:
229,59,193149,1,10,0:0:0:0:
299,15,193399,1,10,3:2:0:0:
366,79,193649,1,2,0:0:0:0:
366,79,193774,1,2,0:0:0:0:
366,79,193899,6,0,L|447:72,1,75,6|0,3:2|0:0,0:0:0:0:
431,154,194399,2,0,L|356:160,1,75,10|0,3:2|0:0,0:0:0:0:
346,242,194899,2,0,L|495:229,1,150,2|10,3:2|3:2,0:0:0:0:
381,347,195899,6,0,P|318:337|284:336,1,75,2|2,3:2|0:0,0:0:0:0:
229,367,196399,2,0,P|206:307|190:277,1,75,10|2,3:2|0:0,0:0:0:0:
135,267,196899,1,2,3:2:0:0:
135,267,197024,1,8,0:2:0:0:
135,267,197149,1,8,0:0:0:0:
186,202,197399,2,0,P|193:164|198:123,1,75,10|2,3:2|0:0,0:0:0:0:
143,65,197899,6,0,P|103:77|61:87,1,75,2|0,3:2|0:0,0:0:0:0:
38,161,198399,2,0,P|53:197|61:236,1,75,10|0,3:2|0:0,0:0:0:0:
135,267,198899,2,0,P|120:303|112:342,1,75,2|0,3:2|0:0,0:0:0:0:
184,377,199399,1,10,3:2:0:0:
249,326,199649,1,2,0:0:0:0:
249,326,199774,1,2,0:0:0:0:
249,326,199899,6,0,P|297:337|329:341,1,75,2|0,3:2|0:0,0:0:0:0:
399,370,200399,2,0,P|352:327|376:247,1,150,10|2,3:2|3:2,0:0:0:0:
439,202,201149,1,2,0:0:0:0:
439,202,201274,1,2,0:0:0:0:
439,202,201399,1,10,3:2:0:0:
395,131,201649,1,2,0:0:0:0:
393,126,201774,1,2,0:0:0:0:
391,121,201899,6,0,P|344:134|303:138,1,75,6|0,3:2|0:0,0:0:0:0:
262,199,202399,2,0,P|215:186|174:182,1,75,10|0,3:2|0:0,0:0:0:0:
114,218,202899,2,0,P|150:170|106:85,1,150,2|10,3:2|3:2,0:0:0:0:
258,3,203899,6,0,L|333:17,1,75,2|2,3:2|0:0,0:0:0:0:
399,64,204399,2,0,P|449:56|491:42,1,75,10|2,3:2|0:0,0:0:0:0:
512,131,204899,1,2,3:2:0:0:
512,131,205024,1,8,0:2:0:0:
512,131,205149,1,8,0:0:0:0:
462,196,205399,2,0,P|469:247|475:289,1,75,10|2,3:2|0:0,0:0:0:0:
411,325,205899,6,0,L|321:312,1,75,2|0,3:2|0:0,0:0:0:0:
280,253,206399,2,0,P|292:202|307:177,1,75,10|0,3:2|0:0,0:0:0:0:
346,111,206899,2,0,P|334:60|319:35,1,75,2|0,3:2|0:0,0:0:0:0:
242,20,207399,1,10,3:2:0:0:
183,78,207649,1,2,0:0:0:0:
183,78,207774,1,2,0:0:0:0:
183,78,207899,6,0,P|155:117|99:213,1,150,2|8,3:2|3:2,0:0:0:0:
50,267,208649,1,2,0:0:0:0:
50,267,208774,1,2,0:0:0:0:
50,267,208899,2,0,L|13:260,2,37.5,0|8|10,3:2|0:2|0:0,0:0:0:0:
112,321,209399,1,10,3:2:0:0:
173,266,209649,1,2,0:0:0:0:
173,266,209774,1,2,0:0:0:0:
173,266,209899,6,0,B|211:271|229:274|286:291,1,75,6|0,3:2|0:0,0:0:0:0:
296,345,210399,2,0,B|334:340|352:336|409:320,1,75,10|0,3:2|0:0,0:0:0:0:
420,266,210899,2,0,P|413:188|406:90,1,150,2|10,3:2|3:2,0:0:0:0:
284,6,211899,6,0,P|276:56|268:87,1,75,2|2,3:2|0:0,0:0:0:0:
194,112,212399,2,0,P|202:162|210:193,1,75,10|2,0:0|0:2,0:0:0:0:
268,256,212899,1,2,3:2:0:0:
268,256,213024,1,8,0:0:0:0:
268,256,213149,1,8,0:0:0:0:
204,308,213399,2,0,P|141:298|112:295,1,75,10|2,3:2|0:0,0:0:0:0:
48,306,213899,6,0,P|54:269|59:231,1,75,2|0,3:2|0:0,0:0:0:0:
111,167,214399,2,0,P|104:130|99:92,1,75,10|0,3:2|0:0,0:0:0:0:
155,31,214899,2,0,P|223:49|260:56,1,75,2|0,3:2|0:0,0:0:0:0:
301,86,215399,1,10,3:2:0:0:
369,36,215649,1,2,0:0:0:0:
369,36,215774,1,2,0:0:0:0:
369,36,215899,6,0,P|415:52|449:67,1,75,2|0,3:2|0:0,0:0:0:0:
483,132,216399,2,0,P|456:188|443:283,1,150,10|2,3:2|3:2,0:0:0:0:
414,356,217149,1,2,0:2:0:0:
414,356,217274,1,2,0:0:0:0:
414,356,217399,1,10,3:2:0:0:
338,322,217649,1,2,0:0:0:0:
336,317,217774,1,2,0:0:0:0:
334,312,217899,5,6,3:2:0:0:
256,192,218024,12,0,223399,0:0:0:0:
