osu file format v14

[General]
AudioFilename: audio.mp3
AudioLeadIn: 0
PreviewTime: 56581
Countdown: 0
SampleSet: Soft
StackLeniency: 0.4
Mode: 0
LetterboxInBreaks: 0
WidescreenStoryboard: 0

[Editor]
Bookmarks: 11581,26941,42301,57661,73021,88381,103741,119101,134461,149821,165181,180541,195901,211261,226621
DistanceSpacing: 1
BeatDivisor: 2
GridSize: 32
TimelineZoom: 1.2

[Metadata]
Title:To You on The Other Side
TitleUnicode:门的另一端
Artist:ChiliChill feat. Duo Duo poi, Yan Ning ccccc
ArtistUnicode:ChiliChill feat. 多多poi,宴宁ccccc
Creator:lit120
Version:Insane
Source:
Tags:men de ling yi duan 米哈游 MiHoYo Genshin Impact 原神 1st Anniversary Original Fansong Paimon Lumine Kurattes Chinese Pop Cpop C-pop -Hakurei-
BeatmapID:3246877
BeatmapSetID:1589584

[Difficulty]
HPDrainRate:6
CircleSize:4
OverallDifficulty:7
ApproachRate:8
SliderMultiplier:1.7
SliderTickRate:1

[Events]
//Background and Video events
0,0,"lumine paimon.jpg",0,0
Video,-2500,"anniv.mp4"
//Break Periods
//Storyboard Layer 0 (Background)
//Storyboard Layer 1 (Fail)
//Storyboard Layer 2 (Pass)
//Storyboard Layer 3 (Foreground)
//Storyboard Layer 4 (Overlay)
//Storyboard Sound Samples

[TimingPoints]
61,480,4,2,1,60,1,0
13861,-100,4,2,1,5,0,0
13981,-100,4,2,1,60,0,0
29221,-100,4,2,1,5,0,0
29341,-100,4,2,1,60,0,0
33061,-100,4,2,1,5,0,0
33181,-100,4,2,1,60,0,0
54661,-100,4,2,1,5,0,0
54781,-100,4,2,1,60,0,0
55741,-100,4,2,1,5,0,0
57661,-83.3333333333333,4,2,2,60,0,1
66181,-83.3333333333333,4,2,2,5,0,1
66301,-83.3333333333333,4,2,2,60,0,1
69541,-83.3333333333333,4,2,2,5,0,1
69661,-83.3333333333333,4,2,2,60,0,1
71221,-83.3333333333333,4,2,2,5,0,1
71341,-83.3333333333333,4,2,2,60,0,1
78901,-83.3333333333333,4,2,2,5,0,1
79021,-83.3333333333333,4,2,2,60,0,1
84901,-83.3333333333333,4,2,2,5,0,1
85021,-83.3333333333333,4,2,2,60,0,1
86821,-83.3333333333333,4,2,2,5,0,1
86941,-83.3333333333333,4,2,2,60,0,1
88381,-83.3333333333333,4,2,2,60,0,0
88741,-83.3333333333333,4,2,2,5,0,0
88861,-83.3333333333333,4,2,2,60,0,0
103741,-100,4,2,2,60,0,0
106021,-100,4,2,2,5,0,0
106141,-100,4,2,2,60,0,0
119101,-100,4,2,1,60,0,0
121381,-100,4,2,1,5,0,0
121501,-100,4,2,1,60,0,0
146821,-100,4,2,1,5,0,0
146941,-100,4,2,1,60,0,0
147901,-100,4,2,1,5,0,0
149821,-83.3333333333333,4,2,2,60,0,1
158341,-83.3333333333333,4,2,2,5,0,1
158461,-83.3333333333333,4,2,2,60,0,1
162181,-83.3333333333333,4,2,2,5,0,1
162301,-83.3333333333333,4,2,2,60,0,1
163381,-83.3333333333333,4,2,2,5,0,1
163501,-83.3333333333333,4,2,2,60,0,1
165541,-83.3333333333333,4,2,2,5,0,1
165661,-83.3333333333333,4,2,2,60,0,1
177061,-83.3333333333333,4,2,2,5,0,1
177181,-83.3333333333333,4,2,2,60,0,1
178981,-83.3333333333333,4,2,2,5,0,1
179101,-83.3333333333333,4,2,2,60,0,1
180541,-83.3333333333333,4,2,2,60,0,0
180901,-83.3333333333333,4,2,2,5,0,0
181021,-83.3333333333333,4,2,2,60,0,0
188581,-83.3333333333333,4,2,2,5,0,0
188701,-83.3333333333333,4,2,2,60,0,0
192421,-83.3333333333333,4,2,2,5,0,0
192541,-83.3333333333333,4,2,2,60,0,0
196261,-83.3333333333333,4,2,2,5,0,0
196381,-83.3333333333333,4,2,2,60,0,0
200101,-83.3333333333333,4,2,2,5,0,0
200221,-83.3333333333333,4,2,2,60,0,0
203941,-83.3333333333333,4,2,2,5,0,0
204061,-83.3333333333333,4,2,2,60,0,0
207781,-83.3333333333333,4,2,2,5,0,0
207901,-83.3333333333333,4,2,2,60,0,0
211621,-83.3333333333333,4,2,2,5,0,0
211741,-83.3333333333333,4,2,2,60,0,0
219301,-83.3333333333333,4,2,2,5,0,0
219421,-83.3333333333333,4,2,2,60,0,0
219901,-83.3333333333333,4,2,2,55,0,0
220861,-83.3333333333333,4,2,2,50,0,0
221821,-83.3333333333333,4,2,2,45,0,0
222781,-83.3333333333333,4,2,2,40,0,0
223141,-83.3333333333333,4,2,2,5,0,0
223261,-83.3333333333333,4,2,2,40,0,0
223741,-83.3333333333333,4,2,2,35,0,0
224701,-100,4,2,2,30,0,0
225661,-100,4,2,2,25,0,0
226621,-100,4,2,2,20,0,0

[Colours]
Combo1 : 98,164,189
Combo2 : 249,224,138
Combo3 : 149,215,232
Combo4 : 145,208,111

[HitObjects]
3,321,11581,6,0,B|70:316|70:316|94:335|94:335|182:325,1,170,6|8,3:2|0:2,0:0:0:0:
263,297,12301,1,2,0:0:0:0:
160,148,12541,2,0,P|175:187|189:228,1,85,2|0,3:2|3:2,0:0:0:0:
298,32,13021,1,10,0:2:0:0:
173,123,13261,1,2,3:2:0:0:
341,224,13501,6,0,P|410:206|505:199,1,127.5,2|0,0:0|0:0,0:0:0:0:
505,269,13981,2,0,P|494:318|484:376,1,85,10|0,0:2|0:0,0:0:0:0:
360,191,14461,2,0,P|352:149|342:107,1,85,2|0,3:2|3:2,0:0:0:0:
170,6,14941,1,10,0:2:0:0:
80,145,15181,1,2,3:2:0:0:
80,145,15301,1,2,0:0:0:0:
80,145,15421,6,0,P|132:160|214:59,1,170,2|8,3:2|0:2,0:0:0:0:
289,9,16141,1,2,0:0:0:0:
445,128,16381,2,0,P|404:115|362:107,1,85,2|0,3:2|3:2,0:0:0:0:
207,267,16861,1,10,0:2:0:0:
119,146,17101,1,2,3:2:0:0:
18,330,17341,6,0,B|114:305|83:389|179:365,2,170,2|10|2,0:0|0:2|3:2,0:0:0:0:
177,245,18541,1,0,3:2:0:0:
24,108,18781,1,10,0:2:0:0:
124,33,19021,1,2,3:2:0:0:
124,33,19141,1,2,0:0:0:0:
124,33,19261,6,0,P|171:47|295:71,1,170,2|8,3:2|0:2,0:0:0:0:
429,169,19981,2,0,P|413:120|402:56,1,85,2|0,0:0|3:2,0:0:0:0:
317,226,20461,1,0,3:2:0:0:
446,365,20701,1,10,0:2:0:0:
509,242,20941,6,0,P|448:260|406:267,1,85,2|0,3:2|0:0,0:0:0:0:
273,379,21421,2,0,P|306:352|310:311,1,85,2|8,0:0|0:2,0:0:0:0:
148,183,21901,2,0,P|152:224|184:250,1,85,2|0,0:0|3:2,0:0:0:0:
335,148,22381,1,2,3:2:0:0:
162,20,22621,1,10,0:2:0:0:
29,103,22861,1,2,3:2:0:0:
29,103,22981,1,2,0:0:0:0:
29,103,23101,6,0,P|39:188|49:300,1,170,2|8,3:2|0:2,0:0:0:0:
180,384,23821,2,0,P|187:299|197:214,1,170,2|0,0:0|3:2,0:0:0:0:
297,22,24541,1,10,0:2:0:0:
365,142,24781,6,0,P|312:128|273:121,1,85,2|0,3:2|0:0,0:0:0:0:
419,266,25261,2,0,P|460:257|501:246,1,85,0|8,0:0|0:2,0:0:0:0:
257,354,25741,1,2,0:0:0:0:
346,222,25981,1,0,3:2:0:0:
186,134,26221,1,2,3:2:0:0:
390,31,26461,1,10,0:2:0:0:
293,114,26701,1,2,3:2:0:0:
293,114,26821,1,2,0:0:0:0:
293,114,26941,6,0,P|211:95|90:82,1,170,6|8,3:2|0:2,0:0:0:0:
31,151,27661,1,2,0:0:0:0:
136,266,27901,2,0,P|181:254|239:246,1,85,2|0,3:2|3:2,0:0:0:0:
27,377,28381,1,10,0:2:0:0:
120,237,28621,1,2,3:2:0:0:
253,358,28861,6,0,B|303:348|303:348|321:328|321:328|391:314,1,127.5,2|0,0:0|0:0,0:0:0:0:
423,252,29341,2,0,P|425:202|421:155,1,85,10|0,0:2|0:0,0:0:0:0:
315,28,29821,1,2,3:2:0:0:
425,138,30061,1,0,3:2:0:0:
230,234,30301,2,0,P|176:223|125:219,1,85,10|0,0:2|3:2,0:0:0:0:
16,42,30781,6,0,P|64:23|137:103,1,170,2|8,3:2|0:2,0:0:0:0:
125,217,31501,1,2,0:0:0:0:
295,99,31741,2,0,P|348:114|390:121,1,85,2|0,3:2|3:2,0:0:0:0:
475,301,32221,1,10,0:2:0:0:
344,238,32461,1,2,3:2:0:0:
483,132,32701,6,0,P|505:66|441:10,1,127.5,2|0,0:0|0:0,0:0:0:0:
402,3,33181,2,0,L|303:23,1,85,10|0,0:2|0:0,0:0:0:0:
215,157,33661,1,2,3:2:0:0:
127,21,33901,1,2,3:2:0:0:
219,190,34141,1,10,0:2:0:0:
92,295,34381,1,2,3:2:0:0:
92,295,34501,1,2,0:0:0:0:
92,295,34621,6,0,B|76:232|76:232|49:203|49:203|34:121,1,170,2|10,3:2|0:2,0:0:0:0:
149,32,35341,2,0,P|141:86|138:129,1,85,2|0,0:0|3:2,0:0:0:0:
276,247,35821,2,0,P|218:225|171:232,1,85,2|8,3:2|0:2,0:0:0:0:
345,122,36301,6,0,P|427:108|524:79,1,170,2|0,3:2|0:0,0:0:0:0:
401,259,37021,1,10,0:2:0:0:
490,353,37261,2,0,P|429:344|383:341,1,85,2|0,0:0|3:2,0:0:0:0:
301,246,37741,2,0,P|343:241|385:235,1,85,2|8,3:2|0:2,0:0:0:0:
253,370,38221,1,2,3:2:0:0:
173,196,38461,6,0,P|183:134|197:21,2,170,2|8|0,3:2|0:2|3:2,0:0:0:0:
85,345,39661,1,2,3:2:0:0:
287,253,39901,1,10,0:2:0:0:
156,120,40141,6,0,P|96:136|51:147,1,85,2|0,3:2|0:0,0:0:0:0:
225,11,40621,2,0,P|266:21|307:32,1,85,2|8,0:0|0:2,0:0:0:0:
374,151,41101,1,2,0:0:0:0:
198,223,41341,1,0,3:2:0:0:
336,326,41581,1,2,3:2:0:0:
252,105,41821,1,10,0:2:0:0:
374,151,42061,1,2,3:2:0:0:
374,151,42181,1,2,0:0:0:0:
374,151,42301,6,0,P|434:136|483:132,1,85,6|0,3:2|0:0,0:0:0:0:
328,306,42781,1,10,0:2:0:0:
274,188,43021,1,2,0:0:0:0:
176,366,43261,1,2,3:2:0:0:
221,244,43501,1,2,3:2:0:0:
25,300,43741,1,10,0:2:0:0:
143,246,43981,6,0,P|152:178|149:130,1,85,2|0,3:2|0:0,0:0:0:0:
219,70,44461,1,2,0:0:0:0:
46,5,44701,1,10,0:2:0:0:
132,68,44941,2,0,P|216:47|325:40,1,170,2|2,0:0|3:2,0:0:0:0:
409,153,45661,1,10,0:2:0:0:
304,66,45901,1,2,3:2:0:0:
231,246,46141,6,0,P|246:311|258:364,1,85,2|0,3:2|0:0,0:0:0:0:
385,172,46621,1,10,0:2:0:0:
303,147,46861,1,2,0:0:0:0:
372,341,47101,1,2,3:2:0:0:
434,283,47341,1,2,3:2:0:0:
231,246,47581,1,10,0:2:0:0:
168,303,47821,6,0,P|112:298|64:298,1,85,2|0,3:2|0:0,0:0:0:0:
218,153,48301,2,0,P|260:152|303:147,1,85,2|8,0:0|0:2,0:0:0:0:
103,24,48781,2,0,P|128:58|151:95,1,85,2|0,0:0|3:2,0:0:0:0:
97,259,49261,1,2,3:2:0:0:
303,147,49501,2,0,P|345:148|387:153,1,85,8|0,0:2|3:2,0:0:0:0:
261,317,49981,6,0,P|238:282|243:241,1,85,2|0,3:2|0:0,0:0:0:0:
345,44,50461,1,10,0:2:0:0:
387,153,50701,1,2,0:0:0:0:
243,241,50941,1,2,3:2:0:0:
286,132,51181,1,2,3:2:0:0:
142,44,51421,1,10,0:2:0:0:
184,153,51661,6,0,P|129:143|-1:131,1,170,2|2,3:2|0:0,0:0:0:0:
118,320,52381,1,10,0:2:0:0:
220,261,52621,2,0,P|272:276|308:282,1,85,2|0,0:0|3:2,0:0:0:0:
406,199,53101,1,2,3:2:0:0:
254,55,53341,1,10,0:2:0:0:
302,175,53581,1,2,3:2:0:0:
461,46,53821,6,0,P|409:59|349:69,1,85,2|0,3:2|0:0,0:0:0:0:
168,22,54301,2,0,P|214:73|190:159,1,127.5,10|0,0:2|0:0,0:0:0:0:
157,190,54781,1,2,3:2:0:0:
87,104,55021,1,2,3:2:0:0:
8,310,55261,1,10,0:2:0:0:
226,275,55501,2,0,P|212:337|204:377,1,85,2|0,3:2|0:0,0:0:0:0:
207,358,57661,6,0,B|279:346|279:346|310:307|310:307|406:295,1,203.999993774414,6|8,3:2|0:2,0:0:0:0:
463,203,58381,2,0,P|454:152|444:89,1,101.999996887207,2|0,0:0|3:2,0:0:0:0:
324,17,58861,1,0,3:2:0:0:
245,208,59101,1,10,0:2:0:0:
343,117,59341,6,0,B|217:91|217:91|173:89|146:126,1,203.999993774414,2|2,3:2|0:0,0:0:0:0:
20,287,60061,2,0,P|77:279|150:272,1,101.999996887207,10|0,0:2|0:0,0:0:0:0:
261,189,60541,1,2,3:2:0:0:
178,362,60781,1,2,3:2:0:0:
125,118,61021,1,10,0:2:0:0:
271,290,61261,1,2,3:2:0:0:
271,290,61381,1,2,0:0:0:0:
271,290,61501,6,0,P|330:270|510:251,1,203.999993774414,2|8,3:2|0:2,0:0:0:0:
398,103,62221,2,0,P|296:92|199:63,1,203.999993774414,2|0,0:0|3:2,0:0:0:0:
96,211,62941,1,10,0:2:0:0:
19,0,63181,6,0,P|30:52|41:128,1,101.999996887207,2|0,3:2|0:0,0:0:0:0:
187,226,63661,2,0,P|152:189|103:190,1,101.999996887207,2|8,0:0|0:2,0:0:0:0:
192,46,64141,1,2,0:0:0:0:
286,212,64381,1,2,3:2:0:0:
381,140,64621,1,0,3:2:0:0:
306,354,64861,1,10,0:2:0:0:
408,287,65101,1,2,3:2:0:0:
408,287,65221,1,2,0:0:0:0:
407,287,65341,6,0,P|458:296|508:304,1,101.999996887207,6|0,3:2|0:0,0:0:0:0:
436,75,65821,2,0,B|374:84|374:84|345:111|345:111|265:125,1,152.999995330811,10|0,0:2|0:0,0:0:0:0:
227,72,66301,2,0,P|157:87|82:114,1,101.999996887207,2|2,3:2|3:2,0:0:0:0:
40,292,66781,1,10,0:2:0:0:
152,355,67021,6,0,P|176:274|90:213,1,203.999993774414,2|0,3:2|0:0,0:0:0:0:
230,34,67741,1,8,0:2:0:0:
100,107,67981,1,2,0:0:0:0:
257,234,68221,2,0,P|311:226|370:225,1,101.999996887207,2|0,3:2|3:2,0:0:0:0:
461,25,68701,1,10,0:2:0:0:
282,102,68941,1,2,3:2:0:0:
373,253,69181,6,0,B|473:231|473:231|500:241|508:272,1,152.999995330811,2|0,3:2|0:0,0:0:0:0:
464,344,69661,2,0,P|400:336|350:334,1,101.999996887207,10|0,0:2|0:0,0:0:0:0:
240,248,70141,1,0,3:2:0:0:
392,156,70381,1,2,3:2:0:0:
195,42,70621,1,10,0:2:0:0:
110,153,70861,6,0,P|117:219|123:330,1,152.999995330811,2|0,3:2|0:0,0:0:0:0:
121,384,71341,1,2,0:0:0:0:
258,237,71581,2,0,P|313:253|362:265,1,101.999996887207,8|2,0:2|0:0,0:0:0:0:
228,57,72061,1,2,3:2:0:0:
110,153,72301,1,2,3:2:0:0:
238,20,72541,1,10,0:2:0:0:
386,193,72781,1,2,3:2:0:0:
386,193,72901,1,2,0:0:0:0:
386,193,73021,6,0,P|446:183|490:178,1,101.999996887207,6|0,3:2|0:0,0:0:0:0:
321,68,73501,1,10,0:2:0:0:
264,212,73741,2,0,B|246:287|266:347|266:347|246:322|208:301,1,203.999993774414,2|0,0:0|3:2,0:0:0:0:
129,188,74461,1,10,0:2:0:0:
33,381,74701,6,0,P|40:324|48:244,1,101.999996887207,2|0,3:2|0:0,0:0:0:0:
0,60,75181,2,0,B|84:74|84:74|105:107|105:107|189:119,1,203.999993774414,2|2,0:0|0:0,0:0:0:0:
310,32,75901,1,2,3:2:0:0:
201,129,76141,1,2,3:2:0:0:
336,257,76381,1,10,0:2:0:0:
457,70,76621,1,2,3:2:0:0:
457,70,76741,1,2,0:0:0:0:
457,70,76861,6,0,P|436:151|420:273,1,203.999993774414,2|8,3:2|0:2,0:0:0:0:
269,369,77581,2,0,P|316:349|366:336,1,101.999996887207,2|0,0:0|3:2,0:0:0:0:
241,207,78061,1,0,3:2:0:0:
429,84,78301,1,10,0:2:0:0:
305,18,78541,6,0,P|250:41|147:76,1,152.999995330811,2|0,3:2|0:0,0:0:0:0:
88,38,79021,1,2,0:0:0:0:
15,197,79261,2,0,P|25:258|28:314,1,101.999996887207,8|2,0:2|0:0,0:0:0:0:
234,182,79741,1,2,3:2:0:0:
132,298,79981,1,2,3:2:0:0:
318,384,80221,1,10,0:2:0:0:
365,265,80461,1,2,3:2:0:0:
365,265,80581,1,2,0:0:0:0:
365,265,80701,6,0,P|353:190|334:47,1,203.999993774414,2|8,3:2|0:2,0:0:0:0:
489,0,81421,2,0,P|475:101|459:201,1,203.999993774414,2|2,0:0|3:2,0:0:0:0:
368,378,82141,1,10,0:2:0:0:
265,275,82381,6,0,P|215:290|159:306,1,101.999996887207,2|0,3:2|0:0,0:0:0:0:
41,170,82861,2,0,P|90:184|138:198,1,101.999996887207,2|8,0:0|0:2,0:0:0:0:
246,20,83341,2,0,P|209:60|226:117,1,101.999996887207,2|0,0:0|3:2,0:0:0:0:
286,250,83821,1,2,3:2:0:0:
413,40,84061,1,10,0:2:0:0:
305,139,84301,1,2,3:2:0:0:
215,1,84541,6,0,P|153:21|56:44,1,152.999995330811,2|0,3:2|0:0,0:0:0:0:
15,105,85021,2,0,P|28:158|37:213,1,101.999996887207,10|0,0:2|0:0,0:0:0:0:
84,314,85501,1,2,3:2:0:0:
250,181,85741,2,0,P|204:202|157:220,1,101.999996887207,2|8,3:2|0:2,0:0:0:0:
64,327,86221,1,2,3:2:0:0:
213,380,86461,6,0,P|267:364|375:347,1,152.999995330811,2|0,0:0|0:0,0:0:0:0:
426,299,86941,1,10,0:2:0:0:
354,191,87181,2,0,P|356:119|375:51,1,101.999996887207,2|0,0:0|3:2,0:0:0:0:
458,24,87661,1,2,3:2:0:0:
375,217,87901,1,10,0:2:0:0:
249,48,88141,1,2,3:2:0:0:
249,48,88261,1,2,0:0:0:0:
249,48,88381,6,0,B|188:55|188:55|165:82|165:82|88:91,1,152.999995330811,6|0,3:2|0:0,0:0:0:0:
25,116,88861,1,10,0:2:0:0:
49,15,89101,1,2,0:0:0:0:
133,189,89341,1,2,3:2:0:0:
109,88,89581,1,2,3:2:0:0:
8,252,89821,1,10,0:2:0:0:
32,352,90061,6,0,P|100:331|136:324,1,101.999996887207,2|0,3:2|0:0,0:0:0:0:
253,215,90541,2,0,P|203:203|154:187,1,101.999996887207,2|8,0:0|0:2,0:0:0:0:
282,25,91021,2,0,P|308:58|299:124,1,101.999996887207,2|0,0:0|3:2,0:0:0:0:
371,303,91501,1,2,3:2:0:0:
269,201,91741,1,8,0:2:0:0:
423,94,91981,1,0,3:2:0:0:
483,195,92221,6,0,P|475:259|468:327,1,101.999996887207,2|0,3:2|0:0,0:0:0:0:
281,367,92701,1,10,0:2:0:0:
371,273,92941,1,2,0:0:0:0:
174,193,93181,1,2,3:2:0:0:
264,287,93421,1,2,3:2:0:0:
371,113,93661,1,10,0:2:0:0:
281,207,93901,6,0,P|276:148|266:91,1,101.999996887207,2|0,3:2|0:0,0:0:0:0:
409,3,94381,2,0,P|401:53|397:104,1,101.999996887207,2|8,0:0|0:2,0:0:0:0:
254,217,94861,2,0,P|182:204|133:200,1,101.999996887207,2|0,0:0|3:2,0:0:0:0:
6,307,95341,1,2,3:2:0:0:
131,205,95581,1,10,0:2:0:0:
157,365,95821,1,2,3:2:0:0:
157,365,95941,1,2,0:0:0:0:
157,365,96061,6,0,P|228:349|276:345,1,101.999996887207,2|0,3:2|0:0,0:0:0:0:
453,178,96541,1,10,0:2:0:0:
417,290,96781,1,2,0:0:0:0:
344,116,97021,1,2,3:2:0:0:
348,233,97261,1,2,3:2:0:0:
219,94,97501,1,10,0:2:0:0:
263,203,97741,6,0,P|253:265|249:317,1,101.999996887207,2|0,3:2|0:0,0:0:0:0:
123,141,98221,2,0,P|118:90|109:39,1,101.999996887207,2|8,0:0|0:2,0:0:0:0:
4,275,98701,2,0,P|56:242|106:242,1,101.999996887207,2|0,0:0|3:2,0:0:0:0:
218,93,99181,1,2,3:2:0:0:
218,93,99301,1,2,0:0:0:0:
218,93,99421,2,0,P|259:123|310:129,1,101.999996887207,10|2,0:2|3:2,0:0:0:0:
432,312,99901,6,0,P|418:249|408:189,1,101.999996887207,2|0,3:2|0:0,0:0:0:0:
231,382,100381,1,10,0:2:0:0:
344,356,100621,1,2,0:0:0:0:
172,267,100861,1,2,3:2:0:0:
138,377,101101,1,2,3:2:0:0:
301,273,101341,1,10,0:2:0:0:
222,188,101581,6,0,P|157:182|103:192,1,101.999996887207,2|0,3:2|0:0,0:0:0:0:
284,45,102061,2,0,P|334:50|385:44,1,101.999996887207,2|8,0:0|0:2,0:0:0:0:
501,230,102541,2,0,P|475:166|478:123,1,101.999996887207,2|0,0:0|3:2,0:0:0:0:
313,256,103021,1,2,3:2:0:0:
268,24,103261,1,10,0:2:0:0:
178,108,103501,1,2,3:2:0:0:
178,108,103621,1,2,0:0:0:0:
178,108,103741,6,0,B|71:90|71:90|31:94|16:138,1,170,6|8,3:2|0:2,0:0:0:0:
0,232,104461,1,2,0:0:0:0:
131,311,104701,2,0,P|184:292|236:280,1,85,2|0,3:2|3:2,0:0:0:0:
307,106,105181,1,10,0:2:0:0:
204,190,105421,1,2,3:2:0:0:
100,10,105661,6,0,P|152:26|244:44,1,127.5,2|0,0:0|0:0,0:0:0:0:
292,83,106141,2,0,P|340:64|382:55,1,85,10|0,0:2|0:0,0:0:0:0:
502,192,106621,2,0,P|460:181|421:165,1,85,2|0,3:2|3:2,0:0:0:0:
271,317,107101,1,10,0:2:0:0:
204,190,107341,1,2,3:2:0:0:
204,190,107461,1,2,0:0:0:0:
204,190,107581,6,0,B|96:190|156:257|21:252,1,170,2|8,3:2|0:2,0:0:0:0:
0,341,108301,1,2,0:0:0:0:
40,152,108541,2,0,P|35:104|26:59,1,85,2|0,3:2|3:2,0:0:0:0:
205,212,109021,1,10,0:2:0:0:
137,96,109261,1,2,3:2:0:0:
297,18,109501,6,0,P|362:32|399:37,1,85,2|0,0:0|0:0,0:0:0:0:
496,196,109981,2,0,P|431:163|387:183,1,85,10|0,0:2|0:0,0:0:0:0:
263,277,110461,1,2,3:2:0:0:
322,142,110701,1,0,3:2:0:0:
386,373,110941,1,10,0:2:0:0:
186,326,111181,1,2,3:2:0:0:
186,326,111301,1,2,0:0:0:0:
186,326,111421,6,0,B|120:334|120:334|93:363|93:363|3:374,1,170,2|8,3:2|0:2,0:0:0:0:
0,251,112141,2,0,P|11:191|14:158,1,85,2|0,0:0|3:2,0:0:0:0:
103,64,112621,1,2,3:2:0:0:
197,242,112861,1,10,0:2:0:0:
292,131,113101,6,0,B|401:119|401:119|434:123|456:162,1,170,2|2,3:2|0:0,0:0:0:0:
378,337,113821,1,8,0:2:0:0:
505,235,114061,2,0,P|456:248|411:258,1,85,2|0,0:0|3:2,0:0:0:0:
289,158,114541,1,2,3:2:0:0:
460,29,114781,1,10,0:2:0:0:
409,148,115021,1,2,3:2:0:0:
252,25,115261,6,0,B|148:34|148:34|110:46|94:85,1,170,2|8,3:2|0:2,0:0:0:0:
16,195,115981,2,0,P|10:145|1:91,1,85,2|0,0:0|3:2,0:0:0:0:
134,194,116461,1,0,3:2:0:0:
0,350,116701,1,10,0:2:0:0:
122,293,116941,6,0,P|181:308|301:328,1,170,2|2,3:2|0:0,0:0:0:0:
364,236,117661,1,8,0:2:0:0:
471,384,117901,2,0,P|459:333|454:285,1,85,2|0,0:0|3:2,0:0:0:0:
374,136,118381,1,2,3:2:0:0:
280,346,118621,1,10,0:2:0:0:
168,207,118861,1,2,3:2:0:0:
168,207,118981,1,2,0:0:0:0:
168,207,119101,6,0,P|176:165|188:88,1,85,6|0,3:2|0:0,0:0:0:0:
15,285,119581,2,0,P|7:243|-5:166,1,85,8|2,0:2|0:0,0:0:0:0:
82,23,120061,1,2,3:2:0:0:
200,114,120301,1,0,3:2:0:0:
18,208,120541,1,10,0:2:0:0:
103,104,120781,1,2,3:2:0:0:
214,291,121021,6,0,P|292:261|346:264,1,127.5,2|0,0:0|0:0,0:0:0:0:
408,294,121501,2,0,P|472:281|507:275,1,85,10|0,0:2|0:0,0:0:0:0:
334,154,121981,1,2,3:2:0:0:
444,47,122221,1,0,3:2:0:0:
309,163,122461,2,0,P|245:150|210:144,1,85,10|0,0:2|3:2,0:0:0:0:
78,4,122941,6,0,B|88:69|88:69|66:107|66:107|77:188,1,170,2|8,3:2|0:2,0:0:0:0:
151,269,123661,1,2,0:0:0:0:
0,383,123901,2,0,P|42:357|89:360,1,85,2|0,3:2|3:2,0:0:0:0:
226,231,124381,1,10,0:2:0:0:
95,152,124621,1,2,3:2:0:0:
227,55,124861,6,0,P|278:72|341:87,1,85,2|0,0:0|0:0,0:0:0:0:
479,2,125341,2,0,P|455:44|462:99,1,85,10|0,0:2|0:0,0:0:0:0:
357,251,125821,1,2,3:2:0:0:
252,154,126061,1,2,3:2:0:0:
143,367,126301,1,10,0:2:0:0:
258,314,126541,1,2,3:2:0:0:
258,314,126661,1,2,0:0:0:0:
258,314,126781,6,0,P|315:325|456:338,1,170,2|10,3:2|0:2,0:0:0:0:
511,192,127501,2,0,P|426:199|342:214,1,170,2|2,0:0|3:2,0:0:0:0:
221,40,128221,1,8,0:2:0:0:
145,151,128461,6,0,P|155:211|165:326,1,170,2|0,3:2|0:0,0:0:0:0:
14,159,129181,1,8,0:2:0:0:
111,37,129421,2,0,P|160:56|216:69,1,85,2|0,0:0|3:2,0:0:0:0:
315,195,129901,1,2,3:2:0:0:
423,6,130141,1,8,0:2:0:0:
314,97,130381,1,2,3:2:0:0:
470,213,130621,6,0,P|458:278|450:388,2,170,2|8|0,3:2|0:2|3:2,0:0:0:0:
395,115,131821,1,2,3:2:0:0:
312,313,132061,1,10,0:2:0:0:
203,169,132301,6,0,P|263:184|323:188,1,85,2|0,3:2|0:0,0:0:0:0:
123,321,132781,2,0,P|183:306|243:302,1,85,2|8,0:0|0:2,0:0:0:0:
65,180,133261,1,2,0:0:0:0:
206,82,133501,1,0,3:2:0:0:
68,20,133741,1,2,3:2:0:0:
195,197,133981,1,8,0:2:0:0:
32,284,134221,1,2,3:2:0:0:
32,284,134341,1,2,0:0:0:0:
32,284,134461,6,0,P|45:345|51:379,1,85,6|0,3:2|0:0,0:0:0:0:
200,213,134941,1,10,0:2:0:0:
94,166,135181,1,2,0:0:0:0:
198,316,135421,1,2,3:2:0:0:
304,269,135661,1,2,3:2:0:0:
304,63,135901,1,10,0:2:0:0:
198,110,136141,6,0,P|131:95|10:85,1,170,2|2,3:2|0:0,0:0:0:0:
210,1,136861,1,10,0:2:0:0:
294,101,137101,2,0,P|288:143|285:186,1,85,2|0,0:0|3:2,0:0:0:0:
226,321,137581,1,2,3:2:0:0:
170,128,137821,1,10,0:2:0:0:
290,212,138061,1,2,3:2:0:0:
416,88,138301,6,0,P|406:46|398:4,1,85,2|0,3:2|0:0,0:0:0:0:
285,186,138781,1,10,0:2:0:0:
393,113,139021,1,2,0:0:0:0:
483,276,139261,1,2,3:2:0:0:
375,203,139501,1,2,3:2:0:0:
285,366,139741,1,10,0:2:0:0:
393,293,139981,6,0,P|346:278|288:278,1,85,2|0,3:2|0:0,0:0:0:0:
149,378,140461,2,0,P|185:344|214:294,1,85,2|8,0:0|0:2,0:0:0:0:
197,124,140941,2,0,P|207:172|236:222,1,85,2|0,0:0|3:2,0:0:0:0:
393,293,141421,1,2,3:2:0:0:
313,86,141661,1,10,0:2:0:0:
203,219,141901,1,2,3:2:0:0:
76,36,142141,6,0,P|83:87|90:131,1,85,2|0,3:2|0:0,0:0:0:0:
61,323,142621,1,10,0:2:0:0:
18,211,142861,1,2,0:0:0:0:
140,334,143101,1,2,3:2:0:0:
158,215,143341,1,2,3:2:0:0:
203,384,143581,1,10,0:2:0:0:
278,289,143821,6,0,P|351:304|467:327,1,170,2|2,3:2|0:0,0:0:0:0:
512,135,144541,1,10,0:2:0:0:
386,62,144781,2,0,P|402:122|412:172,1,85,2|0,0:0|3:2,0:0:0:0:
303,265,145261,1,2,3:2:0:0:
210,51,145501,1,10,0:2:0:0:
311,153,145741,1,2,3:2:0:0:
149,270,145981,6,0,P|92:262|51:259,1,85,2|0,3:2|0:0,0:0:0:0:
6,85,146461,2,0,P|56:79|148:42,1,127.5,10|0,0:2|0:0,0:0:0:0:
193,12,146941,1,2,3:2:0:0:
118,156,147181,1,2,3:2:0:0:
297,37,147421,1,10,0:2:0:0:
416,215,147661,2,0,P|408:257|404:300,1,85,2|0,3:2|0:0,0:0:0:0:
403,300,149821,6,0,B|325:318|325:318|293:357|293:357|223:373,1,203.999993774414,6|8,3:2|0:2,0:0:0:0:
130,272,150541,2,0,P|141:193|151:78,1,101.999996887207,2|0,0:0|3:2,0:0:0:0:
95,51,151021,1,0,3:2:0:0:
13,263,151261,1,10,0:2:0:0:
170,185,151501,6,0,B|292:212|292:212|340:208|363:158,1,203.999993774414,2|2,3:2|0:0,0:0:0:0:
257,0,152221,2,0,P|273:59|292:128,1,101.999996887207,10|0,0:2|0:0,0:0:0:0:
232,279,152701,1,2,3:2:0:0:
369,187,152941,1,2,3:2:0:0:
469,384,153181,1,10,0:2:0:0:
502,229,153421,1,2,3:2:0:0:
502,229,153541,1,2,0:0:0:0:
502,229,153661,6,0,P|492:149|479:18,1,203.999993774414,2|8,3:2|0:2,0:0:0:0:
363,162,154381,1,2,0:0:0:0:
268,25,154621,1,0,3:2:0:0:
369,187,154861,1,0,3:2:0:0:
474,7,155101,1,10,0:2:0:0:
280,118,155341,6,0,P|220:111|75:102,1,203.999993774414,2|2,3:2|0:0,0:0:0:0:
0,275,156061,1,8,0:2:0:0:
133,198,156301,1,2,0:0:0:0:
235,383,156541,2,0,P|176:361|128:353,1,101.999996887207,2|0,3:2|3:2,0:0:0:0:
294,219,157021,1,10,0:2:0:0:
188,122,157261,1,2,3:2:0:0:
188,122,157381,1,2,0:0:0:0:
188,122,157501,6,0,P|199:70|211:-7,1,101.999996887207,6|0,3:2|0:0,0:0:0:0:
354,146,157981,2,0,P|344:204|335:311,1,152.999995330811,10|0,0:2|0:0,0:0:0:0:
318,372,158461,1,2,3:2:0:0:
237,215,158701,1,2,3:2:0:0:
112,377,158941,1,10,0:2:0:0:
16,223,159181,6,0,P|24:146|31:2,1,203.999993774414,2|0,3:2|0:0,0:0:0:0:
156,151,159901,1,8,0:2:0:0:
33,232,160141,1,2,0:0:0:0:
206,314,160381,2,0,P|266:301|333:295,1,101.999996887207,2|0,3:2|3:2,0:0:0:0:
427,131,160861,1,10,0:2:0:0:
319,207,161101,1,2,3:2:0:0:
251,11,161341,6,0,P|274:78|290:136,1,101.999996887207,2|0,3:2|0:0,0:0:0:0:
447,216,161821,2,0,P|429:274|412:374,1,152.999995330811,10|0,0:2|0:0,0:0:0:0:
331,384,162301,2,0,P|280:363|213:348,1,101.999996887207,0|2,3:2|3:2,0:0:0:0:
130,169,162781,1,10,0:2:0:0:
15,262,163021,6,0,B|69:254|69:254|102:275|102:275|164:266,1,152.999995330811,2|0,3:2|0:0,0:0:0:0:
223,214,163501,2,0,P|278:214|353:250,1,101.999996887207,2|8,0:0|0:2,0:0:0:0:
395,354,163981,1,2,0:0:0:0:
455,168,164221,1,2,3:2:0:0:
330,242,164461,1,2,3:2:0:0:
270,56,164701,1,10,0:2:0:0:
84,116,164941,1,2,3:2:0:0:
84,116,165061,1,2,0:0:0:0:
84,116,165181,6,0,P|96:196|105:286,1,152.999995330811,6|0,3:2|0:0,0:0:0:0:
165,322,165661,2,0,P|203:293|272:290,1,101.999996887207,10|2,0:2|0:0,0:0:0:0:
397,351,166141,1,0,3:2:0:0:
310,160,166381,1,0,3:2:0:0:
165,322,166621,1,10,0:2:0:0:
107,78,166861,6,0,P|165:99|333:144,1,203.999993774414,2|2,3:2|0:0,0:0:0:0:
428,0,167581,2,0,P|419:55|417:113,1,101.999996887207,10|0,0:2|0:0,0:0:0:0:
482,238,168061,1,2,3:2:0:0:
411,125,168301,1,2,3:2:0:0:
326,341,168541,1,10,0:2:0:0:
221,247,168781,1,2,3:2:0:0:
221,247,168901,1,2,0:0:0:0:
221,247,169021,6,0,P|233:165|247:20,1,203.999993774414,2|8,3:2|0:2,0:0:0:0:
86,0,169741,2,0,P|95:101|110:202,1,203.999993774414,2|0,0:0|3:2,0:0:0:0:
38,363,170461,1,10,0:2:0:0:
226,276,170701,6,0,P|276:292|334:304,1,101.999996887207,2|0,3:2|0:0,0:0:0:0:
451,137,171181,2,0,P|401:147|352:163,1,101.999996887207,2|8,0:0|0:2,0:0:0:0:
264,51,171661,1,2,0:0:0:0:
360,180,171901,1,2,3:2:0:0:
430,0,172141,1,2,3:2:0:0:
368,197,172381,1,10,0:2:0:0:
242,151,172621,1,2,3:2:0:0:
242,151,172741,1,2,0:0:0:0:
242,151,172861,6,0,B|121:144|186:233|56:224,1,203.999993774414,6|8,3:2|0:2,0:0:0:0:
0,55,173581,2,0,P|63:75|126:83,1,101.999996887207,2|0,0:0|3:2,0:0:0:0:
252,170,174061,1,0,3:2:0:0:
106,337,174301,1,10,0:2:0:0:
231,277,174541,6,0,P|288:291|450:320,1,203.999993774414,2|2,3:2|0:0,0:0:0:0:
501,132,175261,1,10,0:2:0:0:
412,67,175501,2,0,P|351:81|291:94,1,101.999996887207,2|0,0:0|3:2,0:0:0:0:
217,172,175981,1,2,3:2:0:0:
83,12,176221,1,10,0:2:0:0:
228,62,176461,1,2,3:2:0:0:
119,207,176701,6,0,B|129:263|129:263|159:285|159:285|175:372,1,152.999995330811,2|0,3:2|0:0,0:0:0:0:
103,382,177181,2,0,P|41:369|-7:362,1,101.999996887207,10|0,0:2|0:0,0:0:0:0:
127,183,177661,1,2,3:2:0:0:
240,298,177901,1,2,3:2:0:0:
157,80,178141,1,8,0:2:0:0:
32,217,178381,1,2,3:2:0:0:
231,163,178621,6,0,P|290:175|389:195,1,152.999995330811,2|0,0:0|0:0,0:0:0:0:
459,214,179101,1,10,0:2:0:0:
354,362,179341,2,0,P|324:316|336:263,1,101.999996887207,2|0,0:0|3:2,0:0:0:0:
480,185,179821,1,2,3:2:0:0:
341,7,180061,1,8,0:2:0:0:
228,76,180301,1,2,3:2:0:0:
228,76,180421,1,2,0:0:0:0:
228,76,180541,6,0,P|156:62|56:48,1,152.999995330811,6|0,3:2|0:0,0:0:0:0:
13,112,181021,1,10,0:2:0:0:
76,215,181261,1,2,0:0:0:0:
77,50,181501,1,2,3:2:0:0:
12,277,181741,1,2,3:2:0:0:
140,153,181981,1,10,0:2:0:0:
183,325,182221,6,0,P|238:308|291:297,1,101.999996887207,2|0,3:2|0:0,0:0:0:0:
406,195,182701,2,0,P|356:183|307:168,1,101.999996887207,2|8,0:0|0:2,0:0:0:0:
202,0,183181,2,0,P|228:42|219:104,1,101.999996887207,2|0,0:0|3:2,0:0:0:0:
97,206,183661,1,2,3:2:0:0:
277,317,183901,1,8,0:2:0:0:
181,197,184141,1,2,3:2:0:0:
355,92,184381,6,0,P|420:110|479:122,1,101.999996887207,2|0,3:2|0:0,0:0:0:0:
238,1,184861,1,10,0:2:0:0:
341,104,185101,1,2,0:0:0:0:
145,198,185341,1,2,3:2:0:0:
248,95,185581,1,2,3:2:0:0:
341,292,185821,1,10,0:2:0:0:
238,189,186061,6,0,P|246:254|247:321,1,101.999996887207,2|0,3:2|0:0,0:0:0:0:
93,378,186541,2,0,P|95:327|102:276,1,101.999996887207,2|10,0:0|0:2,0:0:0:0:
23,166,187021,1,2,0:0:0:0:
166,90,187261,1,2,3:2:0:0:
17,15,187501,1,2,3:2:0:0:
17,15,187621,1,2,0:0:0:0:
17,15,187741,1,10,0:2:0:0:
157,209,187981,1,2,3:2:0:0:
284,107,188221,6,0,B|342:119|342:119|361:147|361:147|460:171,1,152.999995330811,6|0,3:2|0:0,0:0:0:0:
490,112,188701,1,10,0:2:0:0:
435,244,188941,1,2,0:0:0:0:
413,64,189181,1,2,3:2:0:0:
512,292,189421,1,2,3:2:0:0:
386,384,189661,1,10,0:2:0:0:
304,267,189901,6,0,P|246:282|94:318,1,203.999993774414,2|2,3:2|0:0,0:0:0:0:
2,144,190621,1,10,0:2:0:0:
106,65,190861,1,2,0:0:0:0:
214,198,191101,2,0,P|146:182|102:176,1,101.999996887207,2|0,3:2|3:2,0:0:0:0:
0,356,191581,1,10,0:2:0:0:
122,282,191821,1,2,3:2:0:0:
289,384,192061,6,0,P|294:310|304:197,1,152.999995330811,2|0,3:2|0:0,0:0:0:0:
256,141,192541,1,10,0:2:0:0:
400,238,192781,1,2,0:0:0:0:
314,59,193021,1,2,3:2:0:0:
200,224,193261,1,2,3:2:0:0:
357,149,193501,2,0,P|423:139|474:137,1,101.999996887207,10|0,0:2|3:2,0:0:0:0:
252,6,193981,5,2,0:0:0:0:
148,95,194221,1,2,0:0:0:0:
314,59,194461,1,10,0:2:0:0:
86,42,194701,1,2,0:0:0:0:
216,185,194941,1,2,3:2:0:0:
82,242,195181,1,2,3:2:0:0:
232,29,195421,1,10,0:2:0:0:
383,166,195661,1,2,3:2:0:0:
383,166,195781,1,2,0:0:0:0:
383,166,195901,6,0,P|374:242|368:328,1,152.999995330811,6|0,3:2|0:0,0:0:0:0:
291,345,196381,1,10,0:2:0:0:
443,290,196621,1,2,0:0:0:0:
250,262,196861,1,2,3:2:0:0:
484,373,197101,1,2,3:2:0:0:
384,166,197341,1,10,0:2:0:0:
255,244,197581,6,0,P|199:232|140:226,1,101.999996887207,2|0,3:2|0:0,0:0:0:0:
14,357,198061,2,0,P|73:342|88:303,1,101.999996887207,2|8,0:0|0:2,0:0:0:0:
0,106,198541,2,0,P|10:162|23:237,1,101.999996887207,2|0,0:0|3:2,0:0:0:0:
133,68,199021,1,2,3:2:0:0:
250,262,199261,1,8,0:2:0:0:
376,168,199501,1,2,3:2:0:0:
376,168,199621,1,2,0:0:0:0:
376,168,199741,6,0,B|362:142|331:133|331:133|216:153,1,152.999995330811,2|0,3:2|0:0,0:0:0:0:
169,208,200221,1,10,0:2:0:0:
261,325,200461,1,2,0:0:0:0:
238,149,200701,1,2,3:2:0:0:
192,384,200941,1,2,3:2:0:0:
12,227,201181,1,10,0:2:0:0:
150,95,201421,6,0,P|141:159|137:207,1,101.999996887207,2|0,3:2|0:0,0:0:0:0:
90,327,201901,1,2,0:0:0:0:
278,241,202141,2,0,P|332:259|398:270,1,101.999996887207,10|0,0:2|0:0,0:0:0:0:
493,105,202621,2,0,P|443:115|394:131,1,101.999996887207,2|0,3:2|3:2,0:0:0:0:
199,0,203101,1,10,0:2:0:0:
75,108,203341,1,2,3:2:0:0:
75,108,203461,1,2,0:0:0:0:
75,108,203581,6,0,P|150:94|226:88,1,152.999995330811,6|0,3:2|0:0,0:0:0:0:
305,39,204061,1,10,0:2:0:0:
246,183,204301,1,2,0:0:0:0:
439,147,204541,1,2,3:2:0:0:
315,242,204781,1,2,3:2:0:0:
500,307,205021,1,10,0:2:0:0:
345,327,205261,6,0,P|286:321|211:317,1,101.999996887207,2|0,3:2|0:0,0:0:0:0:
123,178,205741,2,0,P|173:174|224:169,1,101.999996887207,2|8,0:0|0:2,0:0:0:0:
350,11,206221,2,0,P|315:53|323:120,1,101.999996887207,2|0,0:0|3:2,0:0:0:0:
396,225,206701,1,2,3:2:0:0:
474,28,206941,1,10,0:2:0:0:
379,211,207181,1,2,3:2:0:0:
493,337,207421,6,0,B|431:332|431:332|407:307|407:307|327:298,1,152.999995330811,2|0,3:2|0:0,0:0:0:0:
292,237,207901,1,10,0:2:0:0:
237,363,208141,1,2,0:0:0:0:
127,152,208381,1,2,3:2:0:0:
182,278,208621,1,2,3:2:0:0:
347,111,208861,1,10,0:2:0:0:
292,237,209101,1,2,3:2:0:0:
176,34,209341,6,0,P|124:51|73:63,1,101.999996887207,2|0,0:0|0:0,0:0:0:0:
252,211,209821,1,10,0:2:0:0:
317,73,210061,1,2,0:0:0:0:
103,171,210301,1,0,3:2:0:0:
234,295,210541,1,2,3:2:0:0:
308,43,210781,1,10,0:2:0:0:
435,170,211021,1,2,3:2:0:0:
435,170,211141,1,2,0:0:0:0:
435,170,211261,6,0,P|430:237|423:326,1,152.999995330811,6|0,3:2|0:0,0:0:0:0:
356,372,211741,1,10,0:2:0:0:
506,311,211981,1,2,0:0:0:0:
314,205,212221,1,2,3:2:0:0:
509,299,212461,1,2,3:2:0:0:
417,143,212701,5,10,0:2:0:0:
356,280,212941,1,2,3:2:0:0:
213,55,213181,1,2,0:0:0:0:
274,192,213421,1,2,0:0:0:0:
115,297,213661,2,0,P|28:283|4:283,1,101.999996887207,8|0,0:2|0:0,0:0:0:0:
213,87,214141,5,2,3:2:0:0:
91,170,214381,1,2,3:2:0:0:
126,9,214621,1,8,0:2:0:0:
178,248,214861,1,2,3:2:0:0:
178,248,214981,1,2,0:0:0:0:
178,248,215101,6,0,P|230:233|295:223,1,101.999996887207,2|0,3:2|0:0,0:0:0:0:
461,87,215581,1,10,0:2:0:0:
331,51,215821,1,2,0:0:0:0:
479,183,216061,1,2,3:2:0:0:
277,240,216301,1,2,3:2:0:0:
419,369,216541,2,0,P|407:308|400:245,1,101.999996887207,8|0,0:2|3:2,0:0:0:0:
219,127,217021,5,2,0:0:0:0:
349,70,217261,1,2,0:0:0:0:
259,254,217501,1,10,0:2:0:0:
129,197,217741,2,0,P|77:211|15:222,1,101.999996887207,2|0,0:0|3:2,0:0:0:0:
168,325,218221,1,0,3:2:0:0:
238,47,218461,1,10,0:2:0:0:
105,1,218701,1,2,3:2:0:0:
105,1,218821,1,2,0:0:0:0:
105,1,218941,6,0,P|114:60|130:182,1,152.999995330811,6|0,3:2|0:0,0:0:0:0:
133,229,219421,1,10,0:2:0:0:
243,131,219661,1,2,0:0:0:0:
152,348,219901,1,2,3:2:0:0:
22,210,220141,1,2,3:2:0:0:
244,277,220381,2,0,P|303:264|360:256,1,101.999996887207,8|0,0:2|3:2,0:0:0:0:
485,74,220861,5,2,0:0:0:0:
338,120,221101,1,2,0:0:0:0:
504,91,221341,1,10,0:2:0:0:
318,100,221581,1,2,0:0:0:0:
479,234,221821,5,2,3:2:0:0:
286,354,222061,1,2,3:2:0:0:
378,191,222301,1,10,0:2:0:0:
238,144,222541,1,2,3:2:0:0:
238,144,222661,1,2,0:0:0:0:
238,144,222781,6,0,P|147:166|68:181,1,152.999995330811,2|0,3:2|0:0,0:0:0:0:
24,129,223261,2,0,P|34:71|42:10,1,101.999996887207,10|2,0:2|0:0,0:0:0:0:
111,205,223741,2,0,P|118:255|126:305,1,101.999996887207,2|2,3:2|3:2,0:0:0:0:
307,375,224221,1,8,0:2:0:0:
221,278,224461,1,0,3:2:0:0:
348,211,224701,6,0,P|399:230|452:243,1,85,2|2,0:0|0:0,0:0:0:0:
313,93,225181,2,0,P|272:104|232:120,1,85,10|2,0:2|0:0,0:0:0:0:
420,9,225661,2,0,P|409:50|403:92,1,85,2|0,3:2|3:2,0:0:0:0:
422,227,226141,1,10,0:2:0:0:
313,93,226381,1,2,3:2:0:0:
313,93,226501,1,2,0:0:0:0:
313,93,226621,5,6,3:2:0:0:
