osu file format v14

[General]
AudioFilename: audio.mp3
AudioLeadIn: 0
PreviewTime: 70064
Countdown: 0
SampleSet: None
StackLeniency: 0.2
Mode: 0
LetterboxInBreaks: 0
WidescreenStoryboard: 1

[Editor]
Bookmarks: 71,10090,20094,30097,40102,50100,60100,70064,90048,100073,105092,115053,125046,135030,146321,166347,186949,196955,206941,209434,229428
DistanceSpacing: 0.3
BeatDivisor: 4
GridSize: 4
TimelineZoom: 5.699996

[Metadata]
Title:You're Better Off Dead
TitleUnicode:You're Better Off Dead
Artist:Children of Bodom
ArtistUnicode:Children of Bodom
Creator:Mazzerin
Version:LMT's Expert
Source:
Tags:ksardas lmt asaben gabdu09 fcl hate crew deathroll melodeath melodic death metal english
BeatmapID:3057335
BeatmapSetID:1125258

[Difficulty]
HPDrainRate:5
CircleSize:4
OverallDifficulty:9.5
ApproachRate:9.7
SliderMultiplier:2.3
SliderTickRate:1

[Events]
//Background and Video events
0,0,"asdf.jpg",0,0
//Break Periods
2,100273,104597
//Storyboard Layer 0 (Background)
//Storyboard Layer 1 (Fail)
//Storyboard Layer 2 (Pass)
//Storyboard Layer 3 (Foreground)
//Storyboard Layer 4 (Overlay)
//Storyboard Sound Samples

[TimingPoints]
45,315.789473684211,4,1,5,60,1,0
2571,314.13612565445,4,1,5,60,1,0
3827,310.880829015544,4,1,5,60,1,0
8801,315.789473684211,4,1,8,60,1,0
10064,310.880829015544,4,1,5,60,1,0
10064,-66.6666666666667,4,1,5,60,0,0
10297,-100,4,1,5,5,0,0
10374,-100,4,1,5,60,0,0
10452,-100,4,1,5,60,0,0
10530,-66.6666666666667,4,1,5,60,0,0
10763,-100,4,1,5,5,0,0
10841,-100,4,1,5,60,0,0
10918,-100,4,1,5,60,0,0
10996,-66.6666666666667,4,1,5,60,0,0
11228,-66.6666666666667,4,1,5,5,0,0
11307,315.789473684211,4,1,5,60,1,0
11307,-66.6666666666667,4,1,5,60,0,0
11543,-66.6666666666667,4,1,5,5,0,0
11622,-66.6666666666667,4,1,5,60,0,0
12017,-66.6666666666667,4,1,5,5,0,0
12096,-66.6666666666667,4,1,5,60,0,0
12254,-40,4,1,5,60,0,0
12492,-40,4,1,5,5,0,0
12570,309.278350515464,4,1,5,60,1,0
12570,-66.6666666666667,4,1,5,60,0,0
12801,-66.6666666666667,4,1,5,5,0,0
12879,-66.6666666666667,4,1,5,60,0,0
13265,-66.6666666666667,4,1,5,5,0,0
13343,-66.6666666666667,4,1,5,60,0,0
13728,-66.6666666666667,4,1,5,5,0,0
13807,312.5,4,1,5,60,1,0
15057,-66.6666666666667,4,1,5,60,0,0
15291,-66.6666666666667,4,1,5,5,0,0
15369,-66.6666666666667,4,1,5,60,0,0
15760,-66.6666666666667,4,1,5,5,0,0
15838,-66.6666666666667,4,1,5,60,0,0
16228,-66.6666666666667,4,1,5,5,0,0
16307,-66.6666666666667,4,1,5,60,0,0
16541,-66.6666666666667,4,1,5,5,0,0
16619,-66.6666666666667,4,1,5,60,0,0
17010,-66.6666666666667,4,1,5,5,0,0
17109,312.5,4,1,5,60,1,0
17109,-40,4,1,5,60,0,0
17499,-40,4,1,5,5,0,0
17577,307.692307692308,4,1,5,60,1,0
17577,-66.6666666666667,4,1,5,60,0,0
17807,-66.6666666666667,4,1,5,5,0,0
17884,-66.6666666666667,4,1,5,60,0,0
18269,-66.6666666666667,4,1,5,5,0,0
18346,-66.6666666666667,4,1,5,60,0,0
18807,315.789473684211,4,1,5,60,1,0
19122,-100,4,1,8,60,0,0
19754,-100,4,1,5,60,0,0
19989,-100,4,1,5,5,0,0
20068,312.5,4,1,5,60,1,0
20068,-66.6666666666667,4,1,5,60,0,0
20302,-66.6666666666667,4,1,5,5,0,0
20380,-66.6666666666667,4,1,5,60,0,0
20771,-66.6666666666667,4,1,5,5,0,0
20849,-66.6666666666667,4,1,5,60,0,0
21239,-66.6666666666667,4,1,5,5,0,0
21318,-66.6666666666667,4,1,5,60,0,0
21552,-66.6666666666667,4,1,5,5,0,0
21630,-66.6666666666667,4,1,5,60,0,0
22021,-66.6666666666667,4,1,5,5,0,0
22099,-66.6666666666667,4,1,5,60,0,0
22255,-40,4,1,5,60,0,0
22568,-66.6666666666667,4,1,5,60,0,0
22802,-66.6666666666667,4,1,5,5,0,0
22880,-66.6666666666667,4,1,5,60,0,0
23271,-66.6666666666667,4,1,5,5,0,0
23349,-66.6666666666667,4,1,5,60,0,0
23739,-66.6666666666667,4,1,5,5,0,0
23818,315.789473684211,4,1,5,60,1,0
25081,310.077519379845,4,1,5,60,1,0
25081,-66.6666666666667,4,1,5,60,0,0
25313,-66.6666666666667,4,1,5,5,0,0
25391,-66.6666666666667,4,1,5,60,0,0
25778,-66.6666666666667,4,1,5,5,0,0
25856,-66.6666666666667,4,1,5,60,0,0
26243,-66.6666666666667,4,1,5,5,0,0
26321,-66.6666666666667,4,1,5,60,0,0
26553,-66.6666666666667,4,1,5,5,0,0
26631,-66.6666666666667,4,1,5,60,0,0
27018,-66.6666666666667,4,1,5,5,0,0
27096,-66.6666666666667,4,1,5,60,0,0
27251,-40,4,1,5,60,0,0
27484,-40,4,1,5,5,0,0
27561,315.789473684211,4,1,5,60,1,0
27561,-66.6666666666667,4,1,5,60,0,0
27797,-66.6666666666667,4,1,5,5,0,0
27876,-66.6666666666667,4,1,5,60,0,0
28271,-66.6666666666667,4,1,5,5,0,0
28350,-66.6666666666667,4,1,5,60,0,0
28824,-66.6666666666667,4,1,8,60,0,0
30071,312.5,4,1,5,60,1,0
30071,-66.6666666666667,4,1,5,60,0,0
30305,-66.6666666666667,4,1,5,5,0,0
30383,-66.6666666666667,4,1,5,60,0,0
30774,-66.6666666666667,4,1,5,5,0,0
30852,-66.6666666666667,4,1,5,60,0,0
32102,-1000,4,1,5,60,0,0
32571,-66.6666666666667,4,1,5,60,0,0
32805,-66.6666666666667,4,1,5,5,0,0
32883,-66.6666666666667,4,1,5,60,0,0
33274,-66.6666666666667,4,1,5,5,0,0
33352,-66.6666666666667,4,1,5,60,0,0
33821,319.148936170213,4,1,5,60,1,0
33980,-1000,4,1,5,60,0,0
34459,-100,4,1,5,60,0,0
34884,-100,4,1,8,60,0,0
35097,309.278350515464,4,1,5,60,1,0
35097,-66.6666666666667,4,1,5,60,0,0
35328,-66.6666666666667,4,1,5,5,0,0
35406,-66.6666666666667,4,1,5,60,0,0
35792,-66.6666666666667,4,1,5,5,0,0
35870,-66.6666666666667,4,1,5,60,0,0
36334,307.692307692308,4,1,5,5,1,0
36487,-100,4,1,5,60,0,0
37487,-100,4,1,5,5,0,0
37564,317.460317460317,4,1,5,60,1,0
37564,-66.6666666666667,4,1,5,60,0,0
37802,-66.6666666666667,4,1,5,5,0,0
37881,-66.6666666666667,4,1,5,60,0,0
38278,-66.6666666666667,4,1,5,5,0,0
38357,-66.6666666666667,4,1,5,60,0,0
38516,-66.6666666666667,4,1,8,60,0,0
38833,310.880829015544,4,1,5,60,1,0
38833,-50,4,1,5,60,0,0
39066,-50,4,1,5,5,0,0
39143,-50,4,1,5,60,0,0
39377,-50,4,1,5,5,0,0
39454,-50,4,1,5,60,0,0
39687,-50,4,1,5,5,0,0
39765,-40,4,1,5,60,0,0
39998,-40,4,1,5,5,0,0
40076,-66.6666666666667,4,1,5,60,0,0
40309,-66.6666666666667,4,1,5,5,0,0
40387,-66.6666666666667,4,1,5,60,0,0
40776,-66.6666666666667,4,1,5,5,0,0
40853,-66.6666666666667,4,1,5,60,0,0
41242,-66.6666666666667,4,1,5,5,0,0
41320,-66.6666666666667,4,1,5,60,0,0
41553,-66.6666666666667,4,1,5,5,0,0
41630,-66.6666666666667,4,1,5,60,0,0
42019,-66.6666666666667,4,1,5,5,0,0
42097,-66.6666666666667,4,1,5,60,0,0
42252,-40,4,1,5,60,0,0
42485,-40,4,1,5,5,0,0
42563,-66.6666666666667,4,1,5,60,0,0
42796,-66.6666666666667,4,1,5,5,0,0
42874,-66.6666666666667,4,1,5,60,0,0
43263,-66.6666666666667,4,1,5,5,0,0
43340,-66.6666666666667,4,1,5,60,0,0
43729,-66.6666666666667,4,1,5,5,0,0
43807,320,4,1,5,60,1,0
44767,-50,4,1,5,60,0,0
45087,312.5,4,1,5,60,1,0
45087,-66.6666666666667,4,1,5,60,0,0
45321,-66.6666666666667,4,1,5,5,0,0
45399,-66.6666666666667,4,1,5,60,0,0
45790,-66.6666666666667,4,1,5,5,0,0
45868,-66.6666666666667,4,1,5,60,0,0
46258,-66.6666666666667,4,1,5,5,0,0
46337,309.278350515464,4,1,5,60,1,0
46337,-66.6666666666667,4,1,5,60,0,0
46568,-66.6666666666667,4,1,5,5,0,0
46646,-66.6666666666667,4,1,5,60,0,0
47032,-66.6666666666667,4,1,5,5,0,0
47110,-66.6666666666667,4,1,5,60,0,0
47264,-40,4,1,5,60,0,0
47496,-40,4,1,5,5,0,0
47574,-66.6666666666667,4,1,5,60,0,0
47806,-66.6666666666667,4,1,5,5,0,0
47883,-66.6666666666667,4,1,5,60,0,0
48269,-66.6666666666667,4,1,5,5,0,0
48347,-66.6666666666667,4,1,5,60,0,0
48733,-66.6666666666667,4,1,5,5,0,0
48811,315.789473684211,4,1,8,60,1,0
49126,-100,4,1,5,60,0,0
50074,309.278350515464,4,1,5,60,1,0
50537,-66.6666666666667,4,1,5,60,0,0
50769,-66.6666666666667,4,1,5,5,0,0
50847,-66.6666666666667,4,1,5,60,0,0
51311,319.148936170213,4,1,5,60,1,0
51311,-66.6666666666667,4,1,5,60,0,0
52029,-66.6666666666667,4,1,5,5,0,0
52108,-66.6666666666667,4,1,5,60,0,0
52587,312.5,4,1,5,60,1,0
53837,309.278350515464,4,1,5,60,1,0
55074,312.5,4,1,5,60,1,0
55074,-66.6666666666667,4,1,5,60,0,0
55777,-66.6666666666667,4,1,5,5,0,0
55855,-66.6666666666667,4,1,5,60,0,0
56792,-40,4,1,5,60,0,0
56870,-40,4,1,5,20,0,0
56949,-40,4,1,5,60,0,0
57027,-40,4,1,5,20,0,0
57105,-40,4,1,5,60,0,0
57183,-40,4,1,5,20,0,0
57261,-40,4,1,5,60,0,0
57339,-40,4,1,5,20,0,0
57417,-40,4,1,5,60,0,0
57495,-40,4,1,5,20,0,0
57574,-40,4,1,5,60,0,0
58980,-40,4,1,8,60,0,0
60074,314.13612565445,4,1,5,60,1,0
60074,-66.6666666666667,4,1,5,60,0,0
60780,-66.6666666666667,4,1,5,5,0,0
60859,-66.6666666666667,4,1,5,60,0,0
61330,317.460317460317,4,1,5,60,1,0
61806,-66.6666666666667,4,1,5,60,0,0
62044,-66.6666666666667,4,1,5,5,0,0
62123,-66.6666666666667,4,1,5,60,0,0
62599,307.692307692308,4,1,5,60,1,0
63829,314.13612565445,4,1,5,60,1,0
65085,310.880829015544,4,1,5,60,1,0
65085,-66.6666666666667,4,1,5,60,0,0
65551,-50,4,1,5,60,0,0
65784,-50,4,1,5,5,0,0
65862,-50,4,1,5,60,0,0
66017,-66.6666666666667,4,1,5,60,0,0
67028,-66.6666666666667,4,1,5,5,0,0
67105,-66.6666666666667,4,1,5,60,0,0
68815,304.568527918782,4,1,5,60,1,0
69424,298.507462686567,4,1,5,60,1,0
69722,342.857142857143,4,1,5,60,1,0
70064,310.880829015544,4,1,5,70,1,1
70064,-57.1428571428571,4,1,5,70,0,1
71307,317.460317460317,4,1,5,70,1,1
71307,-57.1428571428571,4,1,5,70,0,1
72894,-100,4,1,5,70,0,1
73846,308.483290488432,4,1,5,70,1,1
73846,-100,4,1,5,70,0,1
75079,-57.1428571428571,4,1,5,70,0,1
78473,-100,4,1,8,70,0,1
78678,-100,4,1,5,70,0,1
78781,-57.1428571428571,4,1,5,70,0,1
79398,315.789473684211,4,1,5,70,1,1
79398,-57.1428571428571,4,1,5,70,0,1
79819,-57.1428571428571,4,1,8,70,0,1
80029,315.789473684211,4,1,5,70,1,1
80029,-57.1428571428571,4,1,5,70,0,1
82555,-100,4,1,5,70,0,1
83818,312.5,4,1,5,70,1,1
83818,-100,4,1,5,70,0,1
85068,307.692307692308,4,1,5,70,1,1
85068,-57.1428571428571,4,1,5,70,0,1
86298,310.880829015544,4,1,5,70,1,1
86298,-57.1428571428571,4,1,5,70,0,1
87541,-100,4,1,5,70,0,1
88785,315.789473684211,4,1,5,70,1,1
88785,-100,4,1,5,70,0,1
90048,-66.6666666666667,4,1,5,60,0,0
90285,-66.6666666666667,4,1,5,5,0,0
90363,-66.6666666666667,4,1,5,60,0,0
90916,-66.6666666666667,4,1,5,5,0,0
90995,-66.6666666666667,4,1,5,60,0,0
92100,-1000,4,1,5,60,0,0
92574,310.880829015544,4,1,5,60,1,0
92574,-66.6666666666667,4,1,5,60,0,0
92807,-66.6666666666667,4,1,5,5,0,0
92884,-66.6666666666667,4,1,5,60,0,0
93428,-66.6666666666667,4,1,5,5,0,0
93506,-66.6666666666667,4,1,5,60,0,0
95061,312.5,4,1,5,60,1,0
95061,-50,4,1,5,60,0,0
95529,-66.6666666666667,4,1,5,60,0,0
95920,-66.6666666666667,4,1,5,5,0,0
95998,-66.6666666666667,4,1,5,60,0,0
96076,-66.6666666666667,4,1,5,20,0,0
96154,-66.6666666666667,4,1,5,60,0,0
96232,-66.6666666666667,4,1,5,20,0,0
96311,-66.6666666666667,4,1,5,60,0,0
96389,-66.6666666666667,4,1,5,20,0,0
96467,-66.6666666666667,4,1,5,60,0,0
96545,-66.6666666666667,4,1,5,20,0,0
96623,-66.6666666666667,4,1,5,60,0,0
97561,310.880829015544,4,1,5,60,1,0
97561,-66.6666666666667,4,1,5,60,0,0
98804,317.460317460317,4,1,5,60,1,0
98804,-50,4,1,5,60,0,0
99042,-50,4,1,5,60,0,0
99121,-50,4,1,5,60,0,0
99359,-50,4,1,5,5,0,0
99438,-50,4,1,5,60,0,0
100073,310.880829015544,4,1,5,60,1,0
100228,-100,4,2,5,40,0,0
101316,319.148936170213,4,2,5,40,1,0
102592,312.5,4,2,5,40,1,0
105092,309.278350515464,4,1,5,60,1,0
107566,312.5,4,1,5,60,1,0
110066,309.278350515464,4,1,5,60,1,0
110066,-66.6666666666667,4,1,5,60,0,0
111303,312.5,4,1,5,60,1,0
111537,-100,4,1,5,60,0,0
111615,-100,4,1,5,60,0,0
112006,-100,4,1,5,60,0,0
112084,-100,4,1,5,60,0,0
112474,-100,4,1,5,60,0,0
112553,-66.6666666666667,4,1,5,60,0,0
113803,-400,4,1,5,60,0,0
114037,-400,4,1,5,60,0,0
114115,-400,4,1,5,60,0,0
114506,-400,4,1,5,60,0,0
114584,-400,4,1,5,60,0,0
114974,-400,4,1,5,60,0,0
115053,314.13612565445,4,1,5,60,1,0
115053,-100,4,1,5,60,0,0
116231,-100,4,1,5,5,0,0
116309,-100,4,1,5,60,0,0
116545,-100,4,1,5,60,0,0
116623,-100,4,1,5,60,0,0
116702,-100,4,1,5,5,0,0
116780,-100,4,1,5,60,0,0
117173,-100,4,1,5,5,0,0
117251,-100,4,1,5,60,0,0
117488,-100,4,1,5,5,0,0
117566,310.880829015544,4,1,5,60,1,0
118729,-100,4,1,5,5,0,0
118809,319.148936170213,4,1,5,60,1,0
119048,-100,4,1,5,60,0,0
119128,-100,4,1,5,60,0,0
119207,-100,4,1,5,5,0,0
119287,-100,4,1,5,60,0,0
119686,-100,4,1,5,5,0,0
119766,-100,4,1,5,60,0,0
120007,-100,4,1,5,5,0,0
120085,309.278350515464,4,1,5,60,1,0
121244,-100,4,1,5,5,0,0
121322,315.789473684211,4,1,5,60,1,0
121558,-100,4,1,5,60,0,0
121637,-100,4,1,5,60,0,0
121716,-100,4,1,5,5,0,0
121795,-100,4,1,5,60,0,0
122190,-100,4,1,5,5,0,0
122269,-100,4,1,5,60,0,0
122506,-100,4,1,5,5,0,0
122585,310.880829015544,4,1,5,60,1,0
123828,304.568527918782,4,1,8,60,1,0
125046,317.460317460317,4,1,5,60,1,0
125046,-66.6666666666667,4,1,5,60,0,0
125760,-66.6666666666667,4,1,5,5,0,0
125839,-66.6666666666667,4,1,5,60,0,0
126315,314.13612565445,4,1,5,60,1,0
126315,-66.6666666666667,4,1,5,60,0,0
127571,310.077519379845,4,1,5,60,1,0
127571,-66.6666666666667,4,1,5,60,0,0
130051,314.13612565445,4,1,5,60,1,0
130051,-66.6666666666667,4,1,5,60,0,0
130757,-66.6666666666667,4,1,5,5,0,0
130836,-66.6666666666667,4,1,5,60,0,0
131307,312.5,4,1,5,60,1,0
131307,-66.6666666666667,4,1,5,60,0,0
132557,310.880829015544,4,1,5,60,1,0
132557,-66.6666666666667,4,1,5,60,0,0
133800,307.692307692308,4,1,5,60,1,0
133800,-66.6666666666667,4,1,5,60,0,0
135030,322.58064516129,4,1,5,60,1,0
135030,-66.6666666666667,4,1,5,60,0,0
136320,315.789473684211,4,1,5,60,1,0
136320,-66.6666666666667,4,1,5,60,0,0
137583,308.483290488432,4,1,5,60,1,0
137583,-66.6666666666667,4,1,5,60,0,0
138816,314.13612565445,4,1,5,60,1,0
138816,-66.6666666666667,4,1,5,60,0,0
140072,307.692307692308,4,1,5,60,1,0
140072,-66.6666666666667,4,1,5,60,0,0
141302,315.789473684211,4,1,5,60,1,0
141302,-66.6666666666667,4,1,5,60,0,0
142565,309.278350515464,4,1,5,60,1,0
142565,-66.6666666666667,4,1,5,60,0,0
143802,312.5,4,1,5,60,1,0
143802,-66.6666666666667,4,1,5,60,0,0
145052,317.460317460317,4,1,8,60,1,0
146321,309.278350515464,4,1,5,70,1,0
146321,-50,4,1,5,70,0,1
147094,-57.1428571428571,4,1,5,70,0,1
147248,-66.6666666666667,4,1,5,70,0,1
147403,-80,4,1,5,70,0,1
147480,-80,4,1,5,5,0,1
147558,-100,4,1,5,70,0,1
147944,-100,4,1,5,5,0,1
148022,-100,4,1,5,70,0,1
148408,-100,4,1,5,5,0,1
148485,-100,4,1,5,70,0,1
148716,-100,4,1,5,5,0,1
148795,314.13612565445,4,1,5,70,1,1
148952,-66.6666666666667,4,1,5,70,0,1
149030,-66.6666666666667,4,1,5,5,0,1
149109,-66.6666666666667,4,1,5,70,0,1
150444,-66.6666666666667,4,1,5,5,0,1
150522,-66.6666666666667,4,1,5,70,0,1
150601,-66.6666666666667,4,1,5,5,0,1
150993,-66.6666666666667,4,1,5,70,0,1
151308,312.5,4,1,5,70,1,1
151308,-50,4,1,5,70,0,1
155214,-66.6666666666667,4,1,5,70,0,1
155683,-50,4,1,5,70,0,1
155722,-50,4,1,5,20,0,1
155761,-50,4,1,5,70,0,1
155800,-50,4,1,5,20,0,1
155839,-50,4,1,5,70,0,1
155878,-50,4,1,5,20,0,1
155917,-50,4,1,5,70,0,1
155956,-50,4,1,5,20,0,1
155995,-50,4,1,5,70,0,1
156308,-40,4,1,5,70,0,1
156347,-40,4,1,5,20,0,1
156386,-40,4,1,5,70,0,1
156425,-40,4,1,5,20,0,1
156464,-40,4,1,5,70,0,1
156503,-40,4,1,5,20,0,1
156542,-40,4,1,5,70,0,1
156581,-40,4,1,5,20,0,1
156620,-40,4,1,5,70,0,1
156659,-40,4,1,5,20,0,1
156698,-40,4,1,5,70,0,1
156737,-40,4,1,5,20,0,1
156776,-40,4,1,5,70,0,1
156815,-40,4,1,5,20,0,1
156854,-40,4,1,5,70,0,1
156893,-40,4,1,5,20,0,1
156933,-40,4,1,5,70,0,1
156972,-40,4,1,5,20,0,1
157011,-40,4,1,5,70,0,1
157050,-40,4,1,5,20,0,1
157089,-40,4,1,5,70,0,1
157128,-40,4,1,5,20,0,1
157245,-40,4,1,5,70,0,1
157558,310.880829015544,4,1,5,70,1,1
160045,-50,4,1,5,70,0,1
160278,-50,4,1,5,5,0,1
160355,-50,4,1,5,70,0,1
160433,-50,4,1,5,5,0,1
160511,-50,4,1,5,70,0,1
160899,-50,4,1,5,5,0,1
160977,-200,4,1,5,70,0,1
161288,-50,4,1,5,70,0,1
161754,-200,4,1,5,70,0,1
162376,-200,4,1,5,70,0,1
162532,319.148936170213,4,1,5,70,1,1
162532,-50,4,1,5,70,0,1
163808,315.789473684211,4,1,5,70,1,1
163808,-50,4,1,5,70,0,1
165071,319.148936170213,4,1,8,70,1,1
165071,-50,4,1,8,70,0,1
165230,-50,4,1,5,70,0,1
165310,-50,4,1,8,70,0,1
165390,-50,4,1,5,70,0,1
165469,-50,4,1,8,70,0,1
165709,-50,4,1,5,70,0,1
165789,-50,4,1,8,70,0,1
166028,-50,4,1,5,70,0,1
166108,-50,4,1,8,70,0,1
166188,-50,4,1,5,70,0,1
166267,-50,4,1,8,70,0,1
166347,303.030303030303,4,1,5,70,1,1
166347,-50,4,1,5,70,0,1
166877,-50,4,1,5,20,0,1
166953,-50,4,1,5,70,0,1
167028,-50,4,1,5,20,0,1
167104,-50,4,1,5,70,0,1
167180,-50,4,1,5,20,0,1
167256,-50,4,1,5,70,0,1
167331,-50,4,1,5,20,0,1
167407,-50,4,1,5,70,0,1
167483,-50,4,1,5,20,0,1
167559,315.789473684211,4,1,5,70,1,1
167559,-50,4,1,5,70,0,1
168427,-50,4,1,5,5,0,1
168506,-50,4,1,5,70,0,1
168822,310.880829015544,4,1,5,70,1,1
168822,-66.6666666666667,4,1,5,70,0,1
168899,-66.6666666666667,4,1,5,5,0,1
168977,-66.6666666666667,4,1,5,70,0,1
169288,-50,4,1,5,70,0,1
169521,-50,4,1,5,5,0,1
169599,-50,4,1,5,70,0,1
169754,-44.4444444444445,4,1,5,70,0,1
170065,314.13612565445,4,1,5,70,1,1
170065,-44.4444444444445,4,1,5,70,0,1
170300,-44.4444444444445,4,1,5,5,0,1
170379,-44.4444444444445,4,1,5,70,0,1
170693,-40,4,1,5,70,0,1
170771,-40,4,1,5,20,0,1
170850,-40,4,1,5,70,0,1
170928,-40,4,1,5,20,0,1
171007,-40,4,1,5,70,0,1
171085,-40,4,1,5,20,0,1
171164,-40,4,1,5,70,0,1
171243,-40,4,1,5,20,0,1
171321,310.880829015544,4,1,5,70,1,1
172564,314.13612565445,4,1,5,70,1,1
173820,310.880829015544,4,1,5,70,1,1
175063,-50,4,1,5,70,0,1
175763,-50,4,1,5,20,0,1
175840,-50,4,1,5,70,0,1
175918,-50,4,1,5,20,0,1
175996,-50,4,1,5,70,0,1
176073,-50,4,1,5,20,0,1
176151,-50,4,1,5,70,0,1
176229,-50,4,1,5,20,0,1
176307,317.460317460317,4,1,8,70,1,1
176783,-50,4,1,5,70,0,1
176862,-50,4,1,5,20,0,1
176941,-50,4,1,5,70,0,1
177021,-50,4,1,5,20,0,1
177100,-50,4,1,5,70,0,1
177180,-50,4,1,5,20,0,1
177259,-50,4,1,5,70,0,1
177338,-50,4,1,5,20,0,1
177418,-50,4,1,5,70,0,1
177497,-50,4,1,5,20,0,1
177576,312.5,4,1,5,70,1,1
178044,-40,4,1,5,70,0,1
178279,-40,4,1,5,5,0,1
178357,-40,4,1,5,70,0,1
178435,-40,4,1,5,20,0,1
178513,-40,4,1,5,70,0,1
178591,-40,4,1,5,20,0,1
178669,-40,4,1,5,70,0,1
178747,-40,4,1,5,20,0,1
178826,311.688311688312,4,1,5,70,1,1
179293,-100,4,1,5,70,0,1
179371,-100,4,1,5,5,0,1
179449,-100,4,1,5,70,0,1
179916,-100,4,1,5,70,0,1
179994,-100,4,1,5,5,0,1
180072,314.13612565445,4,1,5,70,1,1
180700,-40,4,1,5,70,0,1
180935,-40,4,1,5,5,0,1
181014,-1000,4,1,8,70,0,1
181328,310.880829015544,4,1,5,70,1,1
182571,314.13612565445,4,1,5,70,1,1
183199,-40,4,1,5,70,0,1
183277,-40,4,1,5,20,0,1
183356,-40,4,1,5,70,0,1
183434,-40,4,1,5,20,0,1
183513,-40,4,1,5,70,0,1
183591,-40,4,1,5,20,0,1
183670,-40,4,1,5,70,0,1
183749,-40,4,1,5,20,0,1
183827,-50,4,1,5,70,0,1
184455,-50,4,1,5,60,0,0
184534,-50,4,1,5,5,0,0
184691,-50,4,1,5,60,0,0
184769,-50,4,1,5,60,0,0
184848,-50,4,1,5,5,0,0
184927,-50,4,1,8,60,0,0
185555,297.029702970297,4,1,8,60,1,0
185853,314.13612565445,4,1,8,60,1,0
186010,291.26213592233,4,1,8,60,1,0
186301,310.880829015544,4,1,5,60,1,0
186301,-50,4,1,5,60,0,0
186534,-50,4,1,5,5,0,0
186611,338.983050847458,4,1,5,60,1,0
186611,-50,4,1,5,60,0,0
186865,-50,4,1,5,5,0,0
186949,313.31592689295,4,1,5,60,1,0
186949,-66.6666666666667,4,1,5,60,0,0
187653,-66.6666666666667,4,1,5,5,0,0
187732,-66.6666666666667,4,1,5,60,0,0
188907,-66.6666666666667,4,1,5,5,0,0
188985,-66.6666666666667,4,1,5,60,0,0
189455,310.880829015544,4,1,5,60,1,0
191942,309.278350515464,4,1,5,60,1,0
192405,-66.6666666666667,4,1,5,60,0,0
192637,-66.6666666666667,4,1,5,5,0,0
192715,-66.6666666666667,4,1,5,60,0,0
193179,314.13612565445,4,1,5,60,1,0
193650,-66.6666666666667,4,1,5,60,0,0
193885,-66.6666666666667,4,1,5,5,0,0
193964,-66.6666666666667,4,1,5,60,0,0
194121,-40,4,1,5,60,0,0
194199,-40,4,1,5,20,0,0
194278,-40,4,1,5,60,0,0
194358,-40,4,1,5,20,0,0
194435,307.692307692308,4,1,5,60,1,0
194742,-40,4,1,5,60,0,0
195665,322.58064516129,4,1,5,60,1,0
196955,309.278350515464,4,1,5,60,1,0
196955,-66.6666666666667,4,1,5,60,0,0
197650,-66.6666666666667,4,1,5,5,0,0
197728,-66.6666666666667,4,1,5,60,0,0
198037,-67.1140939597315,4,1,5,60,0,0
198192,315.789473684211,4,1,5,60,1,0
198665,-66.6666666666667,4,1,5,60,0,0
198902,-66.6666666666667,4,1,5,5,0,0
198981,-66.6666666666667,4,1,5,60,0,0
199455,309.278350515464,4,1,5,60,1,0
200692,312.5,4,1,5,60,1,0
201942,310.880829015544,4,1,5,60,1,0
202408,-66.6666666666667,4,1,5,60,0,0
202641,-66.6666666666667,4,1,5,5,0,0
202719,-66.6666666666667,4,1,5,60,0,0
203030,-40.1606425702811,4,1,5,60,0,0
203185,314.13612565445,4,1,5,60,1,0
203656,-66.6666666666667,4,1,5,60,0,0
203891,-66.6666666666667,4,1,5,5,0,0
203970,-66.6666666666667,4,1,5,60,0,0
204441,312.5,4,1,5,60,1,0
206941,309.278350515464,4,1,5,60,1,0
207095,-100,4,1,5,30,0,0
207250,-100,4,1,5,37,0,0
207404,-100,4,1,5,45,0,0
207559,-100,4,1,5,52,0,0
207714,-100,4,1,5,59,0,0
207868,-100,4,1,5,66,0,0
208023,-100,4,1,5,73,0,0
208178,314.13612565445,4,1,5,60,1,0
208282,416.666666666667,4,1,5,60,1,0
208492,314.13612565445,4,1,5,60,1,0
208910,419.58041958042,4,1,5,60,1,0
209120,314.13612565445,4,1,5,60,1,0
209434,314.13612565445,4,1,5,70,1,1
209434,-57.1428571428571,4,1,5,70,0,1
211947,-100,4,1,5,70,0,1
213204,309.278350515464,4,1,5,70,1,1
214441,312.5,4,1,5,70,1,1
214441,-57.1428571428571,4,1,5,70,0,1
216941,-100,4,1,5,70,0,1
218191,-100,4,1,8,70,0,1
218295,-100,4,1,5,70,0,1
218607,-100,4,1,8,70,0,1
219024,-100,4,1,5,70,0,1
219232,-100,4,1,8,70,0,1
219336,-100,4,1,5,70,0,1
219441,-57.1428571428571,4,1,5,70,0,1
221941,-100,4,1,5,70,0,1
223191,315.789473684211,4,1,5,70,1,1
224454,307.692307692308,4,1,5,70,1,1
224454,-57.1428571428571,4,1,5,70,0,1
226915,314.13612565445,4,1,5,70,1,1
229428,-66.6666666666667,4,1,5,60,0,0
229663,-66.6666666666667,4,1,5,5,0,0
229742,-66.6666666666667,4,1,5,60,0,0
230134,-66.6666666666667,4,1,5,5,0,0
230213,-66.6666666666667,4,1,5,60,0,0
230606,-66.6666666666667,4,1,5,5,0,0
230684,-66.6666666666667,4,1,5,60,0,0
230920,-66.6666666666667,4,1,5,5,0,0
230998,-66.6666666666667,4,1,5,60,0,0
231391,-66.6666666666667,4,1,5,5,0,0
231469,-40,4,1,5,60,0,0
231862,-40,4,1,5,5,0,0
231941,307.692307692308,4,1,5,60,1,0
231941,-66.6666666666667,4,1,5,60,0,0
232171,-66.6666666666667,4,1,5,5,0,0
232248,-66.6666666666667,4,1,5,60,0,0
232633,-66.6666666666667,4,1,5,5,0,0
232710,-66.6666666666667,4,1,5,60,0,0
233094,-66.6666666666667,4,1,5,5,0,0
233171,315.789473684211,4,1,5,60,1,0
234434,309.278350515464,4,1,5,60,1,0
235671,314.13612565445,4,1,5,60,1,0
235749,-100,4,1,5,5,0,0
236927,319.148936170213,4,1,5,60,1,0
238203,303.030303030303,4,1,5,60,1,0
238430,-100,4,1,5,60,0,0
238506,-50,4,1,5,60,0,0
238960,-50,4,1,5,60,0,0

[Colours]
Combo1 : 255,153,0
Combo2 : 251,26,26
Combo3 : 252,233,1
Combo4 : 255,6,150

[HitObjects]
180,108,45,6,0,B|168:88|168:88|181:35,3,57.5,10|2|2|2,0:0|0:0|0:0|0:0,0:0:0:0:
260,195,360,5,10,0:0:0:0:
252,207,439,1,2,0:0:0:0:
243,198,518,1,2,0:0:0:0:
250,187,597,1,2,0:0:0:0:
367,192,676,6,0,B|378:212|378:212|430:227,3,57.5,10|2|2|2,0:0|0:0|0:0|0:0,0:0:0:0:
252,207,992,5,10,0:0:0:0:
240,199,1071,1,2,0:0:0:0:
249,190,1150,1,2,0:0:0:0:
260,197,1229,1,2,0:0:0:0:
183,295,1308,6,0,B|171:315|171:315|184:367,3,57.5,10|2|2|2,0:0|0:0|0:0|0:0,0:0:0:0:
240,199,1623,5,10,0:0:0:0:
248,187,1702,1,2,0:0:0:0:
257,196,1781,1,2,0:0:0:0:
250,207,1860,1,2,0:0:0:0:
231,202,1939,5,10,0:0:0:0:
246,165,2018,1,2,0:0:0:0:
288,154,2097,1,2,0:0:0:0:
328,184,2176,1,2,0:0:0:0:
344,221,2255,1,10,0:0:0:0:
373,239,2334,1,2,0:0:0:0:
403,231,2413,1,2,0:0:0:0:
417,208,2492,1,2,0:0:0:0:
409,193,2571,6,0,B|423:176|423:176|488:192,3,57.5,10|2|2|2,0:0|0:0|0:0|0:0,0:0:0:0:
239,192,2885,5,10,0:0:0:0:
251,200,2964,1,2,0:0:0:0:
242,209,3043,1,2,0:0:0:0:
231,202,3120,1,2,0:0:0:0:
144,295,3199,6,0,B|122:298|122:298|103:362,3,57.5,10|2|2|2,0:0|0:0|0:0|0:0,0:0:0:0:
248,199,3513,5,10,0:0:0:0:
240,211,3592,1,2,0:0:0:0:
231,202,3671,1,2,0:0:0:0:
238,191,3750,1,2,0:0:0:0:
172,92,3827,6,0,B|168:70|168:70|104:51,3,57.5,10|2|2|2,0:0|0:0|0:0|0:0,0:0:0:0:
248,199,4137,5,10,0:0:0:0:
240,211,4215,1,2,0:0:0:0:
231,202,4293,1,2,0:0:0:0:
238,191,4371,1,2,0:0:0:0:
257,197,4448,5,10,0:0:0:0:
266,229,4526,1,2,0:0:0:0:
230,254,4604,1,2,0:0:0:0:
187,237,4681,1,2,0:0:0:0:
172,197,4759,1,10,0:0:0:0:
141,166,4837,1,2,0:0:0:0:
109,164,4915,1,2,0:0:0:0:
89,172,4992,1,2,0:0:0:0:
84,186,5070,6,0,B|57:194|57:194|7:166,3,57.5,14|2|2|2,0:0|0:0|0:0|0:0,0:0:0:0:
240,211,5381,5,10,0:0:0:0:
228,203,5459,1,2,0:0:0:0:
237,194,5537,1,2,0:0:0:0:
248,201,5615,1,2,0:0:0:0:
290,83,5692,6,0,B|269:63|269:63|268:6,3,57.5,10|2|2|2,0:0|0:0|0:0|0:0,0:0:0:0:
229,206,6003,5,10,0:0:0:0:
237,194,6081,1,2,0:0:0:0:
246,203,6159,1,2,0:0:0:0:
239,214,6237,1,2,0:0:0:0:
340,293,6314,6,0,B|346:320|346:320|395:349,3,57.5,10|2|2|2,0:0|0:0|0:0|0:0,0:0:0:0:
237,194,6624,5,10,0:0:0:0:
249,202,6702,1,2,0:0:0:0:
240,211,6780,1,2,0:0:0:0:
229,204,6858,1,2,0:0:0:0:
247,182,6935,5,10,0:0:0:0:
283,180,7013,1,2,0:0:0:0:
327,198,7091,1,2,0:0:0:0:
368,230,7168,1,2,0:0:0:0:
412,231,7246,1,10,0:0:0:0:
435,200,7324,1,2,0:0:0:0:
424,177,7402,1,2,0:0:0:0:
409,171,7479,1,2,0:0:0:0:
402,176,7557,5,10,0:0:0:0:
427,159,7635,1,2,0:0:0:0:
418,134,7713,1,2,0:0:0:0:
401,121,7790,1,2,0:0:0:0:
370,118,7868,1,10,0:0:0:0:
337,132,7946,1,2,0:0:0:0:
320,156,8023,1,2,0:0:0:0:
318,181,8101,1,2,0:0:0:0:
327,202,8179,5,10,0:0:0:0:
290,181,8257,1,2,0:0:0:0:
250,185,8334,1,2,0:0:0:0:
224,207,8412,1,2,0:0:0:0:
214,240,8490,1,10,0:0:0:0:
181,268,8567,1,2,0:0:0:0:
137,278,8645,1,2,0:0:0:0:
92,253,8723,1,2,0:0:0:0:
71,205,8801,5,4,0:0:0:0:
70,209,8879,1,4,0:0:0:0:
69,213,8958,1,4,0:0:0:0:
68,217,9037,1,4,0:0:0:0:
68,221,9116,1,4,0:0:0:0:
67,225,9195,1,4,0:0:0:0:
66,229,9274,1,4,0:0:0:0:
66,233,9353,1,4,0:0:0:0:
65,241,9432,5,4,0:0:0:0:
32,203,9511,1,4,0:0:0:0:
41,152,9590,1,4,0:0:0:0:
84,137,9669,1,4,0:0:0:0:
123,166,9748,5,4,0:0:0:0:
119,112,9827,1,4,0:0:0:0:
155,69,9906,1,4,0:0:0:0:
227,56,9985,1,4,0:0:0:0:
286,106,10064,6,0,B|292:149|292:149|298:152|298:152|322:298|322:298|301:290|301:290|283:246,1,258.75000987053,6|0,0:0|0:0,0:0:0:0:
276,246,10374,1,8,0:0:0:0:
26,344,10530,2,0,B|17:346|-9:289|82:260|113:298|117:304|117:304|126:302|154:328|184:369|253:337,1,258.75000987053,2|0,0:0|0:0,0:0:0:0:
293,369,10841,1,2,0:0:0:0:
476,175,10996,2,0,B|487:152|487:152|471:144|471:144|443:221|443:221|429:234|429:234|430:255|430:255|391:355,1,258.75000987053,8|0,0:0|0:0,0:0:0:0:
481,329,11307,6,0,B|533:305|488:195|364:244|368:250|368:250|356:257|338:285|261:270|276:231,1,258.75000987053,2|0,0:0|0:0,0:0:0:0:
308,192,11622,1,8,0:0:0:0:
129,212,11780,2,0,B|121:231|200:272|239:160|214:130|214:130|218:121|218:121|227:98|201:76|262:40,1,258.75000987053,2|0,0:0|0:0,0:0:0:0:
318,49,12096,5,2,0:0:0:0:
354,64,12175,1,2,0:0:0:0:
381,89,12254,2,0,B|431:127|463:54|356:-34|236:91|238:99|238:99|215:92|183:148|83:121|46:70|114:73,1,431.25,8|0,0:0|0:0,0:0:0:0:
13,27,12570,6,0,B|9:13|9:13|21:0|21:0|41:102|41:102|45:102|45:102|61:177|61:177|49:196|49:196|38:141,1,258.75000987053,2|0,0:0|0:0,0:0:0:0:
39,169,12879,1,8,0:0:0:0:
216,322,13033,2,0,B|232:339|273:293|212:263|176:255|162:265|162:265|153:256|109:259|104:285|76:305|37:287,1,258.75000987053,2|0,0:0|0:0,0:0:0:0:
106,384,13343,1,2,0:0:0:0:
120,367,13420,1,2,0:0:0:0:
132,355,13497,2,0,B|146:346|146:346|139:263|139:263|134:257|134:257|126:165|126:165|142:152|142:152|156:159|156:159|161:196,1,258.75000987053,8|0,0:0|0:0,0:0:0:0:
233,200,13807,5,2,0:0:0:0:
272,212,13885,1,2,0:0:0:0:
308,204,13963,1,2,0:0:0:0:
326,179,14041,1,2,0:0:0:0:
316,126,14119,5,10,0:0:0:0:
307,131,14197,1,2,0:0:0:0:
316,137,14275,1,2,0:0:0:0:
323,129,14353,1,2,0:0:0:0:
338,182,14432,5,2,0:0:0:0:
379,211,14510,1,2,0:0:0:0:
436,217,14588,1,2,0:0:0:0:
480,191,14666,1,2,0:0:0:0:
491,145,14744,5,10,0:0:0:0:
483,139,14822,1,2,0:0:0:0:
478,145,14900,1,2,0:0:0:0:
484,152,14978,1,2,0:0:0:0:
407,96,15057,6,0,B|399:104|399:104|438:193|438:193|443:193|443:193|482:291|482:291|475:309|475:309|458:267,1,258.75000987053,6|0,0:0|0:0,0:0:0:0:
393,280,15369,1,8,0:0:0:0:
214,352,15525,2,0,B|264:368|280:299|248:257|190:240|172:248|172:248|156:235|121:232|77:260,1,258.75000987053,2|0,0:0|0:0,0:0:0:0:
40,289,15838,1,2,0:0:0:0:
279,194,15994,2,0,B|298:182|298:182|316:82|316:82|307:72|307:72|318:0|318:0|326:5|326:5|317:83,1,258.75000987053,8|0,0:0|0:0,0:0:0:0:
230,94,16307,6,0,B|249:55|350:88|349:153|377:161|377:161|387:195|425:209|452:175,1,258.75000987053,2|0,0:0|0:0,0:0:0:0:
455,118,16619,1,8,0:0:0:0:
270,189,16775,2,0,B|237:167|192:184|165:218|166:230|166:230|150:235|126:273|57:287|29:249,1,258.75000987053,2|0,0:0|0:0,0:0:0:0:
17,188,17109,5,2,0:0:0:0:
44,152,17187,1,2,0:0:0:0:
85,173,17265,2,0,B|111:125|342:179|302:307|295:331|295:331|318:256|391:214|396:304,1,431.25,12|0,0:0|0:0,0:0:0:0:
373,245,17577,6,0,B|384:237|384:237|369:232|369:232|252:262|252:262|257:267|257:267|129:295,1,258.75000987053
86,306,17884,1,8,0:0:0:0:
227,364,18038,2,0,B|200:358|137:289|168:198|183:198|183:198|184:156|217:136|256:155,1,258.75000987053,2|0,0:0|0:0,0:0:0:0:
286,126,18346,1,2,0:0:0:0:
471,189,18500,1,8,0:0:0:0:
462,10,18653,1,2,0:0:0:0:
349,43,18807,5,8,0:0:0:0:
405,116,18964,1,8,0:0:0:0:
293,260,19122,1,4,0:0:0:0:
80,219,19280,1,4,0:0:0:0:
48,34,19438,1,4,0:0:0:0:
239,22,19596,5,4,0:0:0:0:
137,374,19754,1,4,0:0:0:0:
0,177,19912,1,0,0:0:0:0:
497,97,20068,5,6,0:0:0:0:
411,242,20224,1,0,0:0:0:0:
311,151,20380,1,8,0:0:0:0:
397,120,20536,2,0,B|413:112|413:112|347:325|347:325|385:314,1,258.75000987053
440,315,20849,1,2,0:0:0:0:
224,235,21005,5,8,0:0:0:0:
135,269,21161,1,0,0:0:0:0:
190,25,21318,2,0,B|211:8|211:8|217:34|217:34|202:71|202:71|193:72|193:72|153:126|153:126|153:180|153:180|212:144,1,258.75000987053,2|0,0:0|0:0,0:0:0:0:
249,132,21630,1,8,0:0:0:0:
45,178,21786,2,0,B|32:165|32:165|62:162|62:162|78:173|78:173|121:167|121:167|127:160|127:160|251:140|251:140|266:114,1,258.75000987053,2|0,0:0|0:0,0:0:0:0:
321,93,22099,5,0,0:0:0:0:
344,131,22177,1,0,0:0:0:0:
393,73,22255,2,0,B|406:68|406:68|388:42|388:42|370:51|370:51|355:157|355:157|361:152|361:152|332:337|332:337|318:357|318:357|275:191,1,431.25,12|0,0:0|0:0,0:0:0:0:
269,256,22568,5,2,0:0:0:0:
434,211,22724,1,0,0:0:0:0:
482,374,22880,1,8,0:0:0:0:
399,325,23036,2,0,B|421:315|421:315|454:219|454:219|446:212|446:212|467:145|467:145|483:135|483:135|496:153|496:153|492:175,1,258.75000987053,2|0,0:0|0:0,0:0:0:0:
502,175,23349,1,2,0:0:0:0:
353,244,23505,2,0,B|336:236|336:236|367:143|367:143|372:150|372:150|394:92|394:92|385:50|385:50|332:71,1,258.75000987053,8|0,0:0|0:0,0:0:0:0:
283,99,23818,5,2,0:0:0:0:
270,97,23896,1,2,0:0:0:0:
257,88,23975,1,2,0:0:0:0:
249,73,24054,1,2,0:0:0:0:
261,116,24133,5,10,0:0:0:0:
212,136,24212,1,2,0:0:0:0:
158,133,24291,1,2,0:0:0:0:
117,96,24370,1,2,0:0:0:0:
168,147,24449,5,8,0:0:0:0:
147,221,24528,1,8,0:0:0:0:
77,257,24607,1,8,0:0:0:0:
9,220,24686,1,8,0:0:0:0:
62,163,24765,5,0,0:0:0:0:
65,172,24844,1,0,0:0:0:0:
55,167,24923,1,0,0:0:0:0:
68,167,25002,1,0,0:0:0:0:
142,216,25081,6,0,B|171:174|240:180|269:223|269:223|282:219|279:228|279:228|314:276|359:273|379:249,1,258.75000987053,6|0,0:0|0:0,0:0:0:0:
422,222,25391,1,12,0:0:0:0:
203,268,25546,2,0,B|181:284|177:320|299:272|272:197|272:197|264:197|261:189|261:189|270:173|275:135|255:100|236:92,1,258.75000987053,2|0,0:0|0:0,0:0:0:0:
212,51,25856,1,0,0:0:0:0:
334,116,26011,2,0,B|351:113|398:109|294:16|224:98|224:98|220:87|204:91|204:91|168:74|131:90|123:127,1,258.75000987053,8|0,0:0|0:0,0:0:0:0:
86,124,26321,5,2,0:0:0:0:
154,194,26476,1,0,0:0:0:0:
26,358,26631,1,8,0:0:0:0:
21,250,26786,2,0,B|28:233|118:252|104:318|168:346|219:323|219:323|209:309|224:296|173:274,1,258.75000987053,2|0,0:0|0:0,0:0:0:0:
276,239,27096,5,2,0:0:0:0:
257,195,27174,1,2,0:0:0:0:
335,186,27251,2,0,B|386:185|407:268|293:273|258:149|258:149|264:129|249:127|249:127|206:105|171:42|223:-16|269:21,1,431.25,12|0,0:0|0:0,0:0:0:0:
314,77,27561,6,0,B|336:37|420:75|388:114|411:108|411:108|413:132|431:170|492:173|513:136,1,258.75000987053
510,60,27876,1,8,0:0:0:0:
225,140,28034,2,0,B|243:133|243:133|230:102|146:140|178:179|155:173|155:173|153:197|132:232|104:237|76:218|76:218|96:206,1,258.75000987053,2|0,0:0|0:0,0:0:0:0:
89,136,28350,5,2,0:0:0:0:
243,372,28508,1,8,0:0:0:0:
504,273,28666,1,0,0:0:0:0:
256,192,28824,12,0,29455,0:0:0:0:
295,154,29771,5,0,0:0:0:0:
295,154,30071,6,0,B|314:146|314:146|28:119,1,258.75000987053,6|0,0:0|0:0,0:0:0:0:
3,113,30383,1,8,0:0:0:0:
147,159,30539,2,0,L|489:116,1,345.000013160706,6|0,0:0|0:0,0:0:0:0:
503,44,31008,1,8,0:0:0:0:
503,44,31633,1,8,0:0:0:0:
417,37,32102,6,0,L|411:36,1,5.75,2|0,0:0|0:0,0:0:0:0:
336,29,32258,6,0,L|330:28,1,5.75,8|0,0:0|0:0,0:0:0:0:
49,88,32414,6,0,L|43:87,1,5.75,2|0,0:0|0:0,0:0:0:0:
114,51,32571,6,0,B|130:43|130:43|330:147|330:147|375:124,1,258.75000987053,6|0,0:0|0:0,0:0:0:0:
415,116,32883,1,8,0:0:0:0:
283,93,33039,2,0,B|6:150|6:150|84:194,1,345.000013160706,6|0,0:0|0:0,0:0:0:0:
132,204,33508,1,8,0:0:0:0:
132,204,33980,6,0,L|137:206,1,5.75
205,231,34140,6,0,L|210:233,1,5.75,8|0,0:0|0:0,0:0:0:0:
468,212,34299,6,0,L|473:214,1,5.75
402,283,34459,5,2,0:0:0:0:
375,248,34565,2,0,L|372:160,1,76.6666666666667,8|8,0:0|0:0,0:0:0:0:
350,101,34778,5,8,0:0:0:0:
280,150,34884,1,4,0:0:0:0:
193,114,34991,1,4,0:0:0:0:
271,63,35097,6,0,L|286:348,1,258.75000987053,6|0,0:0|0:0,0:0:0:0:
345,371,35406,1,8,0:0:0:0:
247,226,35560,2,0,L|288:24,1,172.500006580353,6|0,0:0|0:0,0:0:0:0:
199,2,35870,1,0,0:0:0:0:
315,189,36024,2,0,B|294:172|294:172|17:122|17:122|61:159,1,345.000013160706,8|0,0:0|0:0,0:0:0:0:
96,233,36487,1,0,0:0:0:0:
34,356,36641,1,8,0:0:0:0:
401,255,36949,5,2,0:0:0:0:
489,193,37103,1,2,0:0:0:0:
396,50,37257,1,8,0:0:0:0:
212,108,37410,1,0,0:0:0:0:
351,365,37564,6,0,B|342:345|342:345|414:152|414:152|383:108,1,258.75000987053,6|0,0:0|0:0,0:0:0:0:
327,160,37881,1,8,0:0:0:0:
119,252,38040,6,0,B|139:235|139:235|116:139|116:139|121:129|121:129|103:40|103:40|82:28|82:28|81:64,1,258.75000987053,6|0,0:0|0:0,0:0:0:0:
30,91,38357,1,2,0:0:0:0:
35,121,38437,1,2,0:0:0:0:
38,147,38516,1,4,0:0:0:0:
212,264,38675,1,4,0:0:0:0:
442,101,38833,6,0,B|476:117|549:100|419:-5|338:134|338:134|325:115|314:132|314:132|285:156|194:150,1,345,6|0,0:0|0:0,0:0:0:0:
156,113,39143,2,0,B|135:109|135:109|149:65|229:47|208:85,1,115
430,178,39299,2,0,B|451:182|451:182|437:226|357:244|378:206,1,115
362,15,39454,6,0,B|331:-28|277:31|274:108|340:122|340:122|325:131|336:137|336:137|317:162|292:189|273:228|312:278,1,345,6|0,0:0|0:0,0:0:0:0:
360,304,39765,2,0,B|367:340|461:344|409:226|277:240|277:240|264:258|264:227|264:227|199:207|125:211|89:248|139:280,1,431.25,6|0,0:0|0:0,0:0:0:0:
175,316,40076,5,6,0:0:0:0:
39,360,40231,2,0,B|11:339|11:339|144:385,1,172.500006580353,0|8,0:0|0:0,0:0:0:0:
430,84,40542,2,0,B|451:77|451:77|459:52|459:52|285:79|285:79|270:114,1,258.75000987053,2|0,0:0|0:0,0:0:0:0:
338,145,40853,1,2,0:0:0:0:
39,184,41009,2,0,B|26:171|26:171|173:194|173:194|179:201|179:201|246:214|246:214|283:206,1,258.75000987053,8|0,0:0|0:0,0:0:0:0:
338,224,41320,5,2,0:0:0:0:
216,293,41475,1,0,0:0:0:0:
467,353,41630,1,8,0:0:0:0:
474,176,41786,2,0,B|479:192|479:192|434:271|434:271|425:258|425:258|372:367|372:367|406:364,1,258.75000987053,2|0,0:0|0:0,0:0:0:0:
295,384,42097,5,2,0:0:0:0:
259,373,42174,1,2,0:0:0:0:
299,303,42252,2,0,B|278:286|278:286|212:305|212:305|209:294|209:294|167:310|167:310|172:319|172:319|35:379|35:379|8:368|8:368|15:339|15:339|78:314,1,431.25,8|0,0:0|0:0,0:0:0:0:
134,361,42563,5,0,0:0:0:0:
201,202,42719,1,0,0:0:0:0:
130,115,42874,1,8,0:0:0:0:
101,218,43029,2,0,B|92:228|92:228|77:217|77:217|172:180|172:180|173:186|173:186|275:149|275:149|288:115,1,258.75000987053,2|0,0:0|0:0,0:0:0:0:
269,63,43340,1,2,0:0:0:0:
235,73,43418,1,0,0:0:0:0:
203,85,43496,2,0,B|196:95|196:95|216:145|216:145|225:149|225:149|267:278|267:278|252:307|252:307|237:281,1,258.75000987053,8|0,0:0|0:0,0:0:0:0:
335,325,43807,5,2,0:0:0:0:
376,322,43887,1,2,0:0:0:0:
412,344,43967,1,2,0:0:0:0:
415,380,44047,1,2,0:0:0:0:
431,339,44127,5,10,0:0:0:0:
445,338,44207,1,2,0:0:0:0:
450,348,44287,1,2,0:0:0:0:
443,352,44367,1,2,0:0:0:0:
391,341,44447,5,2,0:0:0:0:
359,278,44527,1,2,0:0:0:0:
382,205,44607,1,2,0:0:0:0:
455,183,44687,1,2,0:0:0:0:
512,243,44767,6,0,B|530:254|530:254|430:269,1,115,10|2,0:0|0:0,0:0:0:0:
216,245,44927,2,0,B|200:231|200:231|301:233,1,115,2|2,0:0|0:0,0:0:0:0:
242,319,45087,6,0,B|256:343|308:282|233:214|233:214|231:198|217:192|217:192|175:148|198:83|238:92,1,258.75000987053,6|0,0:0|0:0,0:0:0:0:
244,51,45399,1,8,0:0:0:0:
30,134,45555,2,0,B|0:148|-23:105|84:57|95:137|95:137|112:134|110:158|110:158|113:210|159:248,1,258.75000987053,2|0,0:0|0:0,0:0:0:0:
140,309,45868,1,2,0:0:0:0:
276,127,46024,2,0,B|288:93|387:83|409:110|416:122|416:122|444:110|477:156|498:167|550:109,1,258.75000987053,8|0,0:0|0:0,0:0:0:0:
503,71,46337,5,2,0:0:0:0:
345,198,46491,1,0,0:0:0:0:
161,57,46646,1,8,0:0:0:0:
269,21,46800,2,0,B|301:37|305:88|257:128|257:128|270:141|192:193|249:278,1,258.75000987053,2|0,0:0|0:0,0:0:0:0:
265,327,47110,5,2,0:0:0:0:
300,358,47187,1,2,0:0:0:0:
360,304,47264,2,0,B|373:272|294:207|177:334|187:348|187:348|170:343|166:357|166:357|120:312|60:299|-1:329|42:371,1,431.25,12|0,0:0|0:0,0:0:0:0:
46,367,47574,5,0,0:0:0:0:
116,222,47728,1,0,0:0:0:0:
34,78,47883,1,8,0:0:0:0:
9,172,48038,2,0,B|-8:164|6:217|77:208|98:175|98:175|113:176|115:160|115:160|137:128|203:125|235:156|202:175,1,258.75000987053,2|0,0:0|0:0,0:0:0:0:
260,213,48347,1,2,0:0:0:0:
390,132,48501,2,0,B|409:125|416:116|352:88|335:190|335:190|351:186|340:199|340:199|328:236|342:283|382:322,1,258.75000987053,8|0,0:0|0:0,0:0:0:0:
429,347,48811,5,0,0:0:0:0:
452,340,48889,1,0,0:0:0:0:
477,340,48968,1,0,0:0:0:0:
498,347,49047,1,0,0:0:0:0:
512,362,49126,5,8,0:0:0:0:
466,203,49284,1,8,0:0:0:0:
143,272,49442,1,8,0:0:0:0:
225,333,49600,5,8,0:0:0:0:
364,99,49758,1,8,0:0:0:0:
23,17,49916,1,8,0:0:0:0:
58,124,50074,5,6,0:0:0:0:
157,96,50228,1,0,0:0:0:0:
181,88,50305,1,0,0:0:0:0:
206,81,50383,1,8,0:0:0:0:
379,275,50537,2,0,B|418:265|364:189|193:252|168:313|134:333|-1:297|76:253,1,345.000013160706,6|2,0:0|0:0,0:0:0:0:
390,146,51001,5,8,0:0:0:0:
476,116,51156,2,0,B|448:67|392:100|354:174|271:112|297:95,1,172.500006580353,0|2,0:0|0:0,0:0:0:0:
133,197,51470,5,2,0:0:0:0:
24,86,51630,1,8,0:0:0:0:
230,74,51789,2,0,B|274:70|321:132|295:278|419:332|439:244|401:206,1,258.75000987053,6|0,0:0|0:0,0:0:0:0:
465,255,52108,1,2,0:0:0:0:
152,312,52268,1,8,0:0:0:0:
248,357,52428,1,2,0:0:0:0:
235,204,52587,5,6,0:0:0:0:
233,198,52743,1,2,0:0:0:0:
97,125,52899,5,8,0:0:0:0:
98,118,52977,1,0,0:0:0:0:
99,111,53055,1,2,0:0:0:0:
414,47,53212,5,2,0:0:0:0:
412,41,53368,1,2,0:0:0:0:
315,105,53524,5,8,0:0:0:0:
316,98,53602,1,0,0:0:0:0:
317,91,53680,1,2,0:0:0:0:
474,313,53837,5,6,0:0:0:0:
472,307,53991,1,2,0:0:0:0:
390,262,54146,5,8,0:0:0:0:
391,255,54223,1,0,0:0:0:0:
392,248,54300,1,2,0:0:0:0:
64,282,54455,5,2,0:0:0:0:
178,357,54610,1,2,0:0:0:0:
227,97,54764,1,8,0:0:0:0:
110,21,54919,1,2,0:0:0:0:
152,201,55074,5,6,0:0:0:0:
500,154,55230,1,0,0:0:0:0:
474,131,55308,1,0,0:0:0:0:
443,105,55386,1,8,0:0:0:0:
320,285,55542,2,0,B|299:297|335:365|414:297|412:228|379:201|379:201|360:206|316:139|336:41|355:82,1,345.000013160706,6|2,0:0|0:0,0:0:0:0:
250,256,56011,5,8,0:0:0:0:
474,247,56167,2,0,B|515:235|465:167|362:184|325:217,1,172.500006580353,0|2,0:0|0:0,0:0:0:0:
177,330,56480,5,2,0:0:0:0:
39,160,56636,1,8,0:0:0:0:
376,81,56792,2,0,B|376:59|277:39|272:141|276:157|276:157|264:148|261:161|261:161|246:157|177:201|138:269|169:296|169:296|155:289|151:302|151:302|124:356|36:372|17:329|17:329|17:322|9:322|9:322|15:318|14:315|14:315|21:281|50:239|91:229|91:229|95:217|103:221|103:221|160:210|228:233|270:290,1,862.5,6|8,0:0|0:0,0:0:0:0:
387,361,57417,1,2,0:0:0:0:
475,312,57574,5,6,0:0:0:0:
478,302,57730,1,2,0:0:0:0:
423,229,57885,5,8,0:0:0:0:
421,218,57963,1,0,0:0:0:0:
419,207,58042,1,2,0:0:0:0:
143,140,58199,5,2,0:0:0:0:
145,127,58277,1,0,0:0:0:0:
148,114,58355,1,2,0:0:0:0:
195,40,58511,5,8,0:0:0:0:
192,26,58667,1,2,0:0:0:0:
46,253,58824,5,8,0:0:0:0:
90,243,58902,1,8,0:0:0:0:
139,261,58980,1,2,0:0:0:0:
164,308,59058,1,2,0:0:0:0:
169,258,59136,5,4,0:0:0:0:
178,246,59214,1,4,0:0:0:0:
187,250,59292,1,2,0:0:0:0:
182,262,59370,1,2,0:0:0:0:
201,241,59449,5,4,0:0:0:0:
205,284,59527,1,4,0:0:0:0:
233,328,59605,1,2,0:0:0:0:
283,344,59683,1,2,0:0:0:0:
249,328,59761,5,4,0:0:0:0:
214,279,59839,1,4,0:0:0:0:
215,219,59917,1,2,0:0:0:0:
251,156,59996,1,2,0:0:0:0:
312,115,60074,6,0,B|350:88|401:121|468:185|511:158,1,172.500006580353,6|0,0:0|0:0,0:0:0:0:
498,75,60388,1,8,0:0:0:0:
153,123,60545,6,0,B|157:157|17:43|239:4|288:69|326:168|344:213|301:236,1,345.000013160706,6|2,0:0|0:0,0:0:0:0:
220,278,61016,1,8,0:0:0:0:
475,359,61173,6,0,B|512:329|373:274|245:362|242:392|125:350,1,345.000013160706,0|2,0:0|0:0,0:0:0:0:
69,316,61647,1,8,0:0:0:0:
128,104,61806,6,0,B|91:97|139:56|228:59|260:116|248:177|248:177|289:114|341:104|343:152,1,345.000013160706,6|2,0:0|0:0,0:0:0:0:
419,192,62282,1,8,0:0:0:0:
490,138,62441,1,2,0:0:0:0:
306,28,62599,5,6,0:0:0:0:
222,138,62752,1,2,0:0:0:0:
258,270,62906,1,8,0:0:0:0:
374,331,63060,1,2,0:0:0:0:
486,290,63214,5,2,0:0:0:0:
161,348,63368,1,2,0:0:0:0:
86,281,63522,1,8,0:0:0:0:
311,371,63675,1,2,0:0:0:0:
236,382,63829,5,2,0:0:0:0:
189,72,63986,1,2,0:0:0:0:
135,156,64143,1,8,0:0:0:0:
272,288,64300,1,2,0:0:0:0:
250,195,64457,5,2,0:0:0:0:
5,254,64614,1,2,0:0:0:0:
189,273,64771,5,8,0:0:0:0:
473,310,64928,1,2,0:0:0:0:
380,348,65085,5,6,0:0:0:0:
347,245,65240,1,2,0:0:0:0:
361,243,65318,1,0,0:0:0:0:
375,244,65395,1,8,0:0:0:0:
320,156,65551,6,0,B|337:138|374:142|374:142|323:105|273:141|273:141|257:138|258:155|258:155|228:169|198:277|281:348|281:348|260:293|271:254,1,460,6|2,0:0|0:0,0:0:0:0:
195,191,66017,1,8,0:0:0:0:
43,258,66173,6,0,B|23:271|-29:199|151:232|132:306|132:306|146:280|154:332|261:354|306:316|253:288,1,345.000013160706,0|2,0:0|0:0,0:0:0:0:
57,354,66639,1,8,0:0:0:0:
304,139,66794,6,0,B|320:154|410:93|220:52|201:115|201:115|189:101|189:101|185:126|110:163|18:141,1,345.000013160706,6|2,0:0|0:0,0:0:0:0:
8,79,67261,1,8,0:0:0:0:
61,2,67416,1,2,0:0:0:0:
381,22,67572,5,4,0:0:0:0:
256,75,67727,1,0,0:0:0:0:
235,211,67882,1,8,0:0:0:0:
328,294,68038,1,2,0:0:0:0:
410,224,68193,5,2,0:0:0:0:
316,124,68348,1,2,0:0:0:0:
182,151,68503,1,8,0:0:0:0:
135,266,68659,1,2,0:0:0:0:
196,353,68815,5,8,0:0:0:0:
268,369,68916,1,8,0:0:0:0:
331,327,69018,1,8,0:0:0:0:
369,257,69119,1,8,0:0:0:0:
436,223,69221,1,8,0:0:0:0:
508,250,69322,1,8,0:0:0:0:
442,303,69424,5,6,0:0:0:0:
357,249,69523,2,0,L|343:148,1,76.6666666666667
363,53,69722,5,6,0:0:0:0:
240,88,69836,2,0,L|219:196,1,76.6666666666667
69,193,70064,6,0,B|55:183|27:196|27:196|68:160|163:206|162:296|242:276,1,268.333335892359,6|2,0:0|0:0,0:0:0:0:
251,364,70374,2,0,B|262:359|285:366|285:366|256:340|214:352|192:377,2,134.16666794618,8|2|2,0:0|0:0|0:0,0:0:0:0:
370,345,70685,5,2,0:0:0:0:
344,274,70789,1,2,0:0:0:0:
362,200,70893,1,2,0:0:0:0:
420,152,70996,1,10,0:0:0:0:
430,75,71100,1,2,0:0:0:0:
383,11,71203,1,2,0:0:0:0:
348,92,71307,5,2,0:0:0:0:
337,130,71412,1,2,0:0:0:0:
355,164,71518,1,2,0:0:0:0:
390,177,71624,1,10,0:0:0:0:
411,208,71730,1,2,0:0:0:0:
412,247,71836,1,2,0:0:0:0:
489,298,71941,5,2,0:0:0:0:
417,328,72047,1,2,0:0:0:0:
320,283,72153,1,2,0:0:0:0:
200,315,72259,2,0,B|179:299|108:288|59:382|8:338|8:338|44:346|100:307,1,268.333335892359,10|2,0:0|0:0,0:0:0:0:
157,225,72576,5,2,0:0:0:0:
175,151,72682,1,2,0:0:0:0:
134,88,72788,1,2,0:0:0:0:
125,83,72841,1,0,0:0:0:0:
116,80,72894,2,0,B|101:78|101:78|32:107,2,76.6666666666667,10|2|2,0:0|0:0|0:0,0:0:0:0:
295,193,73211,5,2,0:0:0:0:
327,121,73317,1,2,0:0:0:0:
402,100,73423,1,2,0:0:0:0:
411,104,73476,1,0,0:0:0:0:
419,112,73529,2,0,L|495:95,2,76.6666666666667,10|2|2,0:0|0:0|0:0,0:0:0:0:
257,314,73846,5,2,0:0:0:0:
183,335,73948,1,2,0:0:0:0:
116,293,74051,1,2,0:0:0:0:
110,284,74103,1,0,0:0:0:0:
104,277,74154,2,0,B|93:269|93:269|14:298,2,76.6666666666667,10|2|2,0:0|0:0|0:0,0:0:0:0:
390,365,74462,5,2,0:0:0:0:
494,277,74565,1,2,0:0:0:0:
366,221,74668,1,2,0:0:0:0:
417,289,74771,5,14,0:0:0:0:
442,216,74874,1,2,0:0:0:0:
396,154,74977,1,2,0:0:0:0:
278,215,75079,6,0,B|262:263|182:242|217:159|217:159|206:158|206:158|213:109|192:67|142:62,1,268.333335892359,6|2,0:0|0:0,0:0:0:0:
48,121,75388,2,0,B|37:125|10:171|79:199|118:164|140:123|127:118,2,134.16666794618,8|2|2,0:0|0:0|0:0,0:0:0:0:
205,6,75696,5,2,0:0:0:0:
282,0,75799,1,2,0:0:0:0:
339,54,75902,1,2,0:0:0:0:
370,124,76005,1,10,0:0:0:0:
439,160,76108,1,2,0:0:0:0:
505,122,76211,1,2,0:0:0:0:
425,58,76313,5,2,0:0:0:0:
379,56,76416,1,2,0:0:0:0:
337,79,76519,1,2,0:0:0:0:
307,118,76622,1,10,0:0:0:0:
257,135,76725,1,2,0:0:0:0:
211,118,76828,1,2,0:0:0:0:
278,217,76930,5,2,0:0:0:0:
239,304,77033,1,2,0:0:0:0:
146,322,77136,1,2,0:0:0:0:
76,257,77239,2,0,B|99:217|238:258|246:341|354:369|352:281,1,268.333335892359,10|2,0:0|0:0,0:0:0:0:
394,298,77547,1,6,0:0:0:0:
512,76,77753,5,8,0:0:0:0:
397,30,77856,1,8,0:0:0:0:
276,79,77959,1,8,0:0:0:0:
206,45,78061,1,8,0:0:0:0:
163,65,78164,5,2,0:0:0:0:
81,15,78267,1,8,0:0:0:0:
0,131,78370,1,8,0:0:0:0:
3,121,78421,1,0,0:0:0:0:
5,112,78473,2,0,L|29:209,2,76.6666666666667,6|6|8,0:0|0:0|0:0,0:0:0:0:
274,291,78781,5,8,0:0:0:0:
199,353,78884,1,2,0:0:0:0:
119,299,78987,1,2,0:0:0:0:
187,202,79090,5,6,0:0:0:0:
206,218,79193,1,2,0:0:0:0:
181,228,79295,1,2,0:0:0:0:
122,292,79398,5,2,0:0:0:0:
201,345,79503,1,2,0:0:0:0:
275,282,79608,1,8,0:0:0:0:
290,167,79713,5,8,0:0:0:0:
172,106,79819,1,4,0:0:0:0:
53,180,79924,1,4,0:0:0:0:
195,218,80029,6,0,B|211:188|373:176|392:316|476:251,1,268.333335892359,6|0,0:0|0:0,0:0:0:0:
405,179,80344,2,0,B|383:170|294:217|278:292|313:299,2,134.16666794618,8|2|2,0:0|0:0|0:0,0:0:0:0:
503,85,80660,5,2,0:0:0:0:
435,51,80765,1,2,0:0:0:0:
360,55,80871,1,2,0:0:0:0:
295,95,80976,1,10,0:0:0:0:
225,128,81081,1,2,0:0:0:0:
152,112,81186,1,2,0:0:0:0:
44,62,81292,5,2,0:0:0:0:
35,51,81397,1,2,0:0:0:0:
42,40,81502,1,2,0:0:0:0:
55,41,81607,1,10,0:0:0:0:
62,53,81713,1,2,0:0:0:0:
53,65,81818,1,2,0:0:0:0:
3,206,81923,5,2,0:0:0:0:
78,184,82029,1,2,0:0:0:0:
158,255,82134,1,2,0:0:0:0:
271,202,82239,2,0,B|291:181|428:208|409:368|352:363|352:363|364:334,1,268.333335892359,10|2,0:0|0:0,0:0:0:0:
470,272,82555,5,2,0:0:0:0:
440,197,82660,1,2,0:0:0:0:
445,123,82765,1,2,0:0:0:0:
449,111,82818,1,0,0:0:0:0:
455,100,82871,2,0,B|440:95|440:95|375:121,2,76.6666666666667,10|2|2,0:0|0:0|0:0,0:0:0:0:
266,90,83186,5,2,0:0:0:0:
192,121,83292,1,2,0:0:0:0:
114,101,83397,1,2,0:0:0:0:
108,94,83450,1,0,0:0:0:0:
99,85,83502,2,0,B|91:80|91:80|19:101,2,76.6666666666667,10|2|2,0:0|0:0|0:0,0:0:0:0:
209,212,83818,5,2,0:0:0:0:
142,267,83922,1,2,0:0:0:0:
55,244,84026,1,2,0:0:0:0:
51,236,84078,1,0,0:0:0:0:
48,228,84130,2,0,L|32:302,2,76.6666666666667,10|2|2,0:0|0:0|0:0,0:0:0:0:
292,284,84443,5,2,0:0:0:0:
404,345,84547,1,2,0:0:0:0:
503,273,84651,1,2,0:0:0:0:
355,106,84755,5,14,0:0:0:0:
290,72,84859,1,2,0:0:0:0:
216,99,84963,1,2,0:0:0:0:
279,146,85068,6,0,B|304:184|414:65|493:44|508:72|508:72|489:68|472:70,1,268.333335892359,6|2,0:0|0:0,0:0:0:0:
204,186,85375,2,0,B|215:198|150:222|117:152|117:152|125:162|140:174,2,134.16666794618,10|2|2,0:0|0:0|0:0,0:0:0:0:
404,319,85683,5,2,0:0:0:0:
337,282,85785,1,2,0:0:0:0:
260,284,85888,1,2,0:0:0:0:
195,326,85991,1,10,0:0:0:0:
121,350,86093,1,2,0:0:0:0:
49,324,86196,1,2,0:0:0:0:
0,249,86298,5,2,0:0:0:0:
19,229,86401,1,2,0:0:0:0:
30,200,86505,1,2,0:0:0:0:
31,176,86608,1,10,0:0:0:0:
55,211,86712,1,2,0:0:0:0:
86,220,86816,1,2,0:0:0:0:
157,94,86919,5,2,0:0:0:0:
225,138,87023,1,2,0:0:0:0:
316,78,87127,1,2,0:0:0:0:
432,144,87230,2,0,B|410:141|376:167|330:255|411:303|411:303|375:275|395:210,1,268.333335892359,10|2,0:0|0:0,0:0:0:0:
276,220,87541,5,2,0:0:0:0:
205,289,87645,1,2,0:0:0:0:
264,360,87748,1,2,0:0:0:0:
272,356,87800,1,0,0:0:0:0:
280,353,87852,2,0,L|389:376,2,76.6666666666667,10|2|2,0:0|0:0|0:0,0:0:0:0:
233,142,88163,5,2,0:0:0:0:
144,58,88266,1,2,0:0:0:0:
24,87,88370,1,2,0:0:0:0:
23,98,88422,1,0,0:0:0:0:
23,108,88474,2,0,B|41:120|41:120|33:194,2,76.6666666666667,10|2|2,0:0|0:0|0:0,0:0:0:0:
291,68,88785,5,2,0:0:0:0:
374,127,88890,1,2,0:0:0:0:
461,107,88995,1,2,0:0:0:0:
464,100,89048,1,0,0:0:0:0:
466,94,89100,2,0,L|482:10,2,76.6666666666667,10|2|2,0:0|0:0|0:0,0:0:0:0:
480,263,89416,5,8,0:0:0:0:
380,346,89521,1,8,0:0:0:0:
260,229,89627,1,8,0:0:0:0:
368,243,89732,5,8,0:0:0:0:
265,334,89837,1,8,0:0:0:0:
118,212,89942,1,8,0:0:0:0:
235,41,90048,6,0,B|239:29|312:23|281:188|138:184|73:141|96:55,1,258.75000987053,6|0,0:0|0:0,0:0:0:0:
63,53,90363,1,8,0:0:0:0:
397,48,90521,6,0,B|383:14|258:151|331:338|418:300,1,345.000013160706,6|0,0:0|0:0,0:0:0:0:
491,233,90995,1,8,0:0:0:0:
495,224,91627,1,8,0:0:0:0:
271,225,92100,6,0,L|263:225,1,5.75,2|0,0:0|0:0,0:0:0:0:
205,180,92258,6,0,L|197:180,1,5.75,8|0,0:0|0:0,0:0:0:0:
29,339,92416,6,0,L|37:339,1,5.75,2|0,0:0|0:0,0:0:0:0:
95,289,92574,6,0,B|131:275|227:308|259:346|282:325|282:325|260:303|204:336,1,258.75000987053,6|0,0:0|0:0,0:0:0:0:
164,374,92884,1,8,0:0:0:0:
368,245,93040,6,0,B|401:229|482:283|332:351|306:218|430:113|498:146|498:146|460:154|430:202,1,345.000013160706,6|0,0:0|0:0,0:0:0:0:
356,115,93506,1,8,0:0:0:0:
279,60,93817,5,0,0:0:0:0:
243,90,93895,1,0,0:0:0:0:
198,84,93972,1,0,0:0:0:0:
183,70,94050,1,0,0:0:0:0:
217,134,94128,5,8,0:0:0:0:
184,177,94206,1,0,0:0:0:0:
144,179,94283,1,0,0:0:0:0:
126,167,94361,1,0,0:0:0:0:
196,185,94439,5,0,0:0:0:0:
222,225,94517,1,0,0:0:0:0:
209,258,94594,1,2,0:0:0:0:
193,264,94672,1,0,0:0:0:0:
236,229,94750,5,8,0:0:0:0:
308,207,94827,1,0,0:0:0:0:
381,237,94905,1,2,0:0:0:0:
397,311,94983,1,0,0:0:0:0:
319,356,95061,6,0,B|301:374|282:355|263:295|298:287|298:287|286:306,1,115,6|0,0:0|0:0,0:0:0:0:
172,384,95217,6,0,B|196:377|189:351|147:305|122:331|122:331|145:330,1,115,8|0,0:0|0:0,0:0:0:0:
193,30,95373,6,0,B|211:48|192:67|132:86|124:50|124:50|143:63,1,115,8|0,0:0|0:0,0:0:0:0:
49,71,95529,6,0,B|35:70|25:74|25:74|65:42|150:67|189:124|249:118,1,258.75000987053,6|0,0:0|0:0,0:0:0:0:
300,68,95842,1,0,0:0:0:0:
396,220,95998,6,0,B|411:206|457:225|482:260|482:260|439:195|358:172|315:236|315:236|313:219|313:219|280:262|258:281|144:291|140:212,1,517.500019741059,12|2,0:0|0:0,0:0:0:0:
66,175,96623,1,8,0:0:0:0:
171,62,96936,5,2,0:0:0:0:
153,138,97092,1,2,0:0:0:0:
224,120,97248,1,8,0:0:0:0:
306,142,97404,5,0,0:0:0:0:
312,137,97456,1,0,0:0:0:0:
318,132,97508,1,0,0:0:0:0:
323,126,97561,2,0,B|337:116|337:116|308:219,1,86.2500032901765,6|0,0:0|0:0,0:0:0:0:
380,224,97716,2,0,L|466:207,1,86.2500032901765
135,360,97871,2,0,B|121:370|121:370|150:267,1,86.2500032901765,8|0,0:0|0:0,0:0:0:0:
84,259,98027,2,0,L|-2:276,1,86.2500032901765,6|0,0:0|0:0,0:0:0:0:
203,241,98182,5,0,0:0:0:0:
255,261,98260,1,0,0:0:0:0:
275,312,98338,1,2,0:0:0:0:
255,342,98415,1,2,0:0:0:0:
232,343,98493,5,8,0:0:0:0:
273,304,98571,1,0,0:0:0:0:
341,299,98649,1,0,0:0:0:0:
406,340,98726,1,0,0:0:0:0:
397,350,98804,6,0,B|372:368|305:293|415:181|451:193|451:193|441:212,1,230,6|0,0:0|0:0,0:0:0:0:
447,204,99015,1,0,0:0:0:0:
446,212,99068,1,0,0:0:0:0:
446,220,99121,2,0,B|471:238|538:163|428:51|392:63|392:63|402:82,1,230,6|0,0:0|0:0,0:0:0:0:
318,146,99438,5,12,0:0:0:0:
264,201,99518,1,8,0:0:0:0:
192,201,99597,1,8,0:0:0:0:
135,153,99677,1,8,0:0:0:0:
150,180,99756,1,2,0:0:0:0:
151,219,99835,1,2,0:0:0:0:
172,163,99915,1,2,0:0:0:0:
225,110,99994,1,2,0:0:0:0:
157,62,100073,5,6,0:0:0:0:
205,170,105092,5,0,0:0:0:0:
204,171,105246,1,0,0:0:0:0:
204,173,105401,1,0,0:0:0:0:
204,175,105555,1,0,0:0:0:0:
204,177,105710,1,0,0:0:0:0:
203,178,105865,1,0,0:0:0:0:
203,180,106019,1,0,0:0:0:0:
203,182,106174,1,0,0:0:0:0:
203,184,106329,1,0,0:0:0:0:
202,186,106483,1,0,0:0:0:0:
202,187,106638,1,0,0:0:0:0:
202,189,106793,1,0,0:0:0:0:
202,191,106947,1,0,0:0:0:0:
201,193,107102,1,0,0:0:0:0:
201,194,107256,1,0,0:0:0:0:
201,196,107411,1,0,0:0:0:0:
271,243,107566,5,0,0:0:0:0:
271,245,107722,1,0,0:0:0:0:
271,247,107878,1,0,0:0:0:0:
270,248,108034,1,0,0:0:0:0:
270,250,108191,1,0,0:0:0:0:
270,252,108347,1,0,0:0:0:0:
270,254,108503,1,0,0:0:0:0:
269,256,108659,1,0,0:0:0:0:
269,257,108816,1,0,0:0:0:0:
269,259,108972,1,0,0:0:0:0:
269,261,109128,1,0,0:0:0:0:
268,263,109284,1,0,0:0:0:0:
268,264,109441,1,0,0:0:0:0:
268,266,109597,1,0,0:0:0:0:
268,268,109753,1,0,0:0:0:0:
267,270,109909,1,0,0:0:0:0:
84,204,110066,6,0,B|136:213|136:213|121:290|121:290|102:285|102:285|146:50,1,345.000013160706,6|0,0:0|0:0,0:0:0:0:
79,37,110529,1,0,0:0:0:0:
79,39,110684,1,0,0:0:0:0:
79,41,110839,1,0,0:0:0:0:
78,43,110993,1,0,0:0:0:0:
267,114,111148,5,2,0:0:0:0:
208,51,111303,2,0,B|206:39|206:39|216:33|216:33|241:227,1,172.5,2|0,0:0|0:0,0:0:0:0:
299,218,111615,5,2,0:0:0:0:
358,155,111771,2,0,B|360:143|360:143|350:137|350:137|325:331,1,172.5,2|0,0:0|0:0,0:0:0:0:
223,306,112084,5,2,0:0:0:0:
164,243,112240,2,0,B|162:231|162:231|172:225|172:225|197:419,1,172.5,2|0,0:0|0:0,0:0:0:0:
279,369,112553,6,0,B|327:366|327:366|326:357|326:357|13:379,1,345.000013160706,6|0,0:0|0:0,0:0:0:0:
11,302,113021,1,0,0:0:0:0:
9,302,113178,1,0,0:0:0:0:
7,302,113334,1,0,0:0:0:0:
5,301,113490,1,0,0:0:0:0:
211,137,113646,5,2,0:0:0:0:
144,171,113803,2,0,L|99:167,1,43.125,2|0,0:0|0:0,0:0:0:0:
287,229,114115,5,2,0:0:0:0:
355,196,114271,2,0,L|406:191,1,43.125,2|0,0:0|0:0,0:0:0:0:
190,251,114584,5,2,0:0:0:0:
240,307,114740,2,0,L|232:357,1,43.125,2|0,0:0|0:0,0:0:0:0:
231,356,115053,6,0,B|230:368|230:368|220:367|220:367|257:127,1,230,6|0,0:0|0:0,0:0:0:0:
267,88,115524,1,0,0:0:0:0:
134,22,115681,1,8,0:0:0:0:
66,59,115838,1,0,0:0:0:0:
131,100,115995,1,0,0:0:0:0:
339,12,116152,5,0,0:0:0:0:
404,81,116309,2,0,L|381:282,1,172.5,2|0,0:0|0:0,0:0:0:0:
467,213,116623,5,0,0:0:0:0:
285,158,116780,2,0,L|292:281,1,115,0|8,0:0|0:0,0:0:0:0:
0,101,117094,5,0,0:0:0:0:
152,7,117251,2,0,L|128:141,1,115
117,274,117566,5,0,0:0:0:0:
117,276,117721,1,0,0:0:0:0:
117,278,117876,1,0,0:0:0:0:
116,279,118032,1,0,0:0:0:0:
228,189,118187,5,8,0:0:0:0:
228,191,118343,1,0,0:0:0:0:
228,193,118498,1,0,0:0:0:0:
322,361,118654,5,0,0:0:0:0:
408,314,118809,2,0,L|429:111,1,172.5,2|0,0:0|0:0,0:0:0:0:
500,180,119128,5,0,0:0:0:0:
312,240,119287,2,0,L|305:91,1,115,0|8,0:0|0:0,0:0:0:0:
75,127,119606,5,0,0:0:0:0:
189,46,119766,2,0,L|164:206,1,115
447,53,120085,5,0,0:0:0:0:
447,55,120239,1,0,0:0:0:0:
447,57,120394,1,0,0:0:0:0:
446,58,120548,1,0,0:0:0:0:
356,261,120703,5,8,0:0:0:0:
356,263,120858,1,0,0:0:0:0:
356,265,121012,1,0,0:0:0:0:
241,160,121167,5,0,0:0:0:0:
149,197,121322,2,0,L|128:-2,1,172.5,2|0,0:0|0:0,0:0:0:0:
66,165,121637,5,0,0:0:0:0:
236,249,121795,2,0,L|221:380,1,115,0|8,0:0|0:0,0:0:0:0:
504,174,122111,5,0,0:0:0:0:
347,112,122269,2,0,L|373:-12,1,115
55,161,122585,5,6,0:0:0:0:
55,163,122740,1,0,0:0:0:0:
55,165,122895,1,2,0:0:0:0:
54,166,123051,1,0,0:0:0:0:
427,310,123206,5,12,0:0:0:0:
427,312,123361,1,0,0:0:0:0:
427,314,123516,1,2,0:0:0:0:
154,368,123673,5,0,0:0:0:0:
222,102,123828,1,6,0:0:0:0:
253,200,123980,1,6,0:0:0:0:
146,176,124132,5,6,0:0:0:0:
461,96,124284,1,6,0:0:0:0:
433,192,124437,1,6,0:0:0:0:
303,62,124589,5,6,0:0:0:0:
391,23,124741,1,6,0:0:0:0:
374,116,124893,1,6,0:0:0:0:
32,40,125046,5,6,0:0:0:0:
126,139,125204,1,0,0:0:0:0:
120,177,125284,1,0,0:0:0:0:
115,210,125363,1,8,0:0:0:0:
453,302,125522,6,0,B|482:251|306:190|166:372|203:389,1,345.000013160706,6|0,0:0|0:0,0:0:0:0:
283,194,125998,2,0,B|326:171|305:64|240:62,1,172.500006580353,8|2,0:0|0:0,0:0:0:0:
160,16,126315,5,2,0:0:0:0:
402,101,126472,1,2,0:0:0:0:
438,88,126550,1,0,0:0:0:0:
471,75,126629,1,8,0:0:0:0:
165,186,126786,2,0,B|139:167|173:93|377:134|398:271|363:333,1,345.000013160706,2|2,0:0|0:0,0:0:0:0:
453,176,127257,2,0,B|426:239|277:259|319:175,1,172.500006580353,8|2,0:0|0:0,0:0:0:0:
432,0,127571,5,2,0:0:0:0:
235,247,127726,1,2,0:0:0:0:
242,277,127803,1,0,0:0:0:0:
251,306,127881,1,8,0:0:0:0:
0,97,128036,2,0,B|33:82|120:103|210:176|258:143,1,258.75000987053,2|0,0:0|0:0,0:0:0:0:
310,102,128346,5,2,0:0:0:0:
205,33,128501,1,8,0:0:0:0:
89,240,128656,1,2,0:0:0:0:
390,329,128811,5,2,0:0:0:0:
443,241,128966,1,2,0:0:0:0:
435,204,129043,1,0,0:0:0:0:
425,171,129121,1,8,0:0:0:0:
180,344,129276,2,0,B|143:341|205:253|355:288|405:361|438:378|505:351,1,345.000013160706,2|2,0:0|0:0,0:0:0:0:
276,163,129741,2,0,B|294:179|165:236|44:172|80:114,1,258.75000987053,8|0,0:0|0:0,0:0:0:0:
130,55,130051,5,4,0:0:0:0:
87,273,130208,1,0,0:0:0:0:
79,305,130286,1,0,0:0:0:0:
72,337,130365,1,8,0:0:0:0:
368,105,130522,2,0,B|396:84|300:38|175:130|188:306|236:315,1,345.000013160706,6|0,0:0|0:0,0:0:0:0:
150,144,130993,2,0,B|161:115|282:129|313:233|292:234,1,172.500006580353,8|2,0:0|0:0,0:0:0:0:
408,361,131307,5,2,0:0:0:0:
476,203,131463,1,2,0:0:0:0:
495,172,131541,1,0,0:0:0:0:
512,142,131619,1,8,0:0:0:0:
116,44,131775,2,0,B|83:40|130:-15|262:25|294:117|373:129|452:101,1,345.000013160706,2|2,0:0|0:0,0:0:0:0:
291,204,132244,2,0,B|265:229|141:215|153:131|175:120,1,172.500006580353,8|2,0:0|0:0,0:0:0:0:
339,9,132557,5,2,0:0:0:0:
375,218,132712,1,2,0:0:0:0:
367,255,132790,1,0,0:0:0:0:
358,289,132867,1,8,0:0:0:0:
79,268,133023,2,0,B|54:262|127:219|193:259|222:314|222:314|228:313|228:313|245:351|308:359|337:347,1,258.75000987053,2|0,0:0|0:0,0:0:0:0:
362,367,133334,5,2,0:0:0:0:
269,227,133489,1,8,0:0:0:0:
464,101,133645,1,2,0:0:0:0:
230,8,133800,5,2,0:0:0:0:
148,67,133953,1,2,0:0:0:0:
156,104,134030,1,0,0:0:0:0:
164,137,134107,1,8,0:0:0:0:
66,232,134261,1,2,0:0:0:0:
56,271,134338,1,2,0:0:0:0:
46,312,134415,1,2,0:0:0:0:
251,320,134569,5,0,0:0:0:0:
404,171,134723,2,0,B|486:128|309:-32|195:163|264:208,1,258.75000987053,8|0,0:0|0:0,0:0:0:0:
177,227,135030,5,6,0:0:0:0:
409,367,135191,1,8,0:0:0:0:
502,31,135352,1,8,0:0:0:0:
176,75,135513,6,0,B|151:80|171:39|301:42|315:152|332:194|291:257|291:257|300:231|267:199,1,345.000013160706,6|2,0:0|0:0,0:0:0:0:
341,45,135997,1,8,0:0:0:0:
501,264,136159,5,2,0:0:0:0:
408,238,136320,1,2,0:0:0:0:
305,328,136477,1,2,0:0:0:0:
183,271,136635,1,8,0:0:0:0:
50,266,136793,6,0,B|11:217|50:91|206:62|234:112|234:112|217:100|206:108,1,345.000013160706,6|2,0:0|0:0,0:0:0:0:
45,69,137267,2,0,B|28:47|141:38|150:187|119:166,1,172.500006580353,8|2,0:0|0:0,0:0:0:0:
231,333,137583,5,2,0:0:0:0:
92,370,137737,1,2,0:0:0:0:
325,195,137891,1,8,0:0:0:0:
228,213,138045,6,0,B|259:262|458:289|450:80|299:123,1,345.000013160706,2|2,0:0|0:0,0:0:0:0:
419,307,138508,1,8,0:0:0:0:
500,65,138662,5,2,0:0:0:0:
386,10,138816,1,2,0:0:0:0:
260,19,138973,1,2,0:0:0:0:
180,117,139130,1,8,0:0:0:0:
288,326,139287,5,2,0:0:0:0:
453,380,139444,1,2,0:0:0:0:
503,214,139601,1,2,0:0:0:0:
315,119,139758,5,8,0:0:0:0:
106,245,139915,1,2,0:0:0:0:
28,37,140072,5,6,0:0:0:0:
185,5,140225,1,2,0:0:0:0:
179,42,140302,1,0,0:0:0:0:
174,80,140379,1,8,0:0:0:0:
471,117,140533,2,0,B|526:107|444:17|248:66|207:199,1,345.000013160706,6|2,0:0|0:0,0:0:0:0:
124,149,140995,1,8,0:0:0:0:
311,252,141148,5,2,0:0:0:0:
267,346,141302,1,2,0:0:0:0:
107,376,141459,1,2,0:0:0:0:
23,312,141617,1,8,0:0:0:0:
207,186,141775,5,2,0:0:0:0:
175,283,141933,1,2,0:0:0:0:
91,222,142091,1,2,0:0:0:0:
115,15,142249,5,8,0:0:0:0:
139,115,142407,1,2,0:0:0:0:
44,82,142565,5,2,0:0:0:0:
209,57,142719,1,2,0:0:0:0:
239,49,142796,1,0,0:0:0:0:
267,42,142874,1,8,0:0:0:0:
121,6,143028,2,0,B|168:2|284:82|297:187|431:196,1,345.000013160706,2|2,0:0|0:0,0:0:0:0:
492,150,143492,1,8,0:0:0:0:
274,156,143647,5,2,0:0:0:0:
256,285,143802,1,2,0:0:0:0:
348,369,143958,1,2,0:0:0:0:
469,351,144114,1,8,0:0:0:0:
273,145,144270,5,2,0:0:0:0:
163,86,144427,1,2,0:0:0:0:
34,135,144583,1,2,0:0:0:0:
273,155,144739,5,8,0:0:0:0:
389,26,144895,1,0,0:0:0:0:
132,195,145052,5,4,0:0:0:0:
142,235,145131,1,4,0:0:0:0:
149,271,145210,1,4,0:0:0:0:
160,310,145290,1,4,0:0:0:0:
189,275,145369,5,4,0:0:0:0:
145,266,145448,1,4,0:0:0:0:
104,263,145528,1,4,0:0:0:0:
67,260,145607,1,4,0:0:0:0:
86,294,145686,5,4,0:0:0:0:
99,257,145765,1,4,0:0:0:0:
112,234,145845,1,4,0:0:0:0:
122,209,145924,1,4,0:0:0:0:
99,168,146004,5,4,0:0:0:0:
102,176,146083,1,4,0:0:0:0:
103,185,146163,1,4,0:0:0:0:
104,195,146242,1,4,0:0:0:0:
62,158,146321,5,6,0:0:0:0:
98,120,146398,1,0,0:0:0:0:
159,105,146475,1,0,0:0:0:0:
221,122,146552,1,0,0:0:0:0:
267,179,146630,1,8,0:0:0:0:
243,166,146707,1,0,0:0:0:0:
217,169,146784,1,2,0:0:0:0:
206,181,146862,1,0,0:0:0:0:
202,188,146939,6,0,B|199:214|249:220|267:204|268:168|203:185,1,115,2|0,0:0|0:0,0:0:0:0:
236,324,147094,6,0,B|254:338|282:301|277:280|250:263|234:321,1,100.625000959635,2|0,0:0|0:0,0:0:0:0:
366,309,147248,6,0,B|386:311|391:271|378:257|349:256|363:308,1,86.2500032901765,8|0,0:0|0:0,0:0:0:0:
425,202,147403,6,0,B|441:203|445:171|435:160|412:159|423:201,1,71.875,2|0,0:0|0:0,0:0:0:0:
409,94,147558,6,0,P|417:161|427:226,1,115,2|2,0:0|0:0,0:0:0:0:
491,267,147867,1,8,0:0:0:0:
491,267,148022,1,2,0:0:0:0:
80,205,148331,1,2,0:0:0:0:
80,205,148485,2,0,B|62:196|58:196|35:201|35:201|62:173|192:175|235:251|156:245,1,230,8|2,0:0|0:0,0:0:0:0:
113,280,148952,6,0,P|150:264|305:211,1,172.500006580353,2|8,0:0|0:0,0:0:0:0:
300,209,149187,1,0,0:0:0:0:
332,195,149266,1,2,0:0:0:0:
325,181,149344,1,0,0:0:0:0:
312,175,149423,1,2,0:0:0:0:
355,168,149501,1,0,0:0:0:0:
409,197,149580,1,2,0:0:0:0:
406,179,149658,1,0,0:0:0:0:
398,166,149737,1,8,0:0:0:0:
445,200,149815,1,0,0:0:0:0:
455,255,149894,1,2,0:0:0:0:
456,186,149973,1,0,0:0:0:0:
501,122,150051,6,0,B|486:89|367:192|367:350|308:279,1,258.75000987053,2|0,0:0|0:0,0:0:0:0:
208,305,150365,2,0,B|192:300|171:339|242:338|250:301,1,86.2500032901765,8|0,0:0|0:0,0:0:0:0:
389,355,150522,2,0,B|402:357|412:347|421:328|421:328|405:384|288:427|220:290|220:290|224:312|269:305,1,345.000013160706,2|0,0:0|0:0,0:0:0:0:
177,118,150993,2,0,B|168:111|159:113|146:122|146:122|177:92|269:108|262:223|262:223|267:207|236:194,1,258.75000987053,8|0,0:0|0:0,0:0:0:0:
331,159,151308,5,6,0:0:0:0:
379,146,151386,1,0,0:0:0:0:
426,163,151464,1,2,0:0:0:0:
427,172,151516,1,0,0:0:0:0:
422,177,151568,1,0,0:0:0:0:
418,182,151620,2,0,B|402:199|381:167|420:109|443:113|443:113|425:132,3,115,8|0|2|0,0:0|0:0|0:0|0:0,0:0:0:0:
167,281,151933,5,6,0:0:0:0:
123,260,152011,1,0,0:0:0:0:
115,211,152089,1,2,0:0:0:0:
122,204,152141,1,0,0:0:0:0:
129,204,152193,1,0,0:0:0:0:
132,211,152245,2,0,B|123:241|65:236|56:195|56:195|69:218|100:206,3,115,8|0|2|0,0:0|0:0|0:0|0:0,0:0:0:0:
201,27,152558,5,2,0:0:0:0:
251,28,152636,1,0,0:0:0:0:
285,71,152714,1,2,0:0:0:0:
278,79,152766,1,0,0:0:0:0:
269,79,152818,1,0,0:0:0:0:
260,79,152870,2,0,B|251:61|336:60|344:84|344:84|335:74|302:78,3,115,8|0|2|0,0:0|0:0|0:0|0:0,0:0:0:0:
57,101,153183,5,2,0:0:0:0:
30,58,153261,1,0,0:0:0:0:
46,16,153339,1,2,0:0:0:0:
55,15,153391,1,0,0:0:0:0:
61,20,153443,1,0,0:0:0:0:
67,27,153495,2,0,B|81:55|24:77|-14:50|21:17,3,115,8|0|2|0,0:0|0:0|0:0|0:0,0:0:0:0:
188,186,153808,5,2,0:0:0:0:
155,235,153886,1,0,0:0:0:0:
102,247,153964,1,2,0:0:0:0:
67,229,154042,1,0,0:0:0:0:
106,261,154120,5,8,0:0:0:0:
119,286,154198,1,0,0:0:0:0:
112,310,154276,1,2,0:0:0:0:
99,315,154354,1,0,0:0:0:0:
89,312,154433,5,2,0:0:0:0:
132,287,154511,1,0,0:0:0:0:
190,297,154589,1,2,0:0:0:0:
211,351,154667,1,0,0:0:0:0:
199,345,154745,5,8,0:0:0:0:
224,298,154823,1,0,0:0:0:0:
285,271,154901,1,2,0:0:0:0:
361,277,154979,1,0,0:0:0:0:
413,336,155058,5,2,0:0:0:0:
408,341,155110,1,0,0:0:0:0:
401,341,155162,1,0,0:0:0:0:
392,338,155214,2,0,B|366:285|448:264|417:305,1,86.2500032901765,2|0,0:0|0:0,0:0:0:0:
484,344,155370,2,0,P|426:369|390:390,3,86.2500032901765,8|0|2|0,0:0|0:0|0:0|0:0,0:0:0:0:
485,183,155683,5,2,0:0:0:0:
418,215,155761,1,0,0:0:0:0:
344,202,155839,1,2,0:0:0:0:
340,194,155891,1,0,0:0:0:0:
343,185,155943,1,0,0:0:0:0:
352,182,155995,2,0,B|349:218|303:225|281:216|281:216|301:214|311:168,3,115,8|0|2|0,0:0|0:0|0:0|0:0,0:0:0:0:
406,127,156308,5,2,0:0:0:0:
425,109,156386,2,0,B|431:25|219:77|283:306|397:173,1,287.5
200,294,156620,2,0,B|224:304|253:248|245:216|217:185|191:219,1,143.75,8|0,0:0|0:0,0:0:0:0:
119,270,156776,2,0,B|95:260|66:316|74:348|102:379|128:345,1,143.75,2|0,0:0|0:0,0:0:0:0:
126,76,156933,2,0,B|150:86|179:30|171:-2|143:-33|117:1,1,143.75,2|0,0:0|0:0,0:0:0:0:
32,68,157089,2,0,B|4:80|10:39|145:-26|268:18|270:40|231:60,1,287.5,2|8,0:0|0:0,0:0:0:0:
32,224,157401,5,2,0:0:0:0:
13,186,157479,1,0,0:0:0:0:
27,149,157558,1,2,0:0:0:0:
36,147,157609,1,0,0:0:0:0:
43,153,157661,1,0,0:0:0:0:
43,160,157713,1,2,0:0:0:0:
208,193,157868,5,8,0:0:0:0:
199,199,157920,1,0,0:0:0:0:
190,193,157972,1,0,0:0:0:0:
192,185,158024,1,2,0:0:0:0:
290,336,158179,5,2,0:0:0:0:
279,335,158231,1,0,0:0:0:0:
274,328,158283,1,0,0:0:0:0:
275,320,158335,1,2,0:0:0:0:
388,196,158490,5,8,0:0:0:0:
395,192,158542,1,0,0:0:0:0:
401,195,158594,1,0,0:0:0:0:
403,203,158646,1,2,0:0:0:0:
329,46,158801,5,2,0:0:0:0:
343,40,158853,1,0,0:0:0:0:
354,46,158905,1,0,0:0:0:0:
355,57,158956,1,2,0:0:0:0:
253,112,159112,5,8,0:0:0:0:
202,124,159190,1,0,0:0:0:0:
152,97,159267,1,2,0:0:0:0:
139,41,159345,1,0,0:0:0:0:
174,0,159423,1,2,0:0:0:0:
183,6,159475,1,0,0:0:0:0:
183,14,159526,1,0,0:0:0:0:
179,22,159578,1,2,0:0:0:0:
238,234,159734,5,8,0:0:0:0:
193,268,159811,1,0,0:0:0:0:
136,254,159889,1,2,0:0:0:0:
130,246,159941,1,0,0:0:0:0:
130,239,159993,1,0,0:0:0:0:
130,229,160045,6,0,B|134:192|369:213|358:354|333:374|333:374|344:326|282:267,1,345,2|0,0:0|0:0,0:0:0:0:
438,263,160355,2,0,B|452:255|466:240|466:240|469:277|422:308|396:293,1,115,8|0,0:0|0:0,0:0:0:0:
358,174,160511,1,2,0:0:0:0:
354,193,160589,1,0,0:0:0:0:
338,186,160666,2,0,B|352:157|420:181|457:397|287:390|303:383|303:383|336:383|332:325,1,345,2|0,0:0|0:0,0:0:0:0:
447,371,160977,2,0,B|460:362|486:362|493:366|493:366|483:380|457:379,1,86.25,12|0,0:0|0:0,0:0:0:0:
256,190,161288,6,0,B|245:182|227:181|209:190|209:190|230:154|321:197|299:278|299:278|268:225|274:165|356:55|380:92,1,460,6|8,0:0|0:0,0:0:0:0:
236,76,161754,2,0,B|239:81|243:88|244:97|244:97|254:82|241:45|199:39|199:39|203:44|196:47,1,115,2|0,0:0|0:0,0:0:0:0:
146,116,162221,1,0,0:0:0:0:
124,92,162298,1,0,0:0:0:0:
116,62,162376,1,2,0:0:0:0:
94,230,162532,5,2,0:0:0:0:
137,215,162611,1,0,0:0:0:0:
189,214,162691,1,2,0:0:0:0:
197,234,162771,1,0,0:0:0:0:
184,250,162851,1,8,0:0:0:0:
236,233,162930,1,0,0:0:0:0:
280,275,163010,2,0,B|261:260|215:260|215:260|249:274|287:309,1,115,2|0,0:0|0:0,0:0:0:0:
511,160,163170,5,2,0:0:0:0:
449,182,163250,1,0,0:0:0:0:
414,160,163329,1,2,0:0:0:0:
410,138,163409,1,0,0:0:0:0:
452,191,163489,5,8,0:0:0:0:
388,229,163569,1,0,0:0:0:0:
318,207,163649,1,2,0:0:0:0:
298,137,163728,1,0,0:0:0:0:
327,68,163808,6,0,B|345:36|474:106|186:175|211:60,1,230,6|2,0:0|0:0,0:0:0:0:
160,29,164044,1,0,0:0:0:0:
203,89,164123,2,0,B|217:102|136:174|104:124,1,115,12|0,0:0|0:0,0:0:0:0:
0,116,164281,2,0,B|-14:103|67:31|99:81,1,115,2|0,0:0|0:0,0:0:0:0:
204,215,164439,5,2,0:0:0:0:
219,272,164518,1,0,0:0:0:0:
181,314,164597,1,2,0:0:0:0:
144,311,164676,1,0,0:0:0:0:
218,297,164755,5,8,0:0:0:0:
189,330,164834,1,0,0:0:0:0:
169,329,164913,1,2,0:0:0:0:
161,320,164992,1,0,0:0:0:0:
153,311,165071,6,0,B|145:301|128:297|102:300|102:300|118:282|141:272|171:300,1,115,4|4,0:0|0:0,0:0:0:0:
24,312,165230,2,0,B|19:323|24:340|39:361|39:361|16:356|-3:341|5:301,1,115,8|4,0:0|0:0,0:0:0:0:
433,292,165390,2,0,B|420:294|408:307|397:331|397:331|390:308|393:283|432:271,1,115,8|4,0:0|0:0,0:0:0:0:
248,178,165549,5,4,0:0:0:0:
252,189,165629,1,4,0:0:0:0:
242,188,165709,1,8,0:0:0:0:
267,155,165789,1,4,0:0:0:0:
322,150,165868,1,4,0:0:0:0:
367,191,165948,1,4,0:0:0:0:
360,204,166028,5,8,0:0:0:0:
324,143,166108,1,4,0:0:0:0:
343,74,166188,1,8,0:0:0:0:
415,37,166267,1,4,0:0:0:0:
484,76,166347,6,0,B|507:90|457:151|412:139|442:104,1,115,6|0,0:0|0:0,0:0:0:0:
228,64,166498,6,0,B|205:50|255:-11|300:1|270:36,1,115
302,262,166650,6,0,B|279:276|329:337|374:325|344:290,1,115,8|0,0:0|0:0,0:0:0:0:
423,247,166801,6,0,B|431:241|476:243|485:264|485:264|498:257|460:204|381:220|364:261|364:261|362:246|362:246|336:307|262:380|229:359|229:359|250:359|269:321,1,460,2|2,0:0|0:0,0:0:0:0:
141,212,167256,2,0,B|134:195|121:189|110:190|110:190|142:172|196:189|184:278|184:278|182:266|184:251|139:224,1,230,8|2,0:0|0:0,0:0:0:0:
62,272,167559,6,0,B|83:278|20:312|-9:266|17:234|17:234|19:255,1,115,2|0,0:0|0:0,0:0:0:0:
57,62,167716,6,0,B|51:40|112:78|87:126|46:119|46:119|63:107,1,115,2|0,0:0|0:0,0:0:0:0:
311,139,167874,6,0,B|326:123|324:195|270:197|255:158|255:158|274:167,1,115,8|0,0:0|0:0,0:0:0:0:
184,126,168032,6,0,B|145:93|200:41|388:95|456:258|400:351|314:345,1,460,2|0,0:0|0:0,0:0:0:0:
412,6,168506,2,0,B|363:22|376:115|462:166|516:117,1,230,8|2,0:0|0:0,0:0:0:0:
474,285,168822,6,0,B|506:315|514:250|413:224|388:256|388:256|391:248|391:248|359:266|322:274|291:250,1,258.75000987053,2|0,0:0|0:0,0:0:0:0:
170,207,169132,2,0,B|153:200|153:200|181:175|272:206|211:226,1,86.2500032901765,8|0,0:0|0:0,0:0:0:0:
337,186,169288,6,0,B|336:139|236:156|166:294|185:334|185:334|210:297|111:250|139:333,1,345,2|0,0:0|0:0,0:0:0:0:
35,249,169599,2,0,B|27:256|12:257|12:257|33:274|52:270|71:267|85:227,1,115,2|0,0:3|0:0,0:3:0:0:
101,145,169754,6,0,B|142:136|85:95|18:187|98:275|164:283|164:283|155:293|155:293|196:279|272:315|282:378,1,388.125014805794,8|0,0:3|0:0,0:0:0:0:
349,333,170065,2,0,B|355:345|358:367|348:381|348:381|369:377|389:336|355:268,1,129.375004935265,2|0,0:0|0:0,0:0:0:0:
455,2,170222,5,8,0:0:0:0:
168,77,170379,1,2,0:0:0:0:
468,316,170536,1,2,0:0:0:0:
466,142,170693,6,0,B|492:158|563:111|417:49|327:168|327:168|327:153|327:153|297:216|280:238|233:252|233:252|252:235|272:209|267:197,1,431.25,8|0,0:0|0:0,0:0:0:0:
231,159,171007,2,0,B|234:150|178:151|137:216|137:216|151:201|181:195,1,143.75,8|0,0:0|0:0,0:0:0:0:
337,294,171164,2,0,B|337:303|389:283|405:208|405:208|397:227|371:243,1,143.75,8|0,0:0|0:0,0:0:0:0:
122,332,171321,5,6,0:0:0:0:
164,331,171398,1,0,0:0:0:0:
196,365,171476,1,2,0:0:0:0:
186,316,171554,5,0,0:0:0:0:
144,277,171631,1,8,0:0:0:0:
93,255,171709,1,0,0:0:0:0:
37,252,171787,1,2,0:0:0:0:
89,234,171865,5,0,0:0:0:0:
144,211,171942,1,2,0:0:0:0:
190,174,172020,1,0,0:0:0:0:
217,119,172098,1,2,0:0:0:0:
162,161,172175,5,0,0:0:0:0:
85,166,172253,1,8,0:0:0:0:
34,115,172331,1,0,0:0:0:0:
41,59,172409,1,2,0:0:0:0:
66,41,172486,1,0,0:0:0:0:
71,60,172564,5,2,0:0:0:0:
108,37,172642,1,0,0:0:0:0:
169,24,172721,1,2,0:0:0:0:
239,43,172799,1,0,0:0:0:0:
294,95,172878,1,8,0:0:0:0:
367,120,172956,1,0,0:0:0:0:
437,99,173035,1,2,0:0:0:0:
472,47,173113,1,0,0:0:0:0:
457,23,173192,5,2,0:0:0:0:
405,46,173270,1,0,0:0:0:0:
398,116,173349,1,2,0:0:0:0:
451,168,173427,1,0,0:0:0:0:
461,165,173506,5,8,0:0:0:0:
406,189,173584,1,0,0:0:0:0:
392,261,173663,1,2,0:0:0:0:
425,308,173742,1,0,0:0:0:0:
435,302,173820,5,2,0:0:0:0:
395,278,173897,1,0,0:0:0:0:
348,288,173975,1,2,0:0:0:0:
324,314,174053,1,0,0:0:0:0:
311,345,174130,1,8,0:0:0:0:
292,358,174208,1,0,0:0:0:0:
275,357,174286,1,2,0:0:0:0:
265,346,174364,1,0,0:0:0:0:
266,333,174441,5,2,0:0:0:0:
225,357,174519,1,0,0:0:0:0:
180,332,174597,1,2,0:0:0:0:
166,295,174674,1,0,0:0:0:0:
174,265,174752,1,2,0:0:0:0:
189,255,174830,1,0,0:0:0:0:
203,258,174908,1,2,0:0:0:0:
208,265,174985,1,0,0:0:0:0:
204,271,175063,6,0,B|195:280|195:280|173:181,1,115,8|0,0:0|0:0,0:0:0:0:
156,40,175218,2,0,B|155:27|155:27|167:21|167:21|198:161,1,115,8|0,0:0|0:0,0:0:0:0:
82,123,175374,2,0,B|81:151|81:151|30:150|30:150|30:144|30:144|360:144,1,345,8|0,0:0|0:0,0:0:0:0:
366,142,175685,1,2,0:0:0:0:
500,288,175840,5,8,0:0:0:0:
331,373,175996,1,8,0:0:0:0:
130,265,176151,1,2,0:0:0:0:
304,46,176307,5,4,0:0:0:0:
348,26,176386,1,0,0:0:0:0:
397,37,176465,1,4,0:0:0:0:
436,70,176545,1,0,0:0:0:0:
427,118,176624,5,4,0:0:0:0:
432,112,176677,1,0,0:0:0:0:
440,109,176730,1,0,0:0:0:0:
446,107,176783,2,0,B|453:91|460:82|481:88|481:88|447:46|361:37|286:110|293:163|293:163|337:142|339:92|265:30|226:53|226:53|224:42|224:42|198:79|192:82|136:70,1,575,8|0,0:0|0:0,0:0:0:0:
91,36,177259,1,8,0:0:0:0:
73,66,177338,1,0,0:0:0:0:
80,93,177418,1,2,0:0:0:0:
117,244,177576,5,2,0:0:0:0:
164,230,177654,1,0,0:0:0:0:
198,260,177732,1,2,0:0:0:0:
183,300,177810,1,0,0:0:0:0:
144,318,177888,5,8,0:0:0:0:
219,292,177966,1,0,0:0:0:0:
294,309,178044,2,0,B|326:289|379:334|365:383|365:383|341:360|334:299|374:195|380:76|471:46|471:46|423:79|425:148|412:223,1,575,2|2,0:0|0:0,0:0:0:0:
310,115,178513,2,0,B|266:119|279:47|480:43|465:129|465:129|458:111|407:85,1,287.5,8|2,0:0|0:0,0:0:0:0:
246,15,178826,5,2,0:0:0:0:
80,113,178981,1,2,0:0:0:0:
71,75,179059,1,0,0:0:0:0:
180,325,179215,1,0,0:0:0:0:
191,280,179293,1,2,0:0:0:0:
491,65,179449,5,2,0:0:0:0:
325,188,179605,1,2,0:0:0:0:
314,147,179683,1,0,0:0:0:0:
486,368,179838,1,0,0:0:0:0:
498,331,179916,1,2,0:0:0:0:
512,240,180072,5,2,0:0:0:0:
421,213,180176,1,0,0:0:0:0:
335,274,180281,1,0,0:0:0:0:
419,306,180386,5,2,0:0:0:0:
339,188,180490,1,0,0:0:0:0:
217,225,180595,1,0,0:0:0:0:
271,325,180700,6,0,B|255:341|291:377|291:377|281:342|322:297|289:197|257:202|257:202|279:193|279:193|209:190|173:97|186:33,1,431.25,8|0,0:0|0:0,0:0:0:0:
125,32,181014,2,0,L|125:42,1,5.75,4|0,0:0|0:0,0:0:0:0:
197,7,181171,2,0,L|197:17,1,5.75,4|0,0:0|0:0,0:0:0:0:
63,159,181328,5,6,0:0:0:0:
75,144,181405,1,0,0:0:0:0:
69,128,181483,1,2,0:0:0:0:
53,126,181561,1,0,0:0:0:0:
59,170,181638,5,8,0:0:0:0:
99,210,181716,1,0,0:0:0:0:
171,220,181794,1,2,0:0:0:0:
237,184,181872,1,0,0:0:0:0:
236,99,181949,5,2,0:0:0:0:
246,112,182027,1,0,0:0:0:0:
246,129,182105,1,2,0:0:0:0:
237,145,182182,1,0,0:0:0:0:
226,106,182260,5,8,0:0:0:0:
272,73,182338,1,0,0:0:0:0:
342,65,182416,1,2,0:0:0:0:
397,115,182493,1,0,0:0:0:0:
426,187,182571,5,2,0:0:0:0:
443,178,182649,1,0,0:0:0:0:
451,167,182728,1,2,0:0:0:0:
452,153,182806,1,0,0:0:0:0:
484,186,182885,5,8,0:0:0:0:
419,140,182963,1,0,0:0:0:0:
357,187,183042,1,2,0:0:0:0:
350,266,183120,1,0,0:0:0:0:
415,320,183199,6,0,B|429:315|450:311|477:334|477:334|485:300|446:282|393:297,1,143.75,8|0,0:0|0:0,0:0:0:0:
201,251,183356,2,0,B|193:244|177:241|157:261|157:261|176:182|424:194|443:290|420:339|420:339|424:320|388:297,1,431.25,8|0,0:0|0:0,0:0:0:0:
332,357,183670,2,0,B|307:373|227:346|262:277|311:342,1,143.75,2|0,0:0|0:0,0:0:0:0:
233,110,183827,6,0,B|110:104|201:8|369:48|396:169|360:268|300:355,1,460,12|2,0:0|0:0,0:0:0:0:
202,384,184298,1,2,0:0:0:0:
444,214,184455,6,0,P|351:217|164:219,1,230,12|0,0:0|0:0,0:0:0:0:
183,223,184691,1,0,0:0:0:0:
148,227,184769,1,0,0:0:0:0:
52,168,184927,5,4,0:0:0:0:
456,28,185084,1,4,0:0:0:0:
413,99,185398,5,4,0:0:0:0:
96,100,185555,1,4,0:0:0:0:
193,58,185852,5,4,0:0:0:0:
320,120,186010,1,4,0:0:0:0:
292,46,186301,6,0,B|297:5|116:82|125:276|182:265|182:265|160:246|163:200,1,345,6|0,0:0|0:0,0:0:0:0:
44,257,186611,2,0,B|-4:284|-11:190|80:154|157:174|213:213|220:243|220:243|202:232|150:251,1,345,6|0,0:0|0:0,0:0:0:0:
102,108,186949,6,0,B|77:95|137:28|247:47|286:140|237:163,1,172.500006580353,6|2,0:0|0:0,0:0:0:0:
257,120,187183,1,0,0:0:0:0:
272,147,187262,1,8,0:0:0:0:
434,159,187418,2,0,B|440:172|511:213|525:79|323:39|260:293|384:353,1,345.000013160706,6|2,0:0|0:0,0:0:0:0:
232,377,187888,5,8,0:0:0:0:
118,336,188045,2,0,B|57:334|76:237|226:237|199:352,1,172.500006580353,2|2,0:0|0:0,0:0:0:0:
441,312,188358,5,2,0:0:0:0:
509,204,188515,1,8,0:0:0:0:
407,80,188672,2,0,B|395:41|310:40|277:110|277:110|268:96|268:96|232:173|196:186|175:196|105:186,1,345.000013160706,6|2,0:0|0:0,0:0:0:0:
53,140,189142,1,8,0:0:0:0:
109,62,189298,1,2,0:0:0:0:
223,16,189455,5,6,0:0:0:0:
221,26,189610,1,2,0:0:0:0:
283,128,189765,5,8,0:0:0:0:
281,138,189843,1,0,0:0:0:0:
279,149,189921,1,2,0:0:0:0:
31,214,190076,5,2,0:0:0:0:
29,224,190231,1,2,0:0:0:0:
91,326,190386,5,8,0:0:0:0:
89,336,190464,1,0,0:0:0:0:
87,347,190542,1,2,0:0:0:0:
250,252,190698,5,2,0:0:0:0:
252,242,190853,1,2,0:0:0:0:
190,140,191008,5,8,0:0:0:0:
192,130,191086,1,0,0:0:0:0:
194,119,191164,1,2,0:0:0:0:
431,33,191320,5,2,0:0:0:0:
396,165,191475,1,2,0:0:0:0:
62,123,191631,1,8,0:0:0:0:
93,2,191786,1,2,0:0:0:0:
278,152,191942,5,6,0:0:0:0:
82,236,192096,1,2,0:0:0:0:
45,251,192173,1,0,0:0:0:0:
6,267,192251,1,8,0:0:0:0:
164,312,192405,2,0,B|235:335|235:227|100:69|211:-26|233:48,1,345.000013160706,6|2,0:0|0:0,0:0:0:0:
83,92,192869,5,8,0:0:0:0:
278,142,193024,2,0,B|315:141|380:163|394:232|441:237|480:210,1,172.500006580353,2|2,0:0|0:0,0:0:0:0:
449,128,193336,5,2,0:0:0:0:
304,229,193493,1,8,0:0:0:0:
157,325,193650,2,0,B|87:344|30:270|210:235|314:308|365:397,1,345.000013160706,6|2,0:0|0:0,0:0:0:0:
407,214,194121,6,0,B|415:205|482:228|439:317|439:317|414:294|431:245|506:192|499:119|499:119|490:118|490:118|500:67|432:30,1,431.25,8|0,0:0|0:0,0:0:0:0:
387,40,194435,5,6,0:0:0:0:
387,30,194588,1,2,0:0:0:0:
141,102,194742,6,0,B|127:98|111:87|102:76|102:76|111:115|171:130|203:95|203:95|200:108|200:108|215:75|268:72|321:87,1,287.5,8|2,0:0|0:0,0:0:0:0:
315,192,195050,5,2,0:0:0:0:
317,181,195204,1,2,0:0:0:0:
208,252,195358,5,8,0:0:0:0:
210,241,195435,1,0,0:0:0:0:
213,231,195511,1,2,0:0:0:0:
28,347,195665,5,8,0:0:0:0:
38,333,195745,1,2,0:0:0:0:
14,329,195826,5,8,0:0:0:0:
68,308,195906,1,2,0:0:0:0:
129,319,195987,1,2,0:0:0:0:
184,360,196068,1,2,0:0:0:0:
265,357,196148,5,8,0:0:0:0:
259,346,196229,1,2,0:0:0:0:
289,358,196310,5,8,0:0:0:0:
321,315,196390,1,2,0:0:0:0:
381,291,196471,1,2,0:0:0:0:
438,299,196552,1,2,0:0:0:0:
442,309,196632,5,8,0:0:0:0:
375,273,196713,1,0,0:0:0:0:
356,197,196794,1,8,0:0:0:0:
401,132,196874,1,0,0:0:0:0:
476,112,196955,6,0,B|490:137|387:164|324:109,1,172.500006580353,6|0,0:0|0:0,0:0:0:0:
276,25,197264,1,8,0:0:0:0:
135,136,197418,6,0,B|93:178|-34:51|158:14|263:134|217:239,1,345.000013160706,6|2,0:0|0:0,0:0:0:0:
126,223,197882,1,8,0:0:0:0:
199,358,198037,6,0,B|201:302|377:308|388:362|418:387|530:359|500:319,1,345.000013160706,0|2,0:0|0:0,0:0:0:0:
436,252,198507,1,8,0:0:0:0:
504,78,198665,6,0,B|467:24|339:69|234:203|161:142,1,345.000013160706,6|2,0:0|0:0,0:0:0:0:
89,106,199139,1,8,0:0:0:0:
111,12,199297,1,2,0:0:0:0:
350,224,199455,5,6,0:0:0:0:
244,316,199609,1,2,0:0:0:0:
110,320,199764,1,8,0:0:0:0:
14,239,199918,1,2,0:0:0:0:
178,47,200073,5,2,0:0:0:0:
430,292,200228,1,2,0:0:0:0:
280,71,200382,1,8,0:0:0:0:
280,214,200537,1,2,0:0:0:0:
441,88,200692,5,2,0:0:0:0:
90,166,200848,1,2,0:0:0:0:
380,176,201004,1,8,0:0:0:0:
193,125,201160,1,2,0:0:0:0:
76,349,201317,5,2,0:0:0:0:
235,377,201473,1,2,0:0:0:0:
289,19,201629,5,8,0:0:0:0:
28,57,201785,1,2,0:0:0:0:
263,258,201942,5,6,0:0:0:0:
296,168,202097,1,2,0:0:0:0:
286,137,202175,1,0,0:0:0:0:
274,104,202252,1,8,0:0:0:0:
151,231,202408,6,0,B|87:251|125:144|371:142|439:227|374:247,1,345.000013160706,6|2,0:0|0:0,0:0:0:0:
260,270,202874,1,8,0:0:0:0:
222,48,203030,6,0,B|237:39|245:25|239:5|239:5|267:42|270:52|226:139|226:139|253:122|253:122|203:219|173:251|220:392|294:367|294:367|241:346|247:319,1,575,0|2,0:0|0:0,0:0:0:0:
127,313,203499,1,8,0:0:0:0:
449,155,203656,6,0,B|477:108|265:59|214:200|98:227|137:120,1,345.000013160706,6|2,0:0|0:0,0:0:0:0:
36,127,204127,1,8,0:0:0:0:
68,32,204284,1,2,0:0:0:0:
324,232,204441,5,6,0:0:0:0:
438,165,204597,1,2,0:0:0:0:
386,38,204753,1,8,0:0:0:0:
260,28,204909,1,2,0:0:0:0:
63,233,205066,5,2,0:0:0:0:
322,127,205222,1,2,0:0:0:0:
123,145,205378,1,8,0:0:0:0:
255,211,205534,1,2,0:0:0:0:
170,41,205691,5,2,0:0:0:0:
230,344,205847,1,2,0:0:0:0:
152,266,206003,1,8,0:0:0:0:
236,100,206159,1,2,0:0:0:0:
190,175,206316,5,2,0:0:0:0:
33,139,206472,1,2,0:0:0:0:
311,150,206628,5,8,0:0:0:0:
511,186,206784,1,2,0:0:0:0:
274,260,206941,5,8,0:0:0:0:
274,260,207095,1,8,0:0:0:0:
274,260,207250,1,8,0:0:0:0:
274,260,207404,1,8,0:0:0:0:
392,231,207559,5,8,0:0:0:0:
228,368,207714,1,8,0:0:0:0:
4,173,207868,1,8,0:0:0:0:
205,20,208023,1,8,0:0:0:0:
447,86,208178,5,2,0:0:0:0:
432,94,208282,2,0,L|438:38,2,38.3333333333333,2|2|2,0:0|0:0|0:0,0:0:0:0:
443,177,208492,5,8,0:0:0:0:
353,121,208596,1,8,0:0:0:0:
258,156,208701,1,8,0:0:0:0:
286,251,208806,5,2,0:0:0:0:
200,306,208910,1,2,0:0:0:0:
198,294,208979,1,2,0:0:0:0:
194,281,209049,1,2,0:0:0:0:
192,269,209120,1,8,0:0:0:0:
117,218,209224,1,8,0:0:0:0:
27,252,209329,1,8,0:0:0:0:
113,326,209434,6,0,B|172:294|242:313|305:380|417:336,1,268.333335892359,6|2,0:0|0:0,0:0:0:0:
420,248,209748,2,0,B|422:269|313:282|293:251,2,134.16666794618,8|2|2,0:0|0:0|0:0,0:0:0:0:
506,89,210062,5,2,0:0:0:0:
438,51,210166,1,2,0:0:0:0:
363,50,210271,1,2,0:0:0:0:
294,80,210376,1,8,0:0:0:0:
227,115,210481,1,2,0:0:0:0:
152,99,210585,1,2,0:0:0:0:
385,154,210690,5,2,0:0:0:0:
373,138,210795,1,2,0:0:0:0:
394,140,210899,1,2,0:0:0:0:
369,155,211004,1,8,0:0:0:0:
380,130,211109,1,2,0:0:0:0:
392,155,211214,1,2,0:0:0:0:
313,233,211318,5,2,0:0:0:0:
216,265,211423,1,2,0:0:0:0:
130,198,211528,1,2,0:0:0:0:
9,244,211632,2,0,B|71:299|150:160|15:0|12:105,1,268.333335892359,8|2,0:0|0:0,0:0:0:0:
148,117,211947,5,2,0:0:0:0:
226,128,212051,1,2,0:0:0:0:
290,92,212156,1,2,0:0:0:0:
291,83,212208,1,0,0:0:0:0:
292,74,212261,2,0,B|295:17|295:17|259:60,2,76.6666666666667,10|2|2,0:0|0:0|0:0,0:0:0:0:
336,286,212575,5,2,0:0:0:0:
366,212,212679,1,2,0:0:0:0:
429,175,212784,1,2,0:0:0:0:
437,179,212836,1,0,0:0:0:0:
446,182,212889,2,0,B|496:207|496:207|441:217,2,76.6666666666667,10|2|2,0:0|0:0|0:0,0:0:0:0:
233,241,213204,5,2,0:0:0:0:
140,287,213307,1,2,0:0:0:0:
51,241,213410,1,2,0:0:0:0:
49,232,213461,1,0,0:0:0:0:
46,222,213513,2,0,L|32:306,2,76.6666666666667,10|2|2,0:0|0:0|0:0,0:0:0:0:
248,326,213822,5,2,0:0:0:0:
358,379,213925,1,2,0:0:0:0:
455,291,214028,1,2,0:0:0:0:
450,371,214131,5,14,0:0:0:0:
344,287,214234,1,2,0:0:0:0:
449,124,214338,1,2,0:0:0:0:
491,201,214441,6,0,B|392:216|335:159|244:120|235:175,1,268.333335892359,6|2,0:0|0:0,0:0:0:0:
177,114,214753,2,0,B|152:145|57:97|115:53,2,134.16666794618,8|2|2,0:0|0:0|0:0,0:0:0:0:
28,248,215066,5,2,0:0:0:0:
103,222,215170,1,2,0:0:0:0:
176,236,215274,1,2,0:0:0:0:
224,297,215378,1,8,0:0:0:0:
286,345,215482,1,2,0:0:0:0:
366,340,215586,1,2,0:0:0:0:
425,210,215691,5,2,0:0:0:0:
452,210,215795,1,2,0:0:0:0:
466,234,215899,1,2,0:0:0:0:
452,257,216003,1,8,0:0:0:0:
425,257,216107,1,2,0:0:0:0:
412,234,216211,1,2,0:0:0:0:
493,132,216316,5,2,0:0:0:0:
416,88,216420,1,2,0:0:0:0:
316,139,216524,1,2,0:0:0:0:
209,82,216628,2,0,B|220:26|364:117|235:314|180:227,1,268.333335892359,8|2,0:0|0:0,0:0:0:0:
63,196,216941,5,6,0:0:0:0:
97,131,217045,1,2,0:0:0:0:
65,63,217149,1,2,0:0:0:0:
62,56,217201,1,0,0:0:0:0:
56,48,217253,2,0,L|135:24,2,76.6666666666667,8|2|2,0:0|0:0|0:0,0:0:0:0:
56,209,217566,5,2,0:0:0:0:
20,275,217670,1,2,0:0:0:0:
62,339,217774,1,2,0:0:0:0:
68,346,217826,1,0,0:0:0:0:
75,352,217878,2,0,L|152:335,2,76.6666666666667,8|2|2,0:0|0:0|0:0,0:0:0:0:
260,243,218191,5,4,0:0:0:0:
332,320,218295,1,8,0:0:0:0:
436,225,218399,1,8,0:0:0:0:
359,163,218503,5,8,0:0:0:0:
331,179,218607,1,4,0:0:0:0:
354,195,218711,1,4,0:0:0:0:
267,226,218816,5,4,0:0:0:0:
340,310,218920,1,4,0:0:0:0:
445,213,219024,1,8,0:0:0:0:
403,69,219128,5,8,0:0:0:0:
336,33,219232,1,4,0:0:0:0:
265,57,219336,1,8,0:0:0:0:
219,118,219441,6,0,B|211:164|-41:196|36:19|96:89,1,268.333335892359,6|2,0:0|0:0,0:0:0:0:
153,177,219753,2,0,B|140:169|84:218|140:299|165:276,2,134.16666794618,8|2|2,0:0|0:0|0:0,0:0:0:0:
15,345,220066,5,2,0:0:0:0:
90,330,220170,1,2,0:0:0:0:
163,352,220274,1,2,0:0:0:0:
233,379,220378,1,8,0:0:0:0:
310,373,220482,1,2,0:0:0:0:
366,321,220586,1,2,0:0:0:0:
368,178,220691,5,2,0:0:0:0:
359,160,220795,1,2,0:0:0:0:
345,176,220899,1,2,0:0:0:0:
352,195,221003,1,8,0:0:0:0:
380,196,221107,1,2,0:0:0:0:
385,171,221211,1,2,0:0:0:0:
354,53,221316,5,2,0:0:0:0:
264,17,221420,1,2,0:0:0:0:
177,70,221524,1,2,0:0:0:0:
241,177,221628,2,0,B|267:169|212:128|130:191|140:226|140:226|128:208|128:208|138:235|136:279|73:316,1,268.333335892359,8|2,0:0|0:0,0:0:0:0:
176,348,221941,5,2,0:0:0:0:
241,314,222045,1,2,0:0:0:0:
309,346,222149,1,2,0:0:0:0:
316,349,222201,1,0,0:0:0:0:
323,352,222253,2,0,L|347:273,2,76.6666666666667,10|2|2,0:0|0:0|0:0,0:0:0:0:
512,129,222566,5,2,0:0:0:0:
446,93,222670,1,2,0:0:0:0:
382,135,222774,1,2,0:0:0:0:
375,141,222826,1,0,0:0:0:0:
369,148,222878,2,0,L|386:225,2,76.6666666666667,10|2|2,0:0|0:0|0:0,0:0:0:0:
162,142,223191,5,2,0:0:0:0:
96,178,223295,1,2,0:0:0:0:
32,136,223401,1,2,0:0:0:0:
25,130,223454,1,0,0:0:0:0:
19,123,223506,2,0,L|36:46,2,76.6666666666667,10|2|2,0:0|0:0|0:0,0:0:0:0:
289,33,223822,5,2,0:0:0:0:
229,111,223927,1,2,0:0:0:0:
284,235,224033,1,2,0:0:0:0:
300,146,224138,5,14,0:0:0:0:
183,219,224243,1,2,0:0:0:0:
243,367,224348,1,2,0:0:0:0:
363,270,224454,6,0,B|348:213|218:256|156:361|89:330,1,268.333335892359,6|2,0:0|0:0,0:0:0:0:
328,353,224761,2,0,B|353:344|400:359|422:397|459:378,2,134.16666794618,8|2|2,0:0|0:0|0:0,0:0:0:0:
472,169,225069,5,2,0:0:0:0:
404,132,225171,1,2,0:0:0:0:
324,124,225274,1,2,0:0:0:0:
251,144,225377,1,10,0:0:0:0:
185,178,225479,1,2,0:0:0:0:
111,158,225582,1,2,0:0:0:0:
160,34,225684,5,2,0:0:0:0:
168,53,225787,1,2,0:0:0:0:
156,70,225889,1,2,0:0:0:0:
136,72,225992,1,10,0:0:0:0:
120,60,226095,1,2,0:0:0:0:
122,40,226197,1,2,0:0:0:0:
38,83,226300,5,2,0:0:0:0:
95,160,226402,1,2,0:0:0:0:
30,244,226505,1,2,0:0:0:0:
112,347,226607,2,0,B|134:308|249:336|274:382|391:350,1,268.333335892359,10|2,0:0|0:0,0:0:0:0:
455,225,226915,5,2,0:0:0:0:
406,172,227019,1,2,0:0:0:0:
402,101,227124,1,2,0:0:0:0:
406,91,227176,1,0,0:0:0:0:
410,80,227229,2,0,B|421:66|421:66|499:89,2,76.6666666666667,8|2|2,0:0|0:0|0:0,0:0:0:0:
283,210,227543,5,2,0:0:0:0:
222,124,227647,1,2,0:0:0:0:
125,120,227752,1,2,0:0:0:0:
116,123,227805,1,0,0:0:0:0:
105,127,227857,2,0,B|86:136|86:136|58:206,2,76.6666666666667,8|2|2,0:0|0:0|0:0,0:0:0:0:
251,309,228171,5,2,0:0:0:0:
332,361,228276,1,2,0:0:0:0:
409,305,228380,1,2,0:0:0:0:
415,299,228433,1,0,0:0:0:0:
422,293,228485,2,0,L|507:314,2,76.6666666666667,8|2|2,0:0|0:0|0:0,0:0:0:0:
281,211,228799,5,8,0:0:0:0:
166,278,228904,1,8,0:0:0:0:
68,142,229009,1,8,0:0:0:0:
172,176,229113,5,8,0:0:0:0:
63,248,229218,1,8,0:0:0:0:
208,374,229323,1,8,0:0:0:0:
356,246,229428,6,0,B|389:159|389:159|388:138|388:138|402:125|402:125|430:48|430:48|446:56|446:56|435:79,1,258.75000987053,2|0,0:0|0:0,0:0:0:0:
475,142,229742,1,0,0:0:0:0:
288,157,229899,2,0,B|279:155|253:212|344:241|375:203|379:197|379:197|388:199|419:147|446:132|515:164,1,258.75000987053,2|0,0:0|0:0,0:0:0:0:
467,229,230213,1,2,0:0:0:0:
172,198,230370,2,0,B|186:233|186:233|207:241|207:241|183:95|183:95|177:92|177:92|171:49,1,258.75000987053,8|0,0:0|0:0,0:0:0:0:
238,15,230684,6,0,B|254:7|295:86|183:125|153:100|153:100|144:104|144:104|121:113|99:87|76:128,1,258.75000987053,2|0,0:0|0:0,0:0:0:0:
26,185,230998,1,8,0:0:0:0:
43,51,231155,2,0,B|10:41|104:-31|187:73|180:76|180:76|187:88|189:121|263:147|215:117,1,258.75000987053,2|0,0:0|0:0,0:0:0:0:
202,252,231469,5,2,0:0:0:0:
193,220,231548,1,2,0:0:0:0:
268,230,231627,2,0,B|314:258|487:96|388:5|370:-11|370:-11|428:41|512:41|471:-38,1,431.25,8|0,0:0|0:0,0:0:0:0:
502,101,231941,6,0,B|523:101|486:85|450:102|450:102|434:98|430:109|430:109|360:27|256:120|303:124|320:127,1,258.75000987053,2|0,0:0|0:0,0:0:0:0:
360,194,232248,1,8,0:0:0:0:
141,222,232402,2,0,B|113:219|92:189|222:170|236:248|236:248|229:252|230:261|230:261|246:270|269:301|270:341|257:357,1,258.75000987053,2|0,0:0|0:0,0:0:0:0:
198,367,232710,1,2,0:0:0:0:
380,348,232864,2,0,B|378:358|333:361|298:313|298:313|301:304|288:308|288:308|259:265|190:259|161:301,1,258.75000987053,8|0,0:0|0:0,0:0:0:0:
89,330,233171,5,2,0:0:0:0:
57,302,233249,1,2,0:0:0:0:
37,250,233328,1,2,0:0:0:0:
54,198,233407,1,2,0:0:0:0:
94,171,233486,5,10,0:0:0:0:
88,186,233565,1,2,0:0:0:0:
80,199,233644,1,2,0:0:0:0:
70,209,233723,1,2,0:0:0:0:
52,188,233802,5,10,0:0:0:0:
91,161,233881,1,2,0:0:0:0:
141,154,233960,1,2,0:0:0:0:
178,183,234039,1,2,0:0:0:0:
232,213,234118,5,10,0:0:0:0:
228,204,234197,1,2,0:0:0:0:
215,203,234276,1,2,0:0:0:0:
206,211,234355,1,2,0:0:0:0:
243,243,234434,5,10,0:0:0:0:
294,265,234511,1,2,0:0:0:0:
358,258,234588,1,2,0:0:0:0:
404,211,234665,1,2,0:0:0:0:
400,150,234743,5,10,0:0:0:0:
384,171,234820,1,2,0:0:0:0:
395,191,234897,1,2,0:0:0:0:
413,195,234975,1,2,0:0:0:0:
425,184,235052,5,10,0:0:0:0:
370,203,235129,1,2,0:0:0:0:
319,185,235207,1,2,0:0:0:0:
298,142,235284,1,2,0:0:0:0:
251,89,235361,1,10,0:0:0:0:
175,70,235439,1,2,0:0:0:0:
98,83,235516,1,2,0:0:0:0:
35,129,235593,1,2,0:0:0:0:
15,204,235671,1,6,0:0:0:0:
15,204,236927,5,0,0:0:0:0:
482,315,237246,5,0,0:0:0:0:
7,330,237565,5,0,0:0:0:0:
497,75,237884,5,0,0:0:0:0:
259,52,238203,6,0,B|241:14|154:96|236:209|260:110,1,172.5,6|0,0:0|0:0,0:0:0:0:
265,44,238506,6,0,B|325:74|314:-50|142:40|223:167|223:167|224:146|224:146|247:176|257:208|273:301|223:384|223:384|238:343|253:311|208:207,1,690,6|0,0:0|0:0,0:0:0:0:
