osu file format v14

[General]
AudioFilename: audio.mp3
AudioLeadIn: 0
PreviewTime: 70064
Countdown: 0
SampleSet: Normal
StackLeniency: 0.2
Mode: 0
LetterboxInBreaks: 0
WidescreenStoryboard: 1

[Editor]
DistanceSpacing: 1
BeatDivisor: 4
GridSize: 16
TimelineZoom: 4.499998

[Metadata]
Title:You're Better Off Dead
TitleUnicode:You're Better Off Dead
Artist:Children of Bodom
ArtistUnicode:Children of Bodom
Creator:Mazzerin
Version:Ksardas' Extreme
Source:
Tags:ksardas lmt asaben gabdu09 fcl hate crew deathroll melodeath melodic death metal english
BeatmapID:2415330
BeatmapSetID:1125258

[Difficulty]
HPDrainRate:4.1
CircleSize:4
OverallDifficulty:9
ApproachRate:9.7
SliderMultiplier:2.4
SliderTickRate:1

[Events]
//Background and Video events
0,0,"asdf.jpg",0,0
//Break Periods
2,100739,104192
//Storyboard Layer 0 (Background)
//Storyboard Layer 1 (Fail)
//Storyboard Layer 2 (Pass)
//Storyboard Layer 3 (Foreground)
//Storyboard Layer 4 (Overlay)
//Storyboard Sound Samples

[TimingPoints]
45,315.789473684211,4,1,5,60,1,0
2571,314.13612565445,4,1,5,60,1,0
3827,310.880829015544,4,1,5,60,1,0
4759,-66.6666666666667,4,1,5,60,0,0
6314,-100,4,1,5,60,0,0
6624,-111.111111111111,4,1,5,60,0,0
6935,-125,4,1,5,60,0,0
7246,-142.857142857143,4,1,5,60,0,0
7557,-66.6666666666667,4,1,5,60,0,0
8801,315.789473684211,4,1,8,60,1,0
8958,-200,4,1,8,60,0,0
10064,310.880829015544,4,1,5,60,1,0
10064,-66.6666666666667,4,1,5,60,0,0
10297,-66.6666666666667,4,1,5,5,0,0
10374,-66.6666666666667,4,1,5,60,0,0
10451,-66.6666666666667,4,1,5,60,0,0
10530,-66.6666666666667,4,1,5,60,0,0
10763,-66.6666666666667,4,1,5,5,0,0
10841,-66.6666666666667,4,1,5,60,0,0
11229,-66.6666666666667,4,1,5,5,0,0
11307,315.789473684211,4,1,5,60,1,0
11307,-66.6666666666667,4,1,5,60,0,0
11543,-66.6666666666667,4,1,5,5,0,0
11622,-66.6666666666667,4,1,5,60,0,0
12016,-66.6666666666667,4,1,5,5,0,0
12096,-66.6666666666667,4,1,5,60,0,0
12254,-50,4,1,5,60,0,0
12490,-50,4,1,5,5,0,0
12570,309.278350515464,4,1,5,60,1,0
12570,-66.6666666666667,4,1,5,60,0,0
12801,-66.6666666666667,4,1,5,5,0,0
12879,-66.6666666666667,4,1,5,60,0,0
13264,-66.6666666666667,4,1,5,5,0,0
13343,-66.6666666666667,4,1,5,60,0,0
13728,-66.6666666666667,4,1,5,5,0,0
13807,312.5,4,1,5,60,1,0
15057,-66.6666666666667,4,1,5,60,0,0
15291,-66.6666666666667,4,1,5,5,0,0
15369,-66.6666666666667,4,1,5,60,0,0
15447,-66.6666666666667,4,1,5,60,0,0
15525,-66.6666666666667,4,1,5,60,0,0
15759,-66.6666666666667,4,1,5,5,0,0
15838,-66.6666666666667,4,1,5,60,0,0
16228,-66.6666666666667,4,1,5,5,0,0
16307,-66.6666666666667,4,1,5,60,0,0
16541,-66.6666666666667,4,1,5,5,0,0
16619,-66.6666666666667,4,1,5,60,0,0
17009,-66.6666666666667,4,1,5,5,0,0
17109,312.5,4,1,5,60,1,0
17109,-50,4,1,5,60,0,0
17187,-50,4,1,5,60,0,0
17499,-50,4,1,5,5,0,0
17577,307.692307692308,4,1,5,60,1,0
17577,-66.6666666666667,4,1,5,60,0,0
17807,-66.6666666666667,4,1,5,5,0,0
17884,-66.6666666666667,4,1,5,60,0,0
18268,-66.6666666666667,4,1,5,5,0,0
18346,-66.6666666666667,4,1,5,60,0,0
18422,-66.6666666666667,4,1,5,60,0,0
18500,-66.6666666666667,4,1,5,60,0,0
18807,315.789473684211,4,1,5,60,1,0
19122,-100,4,1,8,60,0,0
19754,-57.1428571428571,4,1,5,60,0,0
19990,-57.1428571428571,4,1,5,5,0,0
20068,312.5,4,1,5,60,1,0
20068,-80,4,1,5,60,0,0
20146,-80,4,1,5,60,0,0
20302,-80,4,1,5,5,0,0
20380,-80,4,1,5,60,0,0
20770,-80,4,1,5,5,0,0
20849,-80,4,1,5,60,0,0
20927,-80,4,1,5,60,0,0
21005,-80,4,1,5,60,0,0
21161,-80,4,1,5,60,0,0
21239,-80,4,1,5,5,0,0
21318,-80,4,1,5,60,0,0
21552,-80,4,1,5,5,0,0
21630,-80,4,1,5,60,0,0
21708,-80,4,1,5,60,0,0
21786,-80,4,1,5,60,0,0
22020,-80,4,1,5,5,0,0
22099,-80,4,1,5,60,0,0
22255,-57.1428571428571,4,1,5,60,0,0
22568,-66.6666666666667,4,1,5,60,0,0
22802,-66.6666666666667,4,1,5,5,0,0
22880,-66.6666666666667,4,1,5,60,0,0
22958,-66.6666666666667,4,1,5,60,0,0
23036,-66.6666666666667,4,1,5,60,0,0
23270,-66.6666666666667,4,1,5,5,0,0
23349,-66.6666666666667,4,1,5,60,0,0
23739,-66.6666666666667,4,1,5,5,0,0
23818,315.789473684211,4,1,5,60,1,0
25081,310.077519379845,4,1,5,60,1,0
25081,-66.6666666666667,4,1,5,60,0,0
25313,-66.6666666666667,4,1,5,5,0,0
25391,-66.6666666666667,4,1,5,60,0,0
25468,-66.6666666666667,4,1,5,60,0,0
25546,-66.6666666666667,4,1,5,60,0,0
25778,-66.6666666666667,4,1,5,5,0,0
25856,-66.6666666666667,4,1,5,60,0,0
26243,-66.6666666666667,4,1,5,5,0,0
26321,-66.6666666666667,4,1,5,60,0,0
26398,-66.6666666666667,4,1,5,60,0,0
26553,-66.6666666666667,4,1,5,5,0,0
26631,-66.6666666666667,4,1,5,60,0,0
27018,-66.6666666666667,4,1,5,5,0,0
27096,-66.6666666666667,4,1,5,60,0,0
27251,-57.1428571428571,4,1,5,60,0,0
27483,-57.1428571428571,4,1,5,5,0,0
27561,315.789473684211,4,1,5,60,1,0
27561,-66.6666666666667,4,1,5,60,0,0
27797,-66.6666666666667,4,1,5,5,0,0
27876,-66.6666666666667,4,1,5,60,0,0
27954,-66.6666666666667,4,1,5,60,0,0
28034,-66.6666666666667,4,1,5,60,0,0
28112,-66.6666666666667,4,1,5,60,0,0
28271,-66.6666666666667,4,1,5,5,0,0
28350,-66.6666666666667,4,1,5,60,0,0
28428,-66.6666666666667,4,1,5,60,0,0
28508,-66.6666666666667,4,1,5,60,0,0
28586,-66.6666666666667,4,1,5,60,0,0
28666,-66.6666666666667,4,1,5,60,0,0
28744,-66.6666666666667,4,1,5,60,0,0
28824,-66.6666666666667,4,1,8,60,0,0
30071,312.5,4,1,5,60,1,0
30071,-66.6666666666667,4,1,5,60,0,0
30305,-66.6666666666667,4,1,5,5,0,0
30383,-66.6666666666667,4,1,5,60,0,0
30774,-66.6666666666667,4,1,5,5,0,0
30852,-66.6666666666667,4,1,5,60,0,0
32102,-200,4,1,5,60,0,0
32180,-200,4,1,5,60,0,0
32258,-200,4,1,5,60,0,0
32336,-200,4,1,5,60,0,0
32414,-200,4,1,5,60,0,0
32492,-200,4,1,5,60,0,0
32571,-50,4,1,5,60,0,0
32805,-50,4,1,5,5,0,0
32883,-50,4,1,5,60,0,0
33039,-66.6666666666667,4,1,5,60,0,0
33274,-66.6666666666667,4,1,5,5,0,0
33352,-66.6666666666667,4,1,5,60,0,0
33821,319.148936170213,4,1,5,60,1,0
33980,-200,4,1,5,60,0,0
34059,-200,4,1,5,60,0,0
34140,-200,4,1,5,60,0,0
34219,-200,4,1,5,60,0,0
34299,-133.333333333333,4,1,5,60,0,0
34378,-133.333333333333,4,1,5,60,0,0
34459,-133.333333333333,4,1,5,60,0,0
34538,-133.333333333333,4,1,5,60,0,0
34618,-100,4,1,5,60,0,0
34778,-100,4,1,5,60,0,0
34884,-100,4,1,8,60,0,0
35097,309.278350515464,4,1,5,60,1,0
35097,-66.6666666666667,4,1,5,60,0,0
35328,-66.6666666666667,4,1,5,5,0,0
35406,-66.6666666666667,4,1,5,60,0,0
35792,-66.6666666666667,4,1,5,5,0,0
35870,-66.6666666666667,4,1,5,60,0,0
35946,-66.6666666666667,4,1,5,60,0,0
36024,-66.6666666666667,4,1,5,60,0,0
36334,307.692307692308,4,1,5,5,1,0
36487,-100,4,1,5,60,0,0
37487,-100,4,1,5,5,0,0
37564,317.460317460317,4,1,5,60,1,0
37564,-66.6666666666667,4,1,5,60,0,0
37802,-66.6666666666667,4,1,5,5,0,0
37881,-66.6666666666667,4,1,5,60,0,0
38040,-57.1428571428571,4,1,5,60,0,0
38278,-57.1428571428571,4,1,5,5,0,0
38304,-57.1428571428571,4,1,5,5,0,0
38357,-57.1428571428571,4,1,5,60,0,0
38516,-57.1428571428571,4,1,8,60,0,0
38595,-57.1428571428571,4,1,8,60,0,0
38675,-57.1428571428571,4,1,8,60,0,0
38754,-57.1428571428571,4,1,8,60,0,0
38833,310.880829015544,4,1,5,60,1,0
38833,-57.1428571428571,4,1,5,60,0,0
39066,-57.1428571428571,4,1,5,5,0,0
39143,-57.1428571428571,4,1,5,60,0,0
39376,-57.1428571428571,4,1,5,5,0,0
39454,-57.1428571428571,4,1,5,60,0,0
39687,-57.1428571428571,4,1,5,5,0,0
39765,-57.1428571428571,4,1,5,60,0,0
39998,-57.1428571428571,4,1,5,5,0,0
40076,-66.6666666666667,4,1,5,60,0,0
40309,-66.6666666666667,4,1,5,5,0,0
40387,-66.6666666666667,4,1,5,60,0,0
40775,-66.6666666666667,4,1,5,5,0,0
40853,-66.6666666666667,4,1,5,60,0,0
40930,-66.6666666666667,4,1,5,60,0,0
41009,-66.6666666666667,4,1,5,60,0,0
41242,-66.6666666666667,4,1,5,5,0,0
41320,-66.6666666666667,4,1,5,60,0,0
41397,-66.6666666666667,4,1,5,60,0,0
41552,-66.6666666666667,4,1,5,5,0,0
41630,-66.6666666666667,4,1,5,60,0,0
41707,-66.6666666666667,4,1,5,60,0,0
41786,-66.6666666666667,4,1,5,60,0,0
42019,-66.6666666666667,4,1,5,5,0,0
42097,-66.6666666666667,4,1,5,60,0,0
42485,-66.6666666666667,4,1,5,5,0,0
42563,-66.6666666666667,4,1,5,60,0,0
42718,-66.6666666666667,4,1,5,60,0,0
42874,-66.6666666666667,4,1,5,60,0,0
42951,-66.6666666666667,4,1,5,60,0,0
43029,-66.6666666666667,4,1,5,60,0,0
43262,-66.6666666666667,4,1,5,5,0,0
43340,-66.6666666666667,4,1,5,60,0,0
43417,-66.6666666666667,4,1,5,60,0,0
43496,-66.6666666666667,4,1,5,60,0,0
43729,-66.6666666666667,4,1,5,5,0,0
43807,320,4,1,5,60,1,0
45087,312.5,4,1,5,60,1,0
45087,-66.6666666666667,4,1,5,60,0,0
45321,-66.6666666666667,4,1,5,5,0,0
45399,-66.6666666666667,4,1,5,60,0,0
45477,-66.6666666666667,4,1,5,60,0,0
45555,-66.6666666666667,4,1,5,60,0,0
45789,-66.6666666666667,4,1,5,5,0,0
45868,-66.6666666666667,4,1,5,60,0,0
45946,-66.6666666666667,4,1,5,60,0,0
46024,-66.6666666666667,4,1,5,60,0,0
46258,-66.6666666666667,4,1,5,5,0,0
46337,309.278350515464,4,1,5,60,1,0
46337,-83.3333333333333,4,1,5,60,0,0
46414,-83.3333333333333,4,1,5,60,0,0
46568,-83.3333333333333,4,1,5,5,0,0
46646,-83.3333333333333,4,1,5,60,0,0
46723,-83.3333333333333,4,1,5,60,0,0
46800,-66.6666666666667,4,1,5,60,0,0
47031,-66.6666666666667,4,1,5,5,0,0
47110,-66.6666666666667,4,1,5,60,0,0
47264,-57.1428571428571,4,1,5,60,0,0
47495,-57.1428571428571,4,1,5,5,0,0
47574,-57.1428571428571,4,1,5,60,0,0
47651,-57.1428571428571,4,1,5,60,0,0
47806,-57.1428571428571,4,1,5,5,0,0
47882,-57.1428571428571,4,1,5,60,0,0
47960,-57.1428571428571,4,1,5,60,0,0
48038,-57.1428571428571,4,1,5,60,0,0
48269,-57.1428571428571,4,1,5,5,0,0
48347,-57.1428571428571,4,1,5,60,0,0
48578,-57.1428571428571,4,1,5,60,0,0
48656,-100,4,1,5,60,0,0
48733,-100,4,1,5,5,0,0
48811,315.789473684211,4,1,8,60,1,0
49126,-100,4,1,5,60,0,0
50074,309.278350515464,4,1,5,60,1,0
50151,-100,4,1,5,60,0,0
50228,-100,4,1,5,60,0,0
50305,-100,4,1,5,60,0,0
50383,-100,4,1,5,60,0,0
50768,-100,4,1,5,5,0,0
50847,-100,4,1,5,60,0,0
51156,-101.010101010101,4,1,5,60,0,0
51311,319.148936170213,4,1,5,60,1,0
51470,-100,4,1,5,60,0,0
51549,-100,4,1,5,60,0,0
51630,-100,4,1,5,60,0,0
51789,-66.6666666666667,4,1,5,60,0,0
52028,-66.6666666666667,4,1,5,5,0,0
52108,-66.6666666666667,4,1,5,60,0,0
52347,-66.6666666666667,4,1,5,60,0,0
52428,-66.6666666666667,4,1,5,60,0,0
52507,-66.6666666666667,4,1,5,60,0,0
52587,312.5,4,1,5,60,1,0
52977,-100,4,1,5,60,0,0
53055,-100,4,1,5,60,0,0
53133,-100,4,1,5,60,0,0
53212,-100,4,1,5,60,0,0
53837,309.278350515464,4,1,5,60,1,0
55074,312.5,4,1,5,60,1,0
55152,-100,4,1,5,60,0,0
55230,-100,4,1,5,60,0,0
55308,-100,4,1,5,60,0,0
55386,-100,4,1,5,60,0,0
55776,-100,4,1,5,5,0,0
55855,-100,4,1,5,60,0,0
56401,-100,4,1,5,60,0,0
56480,-100,4,1,5,60,0,0
56558,-100,4,1,5,60,0,0
56636,-100,4,1,5,60,0,0
56714,-100,4,1,5,60,0,0
56792,-66.6666666666667,4,1,5,60,0,0
56870,-66.6666666666667,4,1,5,20,0,0
56949,-66.6666666666667,4,1,5,60,0,0
57027,-66.6666666666667,4,1,5,20,0,0
57105,-66.6666666666667,4,1,5,60,0,0
57183,-66.6666666666667,4,1,5,20,0,0
57261,-66.6666666666667,4,1,5,60,0,0
57339,-66.6666666666667,4,1,5,20,0,0
57417,-66.6666666666667,4,1,5,60,0,0
57495,-66.6666666666667,4,1,5,20,0,0
57574,-66.6666666666667,4,1,5,60,0,0
57886,-100,4,1,5,60,0,0
57964,-100,4,1,5,60,0,0
58042,-100,4,1,5,60,0,0
58120,-100,4,1,5,60,0,0
58199,-100,4,1,5,60,0,0
58589,-100,4,1,5,60,0,0
58667,-100,4,1,5,60,0,0
58745,-100,4,1,5,60,0,0
58824,-100,4,1,5,60,0,0
58980,-100,4,1,8,60,0,0
60074,314.13612565445,4,1,5,60,1,0
60152,-100,4,1,5,60,0,0
60231,-100,4,1,5,60,0,0
60309,-100,4,1,5,60,0,0
60388,-100,4,1,5,60,0,0
60466,-100,4,1,5,60,0,0
60545,-100,4,1,5,60,0,0
60780,-100,4,1,5,5,0,0
60859,-100,4,1,5,60,0,0
61330,317.460317460317,4,1,5,60,1,0
61806,-66.6666666666667,4,1,5,60,0,0
62044,-66.6666666666667,4,1,5,5,0,0
62123,-66.6666666666667,4,1,5,60,0,0
62202,-66.6666666666667,4,1,5,60,0,0
62282,-66.6666666666667,4,1,5,60,0,0
62599,307.692307692308,4,1,5,60,1,0
63829,314.13612565445,4,1,5,60,1,0
65085,310.880829015544,4,1,5,60,1,0
65162,-100,4,1,5,60,0,0
65240,-100,4,1,5,60,0,0
65317,-100,4,1,5,60,0,0
65395,-100,4,1,5,60,0,0
65472,-100,4,1,5,60,0,0
65551,-50,4,1,5,60,0,0
65784,-50,4,1,5,5,0,0
65862,-50,4,1,5,60,0,0
66173,-66.6666666666667,4,1,5,60,0,0
66406,-66.6666666666667,4,1,5,60,0,0
66483,-66.6666666666667,4,1,5,60,0,0
66794,-80,4,1,5,60,0,0
67027,-80,4,1,5,5,0,0
67105,-80,4,1,5,60,0,0
68815,304.568527918782,4,1,5,60,1,0
69424,298.507462686567,4,1,5,60,1,0
69722,342.857142857143,4,1,5,60,1,0
70064,310.880829015544,4,1,5,70,1,1
71307,317.460317460317,4,1,5,70,1,1
73846,308.483290488432,4,1,5,70,1,1
75079,-66.6666666666667,4,1,5,70,0,1
75696,-100,4,1,5,70,0,1
78473,-100,4,1,8,70,0,1
78678,-100,4,1,5,70,0,1
79398,315.789473684211,4,1,5,70,1,1
79818,-100,4,1,8,70,0,1
80029,315.789473684211,4,1,5,70,1,1
80029,-50,4,1,5,70,0,1
80660,-100,4,1,5,70,0,1
83818,312.5,4,1,5,70,1,1
84755,-66.6666666666667,4,1,5,70,0,1
85068,307.692307692308,4,1,5,70,1,1
86298,310.880829015544,4,1,5,70,1,1
88785,315.789473684211,4,1,5,70,1,1
90048,-50,4,1,5,60,0,0
90284,-50,4,1,5,5,0,0
90363,-50,4,1,5,60,0,0
90521,-100,4,1,5,60,0,0
90915,-100,4,1,5,5,0,0
90995,-100,4,1,5,60,0,0
92100,-200,4,1,5,60,0,0
92178,-200,4,1,5,60,0,0
92258,-200,4,1,5,60,0,0
92336,-200,4,1,5,60,0,0
92416,-200,4,1,5,60,0,0
92494,-200,4,1,5,60,0,0
92574,310.880829015544,4,1,5,60,1,0
92574,-66.6666666666667,4,1,5,60,0,0
92807,-66.6666666666667,4,1,5,5,0,0
92884,-66.6666666666667,4,1,5,60,0,0
93428,-66.6666666666667,4,1,5,5,0,0
93506,-66.6666666666667,4,1,5,60,0,0
95061,312.5,4,1,5,60,1,0
95529,-66.6666666666667,4,1,5,60,0,0
95607,-66.6666666666667,4,1,5,60,0,0
95686,-66.6666666666667,4,1,5,60,0,0
95920,-66.6666666666667,4,1,5,5,0,0
95998,-66.6666666666667,4,1,5,60,0,0
96076,-66.6666666666667,4,1,5,20,0,0
96154,-66.6666666666667,4,1,5,60,0,0
96232,-66.6666666666667,4,1,5,20,0,0
96311,-66.6666666666667,4,1,5,60,0,0
96388,-66.6666666666667,4,1,5,20,0,0
96467,-66.6666666666667,4,1,5,60,0,0
96545,-66.6666666666667,4,1,5,20,0,0
96623,-100,4,1,5,60,0,0
96857,-100,4,1,5,60,0,0
96936,-100,4,1,5,60,0,0
97561,310.880829015544,4,1,5,60,1,0
97561,-66.6666666666667,4,1,5,60,0,0
98804,317.460317460317,4,1,5,60,1,0
99042,-100,4,1,5,5,0,0
99121,-100,4,1,5,60,0,0
99359,-100,4,1,5,5,0,0
99438,-100,4,1,5,60,0,0
100073,310.880829015544,4,1,5,60,1,0
100073,-66.6666666666667,4,1,5,60,0,0
100228,-66.6666666666667,4,2,5,40,0,0
101316,319.148936170213,4,2,5,40,1,0
102592,312.5,4,2,5,40,1,0
105092,309.278350515464,4,1,5,60,1,0
105092,-200,4,1,5,60,0,0
107566,312.5,4,1,5,60,1,0
107566,-200,4,1,5,60,0,0
110066,309.278350515464,4,1,5,60,1,0
111303,312.5,4,1,5,60,1,0
113724,-100,4,1,5,60,0,0
113803,-100,4,1,5,60,0,0
113881,-100,4,1,5,60,0,0
114115,-100,4,1,5,60,0,0
114193,-100,4,1,5,60,0,0
114272,-100,4,1,5,60,0,0
114350,-100,4,1,5,60,0,0
114583,-100,4,1,5,60,0,0
114661,-100,4,1,5,60,0,0
114740,-100,4,1,5,60,0,0
114818,-100,4,1,5,60,0,0
115053,314.13612565445,4,1,5,60,1,0
116231,-100,4,1,5,5,0,0
116309,-100,4,1,5,60,0,0
116702,-100,4,1,5,5,0,0
116780,-100,4,1,5,60,0,0
117173,-100,4,1,5,5,0,0
117251,-100,4,1,5,60,0,0
117486,-100,4,1,5,5,0,0
117566,310.880829015544,4,1,5,60,1,0
118729,-100,4,1,5,5,0,0
118809,319.148936170213,4,1,5,60,1,0
119207,-100,4,1,5,5,0,0
119287,-100,4,1,5,60,0,0
119686,-100,4,1,5,5,0,0
119766,-100,4,1,5,60,0,0
120005,-100,4,1,5,5,0,0
120085,309.278350515464,4,1,5,60,1,0
121244,-100,4,1,5,5,0,0
121322,315.789473684211,4,1,5,60,1,0
121716,-100,4,1,5,5,0,0
121795,-100,4,1,5,60,0,0
122190,-100,4,1,5,5,0,0
122269,-100,4,1,5,60,0,0
122426,-100,4,1,5,60,0,0
122506,-100,4,1,5,5,0,0
122585,310.880829015544,4,1,5,60,1,0
123828,304.568527918782,4,1,8,60,1,0
125046,317.460317460317,4,1,5,60,1,0
125046,-83.3333333333333,4,1,5,60,0,0
125760,-83.3333333333333,4,1,5,5,0,0
125839,-83.3333333333333,4,1,5,60,0,0
125918,-83.3333333333333,4,1,5,60,0,0
125998,-83.3333333333333,4,1,5,60,0,0
126315,314.13612565445,4,1,5,60,1,0
126315,-83.3333333333333,4,1,5,60,0,0
126707,-83.3333333333333,4,1,5,60,0,0
126786,-83.3333333333333,4,1,5,60,0,0
127492,-83.3333333333333,4,1,5,60,0,0
127571,310.077519379845,4,1,5,60,1,0
127571,-83.3333333333333,4,1,5,60,0,0
127648,-83.3333333333333,4,1,5,60,0,0
127726,-83.3333333333333,4,1,5,60,0,0
127958,-83.3333333333333,4,1,5,60,0,0
128036,-83.3333333333333,4,1,5,60,0,0
128268,-83.3333333333333,4,1,5,60,0,0
128346,-83.3333333333333,4,1,5,60,0,0
128423,-83.3333333333333,4,1,5,60,0,0
128501,-83.3333333333333,4,1,5,60,0,0
128733,-83.3333333333333,4,1,5,60,0,0
128811,-83.3333333333333,4,1,5,60,0,0
129353,-83.3333333333333,4,1,5,60,0,0
129431,-83.3333333333333,4,1,5,60,0,0
129508,-83.3333333333333,4,1,5,60,0,0
129586,-83.3333333333333,4,1,5,60,0,0
129818,-83.3333333333333,4,1,5,60,0,0
129896,-83.3333333333333,4,1,5,60,0,0
129973,-83.3333333333333,4,1,5,60,0,0
130051,314.13612565445,4,1,5,60,1,0
130051,-83.3333333333333,4,1,5,60,0,0
130129,-83.3333333333333,4,1,5,60,0,0
130208,-83.3333333333333,4,1,5,60,0,0
130757,-83.3333333333333,4,1,5,5,0,0
130836,-83.3333333333333,4,1,5,60,0,0
131071,-83.3333333333333,4,1,5,60,0,0
131150,-83.3333333333333,4,1,5,60,0,0
131228,-83.3333333333333,4,1,5,60,0,0
131307,312.5,4,1,5,60,1,0
131307,-83.3333333333333,4,1,5,60,0,0
132557,310.880829015544,4,1,5,60,1,0
132557,-83.3333333333333,4,1,5,60,0,0
132634,-83.3333333333333,4,1,5,60,0,0
132712,-83.3333333333333,4,1,5,60,0,0
132946,-83.3333333333333,4,1,5,60,0,0
133023,-83.3333333333333,4,1,5,60,0,0
133256,-83.3333333333333,4,1,5,60,0,0
133334,-83.3333333333333,4,1,5,60,0,0
133566,-83.3333333333333,4,1,5,60,0,0
133645,-83.3333333333333,4,1,5,60,0,0
133722,-83.3333333333333,4,1,5,60,0,0
133800,307.692307692308,4,1,5,60,1,0
133800,-83.3333333333333,4,1,5,60,0,0
133876,-83.3333333333333,4,1,5,60,0,0
133953,-83.3333333333333,4,1,5,60,0,0
134183,-83.3333333333333,4,1,5,60,0,0
134261,-83.3333333333333,4,1,5,60,0,0
134953,-83.3333333333333,4,1,5,60,0,0
135030,322.58064516129,4,1,5,60,1,0
135513,-66.6666666666667,4,1,5,60,0,0
135754,-66.6666666666667,4,1,5,60,0,0
135836,-66.6666666666667,4,1,5,60,0,0
136320,315.789473684211,4,1,5,60,1,0
136320,-66.6666666666667,4,1,5,60,0,0
137029,-66.6666666666667,4,1,5,60,0,0
137109,-66.6666666666667,4,1,5,60,0,0
137583,308.483290488432,4,1,5,60,1,0
138816,314.13612565445,4,1,5,60,1,0
140072,307.692307692308,4,1,5,60,1,0
140686,-100,4,1,5,60,0,0
140840,-100,4,1,5,60,0,0
141302,315.789473684211,4,1,5,60,1,0
142565,309.278350515464,4,1,5,60,1,0
143802,312.5,4,1,5,60,1,0
145052,317.460317460317,4,1,8,60,1,0
146321,309.278350515464,4,1,5,70,1,0
146321,-100,4,1,5,70,0,1
146475,-66.6666666666667,4,1,5,70,0,1
147016,-66.6666666666667,4,1,5,70,0,1
147094,-66.6666666666667,4,1,5,70,0,1
147171,-66.6666666666667,4,1,5,70,0,1
147248,-66.6666666666667,4,1,5,70,0,1
147480,-66.6666666666667,4,1,5,5,0,1
147558,-66.6666666666667,4,1,5,70,0,1
147944,-66.6666666666667,4,1,5,5,0,1
148022,-66.6666666666667,4,1,5,70,0,1
148408,-66.6666666666667,4,1,5,5,0,1
148485,-66.6666666666667,4,1,5,70,0,1
148639,-66.6666666666667,4,1,5,70,0,1
148716,-66.6666666666667,4,1,5,5,0,1
148795,314.13612565445,4,1,5,70,1,1
149030,-100,4,1,5,5,0,1
149109,-100,4,1,5,70,0,1
150051,-66.6666666666667,4,1,5,70,0,1
150287,-66.6666666666667,4,1,5,70,0,1
150365,-66.6666666666667,4,1,5,70,0,1
150443,-66.6666666666667,4,1,5,5,0,1
150522,-66.6666666666667,4,1,5,70,0,1
150601,-66.6666666666667,4,1,5,5,0,1
151150,-66.6666666666667,4,1,5,5,0,1
151308,312.5,4,1,5,70,1,1
155136,-100,4,1,5,70,0,1
155214,-100,4,1,5,70,0,1
155722,-100,4,1,5,20,0,1
155761,-100,4,1,5,70,0,1
155800,-100,4,1,5,20,0,1
155839,-100,4,1,5,70,0,1
155878,-100,4,1,5,20,0,1
155917,-100,4,1,5,70,0,1
155956,-100,4,1,5,20,0,1
155995,-100,4,1,5,70,0,1
156347,-100,4,1,5,20,0,1
156386,-100,4,1,5,70,0,1
156425,-100,4,1,5,20,0,1
156464,-100,4,1,5,70,0,1
156503,-100,4,1,5,20,0,1
156542,-100,4,1,5,70,0,1
156581,-100,4,1,5,20,0,1
156620,-100,4,1,5,70,0,1
156659,-100,4,1,5,20,0,1
156698,-100,4,1,5,70,0,1
156737,-100,4,1,5,20,0,1
156776,-100,4,1,5,70,0,1
156815,-100,4,1,5,20,0,1
156854,-100,4,1,5,70,0,1
156893,-100,4,1,5,20,0,1
156933,-100,4,1,5,70,0,1
156972,-100,4,1,5,20,0,1
157011,-100,4,1,5,70,0,1
157050,-100,4,1,5,20,0,1
157089,-80,4,1,5,70,0,1
157128,-80,4,1,5,20,0,1
157245,-80,4,1,5,70,0,1
157323,-80,4,1,5,70,0,1
157401,-80,4,1,5,70,0,1
157558,310.880829015544,4,1,5,70,1,1
158801,-66.6666666666667,4,1,5,70,0,1
160278,-66.6666666666667,4,1,5,5,0,1
160355,-66.6666666666667,4,1,5,70,0,1
160433,-66.6666666666667,4,1,5,5,0,1
160511,-66.6666666666667,4,1,5,70,0,1
160744,-66.6666666666667,4,1,5,70,0,1
160822,-66.6666666666667,4,1,5,70,0,1
160899,-66.6666666666667,4,1,5,5,0,1
160977,-66.6666666666667,4,1,5,70,0,1
161210,-66.6666666666667,4,1,5,70,0,1
161288,-57.1428571428571,4,1,5,70,0,1
161676,-57.1428571428571,4,1,5,70,0,1
161754,-57.1428571428571,4,1,5,70,0,1
161910,-57.1428571428571,4,1,5,70,0,1
162298,-57.1428571428571,4,1,5,5,0,1
162376,-57.1428571428571,4,1,5,70,0,1
162454,-57.1428571428571,4,1,5,70,0,1
162532,319.148936170213,4,1,5,70,1,1
163808,315.789473684211,4,1,5,70,1,1
165071,319.148936170213,4,1,8,70,1,1
165230,-100,4,1,5,70,0,1
165310,-100,4,1,8,70,0,1
165390,-100,4,1,5,70,0,1
165469,-100,4,1,8,70,0,1
165709,-100,4,1,5,70,0,1
165789,-100,4,1,8,70,0,1
166028,-100,4,1,5,70,0,1
166107,-100,4,1,8,70,0,1
166188,-100,4,1,5,70,0,1
166267,-100,4,1,8,70,0,1
166347,303.030303030303,4,1,5,70,1,1
166347,-66.6666666666667,4,1,5,70,0,1
166574,-66.6666666666667,4,1,5,70,0,1
166650,-66.6666666666667,4,1,5,70,0,1
166725,-66.6666666666667,4,1,5,70,0,1
166801,-66.6666666666667,4,1,5,70,0,1
166877,-66.6666666666667,4,1,5,20,0,1
166953,-66.6666666666667,4,1,5,70,0,1
167028,-66.6666666666667,4,1,5,20,0,1
167104,-66.6666666666667,4,1,5,70,0,1
167180,-66.6666666666667,4,1,5,20,0,1
167256,-66.6666666666667,4,1,5,70,0,1
167331,-66.6666666666667,4,1,5,20,0,1
167407,-66.6666666666667,4,1,5,70,0,1
167482,-66.6666666666667,4,1,5,20,0,1
167559,315.789473684211,4,1,5,70,1,1
167637,-100,4,1,5,70,0,1
167716,-100,4,1,5,70,0,1
167795,-100,4,1,5,70,0,1
167874,-66.6666666666667,4,1,5,70,0,1
167952,-66.6666666666667,4,1,5,70,0,1
168032,-66.6666666666667,4,1,5,70,0,1
168426,-66.6666666666667,4,1,5,5,0,1
168506,-66.6666666666667,4,1,5,70,0,1
168742,-66.6666666666667,4,1,5,70,0,1
168822,310.880829015544,4,1,5,70,1,1
168822,-66.6666666666667,4,1,5,70,0,1
168899,-66.6666666666667,4,1,5,5,0,1
168977,-66.6666666666667,4,1,5,70,0,1
169055,-66.6666666666667,4,1,5,70,0,1
169132,-66.6666666666667,4,1,5,70,0,1
169209,-66.6666666666667,4,1,5,70,0,1
169288,-66.6666666666667,4,1,5,70,0,1
169521,-66.6666666666667,4,1,5,5,0,1
169599,-66.6666666666667,4,1,5,70,0,1
169676,-66.6666666666667,4,1,5,70,0,1
169754,-66.6666666666667,4,1,5,70,0,1
169987,-66.6666666666667,4,1,5,70,0,1
170065,314.13612565445,4,1,5,70,1,1
170300,-100,4,1,5,5,0,1
170379,-100,4,1,5,70,0,1
170693,-66.6666666666667,4,1,5,70,0,1
170771,-66.6666666666667,4,1,5,20,0,1
170850,-66.6666666666667,4,1,5,70,0,1
170928,-66.6666666666667,4,1,5,20,0,1
171007,-66.6666666666667,4,1,5,70,0,1
171085,-66.6666666666667,4,1,5,20,0,1
171164,-66.6666666666667,4,1,5,70,0,1
171243,-66.6666666666667,4,1,5,20,0,1
171321,310.880829015544,4,1,5,70,1,1
172564,314.13612565445,4,1,5,70,1,1
173820,310.880829015544,4,1,5,70,1,1
175295,-100,4,1,5,70,0,1
175374,-100,4,1,5,70,0,1
175762,-100,4,1,5,20,0,1
175841,-100,4,1,5,70,0,1
175918,-100,4,1,5,20,0,1
175996,-100,4,1,5,70,0,1
176073,-100,4,1,5,20,0,1
176151,-100,4,1,5,70,0,1
176229,-100,4,1,5,20,0,1
176307,317.460317460317,4,1,8,70,1,1
176783,-66.6666666666667,4,1,5,70,0,1
176862,-66.6666666666667,4,1,5,20,0,1
176941,-66.6666666666667,4,1,5,70,0,1
177020,-66.6666666666667,4,1,5,20,0,1
177100,-66.6666666666667,4,1,5,70,0,1
177179,-66.6666666666667,4,1,5,20,0,1
177259,-66.6666666666667,4,1,5,70,0,1
177338,-66.6666666666667,4,1,5,20,0,1
177418,-66.6666666666667,4,1,5,70,0,1
177497,-66.6666666666667,4,1,5,20,0,1
177576,312.5,4,1,5,70,1,1
178201,-57.1428571428571,4,1,5,70,0,1
178279,-57.1428571428571,4,1,5,5,0,1
178357,-57.1428571428571,4,1,5,70,0,1
178435,-57.1428571428571,4,1,5,20,0,1
178513,-57.1428571428571,4,1,5,70,0,1
178591,-57.1428571428571,4,1,5,20,0,1
178669,-57.1428571428571,4,1,5,70,0,1
178747,-57.1428571428571,4,1,5,20,0,1
178826,311.688311688312,4,1,5,70,1,1
178826,-66.6666666666667,4,1,5,70,0,1
180072,314.13612565445,4,1,5,70,1,1
180700,-66.6666666666667,4,1,5,70,0,1
180935,-66.6666666666667,4,1,5,5,0,1
181014,-66.6666666666667,4,1,8,70,0,1
181171,-66.6666666666667,4,1,8,70,0,1
181328,310.880829015544,4,1,5,70,1,1
182571,314.13612565445,4,1,5,70,1,1
183277,-100,4,1,5,20,0,1
183356,-100,4,1,5,70,0,1
183434,-100,4,1,5,20,0,1
183513,-100,4,1,5,70,0,1
183591,-100,4,1,5,20,0,1
183670,-100,4,1,5,70,0,1
183748,-100,4,1,5,20,0,1
183827,-100,4,1,5,70,0,1
184219,-100,4,1,5,70,0,1
184298,-100,4,1,5,70,0,1
184376,-100,4,1,5,70,0,1
184455,-66.6666666666667,4,1,5,60,0,0
184534,-66.6666666666667,4,1,5,5,0,0
184690,-66.6666666666667,4,1,5,5,0,0
184769,-66.6666666666667,4,1,5,60,0,0
184847,-66.6666666666667,4,1,5,5,0,0
184927,-66.6666666666667,4,1,8,60,0,0
185005,-66.6666666666667,4,1,8,60,0,0
185084,-66.6666666666667,4,1,8,60,0,0
185555,297.029702970297,4,1,8,60,1,0
185853,314.13612565445,4,1,8,60,1,0
186010,291.26213592233,4,1,8,60,1,0
186301,310.880829015544,4,1,5,60,1,0
186301,-66.6666666666667,4,1,5,60,0,0
186534,-66.6666666666667,4,1,5,5,0,0
186611,338.983050847458,4,1,5,60,1,0
186611,-66.6666666666667,4,1,5,60,0,0
186865,-66.6666666666667,4,1,5,5,0,0
186949,313.31592689295,4,1,5,60,1,0
186949,-66.6666666666667,4,1,5,60,0,0
187027,-66.6666666666667,4,1,5,60,0,0
187105,-66.6666666666667,4,1,5,60,0,0
187183,-66.6666666666667,4,1,5,60,0,0
187262,-66.6666666666667,4,1,5,60,0,0
187652,-66.6666666666667,4,1,5,5,0,0
187732,-66.6666666666667,4,1,5,60,0,0
188045,-100,4,1,5,60,0,0
188279,-100,4,1,5,60,0,0
188358,-100,4,1,5,60,0,0
188436,-100,4,1,5,60,0,0
188515,-100,4,1,5,60,0,0
188906,-100,4,1,5,5,0,0
188985,-100,4,1,5,60,0,0
189220,-100,4,1,5,60,0,0
189298,-100,4,1,5,60,0,0
189376,-100,4,1,5,60,0,0
189455,310.880829015544,4,1,5,60,1,0
191942,309.278350515464,4,1,5,60,1,0
192019,-100,4,1,5,60,0,0
192096,-100,4,1,5,60,0,0
192173,-100,4,1,5,60,0,0
192251,-100,4,1,5,60,0,0
192636,-100,4,1,5,5,0,0
192715,-100,4,1,5,60,0,0
193024,-101.010101010101,4,1,5,60,0,0
193179,314.13612565445,4,1,5,60,1,0
193336,-100,4,1,5,60,0,0
193414,-100,4,1,5,60,0,0
193493,-100,4,1,5,60,0,0
193650,-66.6666666666667,4,1,5,60,0,0
193885,-66.6666666666667,4,1,5,5,0,0
193964,-66.6666666666667,4,1,5,60,0,0
194042,-66.6666666666667,4,1,5,60,0,0
194121,-57.1428571428571,4,1,5,60,0,0
194199,-57.1428571428571,4,1,5,20,0,0
194278,-57.1428571428571,4,1,5,60,0,0
194356,-57.1428571428571,4,1,5,20,0,0
194435,307.692307692308,4,1,5,60,1,0
194818,-100,4,1,5,60,0,0
194896,-100,4,1,5,60,0,0
194972,-100,4,1,5,60,0,0
195050,-100,4,1,5,60,0,0
195434,-100,4,1,5,60,0,0
195511,-100,4,1,5,60,0,0
195587,-100,4,1,5,60,0,0
195665,322.58064516129,4,1,5,60,1,0
196712,-100,4,1,5,60,0,0
196794,-100,4,1,5,60,0,0
196874,-100,4,1,5,60,0,0
196955,309.278350515464,4,1,5,60,1,0
197649,-100,4,1,5,5,0,0
197728,-100,4,1,5,60,0,0
197805,-100,4,1,5,60,0,0
197882,-100,4,1,5,60,0,0
198192,315.789473684211,4,1,5,60,1,0
198665,-66.6666666666667,4,1,5,60,0,0
198901,-66.6666666666667,4,1,5,5,0,0
198981,-66.6666666666667,4,1,5,60,0,0
199455,309.278350515464,4,1,5,60,1,0
200692,312.5,4,1,5,60,1,0
201942,310.880829015544,4,1,5,60,1,0
202019,-100,4,1,5,60,0,0
202097,-100,4,1,5,60,0,0
202174,-100,4,1,5,60,0,0
202252,-100,4,1,5,60,0,0
202329,-100,4,1,5,60,0,0
202408,-100,4,1,5,60,0,0
202641,-100,4,1,5,5,0,0
202719,-100,4,1,5,60,0,0
203185,314.13612565445,4,1,5,60,1,0
203342,-100,4,1,5,60,0,0
203420,-100,4,1,5,60,0,0
203499,-100,4,1,5,60,0,0
203656,-66.6666666666667,4,1,5,60,0,0
203891,-66.6666666666667,4,1,5,5,0,0
203970,-66.6666666666667,4,1,5,60,0,0
204048,-66.6666666666667,4,1,5,60,0,0
204127,-66.6666666666667,4,1,5,60,0,0
204441,312.5,4,1,5,60,1,0
206941,309.278350515464,4,1,5,60,1,0
207095,-100,4,1,5,30,0,0
207250,-100,4,1,5,37,0,0
207404,-100,4,1,5,45,0,0
207481,-100,4,1,5,45,0,0
207559,-83.3333333333333,4,1,5,52,0,0
207636,-83.3333333333333,4,1,5,52,0,0
207714,-71.4285714285714,4,1,5,59,0,0
207791,-71.4285714285714,4,1,5,59,0,0
207868,-62.5,4,1,5,66,0,0
207945,-62.5,4,1,5,66,0,0
208023,-62.5,4,1,5,73,0,0
208100,-62.5,4,1,5,73,0,0
208178,314.13612565445,4,1,5,60,1,0
208282,416.666666666667,4,1,5,60,1,0
208492,314.13612565445,4,1,5,60,1,0
208910,419.58041958042,4,1,5,60,1,0
209120,314.13612565445,4,1,5,60,1,0
209434,314.13612565445,4,1,5,70,1,1
213204,309.278350515464,4,1,5,70,1,1
214441,312.5,4,1,5,70,1,1
218191,-100,4,1,8,70,0,1
218295,-100,4,1,5,70,0,1
218607,-100,4,1,8,70,0,1
219023,-100,4,1,5,70,0,1
219232,-100,4,1,8,70,0,1
219336,-100,4,1,5,70,0,1
219441,-66.6666666666667,4,1,5,70,0,1
219753,-100,4,1,5,70,0,1
223191,315.789473684211,4,1,5,70,1,1
224138,-66.6666666666667,4,1,5,70,0,1
224454,307.692307692308,4,1,5,70,1,1
226915,314.13612565445,4,1,5,70,1,1
229428,-66.6666666666667,4,1,5,60,0,0
229663,-66.6666666666667,4,1,5,5,0,0
229742,-66.6666666666667,4,1,5,60,0,0
229820,-66.6666666666667,4,1,5,60,0,0
229899,-66.6666666666667,4,1,5,60,0,0
230134,-66.6666666666667,4,1,5,5,0,0
230213,-66.6666666666667,4,1,5,60,0,0
230291,-66.6666666666667,4,1,5,60,0,0
230370,-66.6666666666667,4,1,5,60,0,0
230605,-66.6666666666667,4,1,5,5,0,0
230684,-66.6666666666667,4,1,5,60,0,0
230919,-66.6666666666667,4,1,5,5,0,0
230998,-66.6666666666667,4,1,5,60,0,0
231076,-66.6666666666667,4,1,5,60,0,0
231155,-66.6666666666667,4,1,5,60,0,0
231390,-66.6666666666667,4,1,5,5,0,0
231469,-66.6666666666667,4,1,5,60,0,0
231627,-50,4,1,5,60,0,0
231862,-50,4,1,5,5,0,0
231941,307.692307692308,4,1,5,60,1,0
231941,-66.6666666666667,4,1,5,60,0,0
232171,-66.6666666666667,4,1,5,5,0,0
232248,-66.6666666666667,4,1,5,60,0,0
232324,-66.6666666666667,4,1,5,60,0,0
232402,-66.6666666666667,4,1,5,60,0,0
232632,-66.6666666666667,4,1,5,5,0,0
232710,-66.6666666666667,4,1,5,60,0,0
233094,-66.6666666666667,4,1,5,5,0,0
233171,315.789473684211,4,1,5,60,1,0
234434,309.278350515464,4,1,5,60,1,0
235671,314.13612565445,4,1,5,60,1,0
235749,-100,4,1,5,5,0,0
236927,319.148936170213,4,1,5,60,1,0
238203,303.030303030303,4,1,5,60,1,0

[Colours]
Combo1 : 255,153,0
Combo2 : 251,26,26
Combo3 : 252,233,1
Combo4 : 255,6,150

[HitObjects]
10,81,45,5,10,0:0:0:0:
68,67,123,1,2,0:0:0:0:
128,65,202,1,2,0:0:0:0:
185,81,281,1,2,0:0:0:0:
236,112,360,1,10,0:0:0:0:
287,144,439,1,2,0:0:0:0:
344,163,518,1,2,0:0:0:0:
403,164,597,1,2,0:0:0:0:
462,152,676,6,0,P|470:125|479:66,3,60,10|2|2|2,0:0|0:0|0:0|0:0,0:0:0:0:
319,266,992,2,0,P|324:295|332:324,3,60,10|2|2|2,0:0|0:0|0:0|0:0,0:0:0:0:
198,222,1308,5,10,0:0:0:0:
161,247,1386,1,2,0:0:0:0:
138,286,1465,1,2,0:0:0:0:
133,330,1544,1,2,0:0:0:0:
146,373,1623,2,0,L|223:358,3,60,10|2|2|2,0:0|0:0|0:0|0:0,0:0:0:0:
16,301,1939,5,10,0:0:0:0:
52,275,2017,1,2,0:0:0:0:
75,236,2096,1,2,0:0:0:0:
80,192,2175,1,2,0:0:0:0:
67,149,2255,2,0,L|-9:164,3,60,10|2|2|2,0:0|0:0|0:0|0:0,0:0:0:0:
161,247,2571,5,10,0:0:0:0:
216,267,2649,1,2,0:0:0:0:
274,256,2728,1,2,0:0:0:0:
319,217,2806,1,2,0:0:0:0:
338,162,2885,1,10,0:0:0:0:
326,103,2963,1,2,0:0:0:0:
288,59,3042,1,2,0:0:0:0:
230,39,3120,1,2,0:0:0:0:
173,50,3199,6,0,L|192:133,3,60,10|2|2|2,0:0|0:0|0:0|0:0,0:0:0:0:
326,103,3513,2,0,L|339:44,3,60,10|2|2|2,0:0|0:0|0:0|0:0,0:0:0:0:
473,17,3827,5,10,0:0:0:0:
481,56,3904,1,2,0:0:0:0:
489,95,3982,1,2,0:0:0:0:
497,134,4060,1,2,0:0:0:0:
451,161,4138,5,10,0:0:0:0:
444,190,4215,1,2,0:0:0:0:
438,219,4293,1,2,0:0:0:0:
432,249,4371,1,2,0:0:0:0:
478,275,4448,5,10,0:0:0:0:
483,296,4525,1,2,0:0:0:0:
487,318,4603,1,2,0:0:0:0:
492,341,4681,1,2,0:0:0:0:
446,367,4759,6,0,L|454:273,1,90.0000034332277,10|2,0:0|0:0,0:0:0:0:
512,209,4915,2,0,L|504:115,1,90.0000034332277,2|2,0:0|0:0,0:0:0:0:
259,27,5070,5,14,0:0:0:0:
235,77,5147,1,2,0:0:0:0:
244,132,5225,1,2,0:0:0:0:
281,173,5303,1,2,0:0:0:0:
332,196,5380,1,10,0:0:0:0:
384,217,5458,1,2,0:0:0:0:
423,257,5536,1,2,0:0:0:0:
442,310,5614,1,2,0:0:0:0:
445,366,5692,5,10,0:0:0:0:
405,344,5769,1,2,0:0:0:0:
372,314,5847,1,2,0:0:0:0:
349,275,5925,1,2,0:0:0:0:
335,233,6002,1,10,0:0:0:0:
334,188,6080,1,2,0:0:0:0:
344,144,6158,1,2,0:0:0:0:
365,104,6236,1,2,0:0:0:0:
395,71,6314,6,0,L|477:87,3,60,10|2|2|2,0:0|0:0|0:0|0:0,0:0:0:0:
268,44,6624,2,0,L|346:16,3,53.9999983520508,10|2|2|2,0:0|0:0|0:0|0:0,0:0:0:0:
143,83,6935,2,0,L|196:20,3,48,10|2|2|2,0:0|0:0|0:0|0:0,0:0:0:0:
54,179,7246,2,0,L|65:115,3,41.9999987182618,10|2|2|2,0:0|0:0|0:0|0:0,0:0:0:0:
125,308,7557,6,0,B|-19:205|-19:205|161:237|161:237|166:234|166:234|188:250|188:250|192:246|192:246|470:296,1,630.000024032594,10|2,0:0|0:0,0:0:0:0:
486,366,8179,6,0,P|502:339|481:363,1,90.0000034332277,10|2,0:0|0:0,0:0:0:0:
363,260,8334,6,0,P|346:233|367:257,1,90.0000034332277,2|2,0:0|0:0,0:0:0:0:
498,197,8490,6,0,P|514:170|493:194,1,90.0000034332277,10|2,0:0|0:0,0:0:0:0:
330,140,8645,6,0,P|313:113|334:137,1,90.0000034332277,2|2,0:0|0:0,0:0:0:0:
495,40,8801,5,4,0:0:0:0:
487,42,8879,1,4,0:0:0:0:
479,44,8958,2,0,L|463:13,1,30,4|4,0:0|0:0,0:0:0:0:
438,113,9116,5,4,0:0:0:0:
430,111,9194,1,4,0:0:0:0:
422,109,9274,2,0,L|406:140,1,30,4|4,0:0|0:0,0:0:0:0:
359,40,9432,5,4,0:0:0:0:
291,44,9510,1,4,0:0:0:0:
233,76,9589,1,4,0:0:0:0:
193,130,9668,1,4,0:0:0:0:
140,170,9747,1,4,0:0:0:0:
74,166,9826,1,4,0:0:0:0:
28,119,9905,1,4,0:0:0:0:
30,53,9984,1,4,0:0:0:0:
77,8,10064,6,0,B|171:30|171:30|147:98|67:77|74:166|74:166,1,270.000010299683,6|0,0:0|0:0,0:0:0:0:
49,334,10374,2,0,P|38:288|34:213,1,90.0000034332277,8|0,0:0|0:0,0:0:0:0:
386,235,10530,6,0,B|458:271|491:317|491:317|401:276|294:271,1,270.000010299683,2|0,0:0|0:0,0:0:0:0:
290,301,10841,1,2,0:0:0:0:
482,184,10996,6,0,B|532:126|532:126|340:146,1,270.000010299683,8|0,0:0|0:0,0:0:0:0:
36,165,11307,6,0,B|135:178|135:178|153:200|153:200|296:216,1,270.000010299683,2|0,0:0|0:0,0:0:0:0:
340,146,11622,1,8,0:0:0:0:
97,255,11780,6,0,P|33:336|132:279,1,270.000010299683,2|0,0:0|0:0,0:0:0:0:
456,232,12096,5,2,0:0:0:0:
442,239,12175,1,2,0:0:0:0:
424,265,12254,6,0,B|512:328|512:328|490:194|490:194|498:196|498:196|490:194|490:194|461:36,1,360,8|0,0:0|0:0,0:0:0:0:
240,74,12570,6,0,B|224:8|158:46|216:118|307:134|423:61,1,270.000010299683,2|0,0:0|0:0,0:0:0:0:
449,19,12879,1,8,0:0:0:0:
346,195,13033,6,0,B|213:180|213:180|209:173|209:173|61:155,1,270.000010299683,2|0,0:0|0:0,0:0:0:0:
402,326,13343,5,2,0:0:0:0:
389,338,13420,1,2,0:0:0:0:
378,346,13497,2,0,B|153:376|324:314|68:348,1,270.000010299683,8|0,0:0|0:0,0:0:0:0:
1,282,13807,5,2,0:0:0:0:
36,258,13885,1,2,0:0:0:0:
55,219,13963,1,2,0:0:0:0:
52,176,14041,1,2,0:0:0:0:
27,140,14119,5,10,0:0:0:0:
46,93,14198,1,2,0:0:0:0:
86,67,14276,1,2,0:0:0:0:
131,65,14354,1,2,0:0:0:0:
175,86,14431,5,2,0:0:0:0:
178,140,14509,1,2,0:0:0:0:
206,181,14587,1,2,0:0:0:0:
251,203,14665,1,2,0:0:0:0:
306,198,14744,5,10,0:0:0:0:
329,142,14823,1,2,0:0:0:0:
377,110,14901,1,2,0:0:0:0:
432,107,14979,1,2,0:0:0:0:
485,133,15057,6,0,B|458:306|458:306|399:196,1,270.000010299683,6|0,0:0|0:0,0:0:0:0:
299,113,15369,2,0,B|252:117|252:117|260:105|260:105|318:112,1,90.0000034332277,8|0,0:0|0:0,0:0:0:0:
512,0,15525,6,0,L|202:25,1,270.000010299683,2|0,0:0|0:0,0:0:0:0:
179,60,15838,5,2,0:0:0:0:
99,346,15994,6,0,P|119:246|41:324,1,270.000010299683,8|0,0:0|0:0,0:0:0:0:
249,328,16307,6,0,B|395:367|346:222|501:273,1,270.000010299683,2|0,0:0|0:0,0:0:0:0:
507,280,16619,1,8,0:0:0:0:
178,193,16775,6,0,B|324:154|275:299|430:248,1,270.000010299683,2|0,0:0|0:0,0:0:0:0:
492,167,17109,6,0,P|454:158|351:185,1,120,2|2,0:0|0:0,0:0:0:0:
40,364,17265,6,0,B|164:350|164:350|140:287|140:287|138:282|138:282|93:253|93:253|94:249|94:249|70:196|70:196|73:191|73:191|83:127,1,360,12|0,0:0|0:0,0:0:0:0:
234,22,17577,6,0,B|285:106|285:106|71:63,1,270.000010299683
64,12,17884,1,8,0:0:0:0:
178,193,18038,6,0,B|397:170|397:170|433:100,1,270.000010299683,2|0,0:0|0:0,0:0:0:0:
492,167,18346,6,0,B|472:212|472:212|493:299,1,90.0000034332277,2|0,0:0|0:0,0:0:0:0:
508,324,18500,1,8,0:0:0:0:
346,98,18653,1,2,0:0:0:0:
512,0,18807,5,8,0:0:0:0:
415,8,18964,1,8,0:0:0:0:
255,200,19122,5,4,0:0:0:0:
318,74,19280,1,4,0:0:0:0:
266,368,19438,5,4,0:0:0:0:
417,157,19596,1,4,0:0:0:0:
502,289,19754,6,0,B|464:272|449:247|449:247|426:256|395:287|395:287|368:261|354:227|354:227|305:190|245:201,1,315.000003004074,4|0,0:0|0:0,0:0:0:0:
13,251,20068,6,0,B|16:291|16:291|70:322,1,75,6|0,0:0|0:0,0:0:0:0:
107,234,20224,1,0,0:0:0:0:
0,384,20380,1,8,0:0:0:0:
185,93,20536,6,0,B|171:190|171:190|185:225|185:225|170:335,1,225
46,308,20849,6,0,B|16:291|16:291|13:251,1,75,2|0,0:0|0:0,0:0:0:0:
254,199,21005,1,8,0:0:0:0:
107,234,21161,1,0,0:0:0:0:
471,104,21318,6,0,B|492:65|492:65|349:81|349:81|330:119,1,225,2|0,0:0|0:0,0:0:0:0:
254,199,21630,2,0,B|328:190,1,75,8|0,0:0|0:0,0:0:0:0:
488,239,21786,6,0,B|517:271|517:271|375:290|375:290|347:258,1,225,2|0,0:0|0:0,0:0:0:0:
74,60,22099,5,0,0:0:0:0:
80,54,22177,1,0,0:0:0:0:
87,45,22255,6,0,P|134:131|27:65,1,315.000003004074,12|0,0:0|0:0,0:0:0:0:
35,249,22568,6,0,B|3:282|5:331|5:331|48:248|183:227,1,270.000010299683,2|0,0:0|0:0,0:0:0:0:
352,297,22880,2,0,P|376:317|354:294,1,90.0000034332277,8|0,0:0|0:0,0:0:0:0:
189,377,23036,6,0,B|132:339|79:357|79:357|131:284|268:314,1,270.000010299683,2|0,0:0|0:0,0:0:0:0:
365,302,23349,1,2,0:0:0:0:
220,176,23505,6,0,B|248:212|248:212|440:197|440:197|481:246,1,270.000010299683,8|0,0:0|0:0,0:0:0:0:
488,295,23818,5,2,0:0:0:0:
487,306,23896,1,2,0:0:0:0:
486,317,23975,1,2,0:0:0:0:
485,328,24054,1,2,0:0:0:0:
477,362,24133,5,10,0:0:0:0:
475,340,24212,1,2,0:0:0:0:
473,318,24291,1,2,0:0:0:0:
471,296,24370,1,2,0:0:0:0:
435,214,24449,5,8,0:0:0:0:
378,217,24527,1,8,0:0:0:0:
322,222,24606,1,8,0:0:0:0:
266,226,24685,1,8,0:0:0:0:
210,231,24766,5,0,0:0:0:0:
213,213,24844,1,0,0:0:0:0:
216,194,24923,1,0,0:0:0:0:
220,176,25002,1,0,0:0:0:0:
180,114,25081,6,0,B|204:237|204:237|240:260|240:260|264:373,1,270.000010299683,6|0,0:0|0:0,0:0:0:0:
169,330,25391,2,0,L|182:227,1,90.0000034332277,12|0,0:0|0:0,0:0:0:0:
435,23,25546,6,0,B|489:109|489:109|288:61,1,270.000010299683,2|0,0:0|0:0,0:0:0:0:
273,14,25856,1,0,0:0:0:0:
442,176,26011,6,0,L|143:105,1,270.000010299683,8|0,0:0|0:0,0:0:0:0:
61,15,26321,6,0,P|122:27|148:64,1,90.0000034332277,2|0,0:0|0:0,0:0:0:0:
36,167,26476,2,0,P|76:120|121:116,1,90.0000034332277
179,113,26631,1,8,0:0:0:0:
0,329,26786,6,0,P|113:237|255:264,1,270.000010299683,2|0,0:0|0:0,0:0:0:0:
263,341,27096,2,0,P|242:301|233:257,1,90.0000034332277,2|2,0:0|0:0,0:0:0:0:
512,50,27251,6,0,B|466:31|434:-14|434:-14|385:87|249:102,1,315.000003004074,12|0,0:0|0:0,0:0:0:0:
65,73,27561,6,0,B|30:54|2:53|2:53|119:10|190:131,1,270.000010299683
393,132,27876,6,0,B|424:121|461:131|461:131|464:117|474:100,1,90.0000034332277,8|0,0:0|0:0,0:0:0:0:
222,25,28034,2,0,B|210:-18|167:-18|223:34,1,90.0000034332277,2|0,0:0|0:0,0:0:0:0:
373,250,28192,5,0,0:0:0:0:
307,201,28350,6,0,B|283:166|283:166|328:180,1,90.0000034332277,2|0,0:0|0:0,0:0:0:0:
443,215,28508,2,0,B|486:212|486:212|452:244,1,90.0000034332277,8|0,0:0|0:0,0:0:0:0:
366,327,28666,2,0,B|347:365|347:365|337:320,1,90.0000034332277
393,132,28824,5,4,0:0:0:0:
185,280,28982,1,4,0:0:0:0:
483,351,29139,1,4,0:0:0:0:
483,351,30071,6,0,B|529:231|447:193|447:193|475:224|472:263|472:263|493:252,1,270.000010299683,6|0,0:0|0:0,0:0:0:0:
398,253,30383,1,8,0:0:0:0:
61,28,30539,6,0,B|167:101|147:256|147:256|240:214|212:81|212:81|176:128|113:123,1,540.000020599366,6|8,0:0|0:0,0:0:0:0:
147,121,31633,5,8,0:0:0:0:
161,128,32102,6,0,L|157:160,1,30,2|0,0:0|0:0,0:0:0:0:
239,86,32258,2,0,L|251:115,1,30,8|0,0:0|0:0,0:0:0:0:
285,10,32414,2,0,L|310:29,1,30,2|0,0:0|0:0,0:0:0:0:
77,9,32571,6,0,B|-28:61|-28:61|297:-6,1,360,6|0,0:0|0:0,0:0:0:0:
285,10,32883,1,8,0:0:0:0:
476,251,33039,6,0,B|482:303|523:332|523:332|315:247|315:247|310:196|337:160|337:160|400:211|400:211|387:250|401:295,1,540.000020599366,6|8,0:0|0:0,0:0:0:0:
394,256,33980,6,0,L|385:303,1,30
339,344,34140,2,0,L|330:391,1,30,8|0,0:0|0:0,0:0:0:0:
385,240,34299,6,0,L|387:284,1,45.0000017166138
330,328,34459,2,0,L|332:372,1,45.0000017166138,2|0,0:0|0:0,0:0:0:0:
486,207,34618,5,0,0:0:0:0:
497,174,34698,5,0,0:0:0:0:
508,141,34778,6,0,L|491:62,2,80,8|4|4,0:0|0:0|0:0,0:0:0:0:
310,58,35097,6,0,B|404:16|404:16|333:202,1,270.000010299683,6|0,0:0|0:0,0:0:0:0:
385,240,35406,1,8,0:0:0:0:
63,74,35560,6,0,B|82:35|15:50|33:132|119:133|119:133|120:138|120:138|206:143|260:248|134:292|85:228|105:108,1,450.000017166138,6|0,0:0|0:0,0:0:0:0:
156,23,36024,6,0,B|202:142|90:208|91:144|-20:211|41:333,1,360.000013732911,8|0,0:0|0:0,0:0:0:0:
63,74,36487,1,0,0:0:0:0:
115,251,36641,6,0,P|127:291|118:249,2,120,8|0|2,0:0|0:0|0:0,0:0:0:0:
160,9,37103,5,2,0:0:0:0:
0,151,37257,1,8,0:0:0:0:
0,151,37564,6,0,B|123:172|123:172|132:165|132:165|264:189,1,270.000010299683,6|0,0:0|0:0,0:0:0:0:
349,177,37881,1,8,0:0:0:0:
124,272,38040,6,0,B|42:303|-13:384|-13:384|74:358|203:349,1,350.00000333786,6|0,0:0|0:0,0:0:0:0:
246,302,38410,1,0,0:0:0:0:
254,297,38516,6,0,P|314:295|380:335,1,105.000001001358,4|0,0:0|0:0,0:0:0:0:
458,347,38675,2,0,P|398:349|332:309,1,105.000001001358,4|0,0:0|0:0,0:0:0:0:
33,148,38833,6,0,B|155:164|155:164|161:160|161:160|172:174|172:174|124:272|124:272|269:248,1,315.000003004074,6|0,0:0|0:0,0:0:0:0:
320,60,39143,6,0,B|262:50|262:50|310:148|310:148|299:162|299:162|293:158|293:158|171:174,1,315.000003004074
41,64,39454,6,0,B|174:83|174:83|221:172|221:172|303:161,1,315.000003004074,6|0,0:0|0:0,0:0:0:0:
454,122,39765,6,0,B|503:37|503:37|320:60|320:60|313:91,1,315.000003004074,6|0,0:0|0:0,0:0:0:0:
394,297,40076,6,0,B|486:354|486:354|436:167,1,270.000010299683,6|0,0:0|0:0,0:0:0:0:
379,135,40387,1,8,0:0:0:0:
287,274,40542,6,0,B|180:296|180:296|126:272|126:272|18:293,1,270.000010299683,2|0,0:0|0:0,0:0:0:0:
117,373,40853,2,0,L|127:266,1,90.0000034332277,2|0,0:0|0:0,0:0:0:0:
70,17,41009,6,0,P|98:114|8:50,1,270.000010299683,8|0,0:0|0:0,0:0:0:0:
5,58,41320,6,0,P|51:26|107:62,1,90.0000034332277,2|0,0:0|0:0,0:0:0:0:
147,0,41475,2,0,P|197:24|194:91,1,90.0000034332277
268,93,41630,2,0,P|271:149|212:179,1,90.0000034332277,8|0,0:0|0:0,0:0:0:0:
5,204,41786,6,0,B|84:155|170:191|170:191|189:246|250:255,1,270.000010299683,2|0,0:0|0:0,0:0:0:0:
329,189,42097,2,0,P|293:163|250:171,1,90.0000034332277,2|2,0:0|0:0,0:0:0:0:
101,265,42252,6,0,B|23:342|0:220|159:208|221:333,1,270.000010299683,8|0,0:0|0:0,0:0:0:0:
453,344,42563,6,0,B|445:317|445:317|321:295|321:295|313:268,1,180.000006866455
459,226,42796,1,0,0:0:0:0:
459,226,42874,2,0,B|474:201|474:201|458:139,1,90.0000034332277,8|0,0:0|0:0,0:0:0:0:
353,2,43029,6,0,L|312:282,1,270.000010299683,2|0,0:0|0:0,0:0:0:0:
188,186,43340,2,0,B|180:157|180:157|214:103,1,90.0000034332277,2|0,0:0|0:0,0:0:0:0:
449,59,43496,6,0,B|368:73|368:73|356:96|356:96|316:69|316:69|303:86|303:86|202:107,1,270.000010299683,8|0,0:0|0:0,0:0:0:0:
14,54,43807,5,2,0:0:0:0:
70,40,43887,1,2,0:0:0:0:
118,74,43967,1,2,0:0:0:0:
124,132,44047,1,2,0:0:0:0:
85,175,44127,5,10,0:0:0:0:
70,172,44207,1,2,0:0:0:0:
55,169,44287,1,2,0:0:0:0:
41,166,44367,1,2,0:0:0:0:
26,163,44447,5,2,0:0:0:0:
82,149,44527,1,2,0:0:0:0:
130,183,44607,1,2,0:0:0:0:
136,241,44687,1,2,0:0:0:0:
97,284,44767,5,10,0:0:0:0:
82,281,44847,1,2,0:0:0:0:
67,278,44927,1,2,0:0:0:0:
53,275,45007,1,2,0:0:0:0:
0,345,45087,6,0,P|75:279|251:304,1,270.000010299683,6|0,0:0|0:0,0:0:0:0:
255,379,45399,2,0,P|238:337|235:292,1,90.0000034332277,8|0,0:0|0:0,0:0:0:0:
308,62,45555,6,0,P|327:159|218:299,1,270.000010299683,2|0,0:0|0:0,0:0:0:0:
137,183,45868,2,0,P|182:187|226:200,1,90.0000034332277,2|0,0:0|0:0,0:0:0:0:
471,240,46024,6,0,P|376:208|309:43,1,270.000010299683,8|0,0:0|0:0,0:0:0:0:
378,34,46337,6,0,P|413:35|446:21,1,71.9999978027344,2|0,0:0|0:0,0:0:0:0:
489,163,46491,2,0,P|508:132|512:97,1,71.9999978027344
468,68,46646,2,0,P|446:96|415:113,1,71.9999978027344,8|0,0:0|0:0,0:0:0:0:
72,114,46800,6,0,P|146:48|323:73,1,270.000010299683,2|0,0:0|0:0,0:0:0:0:
296,73,47110,6,0,L|314:177,1,90.0000034332277,2|2,0:0|0:0,0:0:0:0:
512,384,47264,6,0,B|472:333|403:328|403:328|361:376|297:359|297:359|323:291,1,315.000003004074,12|0,0:0|0:0,0:0:0:0:
390,231,47574,6,0,P|413:278|405:329,1,105.000001001358
117,330,47728,6,0,B|239:306|239:306|246:307|246:307|355:286,1,210.000002002716,0|8,0:0|0:0,0:0:0:0:
415,152,47960,5,0,0:0:0:0:
415,152,48038,2,0,B|460:167|474:216|474:216|489:178|477:145|477:145|399:110|298:197,1,315.000003004074,2|0,0:0|0:0,0:0:0:0:
230,321,48347,1,2,0:0:0:0:
49,252,48501,6,0,L|27:138,1,105.000001001358,8|0,0:0|0:0,0:0:0:0:
110,123,48656,2,0,L|132:9,1,60
23,9,48811,5,0,0:0:0:0:
17,34,48889,1,0,0:0:0:0:
32,24,48968,1,0,0:0:0:0:
7,18,49046,1,0,0:0:0:0:
21,22,49126,5,8,0:0:0:0:
217,4,49284,1,8,0:0:0:0:
235,200,49442,1,8,0:0:0:0:
306,141,49600,5,8,0:0:0:0:
110,123,49758,1,8,0:0:0:0:
92,319,49916,1,8,0:0:0:0:
477,293,50074,6,0,L|419:306,1,60,6|0,0:0|0:0,0:0:0:0:
346,324,50228,2,0,L|288:337,1,60
215,355,50383,1,8,0:0:0:0:
484,166,50537,6,0,L|259:134,1,180,6|0,0:0|0:0,0:0:0:0:
251,90,50847,1,2,0:0:0:0:
128,284,51001,5,8,0:0:0:0:
137,275,51156,2,0,P|173:212|136:99,1,180
149,111,51470,6,0,P|122:172|121:205,1,60,2|0,0:0|0:0,0:0:0:0:
215,355,51630,1,8,0:0:0:0:
0,258,51789,6,0,L|282:217,1,270.000010299683,6|0,0:0|0:0,0:0:0:0:
305,140,52108,1,2,0:0:0:0:
495,348,52268,6,0,B|509:308|509:308|480:271,1,90.0000034332277,8|0,0:0|0:0,0:0:0:0:
355,288,52428,2,0,B|341:328|341:328|371:366,1,90.0000034332277,2|0,0:0|0:0,0:0:0:0:
425,318,52587,5,6,0:0:0:0:
425,318,52743,1,2,0:0:0:0:
313,130,52899,6,0,P|332:104|341:59,1,60,8|0,0:0|0:0,0:0:0:0:
432,79,53055,2,0,P|413:53|404:8,1,60,2|0,0:0|0:0,0:0:0:0:
331,3,53212,5,2,0:0:0:0:
331,3,53368,1,2,0:0:0:0:
407,157,53524,5,8,0:0:0:0:
407,157,53680,1,2,0:0:0:0:
228,71,53837,5,6,0:0:0:0:
228,71,53991,1,2,0:0:0:0:
432,79,54146,5,8,0:0:0:0:
313,130,54300,1,2,0:0:0:0:
143,12,54455,5,2,0:0:0:0:
143,12,54610,1,2,0:0:0:0:
331,3,54764,5,8,0:0:0:0:
331,3,54919,1,2,0:0:0:0:
88,104,55074,6,0,L|101:182,1,60,6|0,0:0|0:0,0:0:0:0:
179,216,55230,2,0,L|166:294,1,60
106,342,55386,1,8,0:0:0:0:
69,38,55542,6,0,L|101:255,1,180,6|0,0:0|0:0,0:0:0:0:
169,275,55855,1,2,0:0:0:0:
97,163,56011,1,8,0:0:0:0:
269,367,56167,6,0,B|280:292|280:292|292:281|292:281|304:194,1,180
216,141,56480,6,0,L|223:200,1,60,2|0,0:0|0:0,0:0:0:0:
297,384,56636,2,0,L|289:324,1,60,8|0,0:0|0:0,0:0:0:0:
398,147,56792,6,0,B|384:104|440:93|401:24|401:24|395:20|395:20|459:64|474:139|474:139|479:135|479:135|485:271|366:316|366:316|525:363|365:320|525:367|525:367|535:291|439:220,1,810.000030899049,6|0,0:0|0:0,0:0:0:0:
312,189,57574,5,6,0:0:0:0:
312,189,57730,1,2,0:0:0:0:
223,50,57886,6,0,L|141:63,1,60,8|0,0:0|0:0,0:0:0:0:
167,189,58042,2,0,L|114:124,1,60,2|0,0:0|0:0,0:0:0:0:
73,72,58199,5,2,0:0:0:0:
73,72,58355,1,2,0:0:0:0:
39,153,58511,6,0,L|18:210,1,60,8|0,0:0|0:0,0:0:0:0:
129,142,58667,2,0,L|167:189,1,60,2|0,0:0|0:0,0:0:0:0:
104,276,58824,6,0,L|93:216,1,60,8|8,0:0|0:0,0:0:0:0:
23,375,58980,1,2,0:0:0:0:
18,366,59058,1,2,0:0:0:0:
13,357,59137,5,4,0:0:0:0:
57,362,59215,1,4,0:0:0:0:
102,367,59293,1,2,0:0:0:0:
147,373,59371,1,2,0:0:0:0:
191,378,59449,5,4,0:0:0:0:
203,325,59527,1,4,0:0:0:0:
233,280,59605,1,2,0:0:0:0:
277,249,59683,1,2,0:0:0:0:
327,233,59762,5,4,0:0:0:0:
349,282,59840,1,4,0:0:0:0:
386,321,59918,1,2,0:0:0:0:
434,344,59996,1,2,0:0:0:0:
488,350,60074,6,0,P|488:305|458:271,1,60,6|0,0:0|0:0,0:0:0:0:
415,141,60231,2,0,P|376:163|361:206,1,60
512,225,60388,2,0,P|473:202|428:211,1,60,8|0,0:0|0:0,0:0:0:0:
299,366,60545,6,0,P|299:321|170:211,1,180,6|0,0:0|0:0,0:0:0:0:
143,239,60859,1,2,0:0:0:0:
229,104,61016,1,8,0:0:0:0:
94,18,61173,6,0,L|103:147,1,120,0|2,0:0|0:0,0:0:0:0:
217,220,61488,1,2,0:0:0:0:
20,63,61647,1,8,0:0:0:0:
229,104,61806,6,0,B|331:124|331:124|352:118|366:100|366:100|515:128,1,270.000010299683,6|0,0:0|0:0,0:0:0:0:
500,132,62123,2,0,L|388:111,1,90.0000034332277,2|0,0:0|0:0,0:0:0:0:
306,60,62282,1,8,0:0:0:0:
420,27,62441,1,2,0:0:0:0:
356,241,62599,5,6,0:0:0:0:
500,132,62752,1,2,0:0:0:0:
465,384,62906,1,8,0:0:0:0:
448,258,63060,1,2,0:0:0:0:
247,350,63214,5,2,0:0:0:0:
264,224,63368,1,2,0:0:0:0:
63,384,63522,5,8,0:0:0:0:
46,258,63676,1,2,0:0:0:0:
356,241,63829,5,2,0:0:0:0:
339,115,63986,1,2,0:0:0:0:
154,285,64143,5,8,0:0:0:0:
171,159,64300,1,2,0:0:0:0:
422,165,64457,5,2,0:0:0:0:
439,39,64614,1,2,0:0:0:0:
80,151,64771,5,8,0:0:0:0:
63,25,64928,1,2,0:0:0:0:
260,39,65085,6,0,B|269:72|269:72|253:119,1,60,6|0,0:0|0:0,0:0:0:0:
264,259,65240,2,0,B|230:250|230:250|198:212,1,60,2|0,0:0|0:0,0:0:0:0:
326,148,65395,2,0,B|301:172|301:172|253:181,1,60,8|0,0:0|0:0,0:0:0:0:
43,303,65551,6,0,B|116:319|174:242|44:235|80:151|80:151|42:200|77:271|141:274|141:274|165:225|214:231,1,480,6|2,0:0|0:0,0:0:0:0:
171,159,66017,1,8,0:0:0:0:
474,309,66173,6,0,B|291:347|291:347|347:329|362:255,1,270.000010299683
348,284,66483,1,2,0:0:0:0:
215,366,66639,1,8,0:0:0:0:
484,213,66794,6,0,B|264:259,1,225,6|0,0:0|0:0,0:0:0:0:
348,284,67105,1,2,0:0:0:0:
389,95,67261,1,8,0:0:0:0:
274,169,67416,1,2,0:0:0:0:
484,213,67572,5,4,0:0:0:0:
304,88,67727,1,0,0:0:0:0:
389,95,67882,5,8,0:0:0:0:
352,17,68038,1,2,0:0:0:0:
274,169,68193,5,2,0:0:0:0:
474,102,68349,1,2,0:0:0:0:
189,28,68504,5,8,0:0:0:0:
389,95,68660,1,2,0:0:0:0:
61,23,68815,5,8,0:0:0:0:
80,100,68916,1,8,0:0:0:0:
100,177,69018,1,8,0:0:0:0:
187,226,69119,5,8,0:0:0:0:
168,303,69220,1,8,0:0:0:0:
148,380,69322,1,8,0:0:0:0:
77,307,69424,6,0,B|16:243|16:243|104:266,1,160,6|0,0:0|0:0,0:0:0:0:
234,153,69722,6,0,B|173:217|173:217|261:194,1,160,6|0,0:0|0:0,0:0:0:0:
302,79,70064,5,6,0:0:0:0:
376,105,70167,1,2,0:0:0:0:
452,86,70271,1,2,0:0:0:0:
506,29,70374,5,8,0:0:0:0:
504,24,70477,1,2,0:0:0:0:
503,19,70581,1,2,0:0:0:0:
502,15,70686,5,2,0:0:0:0:
428,44,70789,1,2,0:0:0:0:
372,101,70893,1,2,0:0:0:0:
344,175,70996,1,10,0:0:0:0:
348,255,71100,1,2,0:0:0:0:
383,326,71204,1,2,0:0:0:0:
480,42,71307,5,2,0:0:0:0:
421,65,71412,1,2,0:0:0:0:
376,111,71518,1,2,0:0:0:0:
354,170,71624,1,10,0:0:0:0:
357,234,71730,1,2,0:0:0:0:
385,291,71836,1,2,0:0:0:0:
463,64,71941,5,2,0:0:0:0:
416,83,72046,1,2,0:0:0:0:
380,119,72152,1,2,0:0:0:0:
434,207,72259,6,0,B|469:190|469:190|453:154,2,80,10|2|2,0:0|0:0|0:0,0:0:0:0:
299,44,72576,5,2,0:0:0:0:
219,53,72681,1,2,0:0:0:0:
140,62,72787,1,2,0:0:0:0:
162,162,72894,5,10,0:0:0:0:
83,153,73000,1,2,0:0:0:0:
4,144,73105,1,2,0:0:0:0:
134,49,73211,6,0,L|236:36,2,80,2|2|2,0:0|0:0|0:0,0:0:0:0:
169,149,73529,6,0,L|67:136,2,80,10|2|2,0:0|0:0|0:0,0:0:0:0:
84,245,73846,6,0,L|100:344,2,80,2|2|2,0:0|0:0|0:0,0:0:0:0:
173,379,74154,6,0,L|185:300,2,80,10|2|2,0:0|0:0|0:0,0:0:0:0:
0,222,74462,6,0,L|16:321,2,80,2|2|2,0:0|0:0|0:0,0:0:0:0:
257,356,74771,5,14,0:0:0:0:
269,277,74873,1,2,0:0:0:0:
343,248,74977,1,2,0:0:0:0:
404,296,75079,6,0,B|415:331|415:331|291:304|291:304|345:245|345:245,1,240.000009155274,6|2,0:0|0:0,0:0:0:0:
457,175,75388,5,8,0:0:0:0:
455,180,75491,1,2,0:0:0:0:
454,185,75594,1,2,0:0:0:0:
453,189,75696,5,2,0:0:0:0:
375,206,75798,1,2,0:0:0:0:
297,194,75901,1,2,0:0:0:0:
229,153,76004,1,10,0:0:0:0:
181,89,76107,1,2,0:0:0:0:
161,12,76210,1,2,0:0:0:0:
423,88,76313,5,2,0:0:0:0:
367,118,76415,1,2,0:0:0:0:
304,125,76518,1,2,0:0:0:0:
243,107,76621,1,10,0:0:0:0:
193,68,76724,1,2,0:0:0:0:
161,12,76827,1,2,0:0:0:0:
379,16,76930,5,2,0:0:0:0:
342,51,77032,1,2,0:0:0:0:
294,69,77135,1,2,0:0:0:0:
244,68,77238,1,10,0:0:0:0:
197,48,77341,1,2,0:0:0:0:
161,12,77444,1,2,0:0:0:0:
281,164,77547,6,0,P|257:149|281:160,1,80,6|2,0:0|0:0,0:0:0:0:
65,8,77753,1,8,0:0:0:0:
38,95,77856,5,8,0:0:0:0:
126,75,77959,1,8,0:0:0:0:
63,0,78062,1,8,0:0:0:0:
35,182,78164,6,0,B|25:220|25:220|28:220|28:220|51:273,2,80,2|8|8,0:0|0:0|0:0,0:0:0:0:
203,301,78473,5,6,0:0:0:0:
125,259,78576,1,6,0:0:0:0:
84,337,78678,1,8,0:0:0:0:
257,361,78781,6,0,B|332:369|332:369|370:338|370:338|437:346,1,160,8|2,0:0|0:0,0:0:0:0:
501,229,79090,5,6,0:0:0:0:
421,238,79192,1,2,0:0:0:0:
342,247,79295,1,2,0:0:0:0:
232,166,79398,6,0,L|251:69,2,80,2|2|8,0:0|0:0|0:0,0:0:0:0:
366,8,79713,6,0,L|381:86,2,80,8|4|4,0:0|0:0|0:0,0:0:0:0:
124,137,80029,6,0,B|48:48|48:48|312:99,1,320,6|0,0:0|0:0,0:0:0:0:
479,122,80344,5,8,0:0:0:0:
468,125,80450,1,2,0:0:0:0:
475,129,80555,1,2,0:0:0:0:
472,118,80660,5,2,0:0:0:0:
487,195,80765,1,2,0:0:0:0:
456,267,80870,1,2,0:0:0:0:
390,309,80975,1,10,0:0:0:0:
311,306,81081,1,2,0:0:0:0:
248,259,81186,1,2,0:0:0:0:
456,142,81292,5,2,0:0:0:0:
469,204,81397,1,2,0:0:0:0:
444,262,81502,1,2,0:0:0:0:
391,296,81607,1,10,0:0:0:0:
328,293,81713,1,2,0:0:0:0:
277,256,81818,1,2,0:0:0:0:
444,162,81923,5,2,0:0:0:0:
454,212,82028,1,2,0:0:0:0:
434,258,82133,1,2,0:0:0:0:
391,285,82238,1,10,0:0:0:0:
341,283,82344,1,2,0:0:0:0:
301,253,82449,1,2,0:0:0:0:
354,123,82555,6,0,L|369:225,2,80,2|2|2,0:0|0:0|0:0,0:0:0:0:
219,47,82871,1,10,0:0:0:0:
219,47,82976,1,2,0:0:0:0:
219,47,83081,1,2,0:0:0:0:
208,162,83186,6,0,L|193:264,2,80,2|2|2,0:0|0:0|0:0,0:0:0:0:
314,34,83502,1,10,0:0:0:0:
314,34,83607,1,2,0:0:0:0:
314,34,83712,1,2,0:0:0:0:
101,103,83818,6,0,L|116:205,2,80,2|2|2,0:0|0:0|0:0,0:0:0:0:
137,16,84130,1,10,0:0:0:0:
137,16,84235,1,2,0:0:0:0:
137,16,84338,1,2,0:0:0:0:
83,260,84443,6,0,B|92:187|92:187|89:184|89:184|100:102,1,160,2|2,0:0|0:0,0:0:0:0:
56,23,84755,6,0,B|72:146|72:146|68:151|68:151|82:259,1,240.000009155274,14|2,0:0|0:0,0:0:0:0:
286,335,85068,5,6,0:0:0:0:
207,323,85170,1,2,0:0:0:0:
128,337,85273,1,2,0:0:0:0:
59,376,85375,5,10,0:0:0:0:
53,373,85478,1,2,0:0:0:0:
46,369,85580,1,2,0:0:0:0:
39,365,85683,5,2,0:0:0:0:
25,286,85785,1,2,0:0:0:0:
36,207,85888,1,2,0:0:0:0:
71,136,85990,1,10,0:0:0:0:
128,79,86093,1,2,0:0:0:0:
199,43,86195,1,2,0:0:0:0:
217,330,86298,5,2,0:0:0:0:
175,281,86401,1,2,0:0:0:0:
152,222,86505,1,2,0:0:0:0:
148,158,86608,1,10,0:0:0:0:
164,96,86712,1,2,0:0:0:0:
199,43,86816,1,2,0:0:0:0:
326,235,86919,5,2,0:0:0:0:
278,217,87022,1,2,0:0:0:0:
238,186,87126,1,2,0:0:0:0:
209,143,87229,1,10,0:0:0:0:
196,94,87333,1,2,0:0:0:0:
199,43,87437,1,2,0:0:0:0:
364,126,87541,6,0,P|327:96|323:54,2,80,2|2|2,0:0|0:0|0:0,0:0:0:0:
465,61,87852,5,10,0:0:0:0:
457,140,87955,1,2,0:0:0:0:
449,220,88059,1,2,0:0:0:0:
446,377,88163,6,0,B|473:344|473:344|464:291,2,80,2|2|2,0:0|0:0|0:0,0:0:0:0:
390,287,88474,6,0,B|363:320|363:320|372:373,2,80,10|2|2,0:0|0:0|0:0,0:0:0:0:
364,192,88785,5,2,0:0:0:0:
292,225,88890,1,2,0:0:0:0:
249,291,88995,1,2,0:0:0:0:
249,370,89101,5,10,0:0:0:0:
177,336,89206,1,2,0:0:0:0:
134,270,89311,1,2,0:0:0:0:
119,72,89416,5,8,0:0:0:0:
111,67,89522,1,8,0:0:0:0:
104,63,89627,1,8,0:0:0:0:
144,175,89732,5,8,0:0:0:0:
139,183,89838,1,8,0:0:0:0:
134,191,89943,1,8,0:0:0:0:
209,104,90048,6,0,B|307:84|307:84|327:94|327:94|353:44|353:44|384:59|384:59|471:35|471:35|434:64|434:64|397:31,1,360,6|0,0:0|0:0,0:0:0:0:
281,8,90363,5,8,0:0:0:0:
461,213,90521,6,0,B|446:254|446:254|457:286|457:286|370:365|370:365|392:273|392:273|451:304,1,300,6|0,0:0|0:0,0:0:0:0:
497,352,90995,5,8,0:0:0:0:
497,352,91627,5,8,0:0:0:0:
497,352,92100,6,0,L|456:361,1,30,2|0,0:0|0:0,0:0:0:0:
425,280,92258,2,0,L|393:308,1,30,8|0,0:0|0:0,0:0:0:0:
326,253,92416,2,0,L|313:293,1,30,2|0,0:0|0:0,0:0:0:0:
136,319,92574,6,0,B|197:288|256:340|209:335|269:394|316:373|316:373|276:373|247:341,1,270.000010299683,6|0,0:0|0:0,0:0:0:0:
316,281,92884,5,8,0:0:0:0:
67,384,93040,6,0,B|31:232|31:232|368:156,1,450.000017166138,6|0,0:0|0:0,0:0:0:0:
398,170,93506,1,8,0:0:0:0:
415,181,93817,5,0,0:0:0:0:
411,158,93895,1,0,0:0:0:0:
407,136,93972,1,0,0:0:0:0:
403,114,94050,1,0,0:0:0:0:
423,137,94128,5,8,0:0:0:0:
419,159,94206,1,0,0:0:0:0:
415,181,94283,1,0,0:0:0:0:
411,203,94361,1,0,0:0:0:0:
431,181,94439,5,0,0:0:0:0:
427,159,94517,1,0,0:0:0:0:
423,137,94594,6,0,B|418:112|418:112|445:91|445:91|427:137,1,90.0000034332277,2|0,0:0|0:0,0:0:0:0:
497,236,94750,1,8,0:0:0:0:
293,112,94905,1,2,0:0:0:0:
503,11,95061,5,6,0:0:0:0:
503,11,95217,5,8,0:0:0:0:
503,11,95373,5,8,0:0:0:0:
213,47,95529,6,0,P|254:85|276:138,1,90.0000034332277,6|0,0:0|0:0,0:0:0:0:
296,257,95686,1,2,0:0:0:0:
296,257,95998,6,0,B|215:271|215:271|188:341|188:341|77:309|77:309|55:227|55:227|169:260,1,450.000017166138,12|0,0:0|0:0,0:0:0:0:
273,338,96467,5,2,0:0:0:0:
238,132,96623,6,0,P|145:193|154:274,1,180.000006866455,8|0,0:0|0:0,0:0:0:0:
273,338,96936,5,2,0:0:0:0:
273,338,97092,1,2,0:0:0:0:
454,214,97248,6,0,L|433:348,1,120,8|0,0:0|0:0,0:0:0:0:
446,349,97482,1,0,0:0:0:0:
456,365,97561,6,0,L|414:80,1,270.000010299683,6|0,0:0|0:0,0:0:0:0:
462,33,97871,1,8,0:0:0:0:
275,323,98027,6,0,L|317:38,1,270.000010299683,6|0,0:0|0:0,0:0:0:0:
261,0,98338,2,0,P|219:37|232:93,1,90.0000034332277,2|2,0:0|0:0,0:0:0:0:
416,97,98493,6,0,P|303:74|120:166,1,270.000010299683,8|0,0:0|0:0,0:0:0:0:
0,249,98804,5,6,0:0:0:0:
512,186,99121,5,6,0:0:0:0:
163,10,99438,5,12,0:0:0:0:
159,39,99517,1,8,0:0:0:0:
156,69,99596,1,8,0:0:0:0:
152,99,99676,1,8,0:0:0:0:
198,159,99756,5,2,0:0:0:0:
196,144,99836,1,2,0:0:0:0:
194,129,99915,1,2,0:0:0:0:
192,114,99994,1,2,0:0:0:0:
163,10,100073,6,0,B|53:102|53:102|248:71|248:71|240:53|240:53|321:29|321:29|352:67|352:67|470:88,1,540.000020599366,6|0,0:0|0:0,0:0:0:0:
486,58,105092,6,0,L|479:130,3,60
478,56,105710,6,0,L|471:128,3,60
343,143,106329,6,0,L|350:215,3,60
351,141,106947,6,0,L|358:213,3,60
468,349,107566,6,0,P|398:320|381:321,3,60
465,357,108191,6,0,P|395:328|378:329,3,60
170,309,108816,6,0,P|240:280|257:281,3,60
171,316,109441,6,0,P|241:287|258:288,3,60
0,171,110066,5,6,0:0:0:0:
0,187,111148,5,2,0:0:0:0:
242,93,111303,1,2,0:0:0:0:
242,93,111615,5,2,0:0:0:0:
336,335,111770,1,2,0:0:0:0:
336,335,112084,5,2,0:0:0:0:
430,93,112239,1,2,0:0:0:0:
512,384,112553,5,6,0:0:0:0:
512,384,113646,6,0,L|430:369,1,60,2|0,0:0|0:0,0:0:0:0:
299,313,113803,2,0,L|217:298,1,60,2|0,0:0|0:0,0:0:0:0:
512,275,114115,6,0,L|433:303,1,60,2|0,0:0|0:0,0:0:0:0:
292,320,114272,2,0,L|213:348,1,60,2|0,0:0|0:0,0:0:0:0:
457,180,114583,6,0,L|403:243,1,60,2|0,0:0|0:0,0:0:0:0:
289,329,114740,2,0,L|235:392,1,60,2|0,0:0|0:0,0:0:0:0:
54,297,115053,5,6,0:0:0:0:
54,297,115210,1,0,0:0:0:0:
54,297,115367,1,0,0:0:0:0:
54,297,115524,1,0,0:0:0:0:
39,218,115681,5,8,0:0:0:0:
39,218,115838,1,0,0:0:0:0:
39,218,115995,1,0,0:0:0:0:
255,55,116152,5,0,0:0:0:0:
136,43,116309,2,0,L|262:56,1,120,2|0,0:0|0:0,0:0:0:0:
275,143,116623,5,0,0:0:0:0:
156,131,116780,2,0,L|282:144,1,120,0|8,0:0|0:0,0:0:0:0:
295,231,117094,5,0,0:0:0:0:
176,219,117251,2,0,L|394:241,1,180
462,208,117566,5,0,0:0:0:0:
462,208,117721,1,0,0:0:0:0:
462,208,117876,1,0,0:0:0:0:
462,208,118032,1,0,0:0:0:0:
486,116,118187,5,8,0:0:0:0:
486,116,118342,1,0,0:0:0:0:
486,116,118497,1,0,0:0:0:0:
394,92,118654,5,0,0:0:0:0:
512,384,118809,6,0,L|364:356,1,120,2|0,0:0|0:0,0:0:0:0:
276,338,119128,1,0,0:0:0:0:
493,289,119287,6,0,L|345:261,1,120,0|8,0:0|0:0,0:0:0:0:
257,243,119606,1,0,0:0:0:0:
474,194,119766,6,0,L|270:155,1,180
172,57,120085,5,0,0:0:0:0:
172,57,120239,1,0,0:0:0:0:
172,57,120394,1,0,0:0:0:0:
172,57,120548,1,0,0:0:0:0:
86,26,120703,5,8,0:0:0:0:
86,26,120857,1,0,0:0:0:0:
86,26,121012,1,0,0:0:0:0:
55,112,121167,5,0,0:0:0:0:
185,170,121322,2,0,B|198:136|198:136|171:54,1,120,2|0,0:0|0:0,0:0:0:0:
307,191,121637,5,0,0:0:0:0:
177,249,121795,2,0,B|164:215|164:215|191:133,1,120,0|8,0:0|0:0,0:0:0:0:
55,270,122111,5,0,0:0:0:0:
185,328,122269,2,0,B|198:294|198:294|171:212,1,120
0,384,122585,5,6,0:0:0:0:
0,384,122740,1,0,0:0:0:0:
0,384,122895,1,2,0:0:0:0:
0,384,123051,1,0,0:0:0:0:
177,249,123206,5,12,0:0:0:0:
177,249,123362,1,0,0:0:0:0:
34,148,123517,5,2,0:0:0:0:
34,148,123673,1,0,0:0:0:0:
273,38,123828,5,6,0:0:0:0:
237,115,123980,1,6,0:0:0:0:
322,108,124132,1,6,0:0:0:0:
355,273,124284,5,6,0:0:0:0:
319,196,124436,1,6,0:0:0:0:
404,203,124588,1,6,0:0:0:0:
270,266,124741,5,6,0:0:0:0:
358,31,124893,1,6,0:0:0:0:
485,245,125046,6,0,B|223:270,1,215.999993408203,6|0,0:0|0:0,0:0:0:0:
218,366,125363,2,0,L|198:298,1,71.9999978027344,8|0,0:0|0:0,0:0:0:0:
66,86,125522,6,0,P|58:193|19:294,1,215.999993408203,6|0,0:0|0:0,0:0:0:0:
64,383,125839,2,0,P|75:349|93:318,1,71.9999978027344
269,265,125998,5,8,0:0:0:0:
143,185,126157,1,2,0:0:0:0:
223,59,126315,2,0,L|397:80,1,143.999995605469,2|2,0:0|0:0,0:0:0:0:
370,82,126550,5,0,0:0:0:0:
374,87,126629,2,0,B|388:55|388:55|371:22,1,71.9999978027344,8|0,0:0|0:0,0:0:0:0:
127,189,126786,5,2,0:0:0:0:
276,169,126943,1,2,0:0:0:0:
425,149,127100,1,2,0:0:0:0:
260,277,127257,6,0,L|433:301,1,143.999995605469,8|2,0:0|0:0,0:0:0:0:
407,292,127492,5,0,0:0:0:0:
413,289,127571,2,0,B|418:323|418:323|393:350,1,71.9999978027344,2|0,0:0|0:0,0:0:0:0:
170,317,127726,5,2,0:0:0:0:
162,320,127803,1,0,0:0:0:0:
154,323,127881,2,0,L|67:335,1,71.9999978027344,8|0,0:0|0:0,0:0:0:0:
112,134,128036,6,0,P|93:237|62:365,1,215.999993408203,2|0,0:0|0:0,0:0:0:0:
154,323,128346,2,0,P|141:270|131:217,1,71.9999978027344,2|0,0:0|0:0,0:0:0:0:
52,51,128501,1,8,0:0:0:0:
192,13,128656,2,0,P|184:48|175:83,1,71.9999978027344,2|0,0:0|0:0,0:0:0:0:
0,193,128811,6,0,L|251:159,1,215.999993408203,2|0,0:0|0:0,0:0:0:0:
226,171,129121,1,8,0:0:0:0:
512,0,129276,6,0,P|498:34|480:99,1,71.9999978027344,2|0,0:0|0:0,0:0:0:0:
346,30,129431,2,0,P|382:35|448:53,1,71.9999978027344,2|0,0:0|0:0,0:0:0:0:
465,140,129586,5,2,0:0:0:0:
359,190,129741,2,0,P|374:232|380:280,1,71.9999978027344,8|0,0:0|0:0,0:0:0:0:
470,283,129896,2,0,P|461:326|443:371,1,71.9999978027344,2|0,0:0|0:0,0:0:0:0:
177,266,130051,6,0,P|143:258|116:234,1,71.9999978027344,4|0,0:0|0:0,0:0:0:0:
52,350,130208,1,0,0:0:0:0:
42,356,130286,1,0,0:0:0:0:
32,362,130365,2,0,L|133:347,1,71.9999978027344,8|0,0:0|0:0,0:0:0:0:
470,283,130522,6,0,L|234:258,1,215.999993408203,6|0,0:0|0:0,0:0:0:0:
177,266,130836,1,0,0:0:0:0:
321,186,130993,6,0,P|372:182|410:169,1,71.9999978027344,8|0,0:0|0:0,0:0:0:0:
399,368,131150,2,0,P|367:353|332:347,1,71.9999978027344,2|0,0:0|0:0,0:0:0:0:
59,228,131307,5,2,0:0:0:0:
139,384,131463,1,2,0:0:0:0:
177,266,131619,1,8,0:0:0:0:
3,294,131775,6,0,P|57:224|52:202,1,71.9999978027344,2|0,0:0|0:0,0:0:0:0:
136,189,131932,2,0,P|102:107|80:100,1,71.9999978027344,2|0,0:0|0:0,0:0:0:0:
111,21,132088,1,2,0:0:0:0:
0,140,132244,5,8,0:0:0:0:
221,76,132400,1,2,0:0:0:0:
411,148,132557,6,0,L|494:165,1,71.9999978027344,2|0,0:0|0:0,0:0:0:0:
457,30,132712,1,2,0:0:0:0:
451,20,132790,1,0,0:0:0:0:
445,10,132867,2,0,L|460:111,1,71.9999978027344,8|0,0:0|0:0,0:0:0:0:
436,370,133023,6,0,P|471:284|480:149,1,215.999993408203,2|0,0:0|0:0,0:0:0:0:
411,148,133334,1,2,0:0:0:0:
476,304,133489,6,0,P|486:266|489:208,1,71.9999978027344,8|0,0:0|0:0,0:0:0:0:
307,127,133645,2,0,L|320:197,1,71.9999978027344,2|0,0:0|0:0,0:0:0:0:
436,370,133800,5,2,0:0:0:0:
427,373,133876,1,0,0:0:0:0:
418,376,133953,1,2,0:0:0:0:
409,379,134030,1,0,0:0:0:0:
400,382,134107,2,0,L|329:368,1,71.9999978027344,8|0,0:0|0:0,0:0:0:0:
131,235,134261,5,2,0:0:0:0:
179,229,134338,1,2,0:0:0:0:
227,223,134415,1,2,0:0:0:0:
0,161,134569,1,0,0:0:0:0:
116,372,134723,6,0,B|131:358|131:358|157:134,1,215.999993408203,8|0,0:0|0:0,0:0:0:0:
51,16,135030,5,6,0:0:0:0:
239,50,135191,1,8,0:0:0:0:
51,16,135352,5,8,0:0:0:0:
278,140,135513,6,0,B|375:121|375:121|400:55|400:55|522:31,1,270.000010299683,6|0,0:0|0:0,0:0:0:0:
498,35,135836,1,2,0:0:0:0:
372,79,135997,1,8,0:0:0:0:
457,121,136159,1,2,0:0:0:0:
288,342,136320,5,2,0:0:0:0:
356,294,136477,1,2,0:0:0:0:
438,286,136635,1,8,0:0:0:0:
283,357,136793,6,0,B|219:376|155:320|205:265|130:222|56:230,1,270.000010299683,6|0,0:0|0:0,0:0:0:0:
94,307,137109,1,2,0:0:0:0:
188,191,137267,1,8,0:0:0:0:
145,79,137425,1,2,0:0:0:0:
50,63,137583,5,2,0:0:0:0:
246,43,137737,1,2,0:0:0:0:
69,169,137891,1,8,0:0:0:0:
231,121,138045,5,2,0:0:0:0:
231,121,138199,1,2,0:0:0:0:
334,200,138354,1,2,0:0:0:0:
455,166,138508,1,8,0:0:0:0:
352,87,138663,1,2,0:0:0:0:
469,338,138816,5,2,0:0:0:0:
459,255,138973,1,2,0:0:0:0:
449,172,139130,1,8,0:0:0:0:
211,287,139287,5,2,0:0:0:0:
221,204,139444,1,2,0:0:0:0:
231,121,139601,1,2,0:0:0:0:
449,172,139758,5,8,0:0:0:0:
439,89,139915,1,2,0:0:0:0:
206,40,140072,5,6,0:0:0:0:
221,204,140225,1,2,0:0:0:0:
236,368,140379,1,8,0:0:0:0:
375,302,140533,5,6,0:0:0:0:
293,294,140686,1,0,0:0:0:0:
211,287,140840,1,2,0:0:0:0:
0,146,140995,5,8,0:0:0:0:
7,228,141149,1,2,0:0:0:0:
211,43,141302,5,2,0:0:0:0:
163,110,141459,1,2,0:0:0:0:
128,34,141617,1,8,0:0:0:0:
364,199,141775,5,2,0:0:0:0:
316,132,141933,1,2,0:0:0:0:
399,123,142090,1,2,0:0:0:0:
281,208,142249,5,8,0:0:0:0:
474,303,142407,1,2,0:0:0:0:
399,123,142565,5,2,0:0:0:0:
434,384,142719,1,2,0:0:0:0:
483,307,142874,1,8,0:0:0:0:
299,78,143028,5,2,0:0:0:0:
281,208,143182,1,2,0:0:0:0:
263,337,143338,1,2,0:0:0:0:
207,263,143492,5,8,0:0:0:0:
336,281,143648,1,2,0:0:0:0:
80,335,143802,5,2,0:0:0:0:
65,246,143958,1,2,0:0:0:0:
50,157,144114,1,8,0:0:0:0:
90,332,144270,5,2,0:0:0:0:
99,224,144426,1,2,0:0:0:0:
110,116,144582,1,2,0:0:0:0:
103,331,144739,5,8,0:0:0:0:
194,84,144895,1,0,0:0:0:0:
11,8,145052,5,4,0:0:0:0:
25,5,145131,1,4,0:0:0:0:
40,3,145210,1,4,0:0:0:0:
55,0,145290,1,4,0:0:0:0:
84,25,145369,5,4,0:0:0:0:
97,29,145448,1,4,0:0:0:0:
111,35,145527,1,4,0:0:0:0:
126,40,145607,1,4,0:0:0:0:
138,76,145687,5,4,0:0:0:0:
147,86,145766,1,4,0:0:0:0:
157,98,145845,1,4,0:0:0:0:
167,110,145925,1,4,0:0:0:0:
159,147,146004,5,4,0:0:0:0:
162,160,146083,1,4,0:0:0:0:
164,175,146162,1,4,0:0:0:0:
167,191,146242,1,4,0:0:0:0:
141,219,146321,6,0,L|70:209,1,60,6|0,0:0|0:0,0:0:0:0:
0,315,146475,2,0,L|90:302,1,90.0000034332277
257,246,146630,5,8,0:0:0:0:
323,237,146707,1,0,0:0:0:0:
387,257,146784,1,2,0:0:0:0:
437,301,146861,1,0,0:0:0:0:
465,362,146939,6,0,L|343:346,1,90.0000034332277,2|0,0:0|0:0,0:0:0:0:
287,338,147094,2,0,L|376:350,1,90.0000034332277,2|0,0:0|0:0,0:0:0:0:
512,259,147248,1,8,0:0:0:0:
483,23,147403,6,0,P|470:72|443:110,1,90.0000034332277,2|0,0:0|0:0,0:0:0:0:
450,191,147558,2,0,P|490:65|477:5,1,180.000006866455,2|2,0:0|0:0,0:0:0:0:
315,7,147867,6,0,P|328:55|323:102,1,90.0000034332277,8|0,0:0|0:0,0:0:0:0:
372,171,148022,2,0,P|344:41|302:-3,1,180.000006866455,2|2,0:0|0:0,0:0:0:0:
163,79,148331,6,0,P|198:114|218:157,1,90.0000034332277,2|0,0:0|0:0,0:0:0:0:
294,192,148485,2,0,P|205:94|146:75,1,180.000006866455,8|0,0:0|0:0,0:0:0:0:
0,211,148795,5,2,0:0:0:0:
69,287,148952,2,0,L|48:369,1,60,2|0,0:0|0:0,0:0:0:0:
154,342,149109,5,8,0:0:0:0:
160,334,149187,1,0,0:0:0:0:
167,327,149266,1,2,0:0:0:0:
175,321,149344,1,0,0:0:0:0:
183,315,149423,1,2,0:0:0:0:
192,310,149501,1,0,0:0:0:0:
201,307,149580,1,2,0:0:0:0:
211,304,149658,1,0,0:0:0:0:
221,302,149737,1,8,0:0:0:0:
231,300,149815,1,0,0:0:0:0:
241,300,149894,2,0,L|340:319,1,60,2|0,0:0|0:0,0:0:0:0:
483,362,150051,6,0,B|513:317|513:317|330:353,1,180.000006866455,2|2,0:0|0:0,0:0:0:0:
386,346,150287,1,0,0:0:0:0:
382,350,150365,2,0,B|399:314|399:314|392:252,1,90.0000034332277
294,45,150522,6,0,P|357:251|348:9,1,720.000027465821,2|0,0:0|0:0,0:0:0:0:
339,118,151308,5,6,0:0:0:0:
360,170,151386,1,0,0:0:0:0:
417,170,151464,1,2,0:0:0:0:
440,119,151542,1,0,0:0:0:0:
401,77,151620,2,0,P|363:106|365:136,3,60,8|0|2|0,0:0|0:0|0:0|0:0,0:0:0:0:
292,217,151933,5,6,0:0:0:0:
249,253,152011,1,0,0:0:0:0:
265,308,152089,1,2,0:0:0:0:
322,313,152167,1,0,0:0:0:0:
349,264,152245,2,0,P|310:236|282:247,3,60,8|0|2|0,0:0|0:0|0:0|0:0,0:0:0:0:
131,257,152558,5,2,0:0:0:0:
174,221,152636,1,0,0:0:0:0:
158,166,152714,1,2,0:0:0:0:
101,161,152792,1,0,0:0:0:0:
74,210,152870,2,0,P|112:237|140:226,3,60,8|0|2|0,0:0|0:0|0:0|0:0,0:0:0:0:
170,86,153183,5,2,0:0:0:0:
217,115,153261,1,0,0:0:0:0:
264,83,153339,1,2,0:0:0:0:
252,27,153417,1,0,0:0:0:0:
197,17,153495,2,0,P|182:62|201:85,3,60,8|0|2|0,0:0|0:0|0:0|0:0,0:0:0:0:
323,149,153808,5,2,0:0:0:0:
352,145,153886,1,0,0:0:0:0:
382,142,153964,1,2,0:0:0:0:
412,139,154042,1,0,0:0:0:0:
442,136,154120,6,0,P|434:172|418:224,1,60,8|0,0:0|0:0,0:0:0:0:
380,64,154276,2,0,P|372:27|356:-24,1,60,2|0,0:0|0:0,0:0:0:0:
275,232,154433,6,0,L|190:247,3,60,2|0|2|0,0:0|0:0|0:0|0:0,0:0:0:0:
187,333,154745,5,8,0:0:0:0:
149,308,154823,1,0,0:0:0:0:
106,296,154901,1,2,0:0:0:0:
61,297,154979,1,0,0:0:0:0:
19,311,155058,6,0,L|31:377,1,60,2|0,0:0|0:0,0:0:0:0:
153,166,155214,2,0,L|141:231,1,60,2|0,0:0|0:0,0:0:0:0:
8,252,155370,2,0,L|19:317,1,60,8|0,0:0|0:0,0:0:0:0:
163,106,155526,2,0,L|151:171,1,60,2|0,0:0|0:0,0:0:0:0:
70,193,155683,5,2,0:0:0:0:
65,148,155761,1,0,0:0:0:0:
60,103,155839,1,2,0:0:0:0:
55,58,155917,1,0,0:0:0:0:
51,13,155995,6,0,P|41:48|28:81,1,60,8|0,0:0|0:0,0:0:0:0:
163,106,156151,2,0,P|152:77|144:49,1,60,2|0,0:0|0:0,0:0:0:0:
313,17,156308,5,2,0:0:0:0:
318,17,156386,1,0,0:0:0:0:
324,18,156464,1,2,0:0:0:0:
330,19,156542,1,0,0:0:0:0:
336,20,156620,1,8,0:0:0:0:
342,20,156698,1,0,0:0:0:0:
348,21,156776,1,2,0:0:0:0:
354,22,156854,1,0,0:0:0:0:
360,23,156933,1,2,0:0:0:0:
366,24,157011,1,0,0:0:0:0:
366,24,157089,6,0,B|417:5|483:22|483:22|431:51|401:128,1,225,2|0,0:0|0:0,0:0:0:0:
507,224,157401,2,0,P|477:149|479:124,1,75,2|0,0:0|0:0,0:0:0:0:
298,131,157558,5,2,0:0:0:0:
290,138,157635,1,0,0:0:0:0:
282,145,157713,2,0,L|183:132,1,60,2|0,0:0|0:0,0:0:0:0:
52,210,157868,5,8,0:0:0:0:
60,203,157945,1,0,0:0:0:0:
68,196,158024,2,0,L|167:209,1,60,2|0,0:0|0:0,0:0:0:0:
214,293,158179,5,2,0:0:0:0:
207,285,158256,1,0,0:0:0:0:
200,277,158334,2,0,L|213:178,1,60,2|0,0:0|0:0,0:0:0:0:
135,47,158489,5,8,0:0:0:0:
142,55,158568,1,0,0:0:0:0:
149,63,158646,2,0,L|136:162,1,60,2|0,0:0|0:0,0:0:0:0:
112,304,158801,6,0,B|167:221|277:242|277:242|229:256|214:292,1,270.000010299683,2|0,0:0|0:0,0:0:0:0:
451,202,159112,6,0,B|362:223|362:223|358:221|358:221|253:248,1,180.000006866455,8|2,0:0|0:0,0:0:0:0:
289,324,159345,5,0,0:0:0:0:
295,328,159423,2,0,P|337:337|374:304,1,90.0000034332277,2|0,0:0|0:0,0:0:0:0:
505,259,159578,2,0,P|491:218|444:202,1,90.0000034332277,2|0,0:0|0:0,0:0:0:0:
308,90,159734,5,8,0:0:0:0:
276,241,159889,1,2,0:0:0:0:
508,78,160045,6,0,B|387:94|387:94|421:-3|421:-3|197:24,1,450.000017166138,2|0,0:0|0:0,0:0:0:0:
105,133,160511,6,0,B|52:47|52:47|284:86,1,270.000010299683,2|0,0:0|0:0,0:0:0:0:
308,90,160822,1,2,0:0:0:0:
0,133,160977,6,0,B|293:182,1,270.000010299683,12|0,0:0|0:0,0:0:0:0:
510,306,161288,6,0,B|456:133|267:178|267:178|337:212|345:289|345:289|390:268|389:233,1,525.00000500679,6|0,0:0|0:0,0:0:0:0:
372,155,161754,1,2,0:0:0:0:
418,356,161910,5,0,0:0:0:0:
418,356,162065,1,0,0:0:0:0:
257,270,162221,6,0,B|186:282|186:282|147:263|147:263|90:344|90:344|57:318|57:318|-9:331,1,315.000003004074
90,343,162532,5,2,0:0:0:0:
116,306,162611,1,0,0:0:0:0:
126,263,162691,1,2,0:0:0:0:
119,218,162771,1,0,0:0:0:0:
96,180,162851,6,0,P|109:141|112:100,1,60,8|0,0:0|0:0,0:0:0:0:
4,20,163010,2,0,P|9:49|20:77,1,60,2|0,0:0|0:0,0:0:0:0:
269,31,163170,5,2,0:0:0:0:
224,27,163249,1,0,0:0:0:0:
179,23,163329,2,0,L|78:12,1,60,2|0,0:0|0:0,0:0:0:0:
232,147,163489,5,8,0:0:0:0:
284,118,163568,1,0,0:0:0:0:
342,103,163648,1,2,0:0:0:0:
402,103,163728,1,0,0:0:0:0:
460,118,163808,6,0,L|476:213,3,60,6|0|2|0,0:0|0:0|0:0|0:0,0:0:0:0:
351,278,164123,2,0,L|360:218,3,60,12|0|2|0,0:0|0:0|0:0|0:0,0:0:0:0:
479,309,164439,5,2,0:0:0:0:
439,353,164517,1,0,0:0:0:0:
386,379,164596,1,2,0:0:0:0:
326,381,164675,1,0,0:0:0:0:
271,360,164755,5,8,0:0:0:0:
259,332,164833,1,0,0:0:0:0:
240,309,164912,1,2,0:0:0:0:
216,292,164991,1,0,0:0:0:0:
188,282,165071,6,0,L|118:301,1,60,4|4,0:0|0:0,0:0:0:0:
0,336,165230,5,8,0:0:0:0:
39,298,165310,1,4,0:0:0:0:
54,245,165390,2,0,L|37:158,1,60,8|4,0:0|0:0,0:0:0:0:
190,0,165549,2,0,L|178:58,1,60,4|4,0:0|0:0,0:0:0:0:
0,122,165709,5,8,0:0:0:0:
15,73,165789,1,4,0:0:0:0:
42,38,165868,2,0,L|118:47,1,60,4|4,0:0|0:0,0:0:0:0:
193,178,166028,2,0,L|269:169,1,60,8|4,0:0|0:0,0:0:0:0:
499,73,166188,2,0,L|440:66,1,60,8|4,0:0|0:0,0:0:0:0:
326,9,166347,6,0,L|356:229,1,180.000006866455,6|0,0:0|0:0,0:0:0:0:
446,289,166574,1,0,0:0:0:0:
454,282,166650,2,0,P|472:240|449:190,1,90.0000034332277,8|0,0:0|0:0,0:0:0:0:
268,382,166801,6,0,B|151:314|193:178|193:178|181:252|225:298,1,360.000013732911,2|2,0:0|0:0,0:0:0:0:
296,304,167180,1,0,0:0:0:0:
300,312,167256,2,0,L|400:339,1,90.0000034332277,8|0,0:0|0:0,0:0:0:0:
101,261,167407,2,0,L|1:288,1,90.0000034332277,2|0,0:0|0:0,0:0:0:0:
280,174,167559,5,2,0:0:0:0:
324,180,167637,1,0,0:0:0:0:
369,186,167716,1,2,0:0:0:0:
413,193,167795,1,0,0:0:0:0:
458,199,167874,2,0,P|448:150|393:93,1,90.0000034332277,8|0,0:0|0:0,0:0:0:0:
139,42,168032,6,0,B|87:49|0:173|101:261|101:261|43:177|163:171|63:105,1,450.000017166138,2|0,0:0|0:0,0:0:0:0:
19,29,168506,2,0,P|14:161|101:261,1,270.000010299683,8|0,0:0|0:0,0:0:0:0:
324,180,168822,6,0,B|235:149|235:149|269:277,1,180.000006866455,2|2,0:0|0:0,0:0:0:0:
312,290,169055,1,0,0:0:0:0:
322,286,169132,2,0,L|308:375,1,90.0000034332277,8|0,0:0|0:0,0:0:0:0:
440,136,169288,6,0,B|529:110|550:42|461:30|420:233,1,270.000010299683,2|0,0:0|0:0,0:0:0:0:
473,273,169599,2,0,P|493:322|490:376,1,90.0000034332277,2|0,0:3|0:0,0:3:0:0:
212,294,169754,6,0,B|163:324|143:273|105:237|34:260|119:256|37:281|112:279|136:232|135:167|193:189|193:189,1,270.000010299683,8|0,0:3|0:0,0:0:0:0:
257,231,170065,1,2,0:0:0:0:
60,173,170222,6,0,L|47:115,1,60,8|0,0:0|0:0,0:0:0:0:
84,47,170379,1,2,0:0:0:0:
7,246,170536,1,2,0:0:0:0:
277,49,170693,6,0,P|268:102|227:159,1,90.0000034332277,8|0,0:0|0:0,0:0:0:0:
177,112,170850,2,0,P|186:59|227:2,1,90.0000034332277,2|0,0:0|0:0,0:0:0:0:
353,117,171007,5,8,0:0:0:0:
193,189,171164,1,8,0:0:0:0:
458,84,171321,5,6,0:0:0:0:
463,113,171398,1,0,0:0:0:0:
468,143,171476,1,2,0:0:0:0:
473,172,171554,1,0,0:0:0:0:
478,202,171631,5,8,0:0:0:0:
483,231,171709,1,0,0:0:0:0:
431,259,171786,1,2,0:0:0:0:
408,314,171864,1,0,0:0:0:0:
422,371,171942,6,0,L|503:360,3,60,2|0|2|0,0:0|0:0|0:0|0:0,0:0:0:0:
295,245,172253,2,0,L|375:256,1,60,8|0,0:0|0:0,0:0:0:0:
201,332,172409,2,0,L|281:320,1,60,2|0,0:0|0:0,0:0:0:0:
48,195,172564,5,2,0:0:0:0:
32,236,172642,1,0,0:0:0:0:
29,281,172721,1,2,0:0:0:0:
39,325,172799,1,0,0:0:0:0:
62,363,172878,5,8,0:0:0:0:
98,317,172957,1,0,0:0:0:0:
122,263,173035,1,2,0:0:0:0:
129,206,173114,1,0,0:0:0:0:
117,149,173192,6,0,P|88:122|48:113,1,60,2|0,0:0|0:0,0:0:0:0:
105,40,173349,2,0,P|66:31|27:43,1,60,2|0,0:0|0:0,0:0:0:0:
295,20,173506,5,8,0:0:0:0:
249,58,173584,1,0,0:0:0:0:
222,111,173663,1,2,0:0:0:0:
217,170,173741,1,0,0:0:0:0:
237,227,173820,6,0,L|316:240,1,60,2|0,0:0|0:0,0:0:0:0:
470,267,173975,2,0,L|411:277,1,60,2|0,0:0|0:0,0:0:0:0:
259,305,174130,6,0,L|337:317,1,60,8|0,0:0|0:0,0:0:0:0:
491,189,174286,2,0,L|432:199,1,60,2|0,0:0|0:0,0:0:0:0:
377,376,174441,1,2,0:0:0:0:
388,371,174519,1,0,0:0:0:0:
380,368,174597,1,2,0:0:0:0:
385,379,174675,1,0,0:0:0:0:
381,373,174752,5,2,0:0:0:0:
375,313,174829,1,0,0:0:0:0:
369,253,174907,1,2,0:0:0:0:
364,193,174985,1,0,0:0:0:0:
358,134,175063,6,0,P|326:97|290:80,1,60,8|0,0:0|0:0,0:0:0:0:
179,241,175218,2,0,P|227:231|260:208,1,60,8|0,0:0|0:0,0:0:0:0:
176,32,175374,2,0,P|160:78|163:118,1,60,8|0,0:0|0:0,0:0:0:0:
236,137,175529,5,2,0:0:0:0:
249,22,175685,6,0,P|277:13|307:10,1,60,2|0,0:0|0:0,0:0:0:0:
134,182,175841,2,0,P|111:162|94:137,1,60,8|0,0:0|0:0,0:0:0:0:
330,202,175996,2,0,P|323:231|311:258,1,60,8|0,0:0|0:0,0:0:0:0:
236,137,176151,5,2,0:0:0:0:
236,137,176307,1,4,0:0:0:0:
243,140,176465,5,4,0:0:0:0:
288,101,176544,1,0,0:0:0:0:
344,81,176623,1,4,0:0:0:0:
404,80,176703,1,0,0:0:0:0:
460,100,176783,6,0,P|466:151|440:196,1,90.0000034332277,8|0,0:0|0:0,0:0:0:0:
404,297,176941,6,0,L|276:285,1,90.0000034332277,2|0,0:0|0:0,0:0:0:0:
158,340,177100,2,0,L|69:349,1,90.0000034332277,2|0,0:0|0:0,0:0:0:0:
269,382,177259,2,0,L|359:374,1,90.0000034332277,8|0,0:0|0:0,0:0:0:0:
232,301,177418,1,2,0:0:0:0:
25,266,177576,5,2,0:0:0:0:
70,228,177654,1,0,0:0:0:0:
96,174,177732,1,2,0:0:0:0:
95,114,177810,1,0,0:0:0:0:
68,61,177888,2,0,L|5:54,1,60,8|0,0:0|0:0,0:0:0:0:
172,182,178044,1,2,0:0:0:0:
325,2,178201,6,0,B|316:66|316:66|314:68|314:68|306:127|306:127|288:151|288:151|273:154|273:154|324:353|268:154|319:353|319:353|369:274|369:274|370:269|370:269|383:248|383:248|256:133,1,630.000006008148,0|2,0:0|0:0,0:0:0:0:
480,18,178826,6,0,P|408:75|452:173,1,180.000006866455,2|0,0:0|0:0,0:0:0:0:
486,100,179059,2,0,P|458:198|465:304,1,180.000006866455
468,279,179293,2,0,P|470:323|450:363,1,90.0000034332277,2|0,0:0|0:0,0:0:0:0:
58,375,179449,6,0,P|130:318|86:220,1,180.000006866455,2|0,0:0|0:0,0:0:0:0:
52,293,179682,2,0,P|80:195|73:89,1,180.000006866455
70,114,179916,2,0,P|67:69|87:29,1,90.0000034332277,2|0,0:0|0:0,0:0:0:0:
41,298,180072,5,2,0:0:0:0:
84,365,180176,1,0,0:0:0:0:
151,322,180281,1,0,0:0:0:0:
204,354,180386,1,2,0:0:0:0:
247,341,180490,1,0,0:0:0:0:
276,351,180595,1,0,0:0:0:0:
290,349,180700,6,0,B|6:371|6:371|41:298|41:298|214:335,1,540.000020599366,8|4,0:0|0:0,0:0:0:0:
468,338,181328,5,6,0:0:0:0:
474,308,181405,1,0,0:0:0:0:
480,279,181483,2,0,L|493:205,1,60,2|0,0:0|0:0,0:0:0:0:
368,292,181638,5,8,0:0:0:0:
361,262,181715,1,0,0:0:0:0:
356,233,181794,2,0,L|343:159,1,60,2|0,0:0|0:0,0:0:0:0:
483,209,181949,5,2,0:0:0:0:
489,179,182026,1,0,0:0:0:0:
495,150,182104,2,0,L|508:76,1,60,2|0,0:0|0:0,0:0:0:0:
353,163,182260,5,8,0:0:0:0:
347,133,182338,1,0,0:0:0:0:
341,104,182416,2,0,L|328:30,1,60,2|0,0:0|0:0,0:0:0:0:
446,0,182571,5,2,0:0:0:0:
440,30,182649,1,0,0:0:0:0:
434,59,182728,2,0,L|421:133,1,60,2|0,0:0|0:0,0:0:0:0:
195,72,182885,5,8,0:0:0:0:
201,102,182963,1,0,0:0:0:0:
207,131,183042,2,0,L|220:205,1,60,2|0,0:0|0:0,0:0:0:0:
456,374,183199,6,0,L|466:314,1,60,8|0,0:0|0:0,0:0:0:0:
379,328,183356,2,0,L|373:268,1,60,8|0,0:0|0:0,0:0:0:0:
292,303,183513,2,0,L|271:246,1,60,2|0,0:0|0:0,0:0:0:0:
201,301,183670,2,0,L|166:251,1,60,2|0,0:0|0:0,0:0:0:0:
112,322,183827,6,0,B|66:283|66:283|328:331,1,300,12|0,0:0|0:0,0:0:0:0:
420,149,184298,2,0,P|425:170|415:151,1,60,2|0,0:0|0:0,0:0:0:0:
494,268,184455,6,0,B|418:291|418:291|357:207|405:64,1,270.000010299683,12|0,0:0|0:0,0:0:0:0:
424,38,184769,6,0,L|512:57,1,90.0000034332277
499,277,184927,2,0,L|413:304,1,90.0000034332277,4|0,0:0|0:0,0:0:0:0:
422,160,185084,5,4,0:0:0:0:
103,16,185398,5,4,0:0:0:0:
122,200,185555,1,4,0:0:0:0:
422,160,185853,5,4,0:0:0:0:
397,370,186010,1,4,0:0:0:0:
122,200,186301,6,0,B|25:163|25:163|39:264|39:264|105:287,1,270.000010299683,6|0,0:0|0:0,0:0:0:0:
235,273,186611,6,0,B|119:295|119:295|89:348|89:348|-16:366,1,270.000010299683,6|0,0:0|0:0,0:0:0:0:
315,305,186949,6,0,P|318:254|262:196,1,90.0000034332277,6|0,0:0|0:0,0:0:0:0:
205,353,187105,2,0,P|233:311|214:232,1,90.0000034332277,2|0,0:0|0:0,0:0:0:0:
229,189,187262,1,8,0:0:0:0:
486,47,187418,6,0,B|397:16|397:16|457:187,1,270.000010299683,6|0,0:0|0:0,0:0:0:0:
473,193,187732,1,2,0:0:0:0:
259,46,187967,5,0,0:0:0:0:
245,35,188045,2,0,P|159:15|54:58,1,180,2|0,0:0|0:0,0:0:0:0:
69,50,188358,6,0,P|111:71|161:70,1,60,2|0,0:0|0:0,0:0:0:0:
338,15,188515,1,8,0:0:0:0:
234,284,188672,6,0,P|220:182|197:74,1,180,6|0,0:0|0:0,0:0:0:0:
198,102,188985,1,2,0:0:0:0:
318,172,189142,6,0,L|301:265,1,60,8|0,0:0|0:0,0:0:0:0:
128,171,189298,2,0,L|160:259,1,60,2|0,0:0|0:0,0:0:0:0:
224,365,189455,5,6,0:0:0:0:
224,365,189610,1,2,0:0:0:0:
415,333,189765,5,8,0:0:0:0:
319,301,189921,1,2,0:0:0:0:
488,251,190076,5,2,0:0:0:0:
488,251,190232,1,2,0:0:0:0:
414,172,190387,5,8,0:0:0:0:
510,140,190543,1,2,0:0:0:0:
341,90,190698,5,2,0:0:0:0:
341,90,190854,1,2,0:0:0:0:
446,16,191009,5,8,0:0:0:0:
414,172,191164,1,2,0:0:0:0:
258,140,191320,5,2,0:0:0:0:
258,140,191475,1,2,0:0:0:0:
373,246,191631,5,8,0:0:0:0:
341,90,191786,1,2,0:0:0:0:
185,122,191942,6,0,L|200:35,1,60,6|0,0:0|0:0,0:0:0:0:
44,8,192096,2,0,L|54:67,1,60,2|0,0:0|0:0,0:0:0:0:
126,193,192251,1,8,0:0:0:0:
157,0,192405,6,0,L|119:234,1,180,6|0,0:0|0:0,0:0:0:0:
126,193,192715,1,2,0:0:0:0:
54,67,192869,1,8,0:0:0:0:
40,277,193024,6,0,P|109:227|232:229,1,180,2|0,0:0|0:0,0:0:0:0:
205,225,193336,6,0,P|182:250|166:292,1,60,2|0,0:0|0:0,0:0:0:0:
35,288,193493,1,8,0:0:0:0:
462,307,193650,6,0,B|405:253|320:297|374:340|277:379|214:348,1,270.000010299683,6|0,0:0|0:0,0:0:0:0:
171,273,193964,2,0,P|214:262|257:273,1,90.0000034332277,2|0,0:0|0:0,0:0:0:0:
410,361,194121,6,0,B|320:303|337:177|337:177|333:236|383:244|352:279,1,315.000003004074,8|0,0:0|0:0,0:0:0:0:
220,351,194435,5,6,0:0:0:0:
220,351,194588,1,2,0:0:0:0:
103,210,194742,6,0,P|142:188|186:188,1,60,8|0,0:0|0:0,0:0:0:0:
229,264,194896,2,0,P|199:263|171:273,1,60,2|0,0:0|0:0,0:0:0:0:
21,166,195050,5,2,0:0:0:0:
21,166,195204,1,2,0:0:0:0:
103,210,195358,6,0,P|142:188|186:188,1,60,8|0,0:0|0:0,0:0:0:0:
184,99,195511,2,0,P|221:122|244:160,1,60,2|0,0:0|0:0,0:0:0:0:
420,244,195665,5,8,0:0:0:0:
416,257,195745,1,2,0:0:0:0:
414,273,195826,1,8,0:0:0:0:
411,288,195906,1,2,0:0:0:0:
409,303,195987,5,2,0:0:0:0:
368,284,196067,1,2,0:0:0:0:
338,250,196148,1,8,0:0:0:0:
324,208,196228,1,2,0:0:0:0:
328,164,196309,5,8,0:0:0:0:
308,123,196390,1,2,0:0:0:0:
270,97,196471,1,2,0:0:0:0:
224,93,196552,1,2,0:0:0:0:
182,112,196632,6,0,P|210:159|241:186,1,60,8|0,0:0|0:0,0:0:0:0:
460,131,196794,2,0,P|413:159|386:190,1,60,8|0,0:0|0:0,0:0:0:0:
163,246,196955,5,6,0:0:0:0:
324,208,197109,1,0,0:0:0:0:
203,321,197264,1,8,0:0:0:0:
361,35,197418,6,0,P|313:108|323:215,1,180,6|0,0:0|0:0,0:0:0:0:
409,162,197728,6,0,P|433:144|460:131,1,60,2|0,0:0|0:0,0:0:0:0:
181,111,197882,2,0,P|195:138|213:162,1,60,8|0,0:0|0:0,0:0:0:0:
512,286,198037,6,0,P|461:253|388:260,1,120,0|2,0:0|0:0,0:0:0:0:
461,364,198349,1,2,0:0:0:0:
409,162,198507,1,8,0:0:0:0:
338,384,198665,6,0,B|258:324|318:218|318:218|296:278|341:324,1,270.000010299683,6|0,0:0|0:0,0:0:0:0:
403,254,198981,1,2,0:0:0:0:
203,321,199139,1,8,0:0:0:0:
338,384,199297,1,2,0:0:0:0:
193,201,199455,6,0,L|204:334,1,120,6|2,0:0|0:0,0:0:0:0:
97,169,199764,1,8,0:0:0:0:
72,329,199918,1,2,0:0:0:0:
0,97,200073,5,2,0:0:0:0:
148,68,200228,1,2,0:0:0:0:
0,97,200382,5,8,0:0:0:0:
148,68,200537,1,2,0:0:0:0:
245,328,200692,5,2,0:0:0:0:
147,214,200848,1,2,0:0:0:0:
245,328,201004,5,8,0:0:0:0:
147,214,201160,1,2,0:0:0:0:
324,0,201317,5,2,0:0:0:0:
275,142,201473,1,2,0:0:0:0:
324,0,201629,5,8,0:0:0:0:
275,142,201785,1,2,0:0:0:0:
512,46,201942,6,0,P|457:104|433:100,1,60,6|0,0:0|0:0,0:0:0:0:
397,237,202097,2,0,P|374:160|389:141,1,60,2|0,0:0|0:0,0:0:0:0:
510,175,202252,2,0,P|432:156|423:133,1,60,8|0,0:0|0:0,0:0:0:0:
251,35,202408,6,0,P|375:60|402:120,1,180,6|0,0:0|0:0,0:0:0:0:
397,237,202719,5,2,0:0:0:0:
483,95,202874,1,8,0:0:0:0:
305,273,203030,6,0,B|287:324|311:372|311:372|326:339|388:306,1,180
502,338,203342,2,0,L|418:326,1,60,2|0,0:0|0:0,0:0:0:0:
215,291,203499,1,8,0:0:0:0:
397,237,203656,6,0,B|432:155|432:155|237:206,1,270.000010299683,6|0,0:0|0:0,0:0:0:0:
215,291,203970,2,0,P|187:246|115:232,1,90.0000034332277,2|0,0:0|0:0,0:0:0:0:
47,261,204127,1,8,0:0:0:0:
257,200,204284,1,2,0:0:0:0:
61,380,204441,6,0,L|42:227,1,120,6|2,0:0|0:0,0:0:0:0:
183,106,204753,1,8,0:0:0:0:
59,77,204909,1,2,0:0:0:0:
154,230,205066,5,2,0:0:0:0:
130,32,205222,1,2,0:0:0:0:
257,200,205378,5,8,0:0:0:0:
281,2,205534,1,2,0:0:0:0:
423,219,205691,5,2,0:0:0:0:
399,21,205847,1,2,0:0:0:0:
312,132,206003,5,8,0:0:0:0:
510,108,206159,1,2,0:0:0:0:
378,355,206316,5,2,0:0:0:0:
404,137,206472,1,2,0:0:0:0:
282,232,206628,5,8,0:0:0:0:
500,259,206784,1,2,0:0:0:0:
228,349,206941,5,8,0:0:0:0:
228,349,207095,1,8,0:0:0:0:
228,349,207250,1,8,0:0:0:0:
228,349,207404,6,0,P|205:344|166:357,1,60,8|0,0:0|0:0,0:0:0:0:
175,261,207559,2,0,P|142:273|117:298,1,71.9999978027344,8|0,0:0|0:0,0:0:0:0:
51,257,207714,2,0,P|57:216|83:184,1,83.9999974365235,8|0,0:0|0:0,0:0:0:0:
105,103,207868,6,0,P|59:97|15:115,1,96,8|0,0:0|0:0,0:0:0:0:
163,10,208023,2,0,P|201:39|219:83,1,96,8|0,0:0|0:0,0:0:0:0:
190,168,208178,5,2,0:0:0:0:
183,170,208282,5,2,0:0:0:0:
176,172,208351,1,2,0:0:0:0:
169,174,208420,1,2,0:0:0:0:
162,176,208492,6,0,L|259:189,1,80,8|8,0:0|0:0,0:0:0:0:
427,58,208701,6,0,L|330:71,1,80,8|2,0:0|0:0,0:0:0:0:
223,54,208910,6,0,P|231:77|235:110,2,40,2|2|2,0:0|0:0|0:0,0:0:0:0:
360,333,209120,5,8,0:0:0:0:
354,254,209225,1,8,0:0:0:0:
390,184,209329,1,8,0:0:0:0:
482,199,209434,6,0,P|432:258|354:254,1,160,6|2,0:0|0:0,0:0:0:0:
274,197,209748,5,8,0:0:0:0:
276,183,209852,1,2,0:0:0:0:
278,170,209957,1,2,0:0:0:0:
280,157,210062,5,2,0:0:0:0:
203,136,210166,1,2,0:0:0:0:
127,156,210271,1,2,0:0:0:0:
72,213,210376,1,8,0:0:0:0:
53,290,210480,1,2,0:0:0:0:
76,365,210585,1,2,0:0:0:0:
251,169,210690,5,2,0:0:0:0:
190,152,210794,1,2,0:0:0:0:
129,169,210899,1,2,0:0:0:0:
84,214,211004,1,8,0:0:0:0:
69,276,211108,1,2,0:0:0:0:
88,336,211213,1,2,0:0:0:0:
227,179,211318,5,2,0:0:0:0:
179,166,211422,1,2,0:0:0:0:
130,179,211527,1,2,0:0:0:0:
160,262,211632,2,0,P|183:281|162:259,2,80,8|2|2,0:0|0:0|0:0,0:0:0:0:
43,197,211947,5,2,0:0:0:0:
52,117,212051,1,2,0:0:0:0:
62,38,212156,1,2,0:0:0:0:
160,8,212261,5,10,0:0:0:0:
169,87,212366,1,2,0:0:0:0:
179,166,212470,1,2,0:0:0:0:
32,198,212575,6,0,L|44:95,2,80,2|2|2,0:0|0:0|0:0,0:0:0:0:
169,8,212889,2,0,L|178:87,2,80,10|2|2,0:0|0:0|0:0,0:0:0:0:
344,98,213204,6,0,B|377:124|377:124|439:133,2,80,2|2|2,0:0|0:0|0:0,0:0:0:0:
356,218,213513,2,0,B|397:224|397:224|455:200,2,80,10|2|2,0:0|0:0|0:0,0:0:0:0:
426,315,213822,2,0,B|465:299|465:299|503:250,2,80,2|2|2,0:0|0:0|0:0,0:0:0:0:
440,52,214131,5,14,0:0:0:0:
375,6,214234,1,2,0:0:0:0:
296,2,214337,1,2,0:0:0:0:
228,41,214441,6,0,B|195:65|190:92|190:92|145:56|72:58,1,160,6|2,0:0|0:0,0:0:0:0:
35,108,214753,5,8,0:0:0:0:
37,117,214857,1,2,0:0:0:0:
39,127,214961,1,2,0:0:0:0:
42,137,215066,5,2,0:0:0:0:
14,210,215170,1,2,0:0:0:0:
28,288,215274,1,2,0:0:0:0:
81,347,215378,1,8,0:0:0:0:
156,371,215482,1,2,0:0:0:0:
233,352,215586,1,2,0:0:0:0:
187,127,215691,5,2,0:0:0:0:
138,167,215795,1,2,0:0:0:0:
117,226,215899,1,2,0:0:0:0:
129,288,216003,1,8,0:0:0:0:
172,335,216107,1,2,0:0:0:0:
233,352,216211,1,2,0:0:0:0:
292,178,216316,5,2,0:0:0:0:
242,186,216420,1,2,0:0:0:0:
203,218,216524,1,2,0:0:0:0:
187,266,216628,1,8,0:0:0:0:
198,316,216732,1,2,0:0:0:0:
233,352,216836,1,2,0:0:0:0:
360,266,216941,6,0,L|265:275,2,80,6|2|2,0:0|0:0|0:0,0:0:0:0:
406,334,217253,5,8,0:0:0:0:
512,297,217357,1,2,0:0:0:0:
471,384,217461,1,2,0:0:0:0:
367,257,217566,6,0,L|381:160,2,80,2|2|2,0:0|0:0|0:0,0:0:0:0:
458,42,217878,5,8,0:0:0:0:
476,127,217982,1,2,0:0:0:0:
494,212,218086,1,2,0:0:0:0:
367,257,218191,6,0,L|381:160,1,80,4|8,0:0|0:0,0:0:0:0:
253,104,218399,1,8,0:0:0:0:
266,93,218503,2,0,L|251:7,1,80,8|4,0:0|0:0,0:0:0:0:
82,230,218711,1,4,0:0:0:0:
69,219,218815,6,0,L|84:133,2,80,4|4|8,0:0|0:0|0:0,0:0:0:0:
139,13,219128,2,0,L|152:91,2,80,8|4|8,0:0|0:0|0:0,0:0:0:0:
61,315,219441,6,0,B|-2:350|-43:219|82:213|146:283,1,240.000009155274,6|2,0:0|0:0,0:0:0:0:
239,357,219753,5,8,0:0:0:0:
252,354,219857,1,2,0:0:0:0:
265,351,219961,1,2,0:0:0:0:
278,349,220066,5,2,0:0:0:0:
262,271,220170,1,2,0:0:0:0:
293,199,220274,1,2,0:0:0:0:
360,157,220378,1,8,0:0:0:0:
439,161,220482,1,2,0:0:0:0:
502,209,220586,1,2,0:0:0:0:
293,324,220691,5,2,0:0:0:0:
281,262,220795,1,2,0:0:0:0:
306,204,220899,1,2,0:0:0:0:
359,171,221003,1,8,0:0:0:0:
422,174,221107,1,2,0:0:0:0:
472,212,221211,1,2,0:0:0:0:
306,304,221316,5,2,0:0:0:0:
296,254,221420,1,2,0:0:0:0:
316,208,221524,1,2,0:0:0:0:
359,181,221628,1,8,0:0:0:0:
409,184,221732,1,2,0:0:0:0:
449,214,221836,1,2,0:0:0:0:
472,310,221941,6,0,L|365:282,2,80,2|2|2,0:0|0:0|0:0,0:0:0:0:
472,132,222253,5,10,0:0:0:0:
472,132,222357,1,2,0:0:0:0:
472,132,222461,1,2,0:0:0:0:
359,3,222566,6,0,L|252:31,2,80,2|2|2,0:0|0:0|0:0,0:0:0:0:
359,181,222878,5,10,0:0:0:0:
359,181,222982,1,2,0:0:0:0:
359,181,223086,1,2,0:0:0:0:
166,129,223191,6,0,L|59:101,2,80,2|2|2,0:0|0:0|0:0,0:0:0:0:
266,114,223506,5,10,0:0:0:0:
266,114,223612,1,2,0:0:0:0:
266,114,223717,1,2,0:0:0:0:
7,151,223822,6,0,L|176:127,1,160,2|2,0:0|0:0,0:0:0:0:
244,184,224138,6,0,L|-6:148,1,240.000009155274,14|2,0:0|0:0,0:0:0:0:
67,13,224454,5,6,0:0:0:0:
146,14,224556,1,2,0:0:0:0:
217,50,224659,1,2,0:0:0:0:
265,113,224761,5,8,0:0:0:0:
278,111,224863,1,2,0:0:0:0:
291,109,224966,1,2,0:0:0:0:
304,107,225069,5,2,0:0:0:0:
278,182,225171,1,2,0:0:0:0:
291,260,225274,1,2,0:0:0:0:
338,323,225376,1,10,0:0:0:0:
410,357,225479,1,2,0:0:0:0:
489,354,225581,1,2,0:0:0:0:
397,125,225684,5,2,0:0:0:0:
361,177,225786,1,2,0:0:0:0:
355,240,225889,1,2,0:0:0:0:
378,299,225991,1,10,0:0:0:0:
427,340,226094,1,2,0:0:0:0:
489,354,226196,1,2,0:0:0:0:
466,158,226300,5,2,0:0:0:0:
427,190,226402,1,2,0:0:0:0:
409,238,226505,1,2,0:0:0:0:
415,288,226607,1,10,0:0:0:0:
444,330,226710,1,2,0:0:0:0:
489,354,226812,1,2,0:0:0:0:
343,331,226915,6,0,L|254:344,2,80,2|2|2,0:0|0:0|0:0,0:0:0:0:
206,277,227229,5,8,0:0:0:0:
126,267,227333,1,2,0:0:0:0:
47,258,227438,1,2,0:0:0:0:
102,372,227543,6,0,L|181:360,2,80,2|2|2,0:0|0:0|0:0,0:0:0:0:
292,203,227857,6,0,L|212:191,2,80,8|2|2,0:0|0:0|0:0,0:0:0:0:
0,8,228171,5,2,0:0:0:0:
28,81,228275,1,2,0:0:0:0:
94,125,228380,1,2,0:0:0:0:
173,123,228485,5,8,0:0:0:0:
201,49,228589,1,2,0:0:0:0:
267,5,228694,1,2,0:0:0:0:
346,7,228799,5,8,0:0:0:0:
351,16,228904,1,8,0:0:0:0:
356,25,229009,1,8,0:0:0:0:
497,28,229113,5,8,0:0:0:0:
491,36,229218,1,8,0:0:0:0:
486,45,229323,1,8,0:0:0:0:
411,116,229428,6,0,B|428:202|428:202|464:226|464:226|492:371,1,270.000010299683,2|0,0:0|0:0,0:0:0:0:
408,355,229742,2,0,B|382:312|382:312|402:253,1,90.0000034332277
394,274,229899,6,0,L|123:306,1,270.000010299683,2|0,0:0|0:0,0:0:0:0:
37,194,230213,5,2,0:0:0:0:
34,188,230291,1,0,0:0:0:0:
31,182,230370,2,0,B|68:195|68:195|127:373|127:373|192:391,1,270.000010299683,8|0,0:0|0:0,0:0:0:0:
472,252,230684,6,0,B|450:197|394:195|394:195|164:222,1,270.000010299683,2|0,0:0|0:0,0:0:0:0:
211,207,230998,2,0,L|325:194,1,90.0000034332277,8|0,0:0|0:0,0:0:0:0:
437,49,231155,6,0,B|513:80|522:184|522:184|494:141|437:125,1,270.000010299683,2|0,0:0|0:0,0:0:0:0:
304,284,231469,2,0,L|394:274,1,90.0000034332277,2|2,0:0|0:0,0:0:0:0:
270,38,231627,6,0,P|318:168|232:68,1,360,8|0,0:0|0:0,0:0:0:0:
223,92,231941,6,0,P|311:46|297:166,1,270.000010299683,2|0,0:0|0:0,0:0:0:0:
149,35,232248,2,0,L|59:24,1,90.0000034332277,8|0,0:0|0:0,0:0:0:0:
39,188,232402,6,0,B|140:171|140:171|167:187|167:187|331:159,1,270.000010299683,2|0,0:0|0:0,0:0:0:0:
371,109,232710,1,2,0:0:0:0:
149,35,232864,6,0,L|184:345,1,270.000010299683,8|0,0:0|0:0,0:0:0:0:
13,315,233171,5,2,0:0:0:0:
27,316,233249,1,2,0:0:0:0:
42,317,233328,1,2,0:0:0:0:
57,318,233407,1,2,0:0:0:0:
72,319,233486,1,10,0:0:0:0:
87,320,233565,1,2,0:0:0:0:
102,322,233644,1,2,0:0:0:0:
117,323,233723,1,2,0:0:0:0:
132,324,233802,1,10,0:0:0:0:
147,325,233881,1,2,0:0:0:0:
162,326,233960,1,2,0:0:0:0:
177,328,234039,1,2,0:0:0:0:
192,329,234118,1,10,0:0:0:0:
207,330,234197,1,2,0:0:0:0:
222,331,234276,1,2,0:0:0:0:
237,332,234355,1,2,0:0:0:0:
252,333,234434,1,10,0:0:0:0:
267,335,234511,1,2,0:0:0:0:
282,336,234588,1,2,0:0:0:0:
297,337,234665,1,2,0:0:0:0:
312,338,234743,1,10,0:0:0:0:
327,339,234820,1,2,0:0:0:0:
341,341,234897,1,2,0:0:0:0:
356,342,234975,1,2,0:0:0:0:
371,343,235052,1,10,0:0:0:0:
386,344,235129,1,2,0:0:0:0:
401,345,235207,1,2,0:0:0:0:
416,347,235284,1,2,0:0:0:0:
431,348,235361,1,10,0:0:0:0:
446,349,235439,1,2,0:0:0:0:
461,350,235516,1,2,0:0:0:0:
476,351,235593,1,2,0:0:0:0:
491,352,235671,1,6,0:0:0:0:
491,352,236927,5,0,0:0:0:0:
476,351,237246,1,0,0:0:0:0:
461,350,237565,1,0,0:0:0:0:
445,346,237884,1,0,0:0:0:0:
13,315,238203,5,6,0:0:0:0:
499,69,238506,5,6,0:0:0:0:
