osu file format v14

[General]
AudioFilename: audio.mp3
AudioLeadIn: 0
PreviewTime: 70064
Countdown: 0
SampleSet: None
StackLeniency: 0.3
Mode: 0
LetterboxInBreaks: 0
WidescreenStoryboard: 1

[Editor]
Bookmarks: 10064,20068,30071,40076,50074,60074,100073,115053,125046,135030,146321,166347,176783,186949,196955,206941,208178,208334,208492,208649,208806,209434,219441,229428,235671
DistanceSpacing: 1.2
BeatDivisor: 4
GridSize: 16
TimelineZoom: 2.699999

[Metadata]
Title:You're Better Off Dead
TitleUnicode:You're Better Off Dead
Artist:Children of Bodom
ArtistUnicode:Children of Bodom
Creator:Mazzerin
Version:Gabdu09's Hard
Source:
Tags:ksardas lmt asaben gabdu09 fcl hate crew deathroll melodeath melodic death metal english
BeatmapID:3057334
BeatmapSetID:1125258

[Difficulty]
HPDrainRate:5
CircleSize:3.7
OverallDifficulty:7.5
ApproachRate:8
SliderMultiplier:1.4
SliderTickRate:1

[Events]
//Background and Video events
0,0,"asdf.jpg",0,0
//Break Periods
2,100273,104342
//Storyboard Layer 0 (Background)
//Storyboard Layer 1 (Fail)
//Storyboard Layer 2 (Pass)
//Storyboard Layer 3 (Foreground)
//Storyboard Layer 4 (Overlay)
//Storyboard Sound Samples

[TimingPoints]
45,315.789473684211,4,1,5,60,1,0
2571,314.13612565445,4,1,5,60,1,0
3827,310.880829015544,4,1,5,60,1,0
8801,315.789473684211,4,1,8,60,1,0
10064,310.880829015544,4,1,5,60,1,0
10297,-100,4,1,5,5,0,0
10374,-100,4,1,5,60,0,0
10763,-100,4,1,5,5,0,0
10841,-100,4,1,5,60,0,0
11228,-100,4,1,5,5,0,0
11307,315.789473684211,4,1,5,60,1,0
11543,-100,4,1,5,5,0,0
11622,-100,4,1,5,60,0,0
12017,-100,4,1,5,5,0,0
12096,-100,4,1,5,60,0,0
12492,-100,4,1,5,5,0,0
12570,309.278350515464,4,1,5,60,1,0
12801,-100,4,1,5,5,0,0
12879,-100,4,1,5,60,0,0
13265,-100,4,1,5,5,0,0
13343,-100,4,1,5,60,0,0
13728,-100,4,1,5,5,0,0
13807,312.5,4,1,5,60,1,0
15291,-100,4,1,5,5,0,0
15369,-100,4,1,5,60,0,0
15760,-100,4,1,5,5,0,0
15838,-100,4,1,5,60,0,0
16228,-100,4,1,5,5,0,0
16307,-100,4,1,5,60,0,0
16541,-100,4,1,5,5,0,0
16619,-100,4,1,5,60,0,0
17010,-100,4,1,5,5,0,0
17109,312.5,4,1,5,60,1,0
17499,-100,4,1,5,5,0,0
17577,307.692307692308,4,1,5,60,1,0
17807,-100,4,1,5,5,0,0
17884,-100,4,1,5,60,0,0
18269,-100,4,1,5,5,0,0
18346,-100,4,1,5,60,0,0
18807,315.789473684211,4,1,5,60,1,0
19122,-100,4,1,8,60,0,0
19754,-100,4,1,5,60,0,0
19989,-100,4,1,5,5,0,0
20068,312.5,4,1,5,60,1,0
20302,-100,4,1,5,5,0,0
20380,-100,4,1,5,60,0,0
20771,-100,4,1,5,5,0,0
20849,-100,4,1,5,60,0,0
21239,-100,4,1,5,5,0,0
21318,-100,4,1,5,60,0,0
21552,-100,4,1,5,5,0,0
21630,-100,4,1,5,60,0,0
22021,-100,4,1,5,5,0,0
22099,-100,4,1,5,60,0,0
22802,-100,4,1,5,5,0,0
22880,-100,4,1,5,60,0,0
23271,-100,4,1,5,5,0,0
23349,-100,4,1,5,60,0,0
23739,-100,4,1,5,5,0,0
23818,315.789473684211,4,1,5,60,1,0
25081,310.077519379845,4,1,5,60,1,0
25313,-100,4,1,5,5,0,0
25391,-100,4,1,5,60,0,0
25778,-100,4,1,5,5,0,0
25856,-100,4,1,5,60,0,0
26243,-100,4,1,5,5,0,0
26321,-100,4,1,5,60,0,0
26553,-100,4,1,5,5,0,0
26631,-100,4,1,5,60,0,0
27018,-100,4,1,5,5,0,0
27096,-100,4,1,5,60,0,0
27484,-100,4,1,5,5,0,0
27561,315.789473684211,4,1,5,60,1,0
27797,-100,4,1,5,5,0,0
27876,-100,4,1,5,60,0,0
28271,-100,4,1,5,5,0,0
28350,-100,4,1,5,60,0,0
28824,-100,4,1,8,60,0,0
30071,312.5,4,1,5,60,1,0
30305,-100,4,1,5,5,0,0
30383,-100,4,1,5,60,0,0
30774,-100,4,1,5,5,0,0
30852,-100,4,1,5,60,0,0
32805,-100,4,1,5,5,0,0
32883,-100,4,1,5,60,0,0
33274,-100,4,1,5,5,0,0
33352,-100,4,1,5,60,0,0
33821,319.148936170213,4,1,5,60,1,0
34884,-100,4,1,8,60,0,0
35097,309.278350515464,4,1,5,60,1,0
35328,-100,4,1,5,5,0,0
35406,-100,4,1,5,60,0,0
35792,-100,4,1,5,5,0,0
35870,-100,4,1,5,60,0,0
36334,307.692307692308,4,1,5,5,1,0
36487,-100,4,1,5,60,0,0
37487,-100,4,1,5,5,0,0
37564,317.460317460317,4,1,5,60,1,0
37802,-100,4,1,5,5,0,0
37881,-100,4,1,5,60,0,0
38278,-100,4,1,5,5,0,0
38357,-100,4,1,5,60,0,0
38516,-100,4,1,8,60,0,0
38833,310.880829015544,4,1,5,60,1,0
39066,-100,4,1,5,5,0,0
39143,-100,4,1,5,60,0,0
39377,-100,4,1,5,5,0,0
39454,-100,4,1,5,60,0,0
39687,-100,4,1,5,5,0,0
39765,-100,4,1,5,60,0,0
39998,-100,4,1,5,5,0,0
40076,-100,4,1,5,60,0,0
40309,-100,4,1,5,5,0,0
40387,-100,4,1,5,60,0,0
40776,-100,4,1,5,5,0,0
40853,-100,4,1,5,60,0,0
41242,-100,4,1,5,5,0,0
41320,-100,4,1,5,60,0,0
41553,-100,4,1,5,5,0,0
41630,-100,4,1,5,60,0,0
42019,-100,4,1,5,5,0,0
42097,-100,4,1,5,60,0,0
42485,-100,4,1,5,5,0,0
42563,-100,4,1,5,60,0,0
42796,-100,4,1,5,5,0,0
42874,-100,4,1,5,60,0,0
43263,-100,4,1,5,5,0,0
43340,-100,4,1,5,60,0,0
43729,-100,4,1,5,5,0,0
43807,320,4,1,5,60,1,0
45087,312.5,4,1,5,60,1,0
45321,-100,4,1,5,5,0,0
45399,-100,4,1,5,60,0,0
45790,-100,4,1,5,5,0,0
45868,-100,4,1,5,60,0,0
46258,-100,4,1,5,5,0,0
46337,309.278350515464,4,1,5,60,1,0
46568,-100,4,1,5,5,0,0
46646,-100,4,1,5,60,0,0
47032,-100,4,1,5,5,0,0
47110,-100,4,1,5,60,0,0
47496,-100,4,1,5,5,0,0
47574,-100,4,1,5,60,0,0
47806,-100,4,1,5,5,0,0
47883,-100,4,1,5,60,0,0
48269,-100,4,1,5,5,0,0
48347,-100,4,1,5,60,0,0
48733,-100,4,1,5,5,0,0
48811,315.789473684211,4,1,8,60,1,0
49126,-100,4,1,5,60,0,0
50074,309.278350515464,4,1,5,60,1,0
50769,-100,4,1,5,5,0,0
50847,-100,4,1,5,60,0,0
51156,-102.040816326531,4,1,5,60,0,0
51311,319.148936170213,4,1,5,60,1,0
52029,-100,4,1,5,5,0,0
52108,-100,4,1,5,60,0,0
52587,312.5,4,1,5,60,1,0
53837,309.278350515464,4,1,5,60,1,0
55074,312.5,4,1,5,60,1,0
55777,-100,4,1,5,5,0,0
55855,-100,4,1,5,60,0,0
56870,-100,4,1,5,20,0,0
56949,-100,4,1,5,60,0,0
57027,-100,4,1,5,20,0,0
57105,-100,4,1,5,60,0,0
57183,-100,4,1,5,20,0,0
57261,-100,4,1,5,60,0,0
57339,-100,4,1,5,20,0,0
57417,-100,4,1,5,60,0,0
57495,-100,4,1,5,20,0,0
57574,-100,4,1,5,60,0,0
58980,-100,4,1,8,60,0,0
60074,314.13612565445,4,1,5,60,1,0
60780,-100,4,1,5,5,0,0
60859,-100,4,1,5,60,0,0
61330,317.460317460317,4,1,5,60,1,0
62044,-100,4,1,5,5,0,0
62123,-100,4,1,5,60,0,0
62599,307.692307692308,4,1,5,60,1,0
63829,314.13612565445,4,1,5,60,1,0
65085,310.880829015544,4,1,5,60,1,0
65784,-100,4,1,5,5,0,0
65862,-100,4,1,5,60,0,0
67028,-100,4,1,5,5,0,0
67105,-100,4,1,5,60,0,0
68815,304.568527918782,4,1,5,60,1,0
69424,298.507462686567,4,1,5,60,1,0
69722,342.857142857143,4,1,5,60,1,0
70064,310.880829015544,4,1,5,70,1,1
71307,317.460317460317,4,1,5,70,1,1
73846,308.483290488432,4,1,5,70,1,1
78473,-100,4,1,8,70,0,1
78678,-100,4,1,5,70,0,1
79398,315.789473684211,4,1,5,70,1,1
79819,-100,4,1,8,70,0,1
80029,315.789473684211,4,1,5,70,1,1
83818,312.5,4,1,5,70,1,1
85068,307.692307692308,4,1,5,70,1,1
86298,310.880829015544,4,1,5,70,1,1
88785,315.789473684211,4,1,5,70,1,1
90048,-100,4,1,5,60,0,0
90285,-100,4,1,5,5,0,0
90363,-100,4,1,5,60,0,0
90916,-100,4,1,5,5,0,0
90995,-100,4,1,5,60,0,0
92574,310.880829015544,4,1,5,60,1,0
92807,-100,4,1,5,5,0,0
92884,-100,4,1,5,60,0,0
93428,-100,4,1,5,5,0,0
93506,-100,4,1,5,60,0,0
95061,312.5,4,1,5,60,1,0
95920,-100,4,1,5,5,0,0
95998,-100,4,1,5,60,0,0
96076,-100,4,1,5,20,0,0
96154,-100,4,1,5,60,0,0
96232,-100,4,1,5,20,0,0
96311,-100,4,1,5,60,0,0
96389,-100,4,1,5,20,0,0
96467,-100,4,1,5,60,0,0
96545,-100,4,1,5,20,0,0
96623,-100,4,1,5,60,0,0
97561,310.880829015544,4,1,5,60,1,0
98804,317.460317460317,4,1,5,60,1,0
99042,-100,4,1,5,5,0,0
99121,-100,4,1,5,60,0,0
99359,-100,4,1,5,5,0,0
99438,-100,4,1,5,60,0,0
100073,310.880829015544,4,1,5,60,1,0
100228,-100,4,2,5,40,0,0
101316,319.148936170213,4,2,5,40,1,0
102592,312.5,4,2,5,40,1,0
105092,309.278350515464,4,1,5,60,1,0
105092,-133.333333333333,4,1,5,60,0,0
107566,312.5,4,1,5,60,1,0
107566,-133.333333333333,4,1,5,60,0,0
110066,309.278350515464,4,1,5,60,1,0
111303,312.5,4,1,5,60,1,0
115053,314.13612565445,4,1,5,60,1,0
115053,-117.647058823529,4,1,5,60,0,0
116231,-117.647058823529,4,1,5,5,0,0
116309,-117.647058823529,4,1,5,60,0,0
116702,-117.647058823529,4,1,5,5,0,0
116780,-117.647058823529,4,1,5,60,0,0
117173,-117.647058823529,4,1,5,5,0,0
117251,-117.647058823529,4,1,5,60,0,0
117488,-117.647058823529,4,1,5,5,0,0
117566,310.880829015544,4,1,5,60,1,0
117566,-117.647058823529,4,1,5,60,0,0
118729,-117.647058823529,4,1,5,5,0,0
118809,319.148936170213,4,1,5,60,1,0
118809,-117.647058823529,4,1,5,60,0,0
119207,-117.647058823529,4,1,5,5,0,0
119287,-117.647058823529,4,1,5,60,0,0
119686,-117.647058823529,4,1,5,5,0,0
119766,-117.647058823529,4,1,5,60,0,0
120007,-117.647058823529,4,1,5,5,0,0
120085,309.278350515464,4,1,5,60,1,0
120085,-117.647058823529,4,1,5,60,0,0
121244,-117.647058823529,4,1,5,5,0,0
121322,315.789473684211,4,1,5,60,1,0
121322,-117.647058823529,4,1,5,60,0,0
121716,-117.647058823529,4,1,5,5,0,0
121795,-117.647058823529,4,1,5,60,0,0
122190,-117.647058823529,4,1,5,5,0,0
122269,-117.647058823529,4,1,5,60,0,0
122506,-117.647058823529,4,1,5,5,0,0
122585,310.880829015544,4,1,5,60,1,0
122585,-117.647058823529,4,1,5,60,0,0
123828,304.568527918782,4,1,8,60,1,0
123828,-117.647058823529,4,1,8,60,0,0
125046,317.460317460317,4,1,5,60,1,0
125760,-100,4,1,5,5,0,0
125839,-100,4,1,5,60,0,0
126315,314.13612565445,4,1,5,60,1,0
127571,310.077519379845,4,1,5,60,1,0
130051,314.13612565445,4,1,5,60,1,0
130757,-100,4,1,5,5,0,0
130836,-100,4,1,5,60,0,0
131307,312.5,4,1,5,60,1,0
132557,310.880829015544,4,1,5,60,1,0
133800,307.692307692308,4,1,5,60,1,0
134261,-133.333333333333,4,1,5,60,0,0
135030,322.58064516129,4,1,5,60,1,0
136320,315.789473684211,4,1,5,60,1,0
137583,308.483290488432,4,1,5,60,1,0
138816,314.13612565445,4,1,5,60,1,0
140072,307.692307692308,4,1,5,60,1,0
141302,315.789473684211,4,1,5,60,1,0
142565,309.278350515464,4,1,5,60,1,0
143802,312.5,4,1,5,60,1,0
145052,317.460317460317,4,1,8,60,1,0
146321,309.278350515464,4,1,5,70,1,0
147480,-100,4,1,5,5,0,0
147558,-100,4,1,5,70,0,0
147944,-100,4,1,5,5,0,0
148022,-100,4,1,5,70,0,0
148408,-100,4,1,5,5,0,0
148485,-100,4,1,5,70,0,0
148716,-100,4,1,5,5,0,0
148795,314.13612565445,4,1,5,70,1,0
149109,-100,4,1,5,70,0,0
150444,-100,4,1,5,5,0,0
150522,-100,4,1,5,70,0,0
151308,312.5,4,1,5,70,1,0
154433,-133.333333333333,4,1,5,70,0,0
155058,-100,4,1,5,70,0,0
155722,-100,4,1,5,20,0,0
155761,-100,4,1,5,70,0,0
155800,-100,4,1,5,20,0,0
155839,-100,4,1,5,70,0,0
155878,-100,4,1,5,20,0,0
155917,-100,4,1,5,70,0,0
155956,-100,4,1,5,20,0,0
155995,-100,4,1,5,70,0,0
156347,-100,4,1,5,20,0,0
156386,-100,4,1,5,70,0,0
156425,-100,4,1,5,20,0,0
156464,-100,4,1,5,70,0,0
156503,-100,4,1,5,20,0,0
156542,-100,4,1,5,70,0,0
156581,-100,4,1,5,20,0,0
156620,-100,4,1,5,70,0,0
156659,-100,4,1,5,20,0,0
156698,-100,4,1,5,70,0,0
156737,-100,4,1,5,20,0,0
156776,-100,4,1,5,70,0,0
156815,-100,4,1,5,20,0,0
156854,-100,4,1,5,70,0,0
156893,-100,4,1,5,20,0,0
156933,-100,4,1,5,70,0,0
156972,-100,4,1,5,20,0,0
157011,-100,4,1,5,70,0,0
157050,-100,4,1,5,20,0,0
157089,-100,4,1,5,70,0,0
157128,-100,4,1,5,20,0,0
157245,-100,4,1,5,70,0,0
157558,310.880829015544,4,1,5,70,1,0
160278,-100,4,1,5,5,0,0
160355,-100,4,1,5,70,0,0
160433,-100,4,1,5,5,0,0
160511,-100,4,1,5,70,0,0
160899,-100,4,1,5,5,0,0
160977,-100,4,1,5,70,0,0
161754,-133.333333333333,4,1,5,70,0,0
162298,-133.333333333333,4,1,5,5,0,0
162376,-133.333333333333,4,1,5,70,0,0
162532,319.148936170213,4,1,5,70,1,0
163808,315.789473684211,4,1,5,70,1,0
165071,319.148936170213,4,1,8,70,1,0
165230,-100,4,1,5,70,0,0
165310,-100,4,1,8,70,0,0
165390,-100,4,1,5,70,0,0
165469,-100,4,1,8,70,0,0
165709,-100,4,1,5,70,0,0
165789,-100,4,1,8,70,0,0
166028,-100,4,1,5,70,0,0
166108,-100,4,1,8,70,0,0
166188,-100,4,1,5,70,0,0
166267,-100,4,1,8,70,0,0
166347,303.030303030303,4,1,5,70,1,0
166877,-100,4,1,5,20,0,0
166953,-100,4,1,5,70,0,0
167028,-100,4,1,5,20,0,0
167104,-100,4,1,5,70,0,0
167180,-100,4,1,5,20,0,0
167256,-100,4,1,5,70,0,0
167331,-100,4,1,5,20,0,0
167407,-100,4,1,5,70,0,0
167483,-100,4,1,5,20,0,0
167559,315.789473684211,4,1,5,70,1,0
168427,-100,4,1,5,5,0,0
168506,-100,4,1,5,70,0,0
168822,310.880829015544,4,1,5,70,1,0
168899,-100,4,1,5,5,0,0
168977,-100,4,1,5,70,0,0
169521,-100,4,1,5,5,0,0
169599,-100,4,1,5,70,0,0
170065,314.13612565445,4,1,5,70,1,0
170300,-100,4,1,5,5,0,0
170379,-100,4,1,5,70,0,0
170771,-100,4,1,5,20,0,0
170850,-100,4,1,5,70,0,0
170928,-100,4,1,5,20,0,0
171007,-100,4,1,5,70,0,0
171085,-100,4,1,5,20,0,0
171164,-100,4,1,5,70,0,0
171243,-100,4,1,5,20,0,0
171321,310.880829015544,4,1,5,70,1,0
172564,314.13612565445,4,1,5,70,1,0
173820,310.880829015544,4,1,5,70,1,0
173820,-133.333333333333,4,1,5,70,0,0
174441,-153.846153846153,4,1,5,70,0,0
175063,-100,4,1,5,70,0,0
175763,-100,4,1,5,20,0,0
175840,-100,4,1,5,70,0,0
175918,-100,4,1,5,20,0,0
175996,-100,4,1,5,70,0,0
176073,-100,4,1,5,20,0,0
176151,-100,4,1,5,70,0,0
176229,-100,4,1,5,20,0,0
176307,317.460317460317,4,1,8,70,1,0
176783,-100,4,1,5,70,0,0
176862,-100,4,1,5,20,0,0
176941,-100,4,1,5,70,0,0
177021,-100,4,1,5,20,0,0
177100,-100,4,1,5,70,0,0
177180,-100,4,1,5,20,0,0
177259,-100,4,1,5,70,0,0
177338,-100,4,1,5,20,0,0
177418,-100,4,1,5,70,0,0
177497,-100,4,1,5,20,0,0
177576,312.5,4,1,5,70,1,0
178279,-100,4,1,5,5,0,0
178357,-100,4,1,5,70,0,0
178435,-100,4,1,5,20,0,0
178513,-100,4,1,5,70,0,0
178591,-100,4,1,5,20,0,0
178669,-100,4,1,5,70,0,0
178747,-100,4,1,5,20,0,0
178826,311.688311688312,4,1,5,70,1,0
179215,-100,4,1,5,5,0,0
179293,-100,4,1,5,70,0,0
179371,-100,4,1,5,5,0,0
179449,-100,4,1,5,70,0,0
179838,-100,4,1,5,5,0,0
179916,-100,4,1,5,70,0,0
179994,-100,4,1,5,5,0,0
180072,314.13612565445,4,1,5,70,1,0
180935,-100,4,1,5,5,0,0
181014,-100,4,1,8,70,0,0
181328,310.880829015544,4,1,5,70,1,0
182571,314.13612565445,4,1,5,70,1,0
183277,-100,4,1,5,20,0,0
183356,-100,4,1,5,70,0,0
183434,-100,4,1,5,20,0,0
183513,-100,4,1,5,70,0,0
183591,-100,4,1,5,20,0,0
183670,-100,4,1,5,70,0,0
183749,-100,4,1,5,20,0,0
183827,-100,4,1,5,70,0,0
184455,-100,4,1,5,60,0,0
184534,-100,4,1,5,5,0,0
184769,-100,4,1,5,60,0,0
184848,-100,4,1,5,5,0,0
184927,-100,4,1,8,60,0,0
185555,297.029702970297,4,1,8,60,1,0
185853,314.13612565445,4,1,8,60,1,0
186010,291.26213592233,4,1,8,60,1,0
186301,310.880829015544,4,1,5,60,1,0
186534,-100,4,1,5,5,0,0
186611,338.983050847458,4,1,5,60,1,0
186865,-100,4,1,5,5,0,0
186949,313.31592689295,4,1,5,60,1,0
187653,-100,4,1,5,5,0,0
187732,-100,4,1,5,60,0,0
188907,-100,4,1,5,5,0,0
188985,-100,4,1,5,60,0,0
189455,310.880829015544,4,1,5,60,1,0
191942,309.278350515464,4,1,5,60,1,0
192637,-100,4,1,5,5,0,0
192715,-100,4,1,5,60,0,0
193024,-101.010101010101,4,1,5,60,0,0
193179,314.13612565445,4,1,5,60,1,0
193885,-100,4,1,5,5,0,0
193964,-100,4,1,5,60,0,0
194199,-100,4,1,5,20,0,0
194278,-100,4,1,5,60,0,0
194358,-100,4,1,5,20,0,0
194435,307.692307692308,4,1,5,60,1,0
195665,322.58064516129,4,1,5,60,1,0
196955,309.278350515464,4,1,5,60,1,0
197650,-100,4,1,5,5,0,0
197728,-100,4,1,5,60,0,0
198037,-101.010101010101,4,1,5,60,0,0
198192,315.789473684211,4,1,5,60,1,0
198902,-100,4,1,5,5,0,0
198981,-100,4,1,5,60,0,0
199455,309.278350515464,4,1,5,60,1,0
200692,312.5,4,1,5,60,1,0
201942,310.880829015544,4,1,5,60,1,0
202641,-100,4,1,5,5,0,0
202719,-100,4,1,5,60,0,0
203030,-100.502512562814,4,1,5,60,0,0
203185,314.13612565445,4,1,5,60,1,0
203891,-100,4,1,5,5,0,0
203970,-100,4,1,5,60,0,0
204441,312.5,4,1,5,60,1,0
206941,309.278350515464,4,1,5,60,1,0
206941,-133.333333333333,4,1,5,60,0,0
207095,-133.333333333333,4,1,5,30,0,0
207250,-133.333333333333,4,1,5,37,0,0
207404,-133.333333333333,4,1,5,45,0,0
207559,-117.647058823529,4,1,5,52,0,0
207714,-117.647058823529,4,1,5,59,0,0
207868,-117.647058823529,4,1,5,66,0,0
208023,-117.647058823529,4,1,5,73,0,0
208178,314.13612565445,4,1,5,60,1,0
208282,416.666666666667,4,1,5,60,1,0
208492,314.13612565445,4,1,5,60,1,0
208910,419.58041958042,4,1,5,60,1,0
209120,314.13612565445,4,1,5,60,1,0
209434,314.13612565445,4,1,5,70,1,1
213204,309.278350515464,4,1,5,70,1,1
214441,312.5,4,1,5,70,1,1
218191,-100,4,1,8,70,0,1
218295,-100,4,1,5,70,0,1
218607,-100,4,1,8,70,0,1
219024,-100,4,1,5,70,0,1
219232,-100,4,1,8,70,0,1
219336,-100,4,1,5,70,0,1
223191,315.789473684211,4,1,5,70,1,1
224454,307.692307692308,4,1,5,70,1,1
226915,314.13612565445,4,1,5,70,1,1
229428,-100,4,1,5,60,0,0
229663,-100,4,1,5,5,0,0
229742,-100,4,1,5,60,0,0
230134,-100,4,1,5,5,0,0
230213,-100,4,1,5,60,0,0
230606,-100,4,1,5,5,0,0
230684,-100,4,1,5,60,0,0
230920,-100,4,1,5,5,0,0
230998,-100,4,1,5,60,0,0
231391,-100,4,1,5,5,0,0
231469,-100,4,1,5,60,0,0
231862,-100,4,1,5,5,0,0
231941,307.692307692308,4,1,5,60,1,0
232171,-100,4,1,5,5,0,0
232248,-100,4,1,5,60,0,0
232633,-100,4,1,5,5,0,0
232710,-100,4,1,5,60,0,0
233094,-100,4,1,5,5,0,0
233171,315.789473684211,4,1,5,60,1,0
234434,309.278350515464,4,1,5,60,1,0
235671,314.13612565445,4,1,5,60,1,0
235749,-100,4,1,5,5,0,0
236927,319.148936170213,4,1,5,60,1,0
238203,303.030303030303,4,1,5,60,1,0

[Colours]
Combo1 : 255,153,0
Combo2 : 251,26,26
Combo3 : 252,233,1
Combo4 : 255,6,150

[HitObjects]
123,245,45,6,0,L|110:152,1,70,10|2,0:0|0:0,0:0:0:0:
161,100,360,2,0,L|254:87,1,70,10|2,0:0|0:0,0:0:0:0:
306,138,676,2,0,L|319:231,1,70,10|2,0:0|0:0,0:0:0:0:
268,283,992,2,0,L|175:296,1,70,10|2,0:0|0:0,0:0:0:0:
110,240,1308,6,0,L|104:138,1,70,10|2,0:0|0:0,0:0:0:0:
165,87,1623,2,0,L|267:81,1,70,10|2,0:0|0:0,0:0:0:0:
318,142,1939,2,0,L|324:244,1,70,10|2,0:0|0:0,0:0:0:0:
263,295,2255,2,0,L|161:301,1,70,10|2,0:0|0:0,0:0:0:0:
128,214,2571,6,0,L|200:209,1,70,10|2,0:0|0:0,0:0:0:0:
256,93,2885,2,0,L|260:165,1,70,10|2,0:0|0:0,0:0:0:0:
377,221,3199,2,0,L|304:225,1,70,10|2,0:0|0:0,0:0:0:0:
249,342,3513,2,0,L|244:269,1,70,10|2,0:0|0:0,0:0:0:0:
125,202,3827,6,0,L|200:204,1,70,10|2,0:0|0:0,0:0:0:0:
267,90,4137,2,0,L|265:165,1,70,10|2,0:0|0:0,0:0:0:0:
379,232,4448,2,0,L|304:230,1,70,10|2,0:0|0:0,0:0:0:0:
237,344,4759,2,0,L|239:269,1,70,10|2,0:0|0:0,0:0:0:0:
178,106,5070,6,0,P|149:88|87:104,1,70,14|2,0:0|0:0,0:0:0:0:
97,175,5381,2,0,P|126:192|188:177,1,70,10|2,0:0|0:0,0:0:0:0:
171,111,5692,2,0,P|140:97|79:118,1,70,10|2,0:0|0:0,0:0:0:0:
96,188,6003,2,0,P|126:202|188:181,1,70,10|2,0:0|0:0,0:0:0:0:
165,119,6314,6,0,P|132:106|74:132,1,70,10|2,0:0|0:0,0:0:0:0:
96,200,6624,2,0,P|128:212|187:186,1,70,10|2,0:0|0:0,0:0:0:0:
159,125,6935,2,0,P|126:116|70:147,1,70,10|2,0:0|0:0,0:0:0:0:
98,213,7246,2,0,P|131:222|187:191,1,70,10|2,0:0|0:0,0:0:0:0:
266,132,7557,6,0,B|321:137|321:137|343:130|343:130|425:137,1,140,10|10,0:0|0:0,0:0:0:0:
354,209,8023,1,2,0:0:0:0:
354,209,8179,2,0,B|427:216|427:216|465:263|465:263|441:315|383:327,1,210,10|2,0:0|0:0,0:0:0:0:
323,309,8801,6,0,P|314:286|313:241,2,35,4|4|4,0:0|0:0|0:0,0:0:0:0:
221,263,9116,2,0,P|224:239|245:203,2,35,4|4|4,0:0|0:0|0:0,0:0:0:0:
135,271,9432,2,0,P|116:254|93:217,2,35,4|4|4,0:0|0:0|0:0,0:0:0:0:
98,349,9748,2,0,P|75:356|31:357,2,35,4|4|4,0:0|0:0|0:0,0:0:0:0:
225,366,10064,6,0,B|239:327|239:327|227:212,1,140,6|8,0:0|0:0,0:0:0:0:
157,151,10530,2,0,P|159:91|236:49,1,140,2|2,0:0|0:0,0:0:0:0:
311,64,10996,1,8,0:0:0:0:
352,264,11307,6,0,B|430:274|430:274|469:210,1,140,2|8,0:0|0:0,0:0:0:0:
489,105,11780,2,0,B|411:95|411:95|372:159,1,140,2|2,0:0|0:0,0:0:0:0:
374,166,12175,1,2,0:0:0:0:
374,166,12254,2,0,P|333:165|292:141,1,70,8|0,0:0|0:0,0:0:0:0:
221,79,12570,6,0,P|170:74|111:161,1,140,2|8,0:0|0:0,0:0:0:0:
50,217,13033,2,0,B|57:260|57:260|50:290|50:290|67:374,1,140,2|2,0:0|0:0,0:0:0:0:
72,374,13420,1,2,0:0:0:0:
72,374,13497,1,8,0:0:0:0:
247,283,13807,6,0,L|281:286,3,35,2|2|2|2,0:0|0:0|0:0|0:0,0:0:0:0:
302,273,14119,2,0,L|305:238,3,35,10|2|2|2,0:0|0:0|0:0|0:0,0:0:0:0:
318,216,14432,2,0,L|314:181,3,35,2|2|2|2,0:0|0:0|0:0|0:0,0:0:0:0:
331,163,14744,2,0,L|365:166,2,35,10|2|2,0:0|0:0|0:0,0:0:0:0:
386,53,15057,6,0,P|353:27|266:68,1,140,6|8,0:0|0:0,0:0:0:0:
180,113,15525,2,0,B|161:66|161:66|62:3,1,140,2|2,0:0|0:0,0:0:0:0:
0,56,15994,1,8,0:0:0:0:
17,274,16307,6,0,L|168:237,1,140,2|8,0:0|0:0,0:0:0:0:
236,303,16775,2,0,L|387:266,1,140,2|0,0:0|0:0,0:0:0:0:
397,268,17187,1,2,0:0:0:0:
397,268,17265,2,0,P|366:242|356:187,1,70,12|0,0:0|0:0,0:0:0:0:
312,117,17577,6,0,B|328:17|328:17|371:3,1,140,0|8,0:0|0:0,0:0:0:0:
460,31,18038,2,0,P|474:72|387:133,1,140,2|2,0:0|0:0,0:0:0:0:
312,117,18500,2,0,P|275:112|216:129,1,70,8|2,0:0|0:0,0:0:0:0:
176,169,18807,5,8,0:0:0:0:
176,169,18964,1,8,0:0:0:0:
199,257,19122,1,4,0:0:0:0:
112,233,19280,1,4,0:0:0:0:
135,321,19438,1,4,0:0:0:0:
135,321,19596,1,4,0:0:0:0:
199,257,19754,6,0,B|227:263|246:284|246:284|276:289|309:274,1,105,4|0,0:0|0:0,0:0:0:0:
327,293,20068,6,0,P|312:252|328:210,1,70,6|0,0:0|0:0,0:0:0:0:
388,156,20380,1,8,0:0:0:0:
307,102,20536,2,0,L|161:110,1,140,0|2,0:0|0:0,0:0:0:0:
207,23,21005,2,0,L|133:27,1,70,8|0,0:0|0:0,0:0:0:0:
29,30,21318,6,0,L|33:103,1,70,2|0,0:0|0:0,0:0:0:0:
37,203,21630,1,8,0:0:0:0:
37,203,21786,2,0,L|45:349,1,140,2|0,0:0|0:0,0:0:0:0:
51,364,22177,1,0,0:0:0:0:
51,364,22255,1,12,0:0:0:0:
202,161,22568,6,0,P|226:187|281:185,1,70,2|0,0:0|0:0,0:0:0:0:
331,143,22880,1,8,0:0:0:0:
387,205,23036,2,0,L|360:50,1,140,2|2,0:0|0:0,0:0:0:0:
447,75,23505,2,0,L|433:-2,1,70,8|0,0:0|0:0,0:0:0:0:
306,0,23818,6,0,L|263:7,3,35,2|2|2|2,0:0|0:0|0:0|0:0,0:0:0:0:
254,20,24133,2,0,L|261:62,2,35,10|2|2,0:0|0:0|0:0,0:0:0:0:
226,131,24449,5,8,0:0:0:0:
227,139,24527,1,8,0:0:0:0:
229,148,24606,1,8,0:0:0:0:
230,156,24685,1,8,0:0:0:0:
232,165,24765,2,0,B|203:159|203:159|193:151|193:151|148:143,1,70
62,95,25081,6,0,P|73:125|60:169,1,70,6|0,0:0|0:0,0:0:0:0:
3,238,25391,1,12,0:0:0:0:
78,303,25546,2,0,B|147:287|147:287|167:292|167:292|235:276,1,140,2|0,0:0|0:0,0:0:0:0:
297,217,26011,2,0,B|366:233,1,70,8|0,0:0|0:0,0:0:0:0:
436,324,26321,6,0,P|432:288|459:240,1,70,2|0,0:0|0:0,0:0:0:0:
492,175,26631,1,8,0:0:0:0:
492,175,26786,2,0,B|477:86|439:128|424:47,1,140,2|2,0:0|0:0,0:0:0:0:
431,42,27174,1,2,0:0:0:0:
431,42,27251,1,12,0:0:0:0:
293,181,27561,6,0,P|248:172|204:147,1,70
172,90,27876,2,0,L|182:3,1,70,8|2,0:0|0:0,0:0:0:0:
80,73,28192,2,0,L|90:160,1,70,0|2,0:0|0:0,0:0:0:0:
144,211,28508,1,8,0:0:0:0:
144,211,28666,1,0,0:0:0:0:
61,251,28824,5,4,0:0:0:0:
101,334,28982,1,4,0:0:0:0:
184,294,29139,1,4,0:0:0:0:
467,252,30071,6,0,P|396:226|332:265,1,140,6|8,0:0|0:0,0:0:0:0:
341,252,30539,1,6,0:0:0:0:
341,252,31008,1,8,0:0:0:0:
341,252,31633,1,8,0:0:0:0:
188,195,32102,5,2,0:0:0:0:
188,195,32258,2,0,L|96:229,1,70,8|2,0:0|0:0,0:0:0:0:
41,177,32571,6,0,P|50:101|112:64,1,140,6|8,0:0|0:0,0:0:0:0:
98,66,33039,1,6,0:0:0:0:
98,66,33508,1,8,0:0:0:0:
188,195,33980,5,0,0:0:0:0:
188,195,34140,2,0,L|96:229,1,70,8|0,0:0|0:0,0:0:0:0:
62,301,34459,2,0,P|24:302|-2:292,2,46.6666666666667,2|8|8,0:0|0:0|0:0,0:0:0:0:
88,319,34778,2,0,P|55:338|28:343,2,46.6666666666667,8|4|4,0:0|0:0|0:0,0:0:0:0:
123,321,35097,6,0,P|164:311|236:374,1,140,6|8,0:0|0:0,0:0:0:0:
234,368,35560,1,6,0:0:0:0:
234,368,36024,1,8,0:0:0:0:
360,221,36487,5,0,0:0:0:0:
360,221,36641,2,0,L|356:122,1,70,8|0,0:0|0:0,0:0:0:0:
459,251,36949,2,0,L|463:152,2,70,2|2|8,0:0|0:0|0:0,0:0:0:0:
458,7,37564,6,0,B|452:47|452:47|344:70,1,140,6|8,0:0|0:0,0:0:0:0:
273,91,38040,1,6,0:0:0:0:
229,19,38198,1,0,0:0:0:0:
152,35,38357,1,2,0:0:0:0:
152,35,38437,1,2,0:0:0:0:
152,35,38516,2,0,P|127:79|136:121,1,70,4|4,0:0|0:0,0:0:0:0:
164,170,38833,5,6,0:0:0:0:
341,238,39143,1,0,0:0:0:0:
127,251,39454,1,6,0:0:0:0:
377,156,39764,1,6,0:0:0:0:
215,370,40076,6,0,L|224:215,1,140,6|8,0:0|0:0,0:0:0:0:
302,213,40542,2,0,L|297:132,1,70,2|0,0:0|0:0,0:0:0:0:
242,61,40853,1,2,0:0:0:0:
322,15,41009,2,0,P|361:30|391:54,1,70,8|0,0:0|0:0,0:0:0:0:
453,113,41320,6,0,B|421:134|421:134|367:142,2,70,2|0|8,0:0|0:0|0:0,0:0:0:0:
467,223,41786,2,0,L|326:224,1,140,2|2,0:0|0:0,0:0:0:0:
313,227,42174,1,2,0:0:0:0:
313,227,42252,1,8,0:0:0:0:
113,50,42563,6,0,L|100:118,1,70
159,197,42874,1,8,0:0:0:0:
159,197,43029,2,0,P|127:269|60:268,1,140,2|2,0:0|0:0,0:0:0:0:
0,211,43496,2,0,L|12:142,1,70,8|0,0:0|0:0,0:0:0:0:
84,70,43807,6,0,L|137:65,3,35,2|2|2|2,0:0|0:0|0:0|0:0,0:0:0:0:
142,73,44127,2,0,L|147:126,3,35,10|2|2|2,0:0|0:0|0:0|0:0,0:0:0:0:
169,113,44447,2,0,L|164:166,3,35,2|2|2|2,0:0|0:0|0:0|0:0,0:0:0:0:
181,166,44767,2,0,L|234:161,2,35,10|2|2,0:0|0:0|0:0,0:0:0:0:
288,92,45087,6,0,L|383:109,1,70,6|0,0:0|0:0,0:0:0:0:
430,40,45399,1,8,0:0:0:0:
491,116,45555,2,0,P|478:195|417:249,1,140,2|2,0:0|0:0,0:0:0:0:
346,203,46024,2,0,L|277:190,1,70,8|0,0:0|0:0,0:0:0:0:
208,290,46337,6,0,L|276:277,1,70,2|0,0:0|0:0,0:0:0:0:
188,204,46646,1,8,0:0:0:0:
188,204,46800,2,0,L|164:51,1,140,2|2,0:0|0:0,0:0:0:0:
168,49,47187,1,2,0:0:0:0:
168,49,47264,1,12,0:0:0:0:
17,194,47574,5,0,0:0:0:0:
55,271,47728,2,0,P|92:285|142:268,1,70,0|8,0:0|0:0,0:0:0:0:
188,204,48038,2,0,P|266:177|338:197,1,140,2|2,0:0|0:0,0:0:0:0:
386,259,48501,2,0,L|372:353,1,70,8|0,0:0|0:0,0:0:0:0:
472,325,48811,6,0,L|480:378,2,35
509,251,49126,1,8,0:0:0:0:
509,251,49284,1,8,0:0:0:0:
463,181,49442,2,0,L|473:111,1,70,8|8,0:0|0:0,0:0:0:0:
427,41,49758,1,8,0:0:0:0:
427,41,49916,1,8,0:0:0:0:
356,92,50074,6,0,B|285:111|285:111|201:84,1,140,6|8,0:0|0:0,0:0:0:0:
146,54,50537,2,0,B|197:105|197:105|216:192,1,140,6|2,0:0|0:0,0:0:0:0:
193,255,51001,1,8,0:0:0:0:
193,255,51156,2,0,L|352:244,1,140,0|2,0:0|0:0,0:0:0:0:
410,293,51630,1,8,0:0:0:0:
410,293,51789,6,0,B|417:208|417:208|444:159,1,140,6|2,0:0|0:0,0:0:0:0:
491,98,52268,1,8,0:0:0:0:
290,22,52587,6,0,L|300:96,2,70,6|2|8,0:0|0:0|0:0,0:0:0:0:
209,90,53055,1,2,0:0:0:0:
209,90,53212,2,0,L|199:16,2,70,2|2|8,0:0|0:0|0:0,0:0:0:0:
30,221,53837,6,0,L|39:151,2,70,6|2|8,0:0|0:0|0:0,0:0:0:0:
129,150,54300,1,2,0:0:0:0:
129,150,54455,2,0,L|119:219,2,70,2|2|8,0:0|0:0|0:0,0:0:0:0:
209,90,54919,1,2,0:0:0:0:
303,97,55074,6,0,P|333:144|297:226,1,140,6|8,0:0|0:0,0:0:0:0:
241,270,55542,2,0,L|399:253,1,140,6|2,0:0|0:0,0:0:0:0:
461,328,56011,1,8,0:0:0:0:
461,328,56167,2,0,L|303:345,1,140,0|2,0:0|0:0,0:0:0:0:
241,270,56636,1,8,0:0:0:0:
176,343,56792,6,0,P|114:354|53:288,1,140,6|2,0:0|0:0,0:0:0:0:
47,223,57261,1,8,0:0:0:0:
124,53,57574,6,0,L|55:38,2,70,6|2|8,0:0|0:0|0:0,0:0:0:0:
194,126,58042,1,2,0:0:0:0:
194,126,58199,2,0,L|127:147,1,70,2|2,0:0|0:0,0:0:0:0:
244,206,58511,2,0,L|291:154,1,70,8|2,0:0|0:0,0:0:0:0:
286,61,58824,5,8,0:0:0:0:
286,61,58902,1,8,0:0:0:0:
286,61,58980,1,2,0:0:0:0:
366,92,59136,2,0,P|374:71|373:45,2,35,4|4|2,0:0|0:0|0:0,0:0:0:0:
414,157,59449,2,0,P|431:142|443:119,2,35,4|4|2,0:0|0:0|0:0,0:0:0:0:
423,237,59761,2,0,P|445:233|467:219,2,35,4|4|2,0:0|0:0|0:0,0:0:0:0:
344,319,60074,6,0,P|327:269|293:243,1,70,6|0,0:0|0:0,0:0:0:0:
241,217,60388,1,8,0:0:0:0:
162,261,60545,2,0,P|209:204|207:114,1,140,6|2,0:0|0:0,0:0:0:0:
180,55,61016,1,8,0:0:0:0:
180,55,61173,2,0,B|275:29|238:81|349:51,1,140,0|2,0:0|0:0,0:0:0:0:
402,37,61647,1,8,0:0:0:0:
402,37,61806,2,0,B|352:44|350:106|350:106|369:128|370:152,1,140,6|2,0:0|0:0,0:0:0:0:
352,224,62282,1,8,0:0:0:0:
500,382,62599,6,0,L|510:291,1,70,6|2,0:0|0:0,0:0:0:0:
463,239,62906,1,8,0:0:0:0:
463,239,63060,1,2,0:0:0:0:
388,291,63214,2,0,P|350:301|298:273,1,70,2|2,0:0|0:0,0:0:0:0:
233,217,63522,2,0,P|271:207|323:235,1,70,8|2,0:0|0:0,0:0:0:0:
152,209,63829,2,0,P|162:171|212:140,1,70,2|2,0:0|0:0,0:0:0:0:
104,275,64143,2,0,P|76:247|74:188,1,70,8|2,0:0|0:0,0:0:0:0:
137,349,64457,2,0,P|98:358|47:330,2,70,2|2|8,0:0|0:0|0:0,0:0:0:0:
299,214,65085,6,0,L|307:127,2,70,6|2|8,0:0|0:0|0:0,0:0:0:0:
363,324,65551,6,0,B|368:268|368:268|383:239|383:239|390:168,1,140,6|2,0:0|0:0,0:0:0:0:
427,108,66017,1,8,0:0:0:0:
427,108,66173,2,0,P|351:154|283:128,1,140,0|2,0:0|0:0,0:0:0:0:
266,64,66639,1,8,0:0:0:0:
211,136,66794,2,0,L|225:298,1,140,6|2,0:0|0:0,0:0:0:0:
229,358,67261,1,8,0:0:0:0:
31,266,67572,6,0,P|69:238|120:240,1,70,4|0,0:0|0:0,0:0:0:0:
130,156,67882,2,0,P|96:146|62:152,1,70,8|2,0:0|0:0,0:0:0:0:
145,69,68193,2,0,P|177:81|202:106,1,70,2|2,0:0|0:0,0:0:0:0:
289,99,68504,2,0,P|280:65|258:38,1,70,8|2,0:0|0:0,0:0:0:0:
369,90,68815,6,0,P|368:113|363:136,2,46.6666666666667,8|8|8,0:0|0:0|0:0,0:0:0:0:
392,72,69119,2,0,P|403:92|409:114,2,46.6666666666667,8|8|8,0:0|0:0|0:0,0:0:0:0:
405,50,69424,1,6,0:0:0:0:
286,210,69722,1,6,0:0:0:0:
446,329,70064,6,0,P|391:308|335:338,1,93.3333333333333,6|2,0:0|0:0,0:0:0:0:
340,346,70374,2,0,P|294:353|253:333,1,93.3333333333333,8|2,0:0|0:0,0:0:0:0:
218,329,70685,6,0,L|212:232,1,70,2|0,0:0|0:0,0:0:0:0:
132,160,70996,2,0,L|126:257,1,70,10|0,0:0|0:0,0:0:0:0:
248,108,71307,2,0,L|252:177,1,70,2|0,0:0|0:0,0:0:0:0:
162,79,71624,2,0,L|166:9,1,70,10|0,0:0|0:0,0:0:0:0:
278,32,71941,1,2,0:0:0:0:
69,106,72259,1,10,0:0:0:0:
285,182,72576,6,0,P|281:207|271:241,2,46.6666666666667,2|2|2,0:0|0:0|0:0,0:0:0:0:
309,150,72894,2,0,P|312:201|302:242,1,70,10|0,0:0|0:0,0:0:0:0:
186,324,73211,2,0,P|182:299|172:265,2,46.6666666666667,2|2|2,0:0|0:0|0:0,0:0:0:0:
210,356,73529,2,0,P|213:305|203:264,1,70,10|0,0:0|0:0,0:0:0:0:
79,206,73846,6,0,L|125:199,2,46.6666666666667,2|2|2,0:0|0:0|0:0,0:0:0:0:
64,234,74154,2,0,L|71:147,1,70,10|0,0:0|0:0,0:0:0:0:
156,58,74462,2,0,L|202:64,2,46.6666666666667,2|2|2,0:0|0:0|0:0,0:0:0:0:
141,30,74770,1,14,0:0:0:0:
350,32,75079,6,0,P|313:68|312:122,1,93.3333333333333,6|2,0:0|0:0,0:0:0:0:
327,143,75388,2,0,P|376:157|423:130,1,93.3333333333333,8|2,0:0|0:0,0:0:0:0:
435,108,75696,6,0,P|422:57|376:30,1,70,2|0,0:0|0:0,0:0:0:0:
329,172,76005,2,0,P|378:186|425:159,1,70,10|0,0:0|0:0,0:0:0:0:
291,94,76313,2,0,P|253:129|253:184,1,70,2|0,0:0|0:0,0:0:0:0:
291,292,76622,2,0,P|278:241|232:214,1,70,10|0,0:0|0:0,0:0:0:0:
120,194,76930,2,0,P|169:208|216:181,1,70,2|0,0:0|0:0,0:0:0:0:
181,89,77239,1,10,0:0:0:0:
23,249,77547,6,0,P|59:280|107:302,1,93.3333333333333,6|8,0:0|0:0,0:0:0:0:
136,303,77856,2,0,L|125:359,2,46.6666666666667,8|8|8,0:0|0:0|0:0,0:0:0:0:
180,290,78164,2,0,L|169:346,2,46.6666666666667,2|8|8,0:0|0:0|0:0,0:0:0:0:
224,277,78473,2,0,L|213:333,2,46.6666666666667,6|6|8,0:0|0:0|0:0,0:0:0:0:
268,264,78781,1,8,0:0:0:0:
467,315,79090,6,0,L|387:330,1,70,6|0,0:0|0:0,0:0:0:0:
334,384,79398,1,2,0:0:0:0:
334,384,79555,1,0,0:0:0:0:
307,296,79713,2,0,P|332:254|371:234,1,70,8|0,0:0|0:0,0:0:0:0:
465,221,80029,6,0,B|478:172|478:172|466:110,1,93.3333333333333,6|0,0:0|0:0,0:0:0:0:
443,103,80344,2,0,B|394:89|394:89|332:101,1,93.3333333333333,8|2,0:0|0:0,0:0:0:0:
328,87,80660,6,0,L|320:166,1,70,2|0,0:0|0:0,0:0:0:0:
173,158,80976,2,0,L|181:237,1,70,10|0,0:0|0:0,0:0:0:0:
244,28,81292,2,0,L|236:107,1,70,2|0,0:0|0:0,0:0:0:0:
76,131,81607,2,0,L|83:200,1,70,10|0,0:0|0:0,0:0:0:0:
149,68,81923,1,2,0:0:0:0:
91,299,82239,1,10,0:0:0:0:
295,229,82555,6,0,P|321:238|343:255,2,46.6666666666667,2|2|2,0:0|0:0|0:0,0:0:0:0:
275,208,82871,2,0,P|322:210|367:197,1,70,10|0,0:0|0:0,0:0:0:0:
432,94,83186,2,0,P|411:112|385:122,2,46.6666666666667,2|2|2,0:0|0:0|0:0,0:0:0:0:
460,87,83502,2,0,P|434:126|423:172,1,70,10|0,0:0|0:0,0:0:0:0:
480,279,83818,6,0,P|474:251|478:224,2,46.6666666666667,2|2|2,0:0|0:0|0:0,0:0:0:0:
472,307,84130,2,0,P|450:265|416:232,1,70,10|0,0:0|0:0,0:0:0:0:
275,208,84443,2,0,L|203:235,2,46.6666666666667,2|2|2,0:0|0:0|0:0,0:0:0:0:
295,186,84755,1,14,0:0:0:0:
102,332,85068,6,0,L|97:211,1,93.3333333333333,6|2,0:0|0:0,0:0:0:0:
84,219,85375,2,0,L|79:98,1,93.3333333333333,10|2,0:0|0:0,0:0:0:0:
70,69,85683,6,0,P|101:103|145:103,1,70,2|0,0:0|0:0,0:0:0:0:
222,50,85991,2,0,P|201:22|168:11,1,70,10|0,0:0|0:0,0:0:0:0:
259,151,86298,2,0,P|291:140|312:112,1,70,2|0,0:0|0:0,0:0:0:0:
275,11,86608,2,0,P|242:21|221:49,1,70,10|0,0:0|0:0,0:0:0:0:
402,132,86919,2,0,P|409:98|395:66,1,70,2|0,0:0|0:0,0:0:0:0:
297,104,87230,1,10,0:0:0:0:
409,256,87541,6,0,P|416:288|418:324,2,46.6666666666667,2|2|2,0:0|0:0|0:0,0:0:0:0:
426,250,87852,2,0,P|433:283|435:321,1,70,10|0,0:0|0:0,0:0:0:0:
284,250,88163,2,0,P|306:274|325:304,2,46.6666666666667,2|2|2,0:0|0:0|0:0,0:0:0:0:
295,236,88474,2,0,P|318:261|339:293,1,70,10|0,0:0|0:0,0:0:0:0:
172,307,88785,6,0,P|203:316|235:333,2,46.6666666666667,2|2|2,0:0|0:0|0:0,0:0:0:0:
174,289,89100,2,0,P|206:299|240:316,1,70,10|0,0:0|0:0,0:0:0:0:
76,294,89416,6,0,L|14:309,2,46.6666666666667,8|8|8,0:0|0:0|0:0,0:0:0:0:
82,244,89732,2,0,L|20:259,2,46.6666666666667,8|8|8,0:0|0:0|0:0,0:0:0:0:
88,194,90048,6,0,B|96:78|96:78|69:107,1,140,6|8,0:0|0:0,0:0:0:0:
79,95,90521,1,6,0:0:0:0:
79,95,90995,1,8,0:0:0:0:
79,95,91627,1,8,0:0:0:0:
239,25,92100,5,2,0:0:0:0:
239,25,92258,2,0,L|329:20,1,70,8|2,0:0|0:0,0:0:0:0:
334,110,92574,6,0,B|424:61|424:61|423:124,1,140,6|8,0:0|0:0,0:0:0:0:
423,98,93040,1,6,0:0:0:0:
423,98,93506,1,8,0:0:0:0:
344,248,93972,5,0,0:0:0:0:
344,248,94128,2,0,P|311:234|246:236,1,70,8|0,0:0|0:0,0:0:0:0:
277,321,94439,2,0,P|241:325|186:359,1,70,0|2,0:0|0:0,0:0:0:0:
172,253,94750,2,0,P|143:274|112:331,1,70,8|2,0:0|0:0,0:0:0:0:
26,347,95061,5,6,0:0:0:0:
46,261,95217,1,8,0:0:0:0:
46,261,95373,1,8,0:0:0:0:
1,181,95529,6,0,P|16:126|118:97,1,140,6|0,0:0|0:0,0:0:0:0:
86,90,95998,1,12,0:0:0:0:
86,90,96623,1,8,0:0:0:0:
86,90,97248,1,8,0:0:0:0:
201,201,97561,6,0,B|237:184|237:184|259:60,1,140,6|8,0:0|0:0,0:0:0:0:
350,66,98027,2,0,B|325:204,1,140,6|2,0:0|0:0,0:0:0:0:
323,238,98415,1,2,0:0:0:0:
323,238,98493,1,8,0:0:0:0:
130,326,98804,6,0,P|177:282|241:286,1,105,6|0,0:0|0:0,0:0:0:0:
235,286,99121,2,0,P|269:324|320:334,1,70,6|0,0:0|0:0,0:0:0:0:
395,336,99438,1,12,0:0:0:0:
395,336,99518,1,8,0:0:0:0:
395,336,99597,2,0,L|425:312,4,35,8|8|2|2|2,0:0|0:0|0:0|0:0|0:0,0:0:0:0:
449,221,100073,5,6,0:0:0:0:
169,70,105092,6,0,L|154:142,7,52.5000020027161
225,178,106329,2,0,L|294:154,7,52.5000020027161
340,217,107566,6,0,L|330:269,7,52.5000020027161
396,325,108816,2,0,L|465:301,7,52.5000020027161
340,217,110066,6,0,B|319:177|337:146|337:146|327:130|327:130|340:103|337:63,1,140,6|0,0:0|0:0,0:0:0:0:
73,99,111148,5,2,0:0:0:0:
73,99,111303,2,0,B|109:107|109:107|154:104,1,70,2|0,0:0|0:0,0:0:0:0:
218,207,111615,1,2,0:0:0:0:
218,207,111771,2,0,B|254:199|254:199|299:202,1,70,2|0,0:0|0:0,0:0:0:0:
363,99,112084,1,2,0:0:0:0:
363,99,112240,2,0,B|399:107|399:107|444:104,1,70,2|0,0:0|0:0,0:0:0:0:
398,221,112553,6,0,B|397:257|367:287|367:287|370:325|396:356,1,140,6|0,0:0|0:0,0:0:0:0:
425,61,113646,5,2,0:0:0:0:
425,61,113803,2,0,P|376:61|352:91,1,70,2|0,0:0|0:0,0:0:0:0:
251,29,114115,5,2,0:0:0:0:
251,29,114272,2,0,P|226:71|240:107,1,70,2|0,0:0|0:0,0:0:0:0:
135,163,114583,5,2,0:0:0:0:
135,163,114740,2,0,P|159:205|197:211,1,70,2|0,0:0|0:0,0:0:0:0:
317,216,115053,6,0,B|260:231|260:231|239:280|239:280|114:320,1,238.00000453949,6|8,0:0|0:0,0:0:0:0:
119,318,116152,5,0,0:0:0:0:
119,318,116309,2,0,P|85:307|66:290,1,59.5000011348725,2|0,0:0|0:0,0:0:0:0:
128,191,116623,1,0,0:0:0:0:
128,191,116780,2,0,P|94:199|68:193,1,59.5000011348725,0|8,0:0|0:0,0:0:0:0:
104,98,117094,1,0,0:0:0:0:
104,98,117251,1,0,0:0:0:0:
295,47,117566,6,0,B|253:102|253:102|293:294,1,238.00000453949,0|8,0:0|0:0,0:0:0:0:
287,267,118654,5,0,0:0:0:0:
287,267,118809,2,0,L|344:289,1,59.5000011348725,2|0,0:0|0:0,0:0:0:0:
427,236,119128,1,0,0:0:0:0:
427,236,119287,2,0,L|417:175,1,59.5000011348725,0|8,0:0|0:0,0:0:0:0:
311,152,119606,1,0,0:0:0:0:
311,152,119766,1,0,0:0:0:0:
103,181,120085,6,0,B|165:89|280:147|243:236|194:234|172:219,1,238.00000453949,0|8,0:0|0:0,0:0:0:0:
178,222,121167,5,0,0:0:0:0:
178,222,121322,2,0,P|161:215|126:171,1,59.5000011348725,2|0,0:0|0:0,0:0:0:0:
76,64,121637,1,0,0:0:0:0:
76,64,121795,2,0,P|78:82|57:133,1,59.5000011348725,0|8,0:0|0:0,0:0:0:0:
46,214,122111,1,0,0:0:0:0:
46,214,122269,1,0,0:0:0:0:
168,329,122585,6,0,B|168:275|228:218|238:299|298:266|306:206,1,208.250003972054,6|0,0:0|0:0,0:0:0:0:
297,191,123206,6,0,B|280:239|280:239|295:310,1,119.000002269745,12|2,0:0|0:0,0:0:0:0:
380,330,123673,1,0,0:0:0:0:
380,330,123828,6,0,L|458:333,1,59.5000011348725,6|6,0:0|0:0,0:0:0:0:
398,248,124132,1,6,0:0:0:0:
398,248,124284,2,0,L|457:250,1,59.5000011348725,6|6,0:0|0:0,0:0:0:0:
382,161,124589,1,6,0:0:0:0:
382,161,124741,2,0,B|422:162|422:162|443:148,1,59.5000011348725,6|6,0:0|0:0,0:0:0:0:
333,67,125046,6,0,B|292:92|292:92|258:212,1,140,6|8,0:0|0:0,0:0:0:0:
192,284,125522,2,0,P|186:204|121:169,1,140,6|0,0:0|0:0,0:0:0:0:
46,187,125998,1,8,0:0:0:0:
46,187,126157,2,0,L|25:224,2,35,2|0|2,0:0|0:0|0:0,0:0:0:0:
54,97,126472,2,0,L|71:66,2,35,2|0|8,0:0|0:0|0:0,0:0:0:0:
141,172,126786,2,0,P|192:127|191:59,1,140,2|2,0:0|0:0,0:0:0:0:
294,11,127257,2,0,P|287:64|315:95,1,70,8|2,0:0|0:0,0:0:0:0:
388,67,127571,5,2,0:0:0:0:
388,67,127726,2,0,L|427:55,2,35,2|0|8,0:0|0:0|0:0,0:0:0:0:
465,165,128036,2,0,L|324:159,1,140,2|2,0:0|0:0,0:0:0:0:
245,107,128501,2,0,L|174:110,1,70,8|2,0:0|0:0,0:0:0:0:
234,208,128811,1,2,0:0:0:0:
234,208,128966,2,0,L|223:245,2,35,2|0|8,0:0|0:0|0:0,0:0:0:0:
278,314,129276,6,0,P|231:335|149:291,1,140,2|2,0:0|0:0,0:0:0:0:
139,206,129741,1,8,0:0:0:0:
24,8,130051,6,0,B|57:102|57:102|52:171,1,140,4|8,0:0|0:0,0:0:0:0:
139,206,130522,2,0,B|203:130|203:130|266:100,1,140,6|0,0:0|0:0,0:0:0:0:
330,113,130993,1,8,0:0:0:0:
330,113,131150,2,0,L|374:122,2,35,2|0|2,0:0|0:0|0:0,0:0:0:0:
421,46,131463,2,0,L|386:38,2,35,2|0|8,0:0|0:0|0:0,0:0:0:0:
474,143,131775,6,0,B|455:232|408:181|393:280,1,140,2|2,0:0|0:0,0:0:0:0:
405,337,132244,2,0,P|422:363|474:381,1,70,8|2,0:0|0:0,0:0:0:0:
327,302,132557,5,2,0:0:0:0:
327,302,132712,2,0,L|281:308,2,35,2|0|8,0:0|0:0|0:0,0:0:0:0:
329,213,133023,2,0,L|174:233,1,140,2|2,0:0|0:0,0:0:0:0:
166,311,133489,2,0,L|88:300,1,70,8|2,0:0|0:0,0:0:0:0:
30,218,133800,5,2,0:0:0:0:
30,218,133953,2,0,L|24:172,2,35,2|0|8,0:0|0:0|0:0,0:0:0:0:
112,175,134261,2,0,P|116:155|127:131,2,26.2500010013581,2|2|2,0:0|0:0|0:0,0:0:0:0:
46,85,134569,1,0,0:0:0:0:
46,85,134723,1,8,0:0:0:0:
265,21,135030,5,6,0:0:0:0:
239,107,135191,1,8,0:0:0:0:
177,43,135352,1,8,0:0:0:0:
280,13,135513,6,0,P|350:40|420:49,1,140,6|2,0:0|0:0,0:0:0:0:
375,131,135997,2,0,P|433:135|467:128,1,70,8|2,0:0|0:0,0:0:0:0:
339,210,136320,5,2,0:0:0:0:
339,210,136477,1,2,0:0:0:0:
399,283,136635,1,8,0:0:0:0:
399,283,136793,2,0,P|376:326|282:340,1,140,6|2,0:0|0:0,0:0:0:0:
203,353,137267,2,0,P|187:308|156:286,1,70,8|2,0:0|0:0,0:0:0:0:
63,277,137583,5,2,0:0:0:0:
63,277,137737,1,2,0:0:0:0:
130,202,137891,1,8,0:0:0:0:
130,202,138045,2,0,P|108:142|160:64,1,140,2|2,0:0|0:0,0:0:0:0:
90,0,138508,1,8,0:0:0:0:
209,144,138816,5,2,0:0:0:0:
209,144,138973,1,2,0:0:0:0:
277,105,139130,1,8,0:0:0:0:
344,144,139287,1,2,0:0:0:0:
412,105,139444,6,0,L|419:18,1,70,2|2,0:0|0:0,0:0:0:0:
512,95,139758,2,0,L|506:164,1,70,8|2,0:0|0:0,0:0:0:0:
512,289,140072,6,0,B|449:258|449:258|374:269,1,140,6|8,0:0|0:0,0:0:0:0:
338,334,140533,2,0,L|358:184,1,140,6|2,0:0|0:0,0:0:0:0:
263,213,140995,2,0,L|252:137,1,70,8|2,0:0|0:0,0:0:0:0:
164,192,141302,5,2,0:0:0:0:
164,192,141459,1,2,0:0:0:0:
146,105,141617,1,8,0:0:0:0:
146,105,141775,2,0,P|181:54|268:35,1,140,2|2,0:0|0:0,0:0:0:0:
334,85,142249,2,0,P|377:84|419:58,1,70,8|2,0:0|0:0,0:0:0:0:
466,0,142565,5,2,0:0:0:0:
466,0,142719,1,2,0:0:0:0:
512,83,142874,1,8,0:0:0:0:
512,83,143028,2,0,P|481:150|484:233,1,140,2|2,0:0|0:0,0:0:0:0:
512,296,143492,1,8,0:0:0:0:
340,195,143802,5,2,0:0:0:0:
340,195,143958,1,2,0:0:0:0:
272,234,144114,1,8,0:0:0:0:
205,195,144270,1,2,0:0:0:0:
137,234,144427,6,0,L|130:321,1,70,2|2,0:0|0:0,0:0:0:0:
38,182,144739,2,0,L|31:95,1,70,8|0,0:0|0:0,0:0:0:0:
101,34,145052,6,0,L|152:46,4,35,4|4|4|4|4,0:0|0:0|0:0|0:0|0:0,0:0:0:0:
216,62,145528,6,0,L|280:77,4,35,4|4|4|4|4,0:0|0:0|0:0|0:0|0:0,0:0:0:0:
331,90,146004,6,0,L|395:105,2,35,4|4|4,0:0|0:0|0:0,0:0:0:0:
270,155,146321,5,6,0:0:0:0:
282,241,146475,1,0,0:0:0:0:
282,241,146552,1,0,0:0:0:0:
282,241,146630,2,0,B|321:231|321:231|347:196,1,70,8|2,0:0|0:0,0:0:0:0:
272,320,146939,2,0,B|233:310|233:310|207:275,1,70,2|2,0:0|0:0,0:0:0:0:
148,196,147248,2,0,B|109:206|109:206|83:241,1,70,8|2,0:0|0:0,0:0:0:0:
5,289,147558,6,0,P|23:321|32:371,2,70,2|2|8,0:0|0:0|0:0,0:0:0:0:
36,187,148022,2,0,P|67:205|100:244,2,70,2|2|2,0:0|0:0|0:0,0:0:0:0:
0,85,148485,1,8,0:0:0:0:
178,169,148795,5,2,0:0:0:0:
223,95,148952,1,2,0:0:0:0:
223,95,149030,1,0,0:0:0:0:
223,95,149109,2,0,B|219:73|219:73|221:47,3,35,8|0|2|0,0:0|0:0|0:0|0:0,0:0:0:0:
243,30,149423,2,0,B|265:26|265:26|291:28,3,35,2|0|2|0,0:0|0:0|0:0|0:0,0:0:0:0:
308,50,149737,2,0,B|312:71|312:71|310:98,3,35,8|0|2|0,0:0|0:0|0:0|0:0,0:0:0:0:
288,115,150051,2,0,B|266:119|266:119|240:117,2,35,2|0|2,0:0|0:0|0:0,0:0:0:0:
347,196,150365,5,0,0:0:0:0:
347,196,150522,2,0,B|356:280|313:255|315:342,1,140,2|0,0:0|0:0,0:0:0:0:
374,384,150993,1,8,0:0:0:0:
187,300,151308,6,0,P|196:258|221:214,2,70,6|2|8,0:0|0:0|0:0,0:0:0:0:
98,343,151776,1,2,0:0:0:0:
98,343,151933,2,0,P|84:302|84:251,2,70,6|2|8,0:0|0:0|0:0,0:0:0:0:
0,154,152558,6,0,L|94:171,1,70,2|2,0:0|0:0,0:0:0:0:
88,154,152792,1,0,0:0:0:0:
107,141,152870,2,0,L|176:154,1,70,8|2,0:0|0:0,0:0:0:0:
227,41,153183,6,0,L|321:24,1,70,2|2,0:0|0:0,0:0:0:0:
315,41,153417,1,0,0:0:0:0:
335,53,153495,2,0,L|404:40,1,70,8|2,0:0|0:0,0:0:0:0:
474,116,153808,6,0,L|462:170,2,35,2|0|2,0:0|0:0|0:0,0:0:0:0:
379,148,154120,2,0,L|367:202,2,35,8|0|2,0:0|0:0|0:0,0:0:0:0:
430,260,154433,6,0,L|435:234,2,26.2500010013581,2|0|2,0:0|0:0|0:0,0:0:0:0:
348,287,154745,2,0,L|353:261,2,26.2500010013581,8|0|2,0:0|0:0|0:0,0:0:0:0:
266,335,155058,6,0,P|265:298|245:236,1,70,2|2,0:0|0:0,0:0:0:0:
162,155,155370,2,0,P|154:189|153:224,1,70,8|2,0:0|0:0,0:0:0:0:
160,252,155604,1,0,0:0:0:0:
160,252,155683,1,2,0:0:0:0:
88,295,155839,1,2,0:0:0:0:
14,254,155995,1,8,0:0:0:0:
162,155,156308,6,0,B|146:114|150:75|175:92|179:40|161:1,2,140,2|8|2,0:0|0:0|0:0,0:0:0:0:
247,116,157089,1,2,0:0:0:0:
247,116,157245,2,0,P|288:70|354:68,1,105,8|0,0:0|0:0,0:0:0:0:
345,74,157558,6,0,L|433:52,1,70,2|2,0:0|0:0,0:0:0:0:
328,175,157868,2,0,L|416:153,1,70,8|2,0:0|0:0,0:0:0:0:
420,167,158102,1,0,0:0:0:0:
420,167,158179,1,2,0:0:0:0:
397,247,158335,1,2,0:0:0:0:
374,327,158490,2,0,L|306:343,1,70,8|2,0:0|0:0,0:0:0:0:
183,238,158801,6,0,L|250:254,1,70,2|2,0:0|0:0,0:0:0:0:
114,313,159112,2,0,L|181:329,1,70,8|2,0:0|0:0,0:0:0:0:
195,348,159345,1,0,0:0:0:0:
195,348,159423,1,2,0:0:0:0:
267,384,159578,1,2,0:0:0:0:
334,339,159734,2,0,P|345:298|337:251,1,70,8|2,0:0|0:0,0:0:0:0:
302,184,160045,5,2,0:0:0:0:
187,23,160355,1,8,0:0:0:0:
105,203,160666,1,2,0:0:0:0:
267,384,160977,6,0,B|237:362|237:362|112:357,2,140,12|6|8,0:0|0:0|0:0,0:0:0:0:
351,366,161754,2,0,P|338:280|371:214,1,157.500006008148,2|0,0:0|0:0,0:0:0:0:
367,218,162532,6,0,L|408:194,2,35,2|0|2,0:0|0:0|0:0,0:0:0:0:
359,133,162851,1,8,0:0:0:0:
366,128,162930,1,0,0:0:0:0:
374,124,163010,2,0,L|415:100,2,35,2|0|2,0:0|0:0|0:0,0:0:0:0:
365,38,163330,1,2,0:0:0:0:
372,33,163409,1,0,0:0:0:0:
380,29,163489,2,0,L|421:5,2,35,8|0|2,0:0|0:0|0:0,0:0:0:0:
281,81,163808,6,0,L|127:69,1,140,6|12,0:0|0:0,0:0:0:0:
62,130,164281,1,2,0:0:0:0:
67,137,164360,1,0,0:0:0:0:
71,145,164440,2,0,L|116:223,1,70,2|2,0:0|0:0,0:0:0:0:
200,212,164755,2,0,L|245:290,1,70,8|2,0:0|0:0,0:0:0:0:
314,248,165071,6,0,P|319:281|314:309,2,35,4|4|8,0:0|0:0|0:0,0:0:0:0:
363,184,165390,2,0,P|383:210|393:236,2,35,8|4|4,0:0|0:0|0:0,0:0:0:0:
373,104,165709,2,0,P|403:116|424:134,2,35,8|4|4,0:0|0:0|0:0,0:0:0:0:
342,29,166028,1,8,0:0:0:0:
342,29,166108,1,4,0:0:0:0:
342,29,166188,1,8,0:0:0:0:
253,54,166347,5,6,0:0:0:0:
164,79,166498,2,0,L|158:164,1,70,0|8,0:0|0:0,0:0:0:0:
243,206,166801,2,0,P|183:248|93:227,1,140,2|2,0:0|0:0,0:0:0:0:
52,171,167256,1,8,0:0:0:0:
256,116,167559,5,2,0:0:0:0:
256,116,167716,1,2,0:0:0:0:
243,206,167874,1,8,0:0:0:0:
314,262,168032,2,0,B|385:252|385:252|418:173,1,140,2|0,0:0|0:0,0:0:0:0:
368,106,168506,1,8,0:0:0:0:
485,271,168822,6,0,P|471:307|374:355,1,140,2|8,0:0|0:0,0:0:0:0:
303,384,169288,2,0,L|288:232,1,140,2|2,0:0|0:3,0:0:0:0:
200,250,169754,2,0,L|215:98,1,140,8|2,0:3|0:0,0:0:0:0:
148,44,170222,1,8,0:0:0:0:
148,44,170379,2,0,P|193:18|233:20,1,70,2|2,0:0|0:0,0:0:0:0:
297,43,170693,1,8,0:0:0:0:
115,132,171007,1,8,0:0:0:0:
115,132,171164,1,8,0:0:0:0:
194,182,171321,6,0,P|194:202|188:224,3,35,6|0|2|0,0:0|0:0|0:0|0:0,0:0:0:0:
202,246,171631,2,0,P|192:263|175:279,3,35,8|0|2|0,0:0|0:0|0:0|0:0,0:0:0:0:
176,305,171942,2,0,P|158:315|136:320,3,35,2|0|2|0,0:0|0:0|0:0|0:0,0:0:0:0:
124,343,172253,1,8,0:0:0:0:
13,200,172564,6,0,P|58:182|90:186,1,70,2|2,0:0|0:0,0:0:0:0:
110,195,172799,1,0,0:0:0:0:
110,195,172878,2,0,L|115:135,2,35,8|0|2,0:0|0:0|0:0,0:0:0:0:
175,91,173192,2,0,P|220:109|252:105,1,70,2|2,0:0|0:0,0:0:0:0:
272,96,173427,1,0,0:0:0:0:
272,96,173506,2,0,L|277:156,2,35,8|0|2,0:0|0:0|0:0,0:0:0:0:
320,224,173820,6,0,P|350:232|361:232,3,26.2500010013581,2|0|2|0,0:0|0:0|0:0|0:0,0:0:0:0:
376,246,174130,2,0,P|405:237|415:232,3,26.2500010013581,8|0|2|0,0:0|0:0|0:0|0:0,0:0:0:0:
435,237,174441,2,0,P|456:215|462:205,3,22.7499989585877,2|0|2|0,0:0|0:0|0:0|0:0,0:0:0:0:
453,201,174752,1,2,0:0:0:0:
296,367,175063,5,8,0:0:0:0:
296,367,175218,1,8,0:0:0:0:
204,381,175374,2,0,P|218:318|207:217,1,140,8|2,0:0|0:0,0:0:0:0:
160,161,175840,1,8,0:0:0:0:
160,161,175996,2,0,P|157:105|224:43,1,140,8|4,0:0|0:0,0:0:0:0:
375,159,176624,5,4,0:0:0:0:
375,159,176703,1,0,0:0:0:0:
375,159,176783,6,0,L|225:126,1,140,8|2,0:0|0:0,0:0:0:0:
211,46,177259,2,0,L|61:79,1,140,8|2,0:0|0:0,0:0:0:0:
60,298,177888,5,8,0:0:0:0:
60,298,177966,1,0,0:0:0:0:
60,296,178044,6,0,B|82:217|123:263|144:191,1,140,2|2,0:0|0:0,0:0:0:0:
224,237,178513,2,0,P|235:202|232:139,1,70,8|2,0:0|0:0,0:0:0:0:
279,58,178826,6,0,B|297:91|297:91|368:131,2,105,2|0|2,0:0|0:0|0:0,0:0:0:0:
357,28,179449,2,0,L|460:86,2,105,2|0|2,0:0|0:0|0:0,0:0:0:0:
279,58,180072,6,0,P|251:70|234:81,2,46.6666666666667,2|0|0,0:0|0:0|0:0,0:0:0:0:
282,80,180386,2,0,P|263:104|254:122,2,46.6666666666667,2|0|0,0:0|0:0|0:0,0:0:0:0:
295,97,180700,1,8,0:0:0:0:
351,264,181014,1,4,0:0:0:0:
351,264,181171,1,4,0:0:0:0:
297,330,181328,6,0,P|259:330|220:301,1,70,6|2,0:0|0:0,0:0:0:0:
183,241,181638,1,8,0:0:0:0:
144,321,181794,1,2,0:0:0:0:
144,321,181872,1,0,0:0:0:0:
144,321,181949,2,0,P|111:302|91:257,1,70,2|2,0:0|0:0,0:0:0:0:
25,197,182260,2,0,L|29:95,1,70,8|2,0:0|0:0,0:0:0:0:
10,5,182571,6,0,P|47:32|86:39,1,70,2|2,0:0|0:0,0:0:0:0:
152,14,182885,1,8,0:0:0:0:
215,78,183042,1,2,0:0:0:0:
215,78,183120,1,0,0:0:0:0:
215,78,183199,2,0,B|254:91|292:70|292:70|306:86|306:86|352:44|420:67,1,210,8|2,0:0|0:0,0:0:0:0:
465,124,183827,6,0,P|467:170|371:203,1,140,12|2,0:0|0:0,0:0:0:0:
324,170,184298,1,2,0:0:0:0:
263,228,184455,2,0,B|335:214|335:214|402:229,1,140,12|0,0:0|0:0,0:0:0:0:
457,290,184927,5,4,0:0:0:0:
457,290,185084,1,4,0:0:0:0:
465,124,185398,5,4,0:0:0:0:
465,124,185555,1,4,0:0:0:0:
325,35,185852,5,4,0:0:0:0:
325,35,186010,1,4,0:0:0:0:
177,111,186301,5,6,0:0:0:0:
169,276,186611,5,6,0:0:0:0:
309,365,186949,6,0,B|314:305|314:305|309:280|309:280|315:197,1,140,6|8,0:0|0:0,0:0:0:0:
356,149,187418,2,0,P|298:190|227:165,1,140,6|2,0:0|0:0,0:0:0:0:
177,111,187888,1,8,0:0:0:0:
177,111,188045,2,0,B|182:171|182:171|177:196|177:196|183:279,1,140,2|2,0:0|0:0,0:0:0:0:
231,326,188515,1,8,0:0:0:0:
231,326,188671,2,0,P|176:285|110:301,1,140,6|2,0:0|0:0,0:0:0:0:
69,369,189142,1,8,0:0:0:0:
12,180,189455,6,0,L|86:193,2,70,6|2|8,0:0|0:0|0:0,0:0:0:0:
84,101,189921,1,2,0:0:0:0:
84,101,190076,2,0,L|15:88,2,70,2|2|8,0:0|0:0|0:0,0:0:0:0:
269,147,190698,6,0,L|337:134,2,70,2|2|8,0:0|0:0|0:0,0:0:0:0:
334,43,191164,1,2,0:0:0:0:
334,43,191320,2,0,L|265:55,2,70,2|2|8,0:0|0:0|0:0,0:0:0:0:
414,69,191786,1,2,0:0:0:0:
454,146,191942,6,0,B|467:233|414:197|425:299,1,140,6|8,0:0|0:0,0:0:0:0:
487,341,192405,2,0,P|436:293|377:326,1,140,6|2,0:0|0:0,0:0:0:0:
304,379,192869,1,8,0:0:0:0:
304,379,193024,2,0,P|292:316|206:299,1,140,2|2,0:0|0:0,0:0:0:0:
141,348,193493,1,8,0:0:0:0:
141,348,193650,2,0,P|135:278|62:221,1,140,6|2,0:0|0:0,0:0:0:0:
16,181,194121,6,0,P|11:143|17:100,1,70,8|2,0:0|0:0,0:0:0:0:
76,44,194435,6,0,L|168:33,2,70,6|2|8,0:0|0:0|0:0,0:0:0:0:
120,136,194896,1,2,0:0:0:0:
204,124,195050,2,0,L|316:110,1,70,2|2,0:0|0:0,0:0:0:0:
330,29,195358,2,0,L|442:42,1,70,8|2,0:0|0:0,0:0:0:0:
460,112,195665,5,8,0:0:0:0:
460,112,195745,1,2,0:0:0:0:
460,112,195826,1,8,0:0:0:0:
429,183,195987,2,0,P|407:172|389:143,2,35,2|2|8,0:0|0:0|0:0,0:0:0:0:
435,260,196310,2,0,P|410:261|380:245,2,35,8|2|2,0:0|0:0|0:0,0:0:0:0:
449,338,196632,1,8,0:0:0:0:
449,338,196794,1,8,0:0:0:0:
366,382,196955,6,0,P|330:375|297:351,1,70,6|0,0:0|0:0,0:0:0:0:
266,280,197264,1,8,0:0:0:0:
297,202,197418,2,0,B|279:156|279:156|182:141,1,140,6|2,0:0|0:0,0:0:0:0:
151,219,197882,1,8,0:0:0:0:
151,219,198037,2,0,L|141:53,1,140,0|2,0:0|0:0,0:0:0:0:
78,29,198507,1,8,0:0:0:0:
78,29,198665,2,0,B|216:50,1,140,6|2,0:0|0:0,0:0:0:0:
297,26,199139,1,8,0:0:0:0:
472,134,199455,6,0,B|385:147,1,70,6|2,0:0|0:0,0:0:0:0:
336,101,199764,1,8,0:0:0:0:
336,101,199918,1,2,0:0:0:0:
258,135,200073,2,0,P|246:185|264:220,1,70,2|2,0:0|0:0,0:0:0:0:
325,263,200382,2,0,P|287:227|248:225,1,70,8|2,0:0|0:0,0:0:0:0:
197,327,200692,2,0,P|246:312|267:279,1,70,2|2,0:0|0:0,0:0:0:0:
165,205,201004,2,0,P|115:219|94:252,1,70,8|2,0:0|0:0,0:0:0:0:
42,353,201317,2,0,P|91:338|112:305,2,70,2|2|8,0:0|0:0|0:0,0:0:0:0:
38,160,201942,6,0,P|49:120|47:84,1,70,6|2,0:0|0:0,0:0:0:0:
0,13,202252,1,8,0:0:0:0:
100,12,202408,2,0,P|142:50|235:50,1,140,6|2,0:0|0:0,0:0:0:0:
248,139,202874,1,8,0:0:0:0:
248,139,203030,2,0,P|258:75|346:50,1,140,0|2,0:0|0:0,0:0:0:0:
405,71,203499,1,8,0:0:0:0:
378,151,203656,2,0,L|398:300,1,140,6|2,0:0|0:0,0:0:0:0:
408,373,204127,1,8,0:0:0:0:
265,199,204441,6,0,P|223:202|188:229,1,70,6|2,0:0|0:0,0:0:0:0:
129,160,204753,2,0,P|110:197|116:241,1,70,8|2,0:0|0:0,0:0:0:0:
212,126,205066,2,0,P|188:91|147:74,1,70,2|2,0:0|0:0,0:0:0:0:
199,215,205378,2,0,P|241:212|276:185,1,70,8|2,0:0|0:0,0:0:0:0:
118,250,205691,2,0,P|141:284|182:301,1,70,2|2,0:0|0:0,0:0:0:0:
47,197,206003,2,0,P|28:234|34:278,1,70,8|2,0:0|0:0,0:0:0:0:
16,113,206316,1,2,0:0:0:0:
16,113,206472,1,2,0:0:0:0:
104,128,206628,1,8,0:0:0:0:
290,33,206941,6,0,B|259:27|259:27|226:37,1,52.5000020027161,8|8,0:0|0:0,0:0:0:0:
293,112,207250,2,0,B|262:106|262:106|229:116,1,52.5000020027161,8|8,0:0|0:0,0:0:0:0:
293,28,207559,6,0,B|258:21|258:21|221:32,1,59.5000011348725,8|8,0:0|0:0,0:0:0:0:
297,116,207868,2,0,B|262:109|262:109|225:120,1,59.5000011348725,8|8,0:0|0:0,0:0:0:0:
164,174,208178,5,2,0:0:0:0:
237,237,208334,1,0,0:0:0:0:
310,300,208490,1,8,0:0:0:0:
383,363,208649,1,0,0:0:0:0:
383,363,208806,1,2,0:0:0:0:
420,147,209120,6,0,L|484:140,2,46.6666666666667,8|8|8,0:0|0:0|0:0,0:0:0:0:
387,108,209434,6,0,P|357:127|281:124,1,93.3333333333333,6|2,0:0|0:0,0:0:0:0:
268,144,209748,2,0,P|236:127|201:60,1,93.3333333333333,8|2,0:0|0:0,0:0:0:0:
186,32,210062,6,0,P|180:76|155:106,1,70,2|0,0:0|0:0,0:0:0:0:
129,231,210376,2,0,P|111:201|108:166,1,70,8|0,0:0|0:0,0:0:0:0:
229,228,210690,2,0,P|223:272|198:302,1,70,2|0,0:0|0:0,0:0:0:0:
79,381,211004,2,0,P|85:337|110:307,1,70,8|0,0:0|0:0,0:0:0:0:
211,375,211318,1,2,0:0:0:0:
41,250,211632,1,8,0:0:0:0:
251,219,211947,6,0,P|286:229|318:249,2,46.6666666666667,2|2|2,0:0|0:0|0:0,0:0:0:0:
226,199,212261,2,0,P|267:187|306:188,1,70,10|0,0:0|0:0,0:0:0:0:
140,93,212575,2,0,P|175:84|213:85,2,46.6666666666667,2|2|2,0:0|0:0|0:0,0:0:0:0:
108,88,212889,2,0,P|137:57|171:38,1,70,10|0,0:0|0:0,0:0:0:0:
295,47,213204,6,0,L|290:121,2,46.6666666666667,2|2|2,0:0|0:0|0:0,0:0:0:0:
310,33,213513,2,0,L|315:107,1,70,10|0,0:0|0:0,0:0:0:0:
424,186,213822,2,0,L|429:112,2,46.6666666666667,2|2|2,0:0|0:0|0:0,0:0:0:0:
409,200,214131,2,0,L|404:126,1,70,14|0,0:0|0:0,0:0:0:0:
493,245,214441,6,0,P|455:286|392:292,1,93.3333333333333,6|2,0:0|0:0,0:0:0:0:
393,320,214753,2,0,B|330:310|360:287|286:275,1,93.3333333333333,8|2,0:0|0:0,0:0:0:0:
265,296,215066,6,0,P|242:330|245:374,1,70,2|0,0:0|0:0,0:0:0:0:
345,275,215378,2,0,P|327:238|287:218,1,70,8|0,0:0|0:0,0:0:0:0:
152,238,215691,6,0,P|192:240|229:216,1,70,2|0,0:0|0:0,0:0:0:0:
281,90,216003,2,0,P|258:123|261:168,1,70,8|0,0:0|0:0,0:0:0:0:
389,84,216316,2,0,P|385:49|364:21,1,70,2|0,0:0|0:0,0:0:0:0:
238,8,216628,1,8,0:0:0:0:
50,90,216941,6,0,P|78:103|116:105,2,46.6666666666667,6|2|2,0:0|0:0|0:0,0:0:0:0:
53,121,217253,2,0,P|82:122|138:139,1,70,8|0,0:0|0:0,0:0:0:0:
128,226,217566,6,0,P|158:223|192:205,2,46.6666666666667,2|2|2,0:0|0:0|0:0,0:0:0:0:
146,251,217878,2,0,P|171:237|228:224,1,70,8|0,0:0|0:0,0:0:0:0:
329,303,218191,6,0,L|334:249,2,46.6666666666667,4|8|8,0:0|0:0|0:0,0:0:0:0:
360,343,218503,2,0,L|289:337,1,70,8|0,0:0|0:0,0:0:0:0:
227,274,218816,1,4,0:0:0:0:
227,274,218972,1,0,0:0:0:0:
284,195,219128,2,0,P|282:149|259:103,1,70,8|0,0:0|0:0,0:0:0:0:
261,28,219441,6,0,B|239:10|239:10|165:20,1,93.3333333333333,6|2,0:0|0:0,0:0:0:0:
133,33,219753,2,0,B|128:60|128:60|173:119,1,93.3333333333333,8|2,0:0|0:0,0:0:0:0:
194,144,220066,6,0,L|120:153,1,70,2|0,0:0|0:0,0:0:0:0:
25,277,220378,2,0,L|98:286,1,70,8|0,0:0|0:0,0:0:0:0:
271,239,220691,2,0,L|197:248,1,70,2|0,0:0|0:0,0:0:0:0:
102,372,221003,2,0,L|175:381,1,70,8|0,0:0|0:0,0:0:0:0:
284,338,221316,1,2,0:0:0:0:
119,168,221628,1,8,0:0:0:0:
369,255,221941,6,0,P|385:228|390:188,2,46.6666666666667,2|2|2,0:0|0:0|0:0,0:0:0:0:
422,243,222253,2,0,P|425:202|409:158,1,70,10|0,0:0|0:0,0:0:0:0:
278,145,222566,2,0,P|305:129|329:97,2,46.6666666666667,2|2|2,0:0|0:0|0:0,0:0:0:0:
328,160,222878,2,0,P|351:125|359:79,1,70,10|0,0:0|0:0,0:0:0:0:
252,3,223191,6,0,P|283:3|320:-12,2,46.6666666666667,2|2|2,0:0|0:0|0:0,0:0:0:0:
288,41,223506,2,0,P|325:23|355:-12,1,70,10|0,0:0|0:0,0:0:0:0:
472,74,223822,2,0,L|466:23,2,46.6666666666667,2|2|2,0:0|0:0|0:0,0:0:0:0:
457,100,224138,1,14,0:0:0:0:
278,145,224454,6,0,P|275:204|286:271,1,93.3333333333333,6|2,0:0|0:0,0:0:0:0:
251,268,224761,2,0,P|254:209|243:142,1,93.3333333333333,8|2,0:0|0:0,0:0:0:0:
215,156,225069,6,0,P|172:146|129:148,1,70,2|0,0:0|0:0,0:0:0:0:
71,269,225377,2,0,P|114:259|157:261,1,70,10|0,0:0|0:0,0:0:0:0:
275,347,225684,2,0,P|309:345|343:336,1,70,2|0,0:0|0:0,0:0:0:0:
421,217,225992,2,0,P|387:208|352:206,1,70,10|0,0:0|0:0,0:0:0:0:
426,380,226300,2,0,P|460:378|494:369,1,70,2|0,0:0|0:0,0:0:0:0:
512,257,226607,1,10,0:0:0:0:
435,63,226915,6,0,L|369:54,2,46.6666666666667,2|2|2,0:0|0:0|0:0,0:0:0:0:
431,31,227229,2,0,L|350:36,1,70,8|0,0:0|0:0,0:0:0:0:
285,78,227543,2,0,L|276:144,2,46.6666666666667,2|2|2,0:0|0:0|0:0,0:0:0:0:
253,82,227857,2,0,L|258:163,1,70,8|0,0:0|0:0,0:0:0:0:
162,57,228171,6,0,L|96:48,2,46.6666666666667,2|2|2,0:0|0:0|0:0,0:0:0:0:
158,25,228485,2,0,L|77:30,1,70,8|0,0:0|0:0,0:0:0:0:
0,121,228799,6,0,L|8:189,2,46.6666666666667,8|8|8,0:0|0:0|0:0,0:0:0:0:
54,134,229113,2,0,L|62:202,2,46.6666666666667,8|8|8,0:0|0:0|0:0,0:0:0:0:
108,147,229428,6,0,L|125:295,1,140,2|0,0:0|0:0,0:0:0:0:
69,353,229899,2,0,P|114:326|221:322,1,140,2|2,0:0|0:0,0:0:0:0:
279,345,230370,1,8,0:0:0:0:
392,161,230684,6,0,P|346:186|289:277,1,140,2|8,0:0|0:0,0:0:0:0:
279,345,231155,2,0,L|262:197,1,140,2|2,0:0|0:0,0:0:0:0:
241,188,231548,1,2,0:0:0:0:
241,188,231627,2,0,P|264:149|312:126,1,70,8|0,0:0|0:0,0:0:0:0:
490,89,231941,6,0,B|404:108|430:58|341:75,1,140,2|8,0:0|0:0,0:0:0:0:
283,135,232402,2,0,P|204:132|160:78,1,140,2|2,0:0|0:0,0:0:0:0:
153,0,232864,1,8,0:0:0:0:
27,138,233171,6,0,L|33:187,3,35,2|2|2|2,0:0|0:0|0:0|0:0,0:0:0:0:
57,194,233486,2,0,L|106:188,3,35,10|2|2|2,0:0|0:0|0:0|0:0,0:0:0:0:
116,210,233802,2,0,L|121:245,3,35,10|2|2|2,0:0|0:0|0:0|0:0,0:0:0:0:
146,266,234118,2,0,L|195:260,3,35,10|2|2|2,0:0|0:0|0:0|0:0,0:0:0:0:
202,236,234434,6,0,L|196:187,3,35,10|2|2|2,0:0|0:0|0:0|0:0,0:0:0:0:
218,175,234743,2,0,L|253:171,3,35,10|2|2|2,0:0|0:0|0:0|0:0,0:0:0:0:
273,144,235052,2,0,L|269:110,3,35,10|2|2|2,0:0|0:0|0:0|0:0,0:0:0:0:
290,83,235361,2,0,L|324:78,2,35,10|2|2,0:0|0:0|0:0,0:0:0:0:
408,68,235671,5,6,0:0:0:0:
386,359,236927,6,0,B|351:301|285:330|285:330|287:281|272:256|272:256|295:242|295:242|213:165|274:77|274:77|250:122|263:175,1,490
377,138,238203,5,6,0:0:0:0:
121,186,238506,1,6,0:0:0:0:
