osu file format v14

[General]
AudioFilename: audio.mp3
AudioLeadIn: 0
PreviewTime: 70064
Countdown: 0
SampleSet: Normal
StackLeniency: 0.3
Mode: 0
LetterboxInBreaks: 0
WidescreenStoryboard: 1

[Editor]
Bookmarks: 10064,20068,30071,40076,50074,60074,100073,115053,125046,135030,146321,166347,174130,176783,186949,196955,206941,208178,208334,208492,208649,208806,209434,219441,229428,235671
DistanceSpacing: 0.3
BeatDivisor: 4
GridSize: 16
TimelineZoom: 3.399998

[Metadata]
Title:You're Better Off Dead
TitleUnicode:You're Better Off Dead
Artist:Children of Bodom
ArtistUnicode:Children of Bodom
Creator:Mazzerin
Version:AsaBen's Insane
Source:
Tags:ksardas lmt asaben gabdu09 fcl hate crew deathroll melodeath melodic death metal english
BeatmapID:2910125
BeatmapSetID:1125258

[Difficulty]
HPDrainRate:5
CircleSize:4
OverallDifficulty:8
ApproachRate:9
SliderMultiplier:1.7
SliderTickRate:1

[Events]
//Background and Video events
0,0,"asdf.jpg",0,0
//Break Periods
2,100273,104492
//Storyboard Layer 0 (Background)
//Storyboard Layer 1 (Fail)
//Storyboard Layer 2 (Pass)
//Storyboard Layer 3 (Foreground)
//Storyboard Layer 4 (Overlay)
//Storyboard Sound Samples

[TimingPoints]
45,315.789473684211,4,1,5,60,1,0
2571,314.13612565445,4,1,5,60,1,0
3827,310.880829015544,4,1,5,60,1,0
7557,-80,4,1,5,60,0,0
8179,-66.6666666666667,4,1,5,60,0,0
8801,315.789473684211,4,1,8,60,1,0
10064,310.880829015544,4,1,5,60,1,0
10064,-80,4,1,5,60,0,0
10297,-80,4,1,5,5,0,0
10374,-80,4,1,5,60,0,0
10763,-80,4,1,5,5,0,0
10841,-80,4,1,5,60,0,0
11228,-80,4,1,5,5,0,0
11307,315.789473684211,4,1,5,60,1,0
11307,-80,4,1,5,60,0,0
11543,-80,4,1,5,5,0,0
11622,-80,4,1,5,60,0,0
12017,-80,4,1,5,5,0,0
12096,-80,4,1,5,60,0,0
12254,-66.6666666666667,4,1,5,60,0,0
12492,-66.6666666666667,4,1,5,5,0,0
12570,309.278350515464,4,1,5,60,1,0
12570,-80,4,1,5,60,0,0
12801,-80,4,1,5,5,0,0
12879,-80,4,1,5,60,0,0
13265,-80,4,1,5,5,0,0
13343,-80,4,1,5,60,0,0
13728,-80,4,1,5,5,0,0
13807,312.5,4,1,5,60,1,0
15057,-80,4,1,5,60,0,0
15291,-80,4,1,5,5,0,0
15369,-80,4,1,5,60,0,0
15760,-80,4,1,5,5,0,0
15838,-80,4,1,5,60,0,0
16228,-80,4,1,5,5,0,0
16307,-80,4,1,5,60,0,0
16541,-80,4,1,5,5,0,0
16619,-80,4,1,5,60,0,0
17010,-80,4,1,5,5,0,0
17109,312.5,4,1,5,60,1,0
17109,-66.6666666666667,4,1,5,60,0,0
17500,-66.6666666666667,4,1,5,5,0,0
17577,307.692307692308,4,1,5,60,1,0
17577,-80,4,1,5,60,0,0
17807,-80,4,1,5,5,0,0
17884,-80,4,1,5,60,0,0
18269,-80,4,1,5,5,0,0
18346,-80,4,1,5,60,0,0
18807,315.789473684211,4,1,5,60,1,0
19122,-100,4,1,8,60,0,0
19754,-100,4,1,5,60,0,0
19989,-100,4,1,5,5,0,0
20068,312.5,4,1,5,60,1,0
20302,-80,4,1,5,5,0,0
20380,-80,4,1,5,60,0,0
20771,-80,4,1,5,5,0,0
20849,-80,4,1,5,60,0,0
21239,-80,4,1,5,5,0,0
21318,-80,4,1,5,60,0,0
21552,-80,4,1,5,5,0,0
21630,-80,4,1,5,60,0,0
22021,-80,4,1,5,5,0,0
22099,-80,4,1,5,60,0,0
22255,-66.6666666666667,4,1,5,60,0,0
22568,-80,4,1,5,60,0,0
22802,-80,4,1,5,5,0,0
22880,-80,4,1,5,60,0,0
23271,-80,4,1,5,5,0,0
23349,-80,4,1,5,60,0,0
23739,-80,4,1,5,5,0,0
23818,315.789473684211,4,1,5,60,1,0
25081,310.077519379845,4,1,5,60,1,0
25081,-80,4,1,5,60,0,0
25313,-80,4,1,5,5,0,0
25391,-80,4,1,5,60,0,0
25778,-80,4,1,5,5,0,0
25856,-80,4,1,5,60,0,0
26243,-80,4,1,5,5,0,0
26321,-80,4,1,5,60,0,0
26553,-80,4,1,5,5,0,0
26631,-80,4,1,5,60,0,0
27018,-80,4,1,5,5,0,0
27096,-66.6666666666667,4,1,5,60,0,0
27482,-66.6666666666667,4,1,5,5,0,0
27561,315.789473684211,4,1,5,60,1,0
27561,-80,4,1,5,60,0,0
27797,-80,4,1,5,5,0,0
27876,-80,4,1,5,60,0,0
28271,-80,4,1,5,5,0,0
28350,-80,4,1,5,60,0,0
28824,-80,4,1,8,60,0,0
30071,312.5,4,1,5,60,1,0
30071,-100,4,1,5,60,0,0
30305,-100,4,1,5,5,0,0
30383,-100,4,1,5,60,0,0
30774,-100,4,1,5,5,0,0
30852,-100,4,1,5,60,0,0
32805,-100,4,1,5,5,0,0
32883,-100,4,1,5,60,0,0
33274,-100,4,1,5,5,0,0
33352,-100,4,1,5,60,0,0
33821,319.148936170213,4,1,5,60,1,0
34884,-100,4,1,8,60,0,0
35097,309.278350515464,4,1,5,60,1,0
35328,-100,4,1,5,5,0,0
35406,-100,4,1,5,60,0,0
35792,-100,4,1,5,5,0,0
35870,-100,4,1,5,60,0,0
36334,307.692307692308,4,1,5,60,1,0
36487,-100,4,1,5,60,0,0
37487,-100,4,1,5,5,0,0
37564,317.460317460317,4,1,5,60,1,0
37802,-100,4,1,5,5,0,0
37881,-100,4,1,5,60,0,0
38278,-100,4,1,5,5,0,0
38357,-100,4,1,5,60,0,0
38516,-100,4,1,8,60,0,0
38833,310.880829015544,4,1,5,60,1,0
38833,-66.6666666666667,4,1,5,60,0,0
39066,-66.6666666666667,4,1,5,5,0,0
39143,-66.6666666666667,4,1,5,60,0,0
39377,-66.6666666666667,4,1,5,5,0,0
39454,-66.6666666666667,4,1,5,60,0,0
39687,-66.6666666666667,4,1,5,5,0,0
39765,-66.6666666666667,4,1,5,60,0,0
39998,-66.6666666666667,4,1,5,5,0,0
40076,-80,4,1,5,60,0,0
40309,-80,4,1,5,5,0,0
40387,-80,4,1,5,60,0,0
40776,-80,4,1,5,5,0,0
40853,-80,4,1,5,60,0,0
41242,-80,4,1,5,5,0,0
41320,-80,4,1,5,60,0,0
41553,-80,4,1,5,5,0,0
41630,-80,4,1,5,60,0,0
42019,-80,4,1,5,5,0,0
42097,-66.6666666666667,4,1,5,60,0,0
42485,-66.6666666666667,4,1,5,5,0,0
42563,-80,4,1,5,60,0,0
42796,-80,4,1,5,5,0,0
42874,-80,4,1,5,60,0,0
43263,-80,4,1,5,5,0,0
43340,-80,4,1,5,60,0,0
43729,-80,4,1,5,5,0,0
43807,320,4,1,5,60,1,0
45087,312.5,4,1,5,60,1,0
45087,-80,4,1,5,60,0,0
45321,-80,4,1,5,5,0,0
45399,-80,4,1,5,60,0,0
45790,-80,4,1,5,5,0,0
45868,-80,4,1,5,60,0,0
46258,-80,4,1,5,5,0,0
46337,309.278350515464,4,1,5,60,1,0
46337,-80,4,1,5,60,0,0
46568,-80,4,1,5,5,0,0
46646,-80,4,1,5,60,0,0
47032,-80,4,1,5,5,0,0
47110,-66.6666666666667,4,1,5,60,0,0
47496,-66.6666666666667,4,1,5,5,0,0
47574,-80,4,1,5,60,0,0
47806,-80,4,1,5,5,0,0
47883,-80,4,1,5,60,0,0
48269,-80,4,1,5,5,0,0
48347,-80,4,1,5,60,0,0
48733,-80,4,1,5,5,0,0
48811,315.789473684211,4,1,8,60,1,0
49126,-100,4,1,5,60,0,0
50074,309.278350515464,4,1,5,60,1,0
50769,-100,4,1,5,5,0,0
50847,-100,4,1,5,60,0,0
51311,319.148936170213,4,1,5,60,1,0
52029,-100,4,1,5,5,0,0
52108,-100,4,1,5,60,0,0
52587,312.5,4,1,5,60,1,0
53837,309.278350515464,4,1,5,60,1,0
55074,312.5,4,1,5,60,1,0
55777,-100,4,1,5,5,0,0
55855,-100,4,1,5,60,0,0
56792,-66.6666666666667,4,1,5,60,0,0
56870,-66.6666666666667,4,1,5,20,0,0
56949,-66.6666666666667,4,1,5,60,0,0
57027,-66.6666666666667,4,1,5,20,0,0
57105,-66.6666666666667,4,1,5,60,0,0
57183,-66.6666666666667,4,1,5,20,0,0
57261,-66.6666666666667,4,1,5,60,0,0
57339,-66.6666666666667,4,1,5,20,0,0
57417,-66.6666666666667,4,1,5,60,0,0
57495,-66.6666666666667,4,1,5,20,0,0
57574,-100,4,1,5,60,0,0
58980,-100,4,1,8,60,0,0
60074,314.13612565445,4,1,5,60,1,0
60780,-100,4,1,5,5,0,0
60859,-100,4,1,5,60,0,0
61330,317.460317460317,4,1,5,60,1,0
62044,-100,4,1,5,5,0,0
62123,-100,4,1,5,60,0,0
62599,307.692307692308,4,1,5,60,1,0
63829,314.13612565445,4,1,5,60,1,0
65085,310.880829015544,4,1,5,60,1,0
65551,-80,4,1,5,60,0,0
65784,-80,4,1,5,5,0,0
65862,-80,4,1,5,60,0,0
66173,-100,4,1,5,60,0,0
67028,-100,4,1,5,5,0,0
67105,-100,4,1,5,60,0,0
68815,304.568527918782,4,1,5,60,1,0
69424,298.507462686567,4,1,5,60,1,0
69424,-66.6666666666667,4,1,5,60,0,0
69722,342.857142857143,4,1,5,60,1,0
70064,310.880829015544,4,1,5,70,1,1
71307,317.460317460317,4,1,5,70,1,1
73846,308.483290488432,4,1,5,70,1,1
78473,-100,4,1,8,70,0,1
78678,-100,4,1,5,70,0,1
79398,315.789473684211,4,1,5,70,1,1
79819,-100,4,1,8,70,0,1
80029,315.789473684211,4,1,5,70,1,1
80029,-66.6666666666667,4,1,5,70,0,1
80344,-100,4,1,5,70,0,1
83818,312.5,4,1,5,70,1,1
85068,307.692307692308,4,1,5,70,1,1
86298,310.880829015544,4,1,5,70,1,1
88785,315.789473684211,4,1,5,70,1,1
90048,-100,4,1,5,60,0,0
90285,-100,4,1,5,5,0,0
90363,-100,4,1,5,60,0,0
90916,-100,4,1,5,5,0,0
90995,-100,4,1,5,60,0,0
92574,310.880829015544,4,1,5,60,1,0
92807,-100,4,1,5,5,0,0
92884,-100,4,1,5,60,0,0
93428,-100,4,1,5,5,0,0
93506,-100,4,1,5,60,0,0
95061,312.5,4,1,5,60,1,0
95920,-100,4,1,5,5,0,0
95998,-100,4,1,5,60,0,0
96076,-100,4,1,5,20,0,0
96154,-100,4,1,5,60,0,0
96232,-100,4,1,5,20,0,0
96311,-100,4,1,5,60,0,0
96389,-100,4,1,5,20,0,0
96467,-100,4,1,5,60,0,0
96545,-100,4,1,5,20,0,0
96623,-100,4,1,5,60,0,0
97561,310.880829015544,4,1,5,60,1,0
98804,317.460317460317,4,1,5,60,1,0
98804,-66.6666666666667,4,1,5,60,0,0
99042,-66.6666666666667,4,1,5,5,0,0
99121,-66.6666666666667,4,1,5,60,0,0
99359,-66.6666666666667,4,1,5,5,0,0
99438,-66.6666666666667,4,1,5,60,0,0
99756,-100,4,1,5,60,0,0
100073,310.880829015544,4,1,5,60,1,0
100228,-100,4,2,5,40,0,0
101316,319.148936170213,4,2,5,40,1,0
102592,312.5,4,2,5,40,1,0
105092,309.278350515464,4,1,5,60,1,0
105092,-200,4,1,5,60,0,0
107566,312.5,4,1,5,60,1,0
107566,-133.333333333333,4,1,5,60,0,0
110066,309.278350515464,4,1,5,60,1,0
110066,-66.6666666666667,4,1,5,60,0,0
110684,-133.333333333333,4,1,5,60,0,0
111303,312.5,4,1,5,60,1,0
112553,-80,4,1,5,60,0,0
113021,-133.333333333333,4,1,5,60,0,0
115053,314.13612565445,4,1,5,60,1,0
115053,-117.647058823529,4,1,5,60,0,0
116231,-117.647058823529,4,1,5,5,0,0
116309,-117.647058823529,4,1,5,60,0,0
116702,-117.647058823529,4,1,5,5,0,0
116780,-117.647058823529,4,1,5,60,0,0
117173,-117.647058823529,4,1,5,5,0,0
117251,-117.647058823529,4,1,5,60,0,0
117488,-117.647058823529,4,1,5,5,0,0
117566,310.880829015544,4,1,5,60,1,0
117566,-117.647058823529,4,1,5,60,0,0
118729,-117.647058823529,4,1,5,5,0,0
118809,319.148936170213,4,1,5,60,1,0
118809,-117.647058823529,4,1,5,60,0,0
119207,-117.647058823529,4,1,5,5,0,0
119287,-117.647058823529,4,1,5,60,0,0
119686,-117.647058823529,4,1,5,5,0,0
119766,-117.647058823529,4,1,5,60,0,0
120007,-117.647058823529,4,1,5,5,0,0
120085,309.278350515464,4,1,5,60,1,0
120085,-117.647058823529,4,1,5,60,0,0
121244,-117.647058823529,4,1,5,5,0,0
121322,315.789473684211,4,1,5,60,1,0
121322,-117.647058823529,4,1,5,60,0,0
121716,-117.647058823529,4,1,5,5,0,0
121795,-117.647058823529,4,1,5,60,0,0
122190,-117.647058823529,4,1,5,5,0,0
122269,-117.647058823529,4,1,5,60,0,0
122506,-117.647058823529,4,1,5,5,0,0
122585,310.880829015544,4,1,5,60,1,0
122585,-117.647058823529,4,1,5,60,0,0
123828,304.568527918782,4,1,8,60,1,0
123828,-117.647058823529,4,1,8,60,0,0
125046,317.460317460317,4,1,5,60,1,0
125046,-80,4,1,5,60,0,0
125760,-80,4,1,5,5,0,0
125839,-80,4,1,5,60,0,0
126315,314.13612565445,4,1,5,60,1,0
127571,310.077519379845,4,1,5,60,1,0
130051,314.13612565445,4,1,5,60,1,0
130757,-100,4,1,5,5,0,0
130836,-100,4,1,5,60,0,0
131307,312.5,4,1,5,60,1,0
132557,310.880829015544,4,1,5,60,1,0
133800,307.692307692308,4,1,5,60,1,0
134261,-133.333333333333,4,1,5,60,0,0
135030,322.58064516129,4,1,5,60,1,0
136320,315.789473684211,4,1,5,60,1,0
137583,308.483290488432,4,1,5,60,1,0
138816,314.13612565445,4,1,5,60,1,0
140072,307.692307692308,4,1,5,60,1,0
141302,315.789473684211,4,1,5,60,1,0
142565,309.278350515464,4,1,5,60,1,0
143802,312.5,4,1,5,60,1,0
145052,317.460317460317,4,1,8,60,1,0
146321,309.278350515464,4,1,5,70,1,0
147480,-100,4,1,5,5,0,0
147558,-100,4,1,5,70,0,0
147944,-100,4,1,5,5,0,0
148022,-100,4,1,5,70,0,0
148408,-100,4,1,5,5,0,0
148485,-100,4,1,5,70,0,0
148716,-100,4,1,5,5,0,0
148795,314.13612565445,4,1,5,70,1,0
149030,-100,4,1,5,5,0,0
149109,-100,4,1,5,70,0,0
150444,-100,4,1,5,5,0,0
150522,-100,4,1,5,70,0,0
150601,-100,4,1,5,5,0,0
150836,-100,4,1,5,60,0,0
151308,312.5,4,1,5,70,1,0
154433,-133.333333333333,4,1,5,70,0,0
155058,-100,4,1,5,70,0,0
155722,-100,4,1,5,20,0,0
155761,-100,4,1,5,70,0,0
155800,-100,4,1,5,20,0,0
155839,-100,4,1,5,70,0,0
155878,-100,4,1,5,20,0,0
155917,-100,4,1,5,70,0,0
155956,-100,4,1,5,20,0,0
155995,-100,4,1,5,70,0,0
156347,-100,4,1,5,20,0,0
156386,-100,4,1,5,70,0,0
156425,-100,4,1,5,20,0,0
156464,-100,4,1,5,70,0,0
156503,-100,4,1,5,20,0,0
156542,-100,4,1,5,70,0,0
156581,-100,4,1,5,20,0,0
156620,-100,4,1,5,70,0,0
156659,-100,4,1,5,20,0,0
156698,-100,4,1,5,70,0,0
156737,-100,4,1,5,20,0,0
156776,-100,4,1,5,70,0,0
156815,-100,4,1,5,20,0,0
156854,-100,4,1,5,70,0,0
156893,-100,4,1,5,20,0,0
156933,-100,4,1,5,70,0,0
156972,-100,4,1,5,20,0,0
157011,-100,4,1,5,70,0,0
157050,-100,4,1,5,20,0,0
157089,-100,4,1,5,70,0,0
157128,-100,4,1,5,20,0,0
157245,-100,4,1,5,70,0,0
157558,310.880829015544,4,1,5,70,1,0
160278,-100,4,1,5,5,0,0
160355,-100,4,1,5,70,0,0
160433,-100,4,1,5,5,0,0
160511,-100,4,1,5,70,0,0
160899,-100,4,1,5,5,0,0
160977,-100,4,1,5,70,0,0
161754,-133.333333333333,4,1,5,70,0,0
162298,-133.333333333333,4,1,5,5,0,0
162376,-133.333333333333,4,1,5,70,0,0
162532,319.148936170213,4,1,5,70,1,0
163808,315.789473684211,4,1,5,70,1,0
165071,319.148936170213,4,1,8,70,1,0
165230,-100,4,1,5,70,0,0
165310,-100,4,1,8,70,0,0
165390,-100,4,1,5,70,0,0
165469,-100,4,1,8,70,0,0
165709,-100,4,1,5,70,0,0
165789,-100,4,1,8,70,0,0
166028,-100,4,1,5,70,0,0
166108,-100,4,1,8,70,0,0
166188,-100,4,1,5,70,0,0
166267,-100,4,1,8,70,0,0
166347,303.030303030303,4,1,5,70,1,0
166347,-80,4,1,5,70,0,0
166877,-80,4,1,5,20,0,0
166953,-80,4,1,5,70,0,0
167028,-80,4,1,5,20,0,0
167104,-80,4,1,5,70,0,0
167180,-80,4,1,5,20,0,0
167256,-80,4,1,5,70,0,0
167331,-80,4,1,5,20,0,0
167407,-80,4,1,5,70,0,0
167483,-80,4,1,5,20,0,0
167559,315.789473684211,4,1,5,70,1,0
167559,-80,4,1,5,70,0,0
168427,-80,4,1,5,5,0,0
168506,-80,4,1,5,70,0,0
168822,310.880829015544,4,1,5,70,1,0
168822,-80,4,1,5,70,0,0
168899,-80,4,1,5,5,0,0
168977,-80,4,1,5,70,0,0
169599,-80,4,1,5,70,0,0
170065,314.13612565445,4,1,5,70,1,0
170300,-100,4,1,5,5,0,0
170379,-100,4,1,5,70,0,0
170771,-100,4,1,5,20,0,0
170850,-100,4,1,5,70,0,0
170928,-100,4,1,5,20,0,0
171007,-100,4,1,5,70,0,0
171085,-100,4,1,5,20,0,0
171164,-100,4,1,5,70,0,0
171243,-100,4,1,5,20,0,0
171321,310.880829015544,4,1,5,70,1,0
172564,314.13612565445,4,1,5,70,1,0
173820,310.880829015544,4,1,5,70,1,0
173820,-133.333333333333,4,1,5,70,0,0
174441,-153.846153846153,4,1,5,70,0,0
175063,-100,4,1,5,70,0,0
175763,-100,4,1,5,20,0,0
175840,-100,4,1,5,70,0,0
175918,-100,4,1,5,20,0,0
175996,-100,4,1,5,70,0,0
176073,-100,4,1,5,20,0,0
176151,-100,4,1,5,70,0,0
176229,-100,4,1,5,20,0,0
176307,317.460317460317,4,1,8,70,1,0
176783,-100,4,1,5,70,0,0
176862,-100,4,1,5,20,0,0
176941,-100,4,1,5,70,0,0
177021,-100,4,1,5,20,0,0
177100,-100,4,1,5,70,0,0
177180,-100,4,1,5,20,0,0
177259,-100,4,1,5,70,0,0
177338,-100,4,1,5,20,0,0
177418,-100,4,1,5,70,0,0
177497,-100,4,1,5,20,0,0
177576,312.5,4,1,5,70,1,0
178279,-100,4,1,5,5,0,0
178357,-100,4,1,5,70,0,0
178435,-100,4,1,5,20,0,0
178513,-100,4,1,5,70,0,0
178591,-100,4,1,5,20,0,0
178669,-100,4,1,5,70,0,0
178747,-100,4,1,5,20,0,0
178826,311.688311688312,4,1,5,70,1,0
179215,-100,4,1,5,5,0,0
179293,-100,4,1,5,70,0,0
179371,-100,4,1,5,5,0,0
179449,-100,4,1,5,70,0,0
179838,-100,4,1,5,5,0,0
179916,-100,4,1,5,70,0,0
179994,-100,4,1,5,5,0,0
180072,314.13612565445,4,1,5,70,1,0
180935,-100,4,1,5,5,0,0
181014,-100,4,1,8,70,0,0
181328,310.880829015544,4,1,5,70,1,0
182571,314.13612565445,4,1,5,70,1,0
183277,-100,4,1,5,20,0,0
183356,-100,4,1,5,70,0,0
183434,-100,4,1,5,20,0,0
183513,-100,4,1,5,70,0,0
183591,-100,4,1,5,20,0,0
183670,-100,4,1,5,70,0,0
183749,-100,4,1,5,20,0,0
183827,-100,4,1,5,70,0,0
184455,-100,4,1,5,60,0,0
184534,-100,4,1,5,5,0,0
184769,-100,4,1,5,60,0,0
184848,-100,4,1,5,5,0,0
184927,-100,4,1,8,60,0,0
185555,297.029702970297,4,1,8,60,1,0
185853,314.13612565445,4,1,8,60,1,0
186010,291.26213592233,4,1,8,60,1,0
186301,310.880829015544,4,1,5,60,1,0
186534,-100,4,1,5,5,0,0
186611,338.983050847458,4,1,5,60,1,0
186865,-100,4,1,5,5,0,0
186949,313.31592689295,4,1,5,60,1,0
187653,-100,4,1,5,5,0,0
187732,-100,4,1,5,60,0,0
188907,-100,4,1,5,5,0,0
188985,-100,4,1,5,60,0,0
189455,310.880829015544,4,1,5,60,1,0
191942,309.278350515464,4,1,5,60,1,0
192637,-100,4,1,5,5,0,0
192715,-100,4,1,5,60,0,0
193024,-101.010101010101,4,1,5,60,0,0
193179,314.13612565445,4,1,5,60,1,0
193885,-100,4,1,5,5,0,0
193964,-100,4,1,5,60,0,0
194121,-66.6666666666667,4,1,5,60,0,0
194199,-66.6666666666667,4,1,5,20,0,0
194278,-66.6666666666667,4,1,5,60,0,0
194358,-66.6666666666667,4,1,5,20,0,0
194435,307.692307692308,4,1,5,60,1,0
195665,322.58064516129,4,1,5,60,1,0
196955,309.278350515464,4,1,5,60,1,0
197650,-100,4,1,5,5,0,0
197728,-100,4,1,5,60,0,0
198192,315.789473684211,4,1,5,60,1,0
198902,-100,4,1,5,5,0,0
198981,-100,4,1,5,60,0,0
199455,309.278350515464,4,1,5,60,1,0
200692,312.5,4,1,5,60,1,0
201942,310.880829015544,4,1,5,60,1,0
202641,-100,4,1,5,5,0,0
202719,-100,4,1,5,60,0,0
203030,-100.502512562814,4,1,5,60,0,0
203185,314.13612565445,4,1,5,60,1,0
203891,-100,4,1,5,5,0,0
203970,-100,4,1,5,60,0,0
204441,312.5,4,1,5,60,1,0
206941,309.278350515464,4,1,5,60,1,0
206941,-133.333333333333,4,1,5,60,0,0
207095,-133.333333333333,4,1,5,30,0,0
207250,-133.333333333333,4,1,5,37,0,0
207404,-133.333333333333,4,1,5,45,0,0
207559,-117.647058823529,4,1,5,52,0,0
207714,-117.647058823529,4,1,5,59,0,0
207868,-117.647058823529,4,1,5,66,0,0
208023,-117.647058823529,4,1,5,73,0,0
208178,314.13612565445,4,1,5,60,1,0
208282,416.666666666667,4,1,5,60,1,0
208492,314.13612565445,4,1,5,60,1,0
208910,419.58041958042,4,1,5,60,1,0
209120,314.13612565445,4,1,5,60,1,0
209434,314.13612565445,4,1,5,70,1,1
213204,309.278350515464,4,1,5,70,1,1
214441,312.5,4,1,5,70,1,1
218191,-100,4,1,8,70,0,1
218295,-100,4,1,5,70,0,1
218607,-100,4,1,8,70,0,1
219024,-100,4,1,5,70,0,1
219232,-100,4,1,8,70,0,1
219336,-100,4,1,5,70,0,1
219441,-66.6666666666667,4,1,5,70,0,1
219753,-100,4,1,5,70,0,1
223191,315.789473684211,4,1,5,70,1,1
224454,307.692307692308,4,1,5,70,1,1
226915,314.13612565445,4,1,5,70,1,1
229428,-80,4,1,5,60,0,0
229663,-100,4,1,5,5,0,0
229742,-80,4,1,5,60,0,0
230134,-100,4,1,5,5,0,0
230213,-80,4,1,5,60,0,0
230606,-100,4,1,5,5,0,0
230684,-80,4,1,5,60,0,0
230920,-100,4,1,5,5,0,0
230998,-80,4,1,5,60,0,0
231391,-100,4,1,5,5,0,0
231469,-100,4,1,5,60,0,0
231627,-66.6666666666667,4,1,5,60,0,0
231862,-66.6666666666667,4,1,5,5,0,0
231941,307.692307692308,4,1,5,60,1,0
231941,-80,4,1,5,60,0,0
232171,-80,4,1,5,5,0,0
232248,-80,4,1,5,60,0,0
232633,-80,4,1,5,5,0,0
232710,-80,4,1,5,60,0,0
233094,-80,4,1,5,5,0,0
233171,315.789473684211,4,1,5,60,1,0
234434,309.278350515464,4,1,5,60,1,0
235671,314.13612565445,4,1,5,60,1,0
235749,-100,4,1,5,5,0,0
236927,319.148936170213,4,1,5,60,1,0
238203,303.030303030303,4,1,5,60,1,0

[Colours]
Combo1 : 255,153,0
Combo2 : 251,26,26
Combo3 : 252,233,1
Combo4 : 255,6,150

[HitObjects]
107,298,45,5,10,0:0:0:0:
88,291,124,1,2,0:0:0:0:
77,274,202,1,2,0:0:0:0:
144,179,360,2,0,P|137:199|137:220,2,42.5,10|2|2,0:0|0:0|0:0,0:0:0:0:
261,198,676,2,0,P|240:202|221:212,2,42.5,10|2|2,0:0|0:0|0:0,0:0:0:0:
311,306,992,2,0,P|296:290|278:279,2,42.5,10|2|2,0:0|0:0|0:0,0:0:0:0:
483,384,1308,5,10,0:0:0:0:
492,364,1387,1,2,0:0:0:0:
491,342,1466,1,2,0:0:0:0:
388,362,1623,2,0,P|388:341|395:321,2,42.5,10|2|2,0:0|0:0|0:0,0:0:0:0:
512,221,1939,2,0,P|511:199|505:179,2,42.5,10|2|2,0:0|0:0|0:0,0:0:0:0:
417,236,2255,2,0,P|410:215|410:194,2,42.5,10|2|2,0:0|0:0|0:0,0:0:0:0:
450,99,2571,5,10,0:0:0:0:
432,87,2649,1,2,0:0:0:0:
410,88,2728,1,2,0:0:0:0:
308,74,2885,2,0,P|292:89|280:106,2,42.5,10|2|2,0:0|0:0|0:0,0:0:0:0:
208,171,3199,2,0,P|212:191|221:210,2,42.5,10|2|2,0:0|0:0|0:0,0:0:0:0:
241,305,3513,2,0,P|261:311|282:313,2,42.5,10|2|2,0:0|0:0|0:0,0:0:0:0:
94,384,3827,5,10,0:0:0:0:
103,364,3904,1,2,0:0:0:0:
102,342,3982,1,2,0:0:0:0:
0,361,4137,2,0,P|0:339|6:320,2,42.5,10|2|2,0:0|0:0|0:0,0:0:0:0:
123,221,4448,2,0,P|122:199|115:179,2,42.5,10|2|2,0:0|0:0|0:0,0:0:0:0:
28,236,4759,2,0,P|21:214|21:193,2,42.5,10|2|2,0:0|0:0|0:0,0:0:0:0:
16,28,5070,5,14,0:0:0:0:
35,37,5148,1,2,0:0:0:0:
56,36,5225,1,2,0:0:0:0:
149,105,5381,2,0,P|128:100|107:98,2,42.5,10|2|2,0:0|0:0|0:0,0:0:0:0:
272,76,5692,2,0,P|251:82|232:91,2,42.5,10|2|2,0:0|0:0|0:0,0:0:0:0:
374,0,6003,2,0,P|359:15|347:33,2,42.5,10|2|2,0:0|0:0|0:0,0:0:0:0:
478,93,6314,5,10,0:0:0:0:
473,72,6391,1,2,0:0:0:0:
457,56,6469,1,2,0:0:0:0:
384,149,6624,2,0,P|369:133|360:114,2,42.5,10|2|2,0:0|0:0|0:0,0:0:0:0:
512,240,6935,2,0,P|509:261|501:281,2,42.5,10|2|2,0:0|0:0|0:0,0:0:0:0:
413,258,7246,2,0,P|415:236|424:217,2,42.5,10|2|2,0:0|0:0|0:0,0:0:0:0:
327,332,7557,6,0,B|271:299|271:299|195:360|195:360|142:341,1,212.5,10|10,0:0|0:0,0:0:0:0:
0,279,8023,1,2,0:0:0:0:
0,279,8179,2,0,B|116:258|116:258|124:246|124:246|245:225,1,255.000009727478,10|10,0:0|0:0,0:0:0:0:
333,207,8645,1,2,0:0:0:0:
435,237,8801,5,4,0:0:0:0:
446,219,8879,1,4,0:0:0:0:
450,198,8958,1,4,0:0:0:0:
447,177,9037,1,4,0:0:0:0:
437,159,9116,2,0,P|418:149|397:143,3,42.5,4|4|4|4,0:0|0:0|0:0|0:0,0:0:0:0:
495,104,9432,6,0,P|505:85|511:65,1,42.5,4|4,0:0|0:0,0:0:0:0:
419,26,9590,2,0,P|408:44|402:64,1,42.5,4|4,0:0|0:0,0:0:0:0:
316,112,9748,1,4,0:0:0:0:
298,123,9826,1,4,0:0:0:0:
277,127,9905,1,4,0:0:0:0:
256,124,9984,1,4,0:0:0:0:
236,113,10064,6,0,B|193:87|193:87|92:137|92:137|88:147|88:147|53:129,1,212.5,6|8,0:0|0:0,0:0:0:0:
198,194,10530,2,0,B|239:222|239:222|212:291|212:291|207:296|207:296|178:373,1,212.5,2|2,0:0|0:0,0:0:0:0:
56,318,10996,2,0,B|51:263|51:263|99:240,1,106.25,8|0,0:0|0:0,0:0:0:0:
295,381,11307,6,0,B|347:355|347:355|339:253|339:253|389:230,1,212.5,2|8,0:0|0:0,0:0:0:0:
491,100,11780,2,0,B|519:149|519:149|495:203,1,106.25,2|0,0:0|0:0,0:0:0:0:
426,321,12096,1,2,0:0:0:0:
426,321,12175,1,2,0:0:0:0:
426,321,12254,6,0,P|342:294|208:280,1,191.250007295609,8|0,0:0|0:0,0:0:0:0:
230,271,12570,6,0,B|178:278|178:278|147:318|147:318|143:320|143:320|116:358|116:358|48:370,1,212.5,2|8,0:0|0:0,0:0:0:0:
74,217,13033,2,0,B|90:132|90:132|181:162|181:162|164:195,1,212.5,2|2,0:0|0:0,0:0:0:0:
273,201,13420,1,2,0:0:0:0:
273,201,13497,2,0,B|291:148|291:148|271:89,1,106.25,8|0,0:0|0:0,0:0:0:0:
143,34,13807,5,2,0:0:0:0:
156,50,13885,1,2,0:0:0:0:
176,56,13963,1,2,0:0:0:0:
197,56,14041,1,2,0:0:0:0:
214,44,14119,2,0,L|213:1,3,42.5,10|2|2|2,0:0|0:0|0:0|0:0,0:0:0:0:
301,27,14432,5,2,0:0:0:0:
318,15,14510,1,2,0:0:0:0:
339,16,14588,1,2,0:0:0:0:
359,22,14666,1,2,0:0:0:0:
371,39,14744,2,0,L|357:78,3,42.5,10|2|2|2,0:0|0:0|0:0|0:0,0:0:0:0:
452,0,15057,6,0,B|470:93|470:93|484:104|484:104|502:208,1,212.5,6|8,0:0|0:0,0:0:0:0:
297,197,15525,2,0,B|270:244|270:244|298:300|298:300|302:304|302:304|343:388,1,212.5,2|2,0:0|0:0,0:0:0:0:
390,260,15994,2,0,L|406:139,1,106.25,8|0,0:0|0:0,0:0:0:0:
205,169,16307,6,0,B|148:156|148:156|90:240|90:240|36:227,1,212.5,2|8,0:0|0:0,0:0:0:0:
5,85,16775,2,0,B|53:56|53:56|94:84,1,106.25,2|0,0:0|0:0,0:0:0:0:
199,283,17109,1,2,0:0:0:0:
199,283,17187,1,2,0:0:0:0:
199,283,17265,2,0,B|242:260|304:285|292:297|281:312|337:354|395:320,1,191.250007295609,12|0,0:0|0:0,0:0:0:0:
379,324,17577,6,0,B|389:239|389:239|422:217|422:217|434:105,1,212.5,0|8,0:0|0:0,0:0:0:0:
296,10,18038,2,0,B|233:-16|233:-16|269:123,1,212.5,2|2,0:0|0:0,0:0:0:0:
297,204,18500,1,8,0:0:0:0:
359,80,18653,1,2,0:0:0:0:
174,117,18807,5,8,0:0:0:0:
174,117,18964,1,8,0:0:0:0:
87,135,19122,2,0,P|45:143|4:154,2,85,4|4|4,0:0|0:0|0:0,0:0:0:0:
89,233,19596,5,4,0:0:0:0:
164,249,19754,1,4,0:0:0:0:
217,192,19912,1,0,0:0:0:0:
250,341,20068,6,0,B|237:304|237:304|261:265,1,85,6|0,0:0|0:0,0:0:0:0:
372,177,20380,1,8,0:0:0:0:
501,303,20536,2,0,B|457:331|457:331|367:283|367:283|370:277|370:277|319:325,1,212.5,0|2,0:0|0:0,0:0:0:0:
469,210,21005,2,0,B|491:159|491:159|438:114,1,106.25,8|0,0:0|0:0,0:0:0:0:
302,82,21318,6,0,B|399:64|399:64|407:50|407:50|502:33,1,212.5,2|8,0:0|0:0,0:0:0:0:
236,19,21786,2,0,B|203:65|203:65|219:111,1,106.25,2|0,0:0|0:0,0:0:0:0:
381,197,22099,1,0,0:0:0:0:
381,197,22177,1,0,0:0:0:0:
381,197,22255,6,0,P|285:193|189:202,1,191.250007295609,12|0,0:0|0:0,0:0:0:0:
178,202,22568,2,0,B|157:253|157:253|194:287,1,106.25,2|0,0:0|0:0,0:0:0:0:
295,284,22880,1,8,0:0:0:0:
104,365,23036,2,0,B|58:336|58:336|71:233|71:233|17:190,1,212.5,2|2,0:0|0:0,0:0:0:0:
81,57,23505,2,0,B|116:100|116:100|104:149,1,106.25,8|0,0:0|0:0,0:0:0:0:
188,36,23818,5,2,0:0:0:0:
206,26,23896,1,2,0:0:0:0:
226,28,23975,1,2,0:0:0:0:
246,36,24054,1,2,0:0:0:0:
257,54,24133,2,0,L|239:93,3,42.5,10|2|2|2,0:0|0:0|0:0|0:0,0:0:0:0:
341,101,24449,5,8,0:0:0:0:
358,113,24528,1,8,0:0:0:0:
379,112,24607,1,8,0:0:0:0:
399,106,24686,1,8,0:0:0:0:
411,89,24765,2,0,L|397:50,3,42.5
495,133,25081,6,0,L|512:28,2,106.25,6|0|12,0:0|0:0|0:0,0:0:0:0:
502,245,25546,2,0,B|454:230|454:230|402:319|402:319|333:292,1,212.5,2|0,0:0|0:0,0:0:0:0:
327,172,26011,2,0,B|279:155|279:155|241:194,1,106.25,8|0,0:0|0:0,0:0:0:0:
145,336,26321,6,0,B|151:256|151:256|246:301|246:301|225:318,1,212.5,2|8,0:0|0:0,0:0:0:0:
30,336,26786,2,0,B|13:288|13:288|52:250,1,106.25,2|0,0:0|0:0,0:0:0:0:
164,49,27096,1,2,0:0:0:0:
164,49,27174,1,2,0:0:0:0:
164,49,27252,6,0,B|207:26|269:51|257:63|246:78|302:120|370:82,1,191.250007295609,12|0,0:0|0:0,0:0:0:0:
348,89,27561,6,0,B|395:45|395:45|424:190,1,212.5,0|8,0:0|0:0,0:0:0:0:
304,298,28034,2,0,B|290:237|290:237|334:182,1,106.25,2|0,0:0|0:0,0:0:0:0:
482,342,28350,1,2,0:0:0:0:
397,328,28508,1,8,0:0:0:0:
313,310,28666,1,0,0:0:0:0:
328,193,28824,5,4,0:0:0:0:
229,377,28982,1,4,0:0:0:0:
180,237,29139,1,4,0:0:0:0:
14,270,30071,6,0,B|94:256|94:256|100:250|100:250|207:231,1,170,6|8,0:0|0:0,0:0:0:0:
59,155,30539,2,0,B|102:80|102:80|182:105,1,170,6|0,0:0|0:0,0:0:0:0:
284,214,31008,1,8,0:0:0:0:
284,214,31633,1,8,0:0:0:0:
268,124,32102,5,2,0:0:0:0:
284,214,32258,1,8,0:0:0:0:
281,122,32414,1,2,0:0:0:0:
417,257,32571,6,0,B|365:240|365:240|334:320|334:320|303:324,1,170,6|8,0:0|0:0,0:0:0:0:
479,321,33039,2,0,B|519:291|519:291|476:156,1,170,6|0,0:0|0:0,0:0:0:0:
436,73,33508,1,8,0:0:0:0:
352,103,33980,5,0,0:0:0:0:
436,73,34140,1,8,0:0:0:0:
345,94,34299,1,0,0:0:0:0:
420,156,34459,6,0,P|434:179|438:207,2,56.6666666666667,2|8|8,0:0|0:0|0:0,0:0:0:0:
332,185,34778,2,0,P|335:212|350:236,2,56.6666666666667,8|4|4,0:0|0:0|0:0,0:0:0:0:
338,83,35097,6,0,B|283:88|283:88|248:150|248:150|205:157,1,170,6|8,0:0|0:0,0:0:0:0:
109,56,35560,2,0,B|94:36|94:36|189:21|189:21|180:69,1,170,6|0,0:0|0:0,0:0:0:0:
104,150,36024,2,0,B|98:194|98:194|127:222,1,85,8|0,0:0|0:0,0:0:0:0:
260,244,36334,6,0,P|219:248|197:283,1,85
351,357,36641,2,0,P|326:323|285:322,1,85,8|0,0:0|0:0,0:0:0:0:
207,374,36949,1,2,0:0:0:0:
207,374,37103,1,2,0:0:0:0:
260,244,37257,1,8,0:0:0:0:
260,244,37564,6,0,B|355:232|355:232|367:238|367:238|456:229,1,170,6|8,0:0|0:0,0:0:0:0:
481,119,38040,2,0,B|436:104|436:104|406:127,1,85,6|0,0:0|0:0,0:0:0:0:
345,264,38357,1,2,0:0:0:0:
346,280,38436,1,2,0:0:0:0:
357,292,38516,1,4,0:0:0:0:
444,230,38675,1,4,0:0:0:0:
295,166,38833,6,0,B|231:145|231:145|232:138|232:138|122:205|122:205|121:200|121:200|58:179,3,255.000009727478,6|0|6|6,0:0|0:0|0:0|0:0,0:0:0:0:
61,13,40076,6,0,B|137:-15|137:-15|117:115,1,212.5,6|8,0:0|0:0,0:0:0:0:
57,267,40542,2,0,B|29:218|29:218|137:197|137:197|130:264,1,212.5,2|2,0:0|0:0,0:0:0:0:
174,378,41009,2,0,B|154:330|154:330|205:297,1,106.25,8|0,0:0|0:0,0:0:0:0:
251,211,41320,6,0,B|302:217|302:217|305:278,1,106.25,2|0,0:0|0:0,0:0:0:0:
208,294,41630,1,8,0:0:0:0:
349,349,41786,2,0,B|317:390|317:390|263:362,1,106.25,2|0,0:0|0:0,0:0:0:0:
319,137,42097,1,2,0:0:0:0:
319,137,42175,1,2,0:0:0:0:
319,137,42253,6,0,B|379:111|410:170|402:177|392:184|413:258|514:215,1,191.250007295609,8|0,0:0|0:0,0:0:0:0:
475,228,42563,6,0,B|516:185|516:185|501:131,1,106.25
378,20,42874,1,8,0:0:0:0:
498,30,43029,2,0,B|435:11|435:11|362:62|362:62|305:52,1,212.5,2|2,0:0|0:0,0:0:0:0:
186,141,43496,2,0,B|145:177|145:177|68:153,1,106.25,8|0,0:0|0:0,0:0:0:0:
100,13,43807,5,2,0:0:0:0:
116,26,43887,1,2,0:0:0:0:
127,43,43967,1,2,0:0:0:0:
128,64,44047,1,2,0:0:0:0:
122,84,44127,2,0,L|80:73,3,42.5,10|2|2|2,0:0|0:0|0:0|0:0,0:0:0:0:
95,161,44447,5,2,0:0:0:0:
86,179,44527,1,2,0:0:0:0:
83,199,44607,1,2,0:0:0:0:
92,219,44687,1,2,0:0:0:0:
106,234,44767,2,0,L|138:206,3,42.5,10|2|2|2,0:0|0:0|0:0|0:0,0:0:0:0:
56,316,45087,6,0,B|92:342|92:342|170:304|170:304|248:363,1,212.5,6|8,0:0|0:0,0:0:0:0:
382,277,45555,2,0,B|392:249|392:249|288:261|288:261|327:337,1,212.5,2|2,0:0|0:0,0:0:0:0:
459,366,46024,2,0,B|500:324|500:324|480:280,1,106.25,8|0,0:0|0:0,0:0:0:0:
409,167,46337,6,0,L|526:192,1,106.25,2|0,0:0|0:0,0:0:0:0:
460,86,46646,1,8,0:0:0:0:
334,121,46800,2,0,B|294:161|294:161|314:206,1,106.25,2|0,0:0|0:0,0:0:0:0:
512,196,47110,1,2,0:0:0:0:
512,196,47188,1,2,0:0:0:0:
512,196,47264,6,0,P|494:101|463:10,1,191.250007295609,12|0,0:0|0:0,0:0:0:0:
456,7,47574,6,0,B|401:-14|401:-14|365:16,1,106.25
225,19,47883,1,8,0:0:0:0:
334,121,48038,2,0,B|307:174|307:174|248:151|248:151|162:180,1,212.5,2|2,0:0|0:0,0:0:0:0:
34,219,48501,1,8,0:0:0:0:
68,85,48656,1,0,0:0:0:0:
88,283,48811,5,0,0:0:0:0:
73,298,48889,1,0,0:0:0:0:
54,307,48968,1,0,0:0:0:0:
32,310,49047,1,0,0:0:0:0:
11,303,49126,5,8,0:0:0:0:
39,208,49284,1,8,0:0:0:0:
58,208,49442,5,8,0:0:0:0:
86,303,49600,1,8,0:0:0:0:
108,303,49758,5,8,0:0:0:0:
136,208,49916,1,8,0:0:0:0:
245,266,50074,6,0,B|229:178|229:178|223:173|223:173|208:88,1,170,6|8,0:0|0:0,0:0:0:0:
340,213,50537,2,0,B|375:289|375:289|314:350,1,170,6|2,0:0|0:0,0:0:0:0:
178,301,51001,2,0,B|208:262|208:262|244:265,1,85,8|0,0:0|0:0,0:0:0:0:
376,321,51311,1,2,0:0:0:0:
443,241,51470,1,2,0:0:0:0:
475,348,51630,1,8,0:0:0:0:
512,187,51789,6,0,B|421:195|421:195|410:207|410:207|325:213,1,170,6|2,0:0|0:0,0:0:0:0:
444,77,52268,1,8,0:0:0:0:
506,175,52428,1,2,0:0:0:0:
361,122,52587,6,0,P|321:109|285:130,1,85,6|2,0:0|0:0,0:0:0:0:
191,256,52899,1,8,0:0:0:0:
207,172,53055,1,2,0:0:0:0:
77,268,53212,1,2,0:0:0:0:
61,184,53368,1,2,0:0:0:0:
140,328,53524,2,0,P|173:352|213:344,1,85,8|2,0:0|0:0,0:0:0:0:
359,272,53837,6,0,P|253:256|181:256,1,170,6|8,0:0|0:0,0:0:0:0:
305,347,54300,1,2,0:0:0:0:
374,260,54455,2,0,P|369:218|338:190,1,85,2|2,0:0|0:0,0:0:0:0:
422,339,54764,2,0,P|454:313|463:272,1,85,8|2,0:0|0:0,0:0:0:0:
410,129,55074,5,6,0:0:0:0:
374,260,55230,1,0,0:0:0:0:
512,190,55386,1,8,0:0:0:0:
476,78,55542,2,0,B|430:75|430:75|373:133|373:133|298:122,1,170,6|2,0:0|0:0,0:0:0:0:
241,27,56011,2,0,B|286:8|286:8|316:27,1,85,8|0,0:0|0:0,0:0:0:0:
166,161,56324,1,2,0:0:0:0:
95,101,56480,1,2,0:0:0:0:
248,113,56636,1,8,0:0:0:0:
36,180,56792,6,0,B|13:215|13:215|28:298|28:298|100:311|100:311|75:162|75:162|78:152|78:152|51:-1,1,510.000019454957,6|2,0:0|0:0,0:0:0:0:
22,83,57574,6,0,P|61:95|103:77,1,85,6|2,0:0|0:0,0:0:0:0:
177,11,57886,1,8,0:0:0:0:
208,101,58042,1,2,0:0:0:0:
284,33,58199,2,0,P|323:20|365:39,1,85,2|2,0:0|0:0,0:0:0:0:
477,39,58511,2,0,P|507:67|512:112,1,85,8|2,0:0|0:0,0:0:0:0:
512,214,58824,5,8,0:0:0:0:
498,230,58902,1,8,0:0:0:0:
479,240,58980,1,2,0:0:0:0:
458,243,59058,1,2,0:0:0:0:
434,241,59136,2,0,P|415:234|401:218,3,42.5,4|4|2|2,0:0|0:0|0:0|0:0,0:0:0:0:
316,147,59449,5,4,0:0:0:0:
295,140,59527,1,4,0:0:0:0:
274,145,59605,1,2,0:0:0:0:
260,161,59683,1,2,0:0:0:0:
255,181,59761,2,0,P|255:208|268:229,1,42.5,4|4,0:0|0:0,0:0:0:0:
341,285,59917,2,0,P|341:312|328:333,1,42.5,2|2,0:0|0:0,0:0:0:0:
247,361,60074,6,0,P|214:374|165:346,1,85,6|0,0:0|0:0,0:0:0:0:
57,338,60388,1,8,0:0:0:0:
66,183,60545,2,0,B|121:172|147:220|134:225|122:230|155:280|205:270,1,170,6|2,0:0|0:0,0:0:0:0:
333,325,61016,2,0,P|355:289|348:249,1,85,8|0,0:0|0:0,0:0:0:0:
196,103,61330,1,2,0:0:0:0:
145,192,61488,1,2,0:0:0:0:
360,160,61647,1,8,0:0:0:0:
301,57,61806,6,0,P|278:140|261:221,1,170,6|2,0:0|0:0,0:0:0:0:
195,102,62282,2,0,P|193:60|184:19,1,85,8|2,0:0|0:0,0:0:0:0:
395,40,62599,5,6,0:0:0:0:
473,89,62752,1,2,0:0:0:0:
471,182,62906,1,8,0:0:0:0:
393,235,63060,1,2,0:0:0:0:
308,195,63214,6,0,P|299:236|291:278,1,85,2|2,0:0|0:0,0:0:0:0:
201,264,63522,2,0,P|209:222|218:181,1,85,8|2,0:0|0:0,0:0:0:0:
8,283,63829,6,0,P|13:325|19:367,1,85,2|2,0:0|0:0,0:0:0:0:
102,358,64143,2,0,P|96:316|91:274,1,85,8|2,0:0|0:0,0:0:0:0:
76,168,64457,1,2,0:0:0:0:
76,168,64614,1,2,0:0:0:0:
239,93,64772,1,8,0:0:0:0:
239,93,64929,1,2,0:0:0:0:
136,2,65085,6,0,P|104:30|103:71,1,85,6|2,0:0|0:0,0:0:0:0:
160,140,65395,1,8,0:0:0:0:
301,15,65551,2,0,B|362:13|403:77|375:134|375:134|350:125|333:130,1,212.5,6|2,0:0|0:0,0:0:0:0:
267,242,66017,2,0,P|304:206|356:209,1,106.25,8|0,0:0|0:0,0:0:0:0:
470,265,66328,1,2,0:0:0:0:
446,174,66483,1,2,0:0:0:0:
264,250,66639,1,8,0:0:0:0:
333,129,66794,6,0,P|343:214|354:298,1,170,6|2,0:0|0:0,0:0:0:0:
488,347,67261,2,0,P|476:306|469:264,1,85,8|2,0:0|0:0,0:0:0:0:
269,335,67572,5,4,0:0:0:0:
179,362,67727,1,0,0:0:0:0:
112,296,67882,1,8,0:0:0:0:
133,204,68038,1,2,0:0:0:0:
224,185,68193,6,0,P|215:226|210:268,1,85,2|2,0:0|0:0,0:0:0:0:
307,252,68504,2,0,P|312:210|321:169,1,85,8|2,0:0|0:0,0:0:0:0:
258,75,68815,5,8,0:0:0:0:
254,88,68916,2,0,B|240:59|240:59|242:34,1,56.6666666666667,8|8,0:0|0:0,0:0:0:0:
355,56,69119,1,8,0:0:0:0:
363,66,69221,2,0,B|365:41|365:41|351:12,1,56.6666666666667,8|8,0:0|0:0,0:0:0:0:
409,152,69424,2,0,B|307:134|307:134|303:129|303:129|159:104,1,255.000009727478,6|6,0:0|0:0,0:0:0:0:
420,281,70064,6,0,P|433:306|431:334,2,56.6666666666667,6|2|2,0:0|0:0|0:0,0:0:0:0:
340,295,70374,2,0,P|335:322|345:348,2,56.6666666666667,8|2|2,0:0|0:0|0:0,0:0:0:0:
327,197,70685,2,0,B|274:182|248:232|258:237|267:243|244:298|180:281,1,170,2|10,0:0|0:0,0:0:0:0:
167,154,71100,1,2,0:0:0:0:
167,154,71203,1,2,0:0:0:0:
167,154,71307,6,0,P|84:170|0:180,1,170,2|10,0:0|0:0,0:0:0:0:
173,55,71730,5,2,0:0:0:0:
173,55,71836,1,2,0:0:0:0:
173,55,71941,2,0,P|247:87|258:167,1,170,2|10,0:0|0:0,0:0:0:0:
200,283,72365,2,0,P|199:311|201:338,1,56.6666666666667,2|2,0:0|0:0,0:0:0:0:
119,366,72576,6,0,P|116:309|106:254,1,113.333333333333,2|2,0:0|0:0,0:0:0:0:
288,244,72894,2,0,P|288:299|297:367,1,113.333333333333,10|2,0:0|0:0,0:0:0:0:
485,173,73211,2,0,P|426:168|394:221,1,113.333333333333,2|2,0:0|0:0,0:0:0:0:
464,307,73529,5,10,0:0:0:0:
481,303,73635,1,2,0:0:0:0:
496,295,73740,1,2,0:0:0:0:
509,283,73846,6,0,P|495:227|484:166,1,113.333333333333,2|2,0:0|0:0,0:0:0:0:
485,68,74154,1,10,0:0:0:0:
485,68,74257,1,2,0:0:0:0:
485,68,74360,2,0,B|449:38|399:79|410:89|422:95|380:154|322:115,1,170,2|2,0:0|0:0,0:0:0:0:
337,34,74771,2,0,B|308:30|291:2|291:2|296:34|281:56,1,113.333333333333,14|2,0:0|0:0,0:0:0:0:
278,184,75079,6,0,P|257:166|252:134,2,56.6666666666667,6|2|2,0:0|0:0|0:0,0:0:0:0:
325,260,75388,2,0,P|299:269|269:257,2,56.6666666666667,8|2|2,0:0|0:0|0:0,0:0:0:0:
485,343,75696,2,0,P|407:317|340:365,1,170,2|10,0:0|0:0,0:0:0:0:
222,365,76108,1,2,0:0:0:0:
222,365,76211,1,2,0:0:0:0:
222,365,76313,6,0,B|174:379|151:336|159:329|170:323|156:255|75:273,1,170,2|10,0:0|0:0,0:0:0:0:
0,361,76725,1,2,0:0:0:0:
0,361,76828,1,2,0:0:0:0:
4,366,76930,2,0,P|21:282|36:194,1,170,2|10,0:0|0:0,0:0:0:0:
113,136,77342,1,2,0:0:0:0:
113,136,77444,1,2,0:0:0:0:
112,135,77547,6,0,P|100:111|70:102,2,56.6666666666667,6|2|8,0:0|0:0|0:0,0:0:0:0:
198,167,77856,1,8,0:0:0:0:
225,159,77959,1,8,0:0:0:0:
252,151,78061,1,8,0:0:0:0:
279,143,78164,2,0,L|268:198,2,56.6666666666667,2|8|8,0:0|0:0|0:0,0:0:0:0:
463,103,78473,2,0,B|469:132|469:132|454:154,2,56.6666666666667,6|6|8,0:0|0:0|0:0,0:0:0:0:
380,38,78781,5,8,0:0:0:0:
375,71,78884,1,2,0:0:0:0:
370,104,78987,1,2,0:0:0:0:
366,137,79090,2,0,L|350:222,2,56.6666666666667,6|2|2,0:0|0:0|0:0,0:0:0:0:
451,206,79398,6,0,P|448:233|430:254,1,56.6666666666667,2|2,0:0|0:0,0:0:0:0:
303,342,79608,1,8,0:0:0:0:
303,342,79713,2,0,P|300:289|349:269,1,113.333333333333,8|4,0:0|0:0,0:0:0:0:
471,366,80029,6,0,P|387:351|302:341,1,170.000006484986,6|0,0:0|0:0,0:0:0:0:
205,307,80344,2,0,P|195:333|202:360,2,56.6666666666667,8|2|2,0:0|0:0|0:0,0:0:0:0:
259,201,80660,6,0,P|187:216|74:211,1,170,2|10,0:0|0:0,0:0:0:0:
13,106,81081,1,2,0:0:0:0:
13,106,81186,1,2,0:0:0:0:
12,104,81292,6,0,P|71:53|131:104,1,170,2|10,0:0|0:0,0:0:0:0:
259,201,81713,1,2,0:0:0:0:
259,201,81818,1,2,0:0:0:0:
259,201,81923,6,0,B|211:187|188:230|196:237|207:243|193:311|112:293,1,170,2|10,0:0|0:0,0:0:0:0:
34,220,82344,2,0,P|63:215|102:213,1,56.6666666666667,2|2,0:0|0:0,0:0:0:0:
207,369,82555,6,0,P|261:358|327:353,1,113.333333333333,2|2,0:0|0:0,0:0:0:0:
401,159,82871,2,0,P|455:169|521:174,1,113.333333333333,10|2,0:0|0:0,0:0:0:0:
463,327,83186,2,0,P|405:301|394:247,1,113.333333333333,2|2,0:0|0:0,0:0:0:0:
448,73,83502,5,10,0:0:0:0:
460,61,83607,1,2,0:0:0:0:
476,59,83713,1,2,0:0:0:0:
492,63,83818,6,0,P|505:130|512:174,1,113.333333333333,2|2,0:0|0:0,0:0:0:0:
359,85,84130,5,10,0:0:0:0:
359,85,84234,1,2,0:0:0:0:
359,85,84338,2,0,B|311:71|288:114|296:121|307:127|293:195|212:177,1,170,2|2,0:0|0:0,0:0:0:0:
160,118,84755,2,0,B|160:62|160:62|209:102,1,113.333333333333,14|2,0:0|0:0,0:0:0:0:
147,201,85068,6,0,P|167:219|172:247,2,56.6666666666667,6|2|2,0:0|0:0|0:0,0:0:0:0:
16,244,85375,2,0,P|42:235|68:245,2,56.6666666666667,10|2|2,0:0|0:0|0:0,0:0:0:0:
51,76,85683,6,0,P|60:160|68:245,1,170,2|10,0:0|0:0,0:0:0:0:
76,379,86093,1,2,0:0:0:0:
76,379,86196,1,2,0:0:0:0:
76,379,86298,6,0,B|124:393|147:350|139:343|128:337|142:269|223:287,1,170,2|10,0:0|0:0,0:0:0:0:
306,353,86712,1,2,0:0:0:0:
306,353,86816,1,2,0:0:0:0:
305,352,86919,6,0,P|345:315|344:260,1,113.333333333333,2|2,0:0|0:0,0:0:0:0:
272,199,87230,2,0,P|231:163|178:176,1,113.333333333333,10|2,0:0|0:0,0:0:0:0:
337,108,87541,5,2,0:0:0:0:
353,110,87645,1,2,0:0:0:0:
369,112,87748,1,2,0:0:0:0:
385,114,87852,2,0,B|392:140|392:140|378:170,2,56.6666666666667,10|2|2,0:0|0:0|0:0,0:0:0:0:
308,28,88163,5,2,0:0:0:0:
280,22,88266,1,2,0:0:0:0:
252,16,88370,1,2,0:0:0:0:
224,10,88474,2,0,B|201:35|201:35|203:57,2,56.6666666666667,10|2|2,0:0|0:0|0:0,0:0:0:0:
270,151,88785,6,0,L|259:206,2,56.6666666666667,2|2|2,0:0|0:0|0:0,0:0:0:0:
160,140,89100,2,0,L|140:254,1,113.333333333333,10|2,0:0|0:0,0:0:0:0:
185,349,89416,5,8,0:0:0:0:
184,334,89521,2,0,P|203:314|231:308,1,56.6666666666667,8|8,0:0|0:0,0:0:0:0:
251,218,89732,1,8,0:0:0:0:
259,206,89837,2,0,P|286:213|305:234,1,56.6666666666667,8|8,0:0|0:0,0:0:0:0:
430,339,90048,6,0,B|468:375|468:375|456:257,1,170,6|8,0:0|0:0,0:0:0:0:
351,107,90469,2,0,B|338:70|338:70|472:80|472:80|409:170,1,283.333333333333,0|8,0:0|0:0,0:0:0:0:
409,170,91627,1,8,0:0:0:0:
409,170,92100,5,2,0:0:0:0:
316,226,92258,1,8,0:0:0:0:
399,175,92416,1,2,0:0:0:0:
175,109,92574,6,0,B|148:136|148:136|203:220|203:220|173:253,1,170,6|8,0:0|0:0,0:0:0:0:
85,345,93040,2,0,B|43:365|43:365|5:237|5:237|72:204,1,255,6|8,0:0|0:0,0:0:0:0:
72,203,93972,5,0,0:0:0:0:
181,243,94128,1,8,0:0:0:0:
76,193,94283,1,0,0:0:0:0:
189,143,94439,5,0,0:0:0:0:
80,183,94595,1,2,0:0:0:0:
185,133,94750,1,8,0:0:0:0:
18,76,94905,1,2,0:0:0:0:
243,57,95061,6,0,B|279:77|279:77|276:120,1,85,6|8,0:0|0:0,0:0:0:0:
244,336,95373,1,8,0:0:0:0:
163,218,95529,1,6,0:0:0:0:
163,218,95686,2,0,B|246:235,1,85,2|0,0:0|0:0,0:0:0:0:
440,235,95998,6,0,B|470:246|470:246|455:128|455:128|459:124|459:124|363:99,1,255,12|2,0:0|0:0,0:0:0:0:
246,68,96623,1,8,0:0:0:0:
251,77,96936,1,2,0:0:0:0:
236,198,97092,1,2,0:0:0:0:
256,87,97248,1,8,0:0:0:0:
278,351,97561,6,0,B|256:310|256:310|183:300|183:300|146:243,1,170,6|8,0:0|0:0,0:0:0:0:
23,330,98027,2,0,B|3:305|3:305|41:194,1,127.5,6|0,0:0|0:0,0:0:0:0:
40,203,98338,1,2,0:0:0:0:
46,191,98415,1,2,0:0:0:0:
455,97,98804,6,0,B|437:193|437:193|427:204|427:204|401:344,1,255.000009727478,6|6,0:0|0:0,0:0:0:0:
391,178,99438,5,12,0:0:0:0:
421,167,99518,1,8,0:0:0:0:
451,174,99597,1,8,0:0:0:0:
475,195,99677,1,8,0:0:0:0:
481,225,99756,2,0,P|464:249|438:259,2,56.6666666666667,2|0|0,0:0|0:0|0:0,0:0:0:0:
460,88,100073,5,6,0:0:0:0:
96,253,105092,6,0,L|86:294,3,42.5
179,258,105710,2,0,L|169:299,3,42.5
244,162,106329,6,0,L|249:204,3,42.5
323,138,106947,2,0,L|328:180,3,42.5
393,71,107566,5,0,0:0:0:0:
396,55,107722,2,0,P|369:38|338:40,2,63.7500024318696
483,122,108191,1,0,0:0:0:0:
498,116,108347,2,0,P|499:84|481:58,2,63.7500024318696
458,251,108816,5,0,0:0:0:0:
455,235,108972,2,0,P|481:218|512:220,2,63.7500024318696
368,302,109441,1,0,0:0:0:0:
353,296,109597,2,0,P|351:264|369:238,2,63.7500024318696
480,342,110066,6,0,B|366:337|366:337|360:333|360:333|226:328,1,255.000009727478,6|0,0:0|0:0,0:0:0:0:
146,288,110529,1,0,0:0:0:0:
137,296,110684,2,0,P|128:326|139:355,2,63.7500024318696
249,111,111148,5,2,0:0:0:0:
40,174,111303,1,2,0:0:0:0:
38,187,111615,5,2,0:0:0:0:
244,251,111771,1,2,0:0:0:0:
245,266,112084,5,2,0:0:0:0:
39,338,112240,1,2,0:0:0:0:
102,99,112553,6,0,B|149:51|149:51|134:217,1,212.5,6|0,0:0|0:0,0:0:0:0:
97,270,113021,1,0,0:0:0:0:
105,279,113178,2,0,P|135:287|164:276,2,63.7500024318696
241,121,113646,5,2,0:0:0:0:
322,239,113803,1,2,0:0:0:0:
334,241,114115,5,2,0:0:0:0:
380,107,114271,1,2,0:0:0:0:
392,107,114584,5,2,0:0:0:0:
459,227,114740,1,2,0:0:0:0:
120,28,115053,6,0,B|91:18|91:18|40:79|40:79|4:68,2,144.500002756119,6|0|8,0:0|0:0|0:0,0:0:0:0:
210,29,115838,2,0,B|217:63|217:63|186:85,1,72.2500013780594
116,147,116152,5,0,0:0:0:0:
201,193,116309,1,2,0:0:0:0:
201,204,116623,5,0,0:0:0:0:
116,250,116780,1,0,0:0:0:0:
116,260,117094,5,0,0:0:0:0:
201,306,117251,1,0,0:0:0:0:
445,188,117566,6,0,B|501:223|501:223|478:298,2,144.500002756119,0|0|8,0:0|0:0|0:0,0:0:0:0:
355,235,118343,2,0,B|344:273|344:273|368:294,1,72.2500013780594
436,181,118654,5,0,0:0:0:0:
346,145,118809,1,2,0:0:0:0:
344,134,119128,5,0,0:0:0:0:
434,98,119287,1,0,0:0:0:0:
433,89,119606,5,0,0:0:0:0:
343,53,119766,2,0,L|272:36,1,72.2500013780594
115,179,120085,6,0,B|175:171|175:171|183:166|183:166|256:155,2,144.500002756119,0|0|8,0:0|0:0|0:0,0:0:0:0:
20,150,120858,2,0,B|-2:183|-2:183|17:209,1,72.2500013780594
120,269,121167,5,0,0:0:0:0:
157,350,121322,1,2,0:0:0:0:
167,350,121637,5,0,0:0:0:0:
204,269,121795,1,0,0:0:0:0:
215,271,122111,5,0,0:0:0:0:
252,352,122269,1,0,0:0:0:0:
392,151,122585,6,0,B|363:136|363:136|391:244,2,144.500002756119,6|2|12,0:0|0:0|0:0,0:0:0:0:
491,244,123362,2,0,B|507:262|507:262|482:305,1,72.2500013780594,0|2,0:0|0:0,0:0:0:0:
431,373,123673,5,0,0:0:0:0:
251,351,123828,2,0,L|268:281,1,72.2500013780594,6|6,0:0|0:0,0:0:0:0:
286,195,124132,5,6,0:0:0:0:
490,243,124284,2,0,L|474:173,1,72.2500013780594,6|6,0:0|0:0,0:0:0:0:
450,92,124589,5,6,0:0:0:0:
304,113,124741,2,0,L|321:43,1,72.2500013780594,6|6,0:0|0:0,0:0:0:0:
103,205,125046,6,0,B|162:176|199:235|183:245|169:254|203:321|273:291,1,212.5,6|8,0:0|0:0,0:0:0:0:
474,173,125522,2,0,B|373:190|373:190|364:197|364:197|266:214,1,212.5,6|0,0:0|0:0,0:0:0:0:
303,113,125998,2,0,P|344:83|394:97,1,106.25,8|2,0:0|0:0,0:0:0:0:
418,285,126315,6,0,P|459:287|489:259,1,85,2|2,0:0|0:0,0:0:0:0:
485,167,126629,1,8,0:0:0:0:
326,280,126786,2,0,P|322:196|301:107,1,170,2|2,0:0|0:0,0:0:0:0:
226,270,127257,2,0,P|224:317|256:348,1,85,8|2,0:0|0:0,0:0:0:0:
342,367,127571,5,2,0:0:0:0:
409,188,127726,1,2,0:0:0:0:
409,188,127803,1,0,0:0:0:0:
409,188,127881,1,8,0:0:0:0:
302,112,128036,2,0,B|257:88|212:139|227:149|240:157|208:219|139:185,1,170,2|2,0:0|0:0,0:0:0:0:
124,21,128501,2,0,P|131:62|137:104,1,85,8|2,0:0|0:0,0:0:0:0:
228,35,128811,5,2,0:0:0:0:
179,204,128966,1,2,0:0:0:0:
134,113,129121,1,8,0:0:0:0:
70,230,129276,2,0,P|55:146|38:62,1,170,2|2,0:0|0:0,0:0:0:0:
2,285,129741,2,0,P|28:316|69:316,1,85,8|2,0:0|0:0,0:0:0:0:
256,145,130051,5,4,0:0:0:0:
295,235,130208,1,0,0:0:0:0:
295,235,130286,1,0,0:0:0:0:
295,235,130365,1,8,0:0:0:0:
161,288,130522,2,0,P|243:306|325:330,1,170,6|0,0:0|0:0,0:0:0:0:
464,223,130993,2,0,P|422:226|396:258,1,85,8|2,0:0|0:0,0:0:0:0:
430,334,131307,5,2,0:0:0:0:
298,204,131463,1,2,0:0:0:0:
479,141,131619,1,8,0:0:0:0:
377,89,131775,2,0,P|387:173|395:257,1,170,2|2,0:0|0:0,0:0:0:0:
278,91,132244,2,0,P|282:49|313:21,1,85,8|2,0:0|0:0,0:0:0:0:
453,29,132557,5,2,0:0:0:0:
479,141,132712,1,2,0:0:0:0:
479,141,132790,1,0,0:0:0:0:
479,141,132867,1,8,0:0:0:0:
358,179,133023,2,0,B|313:155|268:206|283:216|296:224|264:286|195:252,1,170,2|2,0:0|0:0,0:0:0:0:
29,176,133489,2,0,P|68:164|103:187,1,85,8|2,0:0|0:0,0:0:0:0:
149,304,133800,5,2,0:0:0:0:
37,382,133953,1,2,0:0:0:0:
27,260,134107,1,8,0:0:0:0:
123,384,134261,5,2,0:0:0:0:
123,384,134338,1,2,0:0:0:0:
123,384,134415,1,2,0:0:0:0:
158,299,134569,1,0,0:0:0:0:
371,281,134723,2,0,P|377:312|382:343,1,63.7500024318696,8|0,0:0|0:0,0:0:0:0:
333,178,135030,5,6,0:0:0:0:
473,156,135191,1,8,0:0:0:0:
471,306,135352,1,8,0:0:0:0:
376,267,135513,2,0,B|328:262|328:262|278:329|278:329|240:321,1,170,6|2,0:0|0:0,0:0:0:0:
64,233,135997,2,0,L|147:216,1,85,8|2,0:0|0:0,0:0:0:0:
227,49,136320,6,0,P|267:55|292:89,1,85,2|2,0:0|0:0,0:0:0:0:
266,178,136635,1,8,0:0:0:0:
88,65,136793,2,0,B|75:133|75:133|78:145|78:145|63:233,1,170,6|2,0:0|0:0,0:0:0:0:
225,255,137267,2,0,L|243:338,1,85,8|2,0:0|0:0,0:0:0:0:
150,310,137583,5,2,0:0:0:0:
325,250,137737,1,2,0:0:0:0:
243,349,137891,1,8,0:0:0:0:
409,324,138045,2,0,B|443:275|443:275|334:251,1,170,2|2,0:0|0:0,0:0:0:0:
150,310,138508,2,0,B|124:272|124:272|144:237,1,85,8|2,0:0|0:0,0:0:0:0:
207,42,138816,6,0,P|249:51|268:89,1,85,2|2,0:0|0:0,0:0:0:0:
250,169,139130,1,8,0:0:0:0:
370,85,139287,2,0,P|350:167|334:251,1,170,2|2,0:0|0:0,0:0:0:0:
459,135,139758,2,0,P|475:91|451:54,1,85,8|2,0:0|0:0,0:0:0:0:
305,5,140072,5,6,0:0:0:0:
245,162,140225,1,2,0:0:0:0:
364,85,140379,1,8,0:0:0:0:
195,46,140533,2,0,B|146:55|146:55|116:127|116:127|74:135,1,170,6|2,0:0|0:0,0:0:0:0:
17,283,140995,2,0,B|0:241|0:241|22:208,1,85,8|2,0:0|0:0,0:0:0:0:
163,384,141302,6,0,P|159:341|152:299,1,85,2|2,0:0|0:0,0:0:0:0:
114,220,141617,1,8,0:0:0:0:
283,259,141775,2,0,B|334:250|358:306|345:313|330:321|365:370|404:359,1,170,2|2,0:0|0:0,0:0:0:0:
468,188,142249,2,0,P|428:200|406:235,1,85,8|2,0:0|0:0,0:0:0:0:
484,276,142565,5,2,0:0:0:0:
440,92,142719,1,2,0:0:0:0:
341,161,142874,1,8,0:0:0:0:
337,23,143028,2,0,B|267:31|267:31|260:27|260:27|169:40,1,170,2|2,0:0|0:0,0:0:0:0:
22,96,143492,2,0,B|6:137|6:137|32:169,1,85,8|2,0:0|0:0,0:0:0:0:
246,206,143802,6,0,P|251:247|226:280,1,85,2|2,0:0|0:0,0:0:0:0:
135,294,144114,1,8,0:0:0:0:
198,135,144270,2,0,P|113:147|31:168,1,170,2|2,0:0|0:0,0:0:0:0:
168,39,144739,2,0,P|209:30|246:49,1,85,8|0,0:0|0:0,0:0:0:0:
340,241,145052,5,4,0:0:0:0:
346,246,145131,1,4,0:0:0:0:
353,250,145210,1,4,0:0:0:0:
361,251,145290,1,4,0:0:0:0:
368,247,145369,2,0,P|350:232|330:227,3,42.5,4|4|4|4,0:0|0:0|0:0|0:0,0:0:0:0:
450,275,145686,6,0,P|453:251|447:232,3,42.5,4|4|4|4,0:0|0:0|0:0|0:0,0:0:0:0:
475,355,146004,2,0,P|496:346|510:331,3,42.5,4|4|4|4,0:0|0:0|0:0|0:0,0:0:0:0:
384,343,146321,6,0,L|341:338,1,42.5,6|0,0:0|0:0,0:0:0:0:
256,325,146475,1,0,0:0:0:0:
250,331,146552,1,0,0:0:0:0:
244,337,146630,2,0,B|214:305|214:305|226:265,1,85,8|2,0:0|0:0,0:0:0:0:
325,221,146862,1,0,0:0:0:0:
331,227,146940,2,0,B|361:195|361:195|348:155,2,85,2|2|8,0:0|0:0|0:0,0:0:0:0:
200,183,147403,5,2,0:0:0:0:
259,110,147558,2,0,B|252:73|252:73|255:66|255:66|247:18,1,85,2|2,0:0|0:0,0:0:0:0:
151,81,147867,5,8,0:0:0:0:
151,81,148022,2,0,B|126:44|126:44|148:9,1,85,2|2,0:0|0:0,0:0:0:0:
348,0,148331,5,2,0:0:0:0:
348,0,148486,2,0,B|372:36|372:36|350:71,1,85,8|0,0:0|0:0,0:0:0:0:
200,183,148795,6,0,P|157:187|116:197,1,85,2|2,0:0|0:0,0:0:0:0:
5,311,149109,1,8,0:0:0:0:
19,320,149187,1,0,0:0:0:0:
35,322,149266,1,2,0:0:0:0:
51,318,149344,1,0,0:0:0:0:
63,307,149423,2,0,P|64:266|31:242,2,85,2|2|8,0:0|0:0|0:0,0:0:0:0:
151,374,149894,5,2,0:0:0:0:
203,294,150051,2,0,L|286:308,1,85,2|2,0:0|0:0,0:0:0:0:
344,214,150365,1,0,0:0:0:0:
347,207,150522,2,0,B|392:203|392:203|422:271|422:271|472:268,1,170,2|2,0:0|0:0,0:0:0:0:
497,184,150993,5,8,0:0:0:0:
431,360,151151,1,2,0:0:0:0:
346,198,151308,5,6,0:0:0:0:
337,188,151386,1,0,0:0:0:0:
324,184,151464,1,2,0:0:0:0:
311,186,151542,1,0,0:0:0:0:
301,194,151620,5,8,0:0:0:0:
293,231,151698,1,0,0:0:0:0:
286,268,151776,1,2,0:0:0:0:
279,305,151854,1,0,0:0:0:0:
271,342,151933,6,0,P|291:346|310:338,3,42.5,6|0|2|0,0:0|0:0|0:0|0:0,0:0:0:0:
199,265,152245,2,0,P|179:256|159:261,3,42.5,8|0|2|0,0:0|0:0|0:0|0:0,0:0:0:0:
72,354,152558,6,0,L|60:269,1,85,2|2,0:0|0:0,0:0:0:0:
58,257,152792,1,0,0:0:0:0:
56,244,152870,1,8,0:0:0:0:
179,169,153026,2,0,L|191:84,1,85,2|2,0:0|0:0,0:0:0:0:
193,72,153260,1,0,0:0:0:0:
195,59,153338,1,2,0:0:0:0:
98,15,153495,2,0,B|73:51|73:51|90:88,1,85,8|2,0:0|0:0,0:0:0:0:
292,48,153808,5,2,0:0:0:0:
313,43,153964,1,2,0:0:0:0:
361,146,154120,5,8,0:0:0:0:
382,151,154276,1,2,0:0:0:0:
286,189,154433,2,0,P|269:157|274:125,2,63.7500024318696,2|2|8,0:0|0:0|0:0,0:0:0:0:
363,241,154901,5,2,0:0:0:0:
468,152,155058,2,0,L|485:235,1,85,2|2,0:0|0:0,0:0:0:0:
269,270,155370,1,8,0:0:0:0:
269,270,155526,2,0,L|287:354,1,85,2|2,0:0|0:0,0:0:0:0:
451,355,155839,1,2,0:0:0:0:
451,355,155995,2,0,B|429:353|429:353|399:320|399:320|380:318,1,85,8|2,0:0|0:0,0:0:0:0:
173,284,156308,6,0,B|126:263|91:317|102:324|112:335|76:390|3:354,1,170,2|8,0:0|0:0,0:0:0:0:
0,224,156776,1,2,0:0:0:0:
0,224,156854,1,0,0:0:0:0:
0,224,156933,2,0,P|40:210|81:199,1,85,2|2,0:0|0:0,0:0:0:0:
186,169,157245,1,8,0:0:0:0:
176,295,157401,1,2,0:0:0:0:
251,119,157558,5,2,0:0:0:0:
237,88,157635,1,0,0:0:0:0:
206,71,157713,1,2,0:0:0:0:
171,72,157791,1,0,0:0:0:0:
142,89,157868,2,0,P|126:105|116:128,3,42.5,8|0|2|0,0:0|0:0|0:0|0:0,0:0:0:0:
252,206,158179,5,2,0:0:0:0:
264,206,158257,1,0,0:0:0:0:
276,206,158335,1,2,0:0:0:0:
288,206,158412,1,0,0:0:0:0:
300,206,158490,2,0,L|289:260,3,42.5,8|0|2|0,0:0|0:0|0:0|0:0,0:0:0:0:
363,126,158801,5,2,0:0:0:0:
369,148,158956,1,2,0:0:0:0:
477,77,159112,5,8,0:0:0:0:
442,194,159267,1,2,0:0:0:0:
338,51,159423,6,0,L|327:9,2,42.5,2|0|2,0:0|0:0|0:0,0:0:0:0:
487,79,159734,2,0,L|476:120,2,42.5,8|0|2,0:0|0:0|0:0,0:0:0:0:
369,148,160045,6,0,B|322:139|322:139|262:206|262:206|228:200,1,170,2|8,0:0|0:0,0:0:0:0:
125,129,160511,1,2,0:0:0:0:
125,129,160666,2,0,B|87:156|87:156|95:193,1,85,2|2,0:0|0:0,0:0:0:0:
179,272,160977,2,0,B|119:283|119:283|109:283|109:283|53:292,1,127.5,12|0,0:0|0:0,0:0:0:0:
43,296,161288,6,0,P|58:373|137:378,1,170,6|8,0:0|0:0,0:0:0:0:
269,309,161754,2,0,L|331:297,2,63.7500024318696,2|0|0,0:0|0:0|0:0,0:0:0:0:
179,272,162221,1,0,0:0:0:0:
322,382,162376,1,2,0:0:0:0:
317,213,162532,5,2,0:0:0:0:
328,209,162611,1,0,0:0:0:0:
341,206,162691,2,0,L|407:191,1,42.5,2|0,0:0|0:0,0:0:0:0:
465,178,162851,2,0,L|475:219,2,42.5,8|0|2,0:0|0:0|0:0,0:0:0:0:
423,18,163170,5,2,0:0:0:0:
385,10,163250,1,0,0:0:0:0:
350,25,163329,1,2,0:0:0:0:
331,58,163409,1,0,0:0:0:0:
303,84,163489,5,8,0:0:0:0:
283,93,163569,1,0,0:0:0:0:
261,90,163649,1,2,0:0:0:0:
242,79,163728,1,0,0:0:0:0:
230,58,163808,6,0,L|146:72,1,85,6|2,0:0|0:0,0:0:0:0:
133,76,164044,1,0,0:0:0:0:
120,79,164123,1,12,0:0:0:0:
31,13,164281,1,2,0:0:0:0:
0,175,164439,6,0,P|30:147|72:148,1,85,2|2,0:0|0:0,0:0:0:0:
81,157,164676,1,0,0:0:0:0:
83,169,164755,1,8,0:0:0:0:
24,261,164913,1,2,0:0:0:0:
197,273,165071,5,4,0:0:0:0:
208,277,165150,1,4,0:0:0:0:
217,285,165230,2,0,P|225:304|226:325,1,42.5,8|4,0:0|0:0,0:0:0:0:
140,342,165390,2,0,P|127:359|109:370,1,42.5,8|4,0:0|0:0,0:0:0:0:
170,194,165549,5,4,0:0:0:0:
178,186,165628,1,4,0:0:0:0:
189,182,165709,2,0,P|211:184|229:193,3,42.5,8|4|4|4,0:0|0:0|0:0|0:0,0:0:0:0:
298,150,166028,2,0,P|306:170|307:191,1,42.5,8|4,0:0|0:0,0:0:0:0:
372,235,166188,2,0,P|359:252|341:263,1,42.5,8|4,0:0|0:0,0:0:0:0:
444,342,166347,6,0,B|452:295|452:295|451:289|451:289|459:237,1,106.25,6|0,0:0|0:0,0:0:0:0:
471,150,166650,1,8,0:0:0:0:
298,150,166801,2,0,B|254:200|254:200|215:19|215:19|275:47,1,318.75,2|8,0:0|0:0,0:0:0:0:
292,55,167407,1,2,0:0:0:0:
128,84,167559,6,0,B|107:129|107:129|144:171,1,106.25,2|2,0:0|0:0,0:0:0:0:
203,112,167874,1,8,0:0:0:0:
105,0,168032,2,0,B|85:121|85:121|80:127|80:127|50:314,1,318.75,2|8,0:0|0:0,0:0:0:0:
48,325,168664,1,2,0:0:0:0:
220,206,168822,6,0,B|245:223|245:223|229:297,1,106.25,2|2,0:0|0:0,0:0:0:0:
226,313,169055,1,0,0:0:0:0:
222,328,169132,1,8,0:0:0:0:
329,378,169288,6,0,B|347:374|347:374|363:280,1,106.25,2|2,0:0|0:0,0:0:0:0:
365,272,169521,1,0,0:0:0:0:
368,256,169599,1,2,0:3:0:0:
486,177,169754,6,0,B|506:181|506:181|495:265|495:265|491:267|491:267|474:380,1,212.5,8|2,0:3|0:0,0:0:0:0:
318,371,170222,1,8,0:0:0:0:
305,179,170379,1,2,0:0:0:0:
368,256,170536,1,2,0:0:0:0:
310,164,170693,5,8,0:0:0:0:
276,271,170850,1,2,0:0:0:0:
231,110,171007,1,8,0:0:0:0:
231,110,171164,1,8,0:0:0:0:
74,230,171321,6,0,P|61:247|57:267,3,42.5,6|0|2|0,0:0|0:0|0:0|0:0,0:0:0:0:
81,155,171631,2,0,P|59:153|39:159,3,42.5,8|0|2|0,0:0|0:0|0:0|0:0,0:0:0:0:
144,105,171942,6,0,P|156:122|160:142,3,42.5,2|0|2|0,0:0|0:0|0:0|0:0,0:0:0:0:
137,28,172253,2,0,P|158:26|178:32,3,42.5,8|0|2|0,0:0|0:0|0:0|0:0,0:0:0:0:
251,85,172564,5,2,0:0:0:0:
262,81,172642,1,0,0:0:0:0:
274,78,172720,1,2,0:0:0:0:
286,75,172799,1,0,0:0:0:0:
300,70,172878,2,0,L|289:157,1,85,8|2,0:0|0:0,0:0:0:0:
386,166,173192,5,2,0:0:0:0:
397,170,173270,1,0,0:0:0:0:
409,173,173348,1,2,0:0:0:0:
421,176,173427,1,0,0:0:0:0:
435,181,173506,2,0,L|424:94,1,85,8|2,0:0|0:0,0:0:0:0:
372,247,173820,6,0,P|363:260|360:275,2,31.8750012159348,2|0|2,0:0|0:0|0:0,0:0:0:0:
475,279,174130,2,0,P|472:294|463:307,2,31.8750012159348,8|0|2,0:0|0:0|0:0,0:0:0:0:
306,359,174441,6,0,P|309:372|316:384,2,27.6249987354279,2|0|2,0:0|0:0|0:0,0:0:0:0:
396,346,174752,2,0,P|404:357|407:370,2,27.6249987354279,2|0|2,0:0|0:0|0:0,0:0:0:0:
286,256,175063,5,8,0:0:0:0:
169,331,175218,1,8,0:0:0:0:
278,245,175374,2,0,P|274:203|238:179,1,85,8|2,0:0|0:0,0:0:0:0:
155,206,175685,1,2,0:0:0:0:
260,78,175840,5,8,0:0:0:0:
42,118,175996,1,8,0:0:0:0:
154,10,176151,1,2,0:0:0:0:
153,24,176307,2,0,P|145:65|141:108,2,85,4|4|4,0:0|0:0|0:0,0:0:0:0:
225,157,176783,5,8,0:0:0:0:
29,263,176941,2,0,B|26:218|26:218|56:191,1,85,2|2,0:0|0:0,0:0:0:0:
278,245,177259,2,0,B|280:289|280:289|250:316,1,85,8|2,0:0|0:0,0:0:0:0:
154,339,177576,6,0,L|112:331,2,42.5,2|0|2,0:0|0:0|0:0,0:0:0:0:
357,319,177888,1,8,0:0:0:0:
369,322,177966,1,0,0:0:0:0:
381,325,178044,2,0,B|461:345|461:345|435:156,1,255,2|8,0:0|0:0,0:0:0:0:
422,91,178669,1,2,0:0:0:0:
346,191,178826,6,0,P|288:172|276:112,2,127.5,2|0|2,0:0|0:0|0:0,0:0:0:0:
422,91,179449,2,0,P|386:29|330:67,2,127.5,2|0|2,0:0|0:0|0:0,0:0:0:0:
276,112,180072,6,0,P|268:79|260:57,2,56.6666666666667,2|0|0,0:0|0:0|0:0,0:0:0:0:
160,142,180386,2,0,P|167:109|175:87,2,56.6666666666667,2|0|0,0:0|0:0|0:0,0:0:0:0:
63,43,180700,6,0,P|72:127|75:212,1,170,8|4,0:0|0:0,0:0:0:0:
22,289,181171,1,4,0:0:0:0:
157,332,181328,6,0,L|146:373,3,42.5,6|0|2|0,0:0|0:0|0:0|0:0,0:0:0:0:
245,343,181638,2,0,L|234:384,3,42.5,8|0|2|0,0:0|0:0|0:0|0:0,0:0:0:0:
244,246,181949,6,0,L|233:204,3,42.5,2|0|2|0,0:0|0:0|0:0|0:0,0:0:0:0:
360,242,182260,2,0,L|349:200,3,42.5,8|0|2|0,0:0|0:0|0:0|0:0,0:0:0:0:
358,344,182571,6,0,L|339:409,3,42.5,2|0|2|0,0:0|0:0|0:0|0:0,0:0:0:0:
512,344,182885,2,0,L|493:409,3,42.5,8|0|2|0,0:0|0:0|0:0|0:0,0:0:0:0:
442,291,183199,5,8,0:0:0:0:
494,110,183356,1,8,0:0:0:0:
433,209,183513,2,0,L|347:200,1,85,2|2,0:0|0:0,0:0:0:0:
494,110,183827,6,0,B|431:105|431:105|426:101|426:101|320:91,1,170,12|2,0:0|0:0,0:0:0:0:
246,79,184298,1,2,0:0:0:0:
208,238,184455,2,0,B|248:250|248:250|308:188|308:188|348:199,1,170,12|0,0:0|0:0,0:0:0:0:
425,266,184927,5,4,0:0:0:0:
335,378,185084,1,4,0:0:0:0:
319,378,185398,5,4,0:0:0:0:
230,322,185555,1,4,0:0:0:0:
217,322,185852,5,4,0:0:0:0:
149,365,186010,1,4,0:0:0:0:
425,266,186301,5,6,0:0:0:0:
92,214,186611,1,6,0:0:0:0:
301,83,186949,6,0,B|292:37|292:37|289:34|289:34|283:0,2,85,6|2|8,0:0|0:0|0:0,0:0:0:0:
451,128,187418,2,0,B|486:204|486:204|421:276,1,170,6|2,0:0|0:0,0:0:0:0:
340,315,187888,1,8,0:0:0:0:
175,186,188045,2,0,L|258:173,1,85,2|2,0:0|0:0,0:0:0:0:
347,155,188358,5,2,0:0:0:0:
218,290,188515,1,8,0:0:0:0:
141,102,188672,2,0,B|96:98|96:98|48:171|48:171|-9:163,1,170,6|2,0:0|0:0,0:0:0:0:
33,25,189142,1,8,0:0:0:0:
147,114,189298,1,2,0:0:0:0:
213,29,189455,6,0,P|241:61|242:103,1,85,6|2,0:0|0:0,0:0:0:0:
347,155,189765,1,8,0:0:0:0:
331,71,189921,1,2,0:0:0:0:
461,167,190076,1,2,0:0:0:0:
477,83,190232,1,2,0:0:0:0:
333,161,190387,2,0,P|309:196|309:238,1,85,8|2,0:0|0:0,0:0:0:0:
431,384,190698,6,0,P|418:299|398:217,1,170,2|8,0:0|0:0,0:0:0:0:
333,321,191164,1,2,0:0:0:0:
222,167,191320,2,0,P|213:208|205:250,1,85,2|2,0:0|0:0,0:0:0:0:
122,367,191631,2,0,P|113:325|105:283,1,85,8|2,0:0|0:0,0:0:0:0:
65,182,191942,5,6,0:0:0:0:
23,286,192096,1,2,0:0:0:0:
154,208,192251,1,8,0:0:0:0:
28,98,192405,6,0,B|96:93|96:93|111:83|111:83|216:70,1,170,6|2,0:0|0:0,0:0:0:0:
289,19,192869,2,0,B|319:55|319:55|302:92,1,85,8|2,0:0|0:0,0:0:0:0:
309,213,193179,1,2,0:0:0:0:
238,153,193336,1,2,0:0:0:0:
416,142,193493,1,8,0:0:0:0:
238,263,193650,6,0,B|216:294|216:294|317:331|317:331|321:307,1,170,6|2,0:0|0:0,0:0:0:0:
495,249,194121,6,0,B|417:238|417:238|411:232|411:232|306:212,1,191.250007295609,8|0,0:0|0:0,0:0:0:0:
295,209,194435,6,0,P|301:167|333:140,1,85,6|2,0:0|0:0,0:0:0:0:
416,142,194742,1,8,0:0:0:0:
416,259,194896,1,2,0:0:0:0:
284,205,195050,1,2,0:0:0:0:
321,307,195204,1,2,0:0:0:0:
172,280,195358,2,0,P|161:321|153:367,1,85,8|2,0:0|0:0,0:0:0:0:
22,302,195665,5,8,0:0:0:0:
12,283,195745,1,2,0:0:0:0:
13,261,195826,1,8,0:0:0:0:
29,247,195906,1,2,0:0:0:0:
49,242,195987,2,0,P|69:240|87:251,3,42.5,2|2|8|2,0:0|0:0|0:0|0:0,0:0:0:0:
190,182,196310,5,8,0:0:0:0:
195,161,196390,1,2,0:0:0:0:
201,140,196471,1,2,0:0:0:0:
209,120,196552,1,2,0:0:0:0:
216,100,196632,2,0,P|216:127|229:148,1,42.5,8|0,0:0|0:0,0:0:0:0:
333,117,196794,2,0,P|340:97|339:76,1,42.5,8|0,0:0|0:0,0:0:0:0:
255,6,196955,6,0,P|212:8|170:13,1,85,6|0,0:0|0:0,0:0:0:0:
72,28,197264,1,8,0:0:0:0:
9,173,197418,2,0,B|61:153|92:201|80:208|68:214|102:269|162:239,1,170,6|2,0:0|0:0,0:0:0:0:
216,100,197882,2,0,P|174:102|146:133,1,85,8|0,0:0|0:0,0:0:0:0:
153,241,198192,1,2,0:0:0:0:
231,283,198349,1,2,0:0:0:0:
321,210,198507,1,8,0:0:0:0:
308,384,198665,6,0,P|231:362|231:283,1,170,6|2,0:0|0:0,0:0:0:0:
414,233,199139,2,0,P|423:192|401:156,1,85,8|2,0:0|0:0,0:0:0:0:
297,71,199455,5,6,0:0:0:0:
205,53,199609,1,2,0:0:0:0:
140,120,199764,1,8,0:0:0:0:
48,102,199918,1,2,0:0:0:0:
77,190,200073,6,0,P|81:230|84:282,1,85,2|2,0:0|0:0,0:0:0:0:
6,370,200382,2,0,P|3:327|0:285,1,85,8|2,0:0|0:0,0:0:0:0:
173,192,200692,6,0,P|177:232|180:284,1,85,2|2,0:0|0:0,0:0:0:0:
270,384,201004,2,0,P|267:341|263:299,1,85,8|2,0:0|0:0,0:0:0:0:
349,195,201317,5,2,0:0:0:0:
349,195,201473,1,2,0:0:0:0:
360,374,201629,1,8,0:0:0:0:
360,374,201785,1,2,0:0:0:0:
251,212,201942,6,0,P|246:170|269:135,1,85,6|2,0:0|0:0,0:0:0:0:
358,102,202252,1,8,0:0:0:0:
511,247,202408,2,0,P|427:222|346:194,1,170,6|2,0:0|0:0,0:0:0:0:
360,374,202874,2,0,P|400:376|426:345,1,85,8|0,0:0|0:0,0:0:0:0:
252,264,203185,5,2,0:0:0:0:
190,334,203342,1,2,0:0:0:0:
67,200,203499,1,8,0:0:0:0:
35,326,203656,2,0,B|87:346|118:298|106:291|94:285|136:231|188:260,1,170,6|2,0:0|0:0,0:0:0:0:
67,189,204127,2,0,P|74:151|86:103,1,85,8|2,0:0|0:0,0:0:0:0:
110,26,204441,5,6,0:0:0:0:
201,42,204597,1,2,0:0:0:0:
242,125,204753,1,8,0:0:0:0:
333,144,204909,1,2,0:0:0:0:
388,68,205066,6,0,P|428:56|470:50,1,85,2|2,0:0|0:0,0:0:0:0:
510,135,205378,2,0,P|467:141|427:152,1,85,8|2,0:0|0:0,0:0:0:0:
212,211,205691,6,0,P|254:217|294:228,1,85,2|2,0:0|0:0,0:0:0:0:
333,144,206003,2,0,P|292:132|250:126,1,85,8|2,0:0|0:0,0:0:0:0:
385,247,206316,6,0,P|425:235|467:229,1,85,2|2,0:0|0:0,0:0:0:0:
507,314,206628,2,0,P|464:320|424:331,1,85,8|2,0:0|0:0,0:0:0:0:
289,343,206941,5,8,0:0:0:0:
268,350,207095,1,8,0:0:0:0:
274,368,207250,1,8,0:0:0:0:
299,361,207404,1,8,0:0:0:0:
163,263,207559,5,8,0:0:0:0:
87,289,207714,1,8,0:0:0:0:
113,363,207868,1,8,0:0:0:0:
189,342,208023,1,8,0:0:0:0:
105,203,208178,5,2,0:0:0:0:
89,189,208282,2,0,L|93:161,2,28.3333333333333,2|2|2,0:0|0:0|0:0,0:0:0:0:
73,176,208492,6,0,L|85:96,2,56.6666666666667,8|8|8,0:0|0:0|0:0,0:0:0:0:
225,173,208806,5,2,0:0:0:0:
241,159,208910,2,0,L|237:131,2,28.3333333333333,2|2|2,0:0|0:0|0:0,0:0:0:0:
257,146,209120,6,0,L|245:66,2,56.6666666666667,8|8|8,0:0|0:0|0:0,0:0:0:0:
155,36,209434,6,0,P|168:61|166:89,2,56.6666666666667,6|2|2,0:0|0:0|0:0,0:0:0:0:
75,50,209748,2,0,P|70:77|80:103,2,56.6666666666667,8|2|2,0:0|0:0|0:0,0:0:0:0:
5,178,210062,2,0,B|58:163|84:213|74:218|65:224|88:279|152:262,1,170,2|8,0:0|0:0,0:0:0:0:
225,358,210481,1,2,0:0:0:0:
225,358,210585,1,2,0:0:0:0:
225,358,210690,6,0,P|308:374|392:384,1,170,2|8,0:0|0:0,0:0:0:0:
402,202,211109,5,2,0:0:0:0:
402,202,211214,1,2,0:0:0:0:
402,202,211318,2,0,P|322:214|306:292,1,170,2|8,0:0|0:0,0:0:0:0:
462,328,211737,2,0,P|459:299|460:271,1,56.6666666666667,2|2,0:0|0:0,0:0:0:0:
485,173,211947,6,0,P|482:116|472:61,1,113.333333333333,2|2,0:0|0:0,0:0:0:0:
340,113,212261,2,0,P|333:57|333:0,1,113.333333333333,10|2,0:0|0:0,0:0:0:0:
142,112,212575,2,0,P|177:70|231:78,1,113.333333333333,2|2,0:0|0:0,0:0:0:0:
260,181,212889,5,10,0:0:0:0:
264,198,212994,1,2,0:0:0:0:
272,213,213098,1,2,0:0:0:0:
284,224,213204,6,0,P|340:210|401:199,1,113.333333333333,2|2,0:0|0:0,0:0:0:0:
316,319,213513,1,10,0:0:0:0:
316,319,213616,1,2,0:0:0:0:
316,319,213719,2,0,B|280:289|230:330|241:340|253:346|211:405|153:366,1,170,2|2,0:0|0:0,0:0:0:0:
134,303,214131,2,0,B|105:307|88:335|88:335|93:303|78:281,1,113.333333333333,14|2,0:0|0:0,0:0:0:0:
135,206,214441,6,0,P|114:188|109:156,2,56.6666666666667,6|2|2,0:0|0:0|0:0,0:0:0:0:
243,144,214753,2,0,P|217:153|187:141,2,56.6666666666667,8|2|2,0:0|0:0|0:0,0:0:0:0:
303,70,215066,2,0,P|230:63|116:60,1,170,2|8,0:0|0:0,0:0:0:0:
17,111,215482,1,2,0:0:0:0:
17,111,215586,1,2,0:0:0:0:
17,111,215691,6,0,B|65:97|88:140|80:147|69:153|83:221|164:203,1,170,2|8,0:0|0:0,0:0:0:0:
207,306,216107,1,2,0:0:0:0:
207,306,216211,1,2,0:0:0:0:
211,311,216316,2,0,P|228:227|243:139,1,170,2|8,0:0|0:0,0:0:0:0:
357,224,216732,1,2,0:0:0:0:
357,224,216836,1,2,0:0:0:0:
356,223,216941,6,0,P|344:199|314:190,2,56.6666666666667,6|2|2,0:0|0:0|0:0,0:0:0:0:
365,313,217253,1,8,0:0:0:0:
392,305,217357,1,2,0:0:0:0:
419,297,217461,1,2,0:0:0:0:
446,289,217566,2,0,L|435:344,2,56.6666666666667,2|2|2,0:0|0:0|0:0,0:0:0:0:
480,180,217878,2,0,B|495:158|495:158|489:129,2,56.6666666666667,8|2|2,0:0|0:0|0:0,0:0:0:0:
356,223,218191,5,4,0:0:0:0:
361,190,218295,1,8,0:0:0:0:
366,157,218399,1,8,0:0:0:0:
370,124,218503,2,0,L|386:39,2,56.6666666666667,8|4|4,0:0|0:0|0:0,0:0:0:0:
262,153,218816,6,0,P|250:177|255:204,1,56.6666666666667,4|4,0:0|0:0,0:0:0:0:
279,306,219024,1,8,0:0:0:0:
279,306,219128,2,0,P|228:290|151:274,1,113.333333333333,8|8,0:0|0:0,0:0:0:0:
56,329,219441,6,0,P|145:339|162:258,1,170.000006484986,6|2,0:0|0:0,0:0:0:0:
87,190,219753,2,0,P|77:216|84:243,2,56.6666666666667,8|2|2,0:0|0:0|0:0,0:0:0:0:
180,185,220066,6,0,P|171:112|170:0,1,170,2|8,0:0|0:0,0:0:0:0:
275,77,220482,1,2,0:0:0:0:
275,77,220586,1,2,0:0:0:0:
274,75,220691,6,0,P|333:24|393:75,1,170,2|8,0:0|0:0,0:0:0:0:
492,144,221107,1,2,0:0:0:0:
492,144,221211,1,2,0:0:0:0:
492,144,221316,6,0,B|444:130|421:173|429:180|440:186|426:254|345:236,1,170,2|8,0:0|0:0,0:0:0:0:
304,168,221732,2,0,P|275:170|247:174,1,56.6666666666667,2|2,0:0|0:0,0:0:0:0:
152,286,221941,6,0,P|206:275|272:270,1,113.333333333333,2|2,0:0|0:0,0:0:0:0:
445,344,222253,2,0,P|391:354|325:359,1,113.333333333333,10|2,0:0|0:0,0:0:0:0:
303,167,222566,2,0,P|361:193|372:247,1,113.333333333333,2|2,0:0|0:0,0:0:0:0:
209,367,222878,5,10,0:0:0:0:
197,379,222982,1,2,0:0:0:0:
181,381,223086,1,2,0:0:0:0:
164,376,223191,6,0,P|129:334|151:285,1,113.333333333333,2|2,0:0|0:0,0:0:0:0:
263,270,223506,5,10,0:0:0:0:
263,270,223612,1,2,0:0:0:0:
263,270,223717,2,0,B|213:268|204:220|214:216|226:213|234:144|151:137,1,170,2|2,0:0|0:0,0:0:0:0:
172,64,224138,2,0,B|136:48|127:26|127:26|134:54|121:78,1,113.333333333333,14|2,0:0|0:0,0:0:0:0:
82,168,224454,6,0,P|102:186|107:214,2,56.6666666666667,6|2|2,0:0|0:0|0:0,0:0:0:0:
0,211,224761,2,0,P|4:238|24:257,2,56.6666666666667,8|2|2,0:0|0:0|0:0,0:0:0:0:
11,80,225069,2,0,P|93:94|171:63,1,170,2|10,0:0|0:0,0:0:0:0:
278,148,225479,1,2,0:0:0:0:
278,148,225582,1,2,0:0:0:0:
278,148,225684,6,0,B|326:162|349:119|341:112|330:106|344:38|425:56,1,170,2|10,0:0|0:0,0:0:0:0:
512,126,226095,1,2,0:0:0:0:
512,126,226197,1,2,0:0:0:0:
510,125,226300,6,0,P|499:178|452:206,1,113.333333333333,2|2,0:0|0:0,0:0:0:0:
278,148,226607,2,0,P|286:203|293:263,1,113.333333333333,10|2,0:0|0:0,0:0:0:0:
433,319,226915,5,2,0:0:0:0:
431,335,227019,1,2,0:0:0:0:
429,351,227124,1,2,0:0:0:0:
427,367,227229,2,0,B|401:374|401:374|371:360,2,56.6666666666667,8|2|2,0:0|0:0|0:0,0:0:0:0:
274,344,227543,5,2,0:0:0:0:
280,316,227647,1,2,0:0:0:0:
286,288,227752,1,2,0:0:0:0:
292,260,227857,2,0,B|267:237|267:237|245:239,2,56.6666666666667,8|2|2,0:0|0:0|0:0,0:0:0:0:
135,295,228171,6,0,L|124:350,2,56.6666666666667,2|2|2,0:0|0:0|0:0,0:0:0:0:
156,215,228485,2,0,L|167:160,2,56.6666666666667,8|2|2,0:0|0:0|0:0,0:0:0:0:
27,174,228799,5,8,0:0:0:0:
26,159,228904,2,0,P|45:139|73:133,1,56.6666666666667,8|8,0:0|0:0,0:0:0:0:
97,51,229113,5,8,0:0:0:0:
109,42,229218,2,0,P|135:48|155:69,1,56.6666666666667,8|8,0:0|0:0,0:0:0:0:
246,116,229428,6,0,B|289:90|289:90|390:140|390:140|394:150|394:150|429:132,1,212.5,2|0,0:0|0:0,0:0:0:0:
284,197,229899,2,0,B|243:225|243:225|270:294|270:294|275:299|275:299|304:376,1,212.5,2|2,0:0|0:0,0:0:0:0:
426,321,230370,2,0,B|431:266|431:266|383:243,1,106.25,8|0,0:0|0:0,0:0:0:0:
173,298,230684,6,0,B|122:279|122:279|93:318|93:318|91:324|91:324|58:367|58:367|10:352,1,212.5,2|8,0:0|0:0,0:0:0:0:
38,171,231155,2,0,B|66:147|66:147|132:170,1,106.25,2|0,0:0|0:0,0:0:0:0:
264,231,231469,1,2,0:0:0:0:
264,231,231548,1,2,0:0:0:0:
264,232,231627,6,0,P|259:141|340:100,1,191.250007295609,8|0,0:0|0:0,0:0:0:0:
355,102,231941,6,0,B|359:194|359:194|356:205|356:205|361:313,1,212.5,2|8,0:0|0:0,0:0:0:0:
503,383,232402,2,0,B|526:353|526:353|491:230|491:230|445:230,1,212.5,2|2,0:0|0:0,0:0:0:0:
264,232,232864,2,0,B|236:274|236:274|265:322,1,106.25,8|0,0:0|0:0,0:0:0:0:
445,230,233171,6,0,L|453:188,3,42.5,2|2|2|2,0:0|0:0|0:0|0:0,0:0:0:0:
360,212,233486,2,0,L|368:170,3,42.5,10|2|2|2,0:0|0:0|0:0|0:0,0:0:0:0:
264,232,233802,2,0,L|272:273,3,42.5,10|2|2|2,0:0|0:0|0:0|0:0,0:0:0:0:
179,250,234118,2,0,L|187:291,3,42.5,10|2|2|2,0:0|0:0|0:0|0:0,0:0:0:0:
91,254,234434,5,10,0:0:0:0:
89,266,234511,1,2,0:0:0:0:
88,278,234588,2,0,L|81:320,1,42.5,2|2,0:0|0:0,0:0:0:0:
179,250,234743,5,10,0:0:0:0:
181,238,234820,1,2,0:0:0:0:
182,226,234897,2,0,L|188:183,1,42.5,2|2,0:0|0:0,0:0:0:0:
266,282,235052,5,10,0:0:0:0:
264,294,235129,1,2,0:0:0:0:
263,306,235206,2,0,L|256:348,1,42.5,2|2,0:0|0:0,0:0:0:0:
354,278,235361,5,10,0:0:0:0:
356,266,235438,1,2,0:0:0:0:
357,254,235515,2,0,L|363:211,1,42.5,2|2,0:0|0:0,0:0:0:0:
375,114,235671,5,6,0:0:0:0:
375,114,236927,6,0,P|290:113|205:120,3,170
30,146,238203,5,6,0:0:0:0:
490,100,238506,1,6,0:0:0:0:
