osu file format v14

[General]
AudioFilename: audio.mp3
AudioLeadIn: 0
PreviewTime: 53519
Countdown: 0
SampleSet: Drum
StackLeniency: 0.3
Mode: 0
LetterboxInBreaks: 0
EpilepsyWarning: 1
WidescreenStoryboard: 1

[Editor]
Bookmarks: 82468,92134,226590,230967
DistanceSpacing: 0.3
BeatDivisor: 4
GridSize: 16
TimelineZoom: 3.4

[Metadata]
Title:Downfall
TitleUnicode:Downfall
Artist:Children of Bodom
ArtistUnicode:Children of Bodom
Creator:WWWWWWWWWWWWWW
Version:Kyst's Insane
Source:
Tags:Hatebreeder Melodic Death Metal Kyst English
BeatmapID:2432641
BeatmapSetID:1123806

[Difficulty]
HPDrainRate:4.2
CircleSize:3.5
OverallDifficulty:8
ApproachRate:9
SliderMultiplier:2.1
SliderTickRate:1

[Events]
//Background and Video events
0,0,"40f8b1c2993e91ea7c570e4d7a312fb2d1b2cbe4_s2_n1.jpg",0,0
//Break Periods
2,82668,90933
2,226790,230367
//Storyboard Layer 0 (Background)
//Storyboard Layer 1 (Fail)
//Storyboard Layer 2 (Pass)
//Storyboard Layer 3 (Foreground)
//Storyboard Layer 4 (Overlay)
//Storyboard Sound Samples

[TimingPoints]
3987,306.122448979592,4,3,1,5,1,0
9956,-100,4,3,1,5,0,0
10110,306.122448979592,4,3,1,55,1,0
10110,-476.190476190476,4,3,1,55,0,0
12480,-476.190476190476,4,3,1,5,0,0
12555,300,4,3,1,55,1,0
14355,-100,4,3,5,65,0,0
14955,-476.190476190476,4,3,1,55,0,0
17268,-476.190476190476,4,3,1,5,0,0
17355,-476.190476190476,4,3,1,55,0,0
19760,303.030303030303,4,3,1,55,1,0
19760,-399.999999999997,4,3,1,55,0,0
22073,-322.58064516129,4,3,1,5,0,0
22160,-322.58064516129,4,3,1,55,0,0
23396,297.029702970297,4,3,1,55,1,0
24590,301.507537688442,4,3,1,55,1,0
33635,-100,4,3,4,55,0,0
33936,-100,4,3,5,55,0,0
34238,-100,4,3,1,55,0,0
42680,297.029702970297,4,3,1,55,1,0
43880,301.507537688442,4,3,1,55,1,0
43880,-200,4,3,1,55,0,0
44407,-200,4,3,1,5,0,0
44483,-200,4,3,1,55,0,0
45086,312.5,4,3,1,55,1,0
45086,-200,4,3,1,55,0,0
45632,-200,4,3,1,5,0,0
45708,-200,4,3,1,55,0,0
46179,287.081339712919,4,3,1,55,1,0
46179,-200,4,3,1,55,0,0
46822,-200,4,3,1,5,0,0
46898,303.030303030303,4,3,1,55,1,0
46898,-200,4,3,1,55,0,0
48034,-200,4,3,1,5,0,0
48110,294.117647058824,4,3,1,55,1,0
48110,-200,4,3,1,55,0,0
48621,-200,4,3,1,5,0,0
48698,307.692307692308,4,3,1,55,1,0
48698,-200,4,3,1,55,0,0
49236,-200,4,3,1,5,0,0
49312,-200,4,3,1,55,0,0
49774,300,4,3,1,55,1,0
49774,-200,4,3,1,55,0,0
50449,-200,4,3,1,5,0,0
50524,-200,4,3,1,55,0,0
50974,315.789473684211,4,3,1,55,1,0
50974,-200,4,3,1,55,0,0
51605,-200,4,3,1,5,0,0
51725,301.507537688442,4,3,1,55,1,0
51725,-200,4,3,1,55,0,0
52328,-125,4,3,1,55,0,0
53519,301.507537688442,4,3,1,55,1,0
61584,250,4,3,1,55,1,0
61959,302.267002518892,4,3,1,55,1,0
61959,-100,4,3,2,55,0,0
62261,-100,4,3,3,55,0,0
62563,-100,4,3,4,55,0,0
62865,-100,4,3,5,55,0,0
63168,301.507537688442,4,3,1,55,1,0
66786,297.029702970297,4,3,1,55,1,0
67974,301.507537688442,4,3,1,55,1,0
71761,300,4,3,1,55,1,0
72211,304.568527918782,4,3,1,55,1,0
72211,-100,4,3,3,55,0,0
72515,-100,4,3,4,55,0,0
72745,375,4,3,1,55,1,0
72838,-83.3333333333333,4,3,1,55,0,0
73182,-83.3333333333333,4,3,1,5,0,0
73270,342.857142857143,4,3,1,55,1,0
73270,-83.3333333333333,4,3,1,55,0,0
73527,-83.3333333333333,4,3,1,5,0,0
73612,304.568527918782,4,3,1,55,1,0
73612,-83.3333333333333,4,3,1,55,0,0
73840,-83.3333333333333,4,3,1,5,0,0
73916,-83.3333333333333,4,3,1,55,0,0
74144,273.972602739726,4,3,1,5,1,0
74144,-83.3333333333333,4,3,1,5,0,0
75239,307.692307692308,4,3,1,55,1,0
75239,-83.3333333333333,4,3,1,55,0,0
75623,-83.3333333333333,4,3,1,5,0,0
75700,-83.3333333333333,4,3,1,55,0,0
75931,-83.3333333333333,4,3,1,5,0,0
76008,-83.3333333333333,4,3,1,55,0,0
76239,-83.3333333333333,4,3,1,5,0,0
76316,-83.3333333333333,4,3,1,55,0,0
76623,300,4,3,1,5,1,0
77673,298.507462686567,4,3,1,55,1,0
77673,-83.3333333333333,4,3,1,55,0,0
78046,-83.3333333333333,4,3,1,5,0,0
78120,-83.3333333333333,4,3,1,55,0,0
78344,-83.3333333333333,4,3,1,5,0,0
78419,333.333333333333,4,3,1,55,1,0
78419,-83.3333333333333,4,3,1,55,0,0
78669,-83.3333333333333,4,3,1,5,0,0
78746,-83.3333333333333,4,3,1,55,0,0
80067,295.566502463054,4,3,1,55,1,0
80067,-83.3333333333333,4,3,1,55,0,0
80436,-83.3333333333333,4,3,1,5,0,0
80510,-83.3333333333333,4,3,1,55,0,0
80732,-83.3333333333333,4,3,1,5,0,0
80804,-83.3333333333333,4,3,1,55,0,0
81027,-83.3333333333333,4,3,1,5,0,0
81101,-83.3333333333333,4,3,1,55,0,0
81323,320.855614973262,4,3,1,5,1,0
81429,297.029702970297,4,3,1,55,1,0
81429,-100,4,3,2,55,0,0
81726,-100,4,3,1,55,0,0
81874,-100,4,3,4,55,0,0
82171,-100,4,3,5,55,0,0
82468,-100,4,3,1,55,0,0
92134,301.507537688442,4,3,1,55,1,0
93264,-100,4,3,1,5,0,0
93340,-100,4,3,1,55,0,0
94470,-100,4,3,1,5,0,0
94546,-100,4,3,1,55,0,0
95676,-100,4,3,1,5,0,0
95752,298.507462686567,4,3,1,55,1,0
95753,-100,4,3,1,55,0,0
96349,-100,4,3,4,55,0,0
96647,-100,4,3,5,55,0,0
96946,301.507537688442,4,3,1,55,1,0
98076,-100,4,3,1,5,0,0
98152,-100,4,3,1,55,0,0
99282,-100,4,3,1,5,0,0
99358,-100,4,3,1,55,0,0
100488,-100,4,3,1,5,0,0
100564,-100,4,3,1,55,0,0
101694,-100,4,3,1,5,0,0
101770,-76.9230769230769,4,3,1,55,0,0
102523,-76.9230769230769,4,3,3,55,0,0
102825,-76.9230769230769,4,3,1,55,0,0
103126,-76.9230769230769,4,3,4,55,0,0
103428,-76.9230769230769,4,3,1,55,0,0
103729,-76.9230769230769,4,3,5,55,0,0
104031,-76.9230769230769,4,3,1,55,0,0
104182,304.568527918782,4,3,1,55,1,0
105388,301.507537688442,4,3,1,55,1,0
106618,300,4,3,1,55,1,0
115026,298.06259314456,4,3,1,55,1,0
115175,-100,4,3,2,55,0,0
115324,-100,4,3,3,55,0,0
115622,-100,4,3,4,55,0,0
115920,-100,4,3,5,55,0,0
116218,303.030303030303,4,3,1,55,1,0
121066,300,4,3,1,55,1,0
124666,307.692307692308,4,3,1,55,1,0
125896,297.029702970297,4,3,1,55,1,0
125896,-83.3333333333333,4,3,1,55,0,0
126267,-83.3333333333333,4,3,1,5,0,0
126341,333.333333333333,4,3,1,55,1,0
126341,-83.3333333333333,4,3,1,55,0,0
126591,-83.3333333333333,4,3,1,5,0,0
126674,300,4,3,1,55,1,0
126674,-83.3333333333333,4,3,1,55,0,0
126899,-83.3333333333333,4,3,1,5,0,0
126974,295.566502463054,4,3,1,55,1,0
126974,-83.3333333333333,4,3,1,55,0,0
128310,309.278350515464,4,3,1,55,1,0
128696,-83.3333333333333,4,3,1,5,0,0
128770,-83.3333333333333,4,3,1,55,0,0
129005,-83.3333333333333,4,3,1,5,0,0
129079,-83.3333333333333,4,3,1,55,0,0
129319,-83.3333333333333,4,3,1,5,0,0
129392,291.26213592233,4,3,1,55,1,0
129392,-83.3333333333333,4,3,1,55,0,0
130700,307.692307692308,4,3,1,55,1,0
131084,-83.3333333333333,4,3,1,5,0,0
131158,-83.3333333333333,4,3,1,55,0,0
131394,-83.3333333333333,4,3,1,5,0,0
131469,300,4,3,1,55,1,0
131469,-83.3333333333333,4,3,1,55,0,0
131695,-83.3333333333333,4,3,1,5,0,0
131769,295.566502463054,4,3,1,55,1,0
131769,-83.3333333333333,4,3,1,55,0,0
133130,300,4,3,1,55,1,0
133130,-83.3333333333333,4,3,1,55,0,0
133505,-83.3333333333333,4,3,1,5,0,0
133579,-83.3333333333333,4,3,1,55,0,0
133805,-83.3333333333333,4,3,1,5,0,0
133879,-83.3333333333333,4,3,1,55,0,0
134105,-83.3333333333333,4,3,1,5,0,0
134179,-83.3333333333333,4,3,1,55,0,0
134500,285.714285714286,4,3,5,55,1,0
135214,300,4,3,5,55,1,0
135364,333.333333333333,4,3,5,55,1,0
135530,-100,4,3,1,55,0,0
136728,307.692307692308,4,3,1,55,1,0
137495,318.302387267905,4,3,1,55,1,0
137495,-83.3333333333333,4,3,1,55,0,0
137733,-83.3333333333333,4,3,1,5,0,0
137807,-83.3333333333333,4,3,1,55,0,0
138220,319.148936170213,4,3,1,55,1,0
138698,297.029702970297,4,3,1,55,1,0
139143,352.941176470588,4,3,1,55,1,0
139319,279.06976744186,4,3,1,55,1,0
139458,315.789473684211,4,3,1,55,1,0
139615,400,4,3,1,55,1,0
139915,295.566502463054,4,3,1,55,1,0
140359,315.789473684211,4,3,1,55,1,0
140359,-500,4,3,1,55,0,0
142569,-500,4,3,1,5,0,0
142774,272.727272727273,4,3,1,55,1,0
143183,310.880829015544,4,3,1,55,1,0
143338,352.941176470588,4,3,1,55,1,0
143514,285.714285714286,4,3,1,55,1,0
143799,300,4,3,1,55,1,0
143949,300,4,3,1,55,1,0
144590,333.333333333333,4,3,1,55,1,0
145199,300,4,3,1,55,1,0
145199,-166.666666666667,4,3,1,55,0,0
152999,307.692307692308,4,3,1,55,1,0
153306,-83.3333333333333,4,3,1,55,0,0
154537,279.06976744186,4,3,1,55,1,0
154816,301.507537688442,4,3,1,55,1,0
159037,310.880829015544,4,3,1,55,1,0
159349,301.507537688442,4,3,1,55,1,0
162364,297.029702970297,4,3,1,55,1,0
162958,303.030303030303,4,3,1,55,1,0
163237,304.259634888438,4,3,1,55,1,0
163465,-100,4,3,3,55,0,0
163845,-100,4,3,4,55,0,0
164149,-100,4,3,5,55,0,0
166583,301.507537688442,4,3,1,55,1,0
171708,298.507462686567,4,3,1,55,1,0
172912,303.030303030303,4,3,1,55,1,0
173063,-100,4,3,2,55,0,0
173215,-100,4,3,3,55,0,0
173518,-100,4,3,4,55,0,0
173821,-100,4,3,5,55,0,0
174124,303.030303030303,4,3,1,55,1,0
174124,-153.846153846153,4,3,1,55,0,0
177002,291.26213592233,4,3,4,55,1,0
177147,400,4,3,4,55,1,0
177547,255.31914893617,4,3,1,55,1,0
177547,-117.647058823529,4,3,1,55,0,0
178312,315.789473684211,4,3,1,55,1,0
178943,-133.333333333333,4,3,1,55,0,0
179575,300,4,3,1,55,1,0
179575,-153.846153846153,4,3,1,55,0,0
181375,-133.333333333333,4,3,1,55,0,0
183175,303.030303030303,4,3,1,55,1,0
183175,-133.333333333333,4,3,1,55,0,0
184387,-153.846153846153,4,3,1,55,0,0
186053,292.682926829268,4,3,1,55,1,0
186199,306.122448979592,4,3,1,55,1,0
186352,-133.333333333333,4,3,1,55,0,0
186811,300,4,3,1,55,1,0
186811,-133.333333333333,4,3,1,55,0,0
187711,315.789473684211,4,3,1,55,1,0
187868,260.869565217391,4,3,1,55,1,0
187998,307.692307692308,4,3,1,55,1,0
188615,300,4,3,1,55,1,0
188615,-133.333333333333,4,3,1,55,0,0
190415,306.122448979592,4,3,1,55,1,0
190415,-153.846153846153,4,3,1,55,0,0
190568,294.117647058824,4,3,1,55,1,0
190862,333.333333333333,4,3,1,55,1,0
191028,304.568527918782,4,3,1,55,1,0
191028,-153.846153846153,4,3,1,55,0,0
191484,283.018867924528,4,3,1,55,1,0
191484,-153.846153846153,4,3,1,55,0,0
191625,300.751879699248,4,3,1,55,1,0
191625,-153.846153846153,4,3,1,55,0,0
192527,283.018867924528,4,3,1,55,1,0
192810,309.278350515464,4,3,1,55,1,0
192810,-133.333333333333,4,3,1,55,0,0
194031,300.751879699248,4,3,1,55,1,0
194031,-153.846153846153,4,3,1,55,0,0
195835,304.568527918782,4,3,1,55,1,0
195835,-153.846153846153,4,3,1,55,0,0
196444,289.855072463768,4,3,1,55,1,0
196444,-133.333333333333,4,3,1,55,0,0
196878,307.692307692308,4,3,1,55,1,0
197031,300,4,3,1,55,1,0
197031,-133.333333333333,4,3,1,55,0,0
197481,307.692307692308,4,3,1,55,1,0
197634,301.507537688442,4,3,1,55,1,0
198239,301.507537688442,4,3,1,55,1,0
198239,-133.333333333333,4,3,1,55,0,0
201254,-105.263157894737,4,3,1,55,0,0
203063,-133.333333333333,4,3,1,55,0,0
204269,294.117647058824,4,3,1,55,1,0
204857,-100,4,3,4,55,0,0
205151,-100,4,3,5,55,0,0
205445,303.030303030303,4,3,1,55,1,0
205445,-133.333333333333,4,3,1,55,0,0
206355,342.857142857143,4,3,1,55,1,0
206355,-133.333333333333,4,3,1,55,0,0
206697,295.566502463054,4,3,1,55,1,0
207288,-117.647058823529,4,3,1,55,0,0
207583,-133.333333333333,4,3,1,55,0,0
207879,303.030303030303,4,3,1,55,1,0
207879,-133.333333333333,4,3,1,55,0,0
211818,295.566502463054,4,3,1,55,1,0
211818,-133.333333333333,4,3,1,55,0,0
212113,307.692307692308,4,3,1,55,1,0
212113,-117.647058823529,4,3,1,55,0,0
212575,303.030303030303,4,3,1,55,1,0
212575,-117.647058823529,4,3,1,55,0,0
213332,303.030303030303,4,3,1,55,1,0
213332,-133.333333333333,4,3,1,55,0,0
213786,292.682926829268,4,3,1,55,1,0
213786,-133.333333333333,4,3,1,55,0,0
214517,324.324324324324,4,3,1,55,1,0
214517,-133.333333333333,4,3,1,55,0,0
214760,-133.333333333333,4,3,1,5,0,0
214841,315.789473684211,4,3,1,55,1,0
214841,-133.333333333333,4,3,1,55,0,0
215077,-133.333333333333,4,3,1,5,0,0
215156,300,4,3,1,55,1,0
215156,-153.846153846153,4,3,1,55,0,0
215381,-133.333333333333,4,3,1,5,0,0
215456,285.714285714286,4,3,1,55,1,0
215456,-181.818181818181,4,3,1,55,0,0
215670,-133.333333333333,4,3,1,5,0,0
215735,292.682926829268,4,3,5,55,1,0
216625,300,4,3,1,55,1,0
216625,-90.9090909090909,4,3,1,55,0,0
216848,-133.333333333333,4,3,1,5,0,0
216925,307.692307692308,4,3,1,55,1,0
217848,300,4,3,1,55,1,0
217848,-90.9090909090909,4,3,1,55,0,0
218071,-133.333333333333,4,3,1,5,0,0
218148,-133.333333333333,4,3,1,55,0,0
221748,315.78947368421,4,3,1,55,1,0
222695,292.682926829268,4,3,1,55,1,0
222695,-90.9090909090909,4,3,1,55,0,0
222914,-133.333333333333,4,3,1,5,0,0
222987,300,4,3,1,55,1,0
223137,292.682926829268,4,3,1,55,1,0
224187,329.67032967033,4,3,1,55,1,0
224516,-114.942528735632,4,3,1,55,0,0
224846,-133.333333333333,4,3,1,55,0,0
225087,-100,4,3,1,55,0,0
225670,-90.9090909090909,4,3,1,55,0,0
225917,-133.333333333333,4,3,1,5,0,0
225987,301.507537688442,4,3,1,55,1,0
226590,301.88679245283,4,3,1,55,1,0
230967,333.333333333333,4,3,1,55,1,0
231133,301.507537688442,4,3,1,55,1,0
231133,-181.818181818181,4,3,1,55,0,0
231359,-181.818181818181,4,3,1,5,0,0
231434,295.566502463054,4,3,1,55,1,0
232542,-100,4,3,1,5,0,0
232616,300,4,3,1,55,1,0
232616,-100,4,3,1,55,0,0
233741,-100,4,3,1,5,0,0
233816,298.507462686567,4,3,1,55,1,0
233822,-100,4,3,1,55,0,0
234935,-100,4,3,1,5,0,0
235010,301.507537688442,4,3,1,55,1,0
235010,-100,4,3,1,55,0,0
235613,-100,4,3,4,55,0,0
235914,-100,4,3,5,55,0,0
236231,301.507537688442,4,3,1,55,1,0
237361,-100,4,3,1,5,0,0
237437,-100,4,3,1,55,0,0
238567,-100,4,3,1,5,0,0
238643,-100,4,3,1,55,0,0
239773,-100,4,3,1,5,0,0
239849,297.029702970297,4,3,1,55,1,0
239850,-100,4,3,1,55,0,0
240962,-100,4,3,1,5,0,0
241034,304.568527918782,4,3,1,55,1,0
241034,-83.3333333333333,4,3,1,55,0,0
241795,-83.3333333333333,4,3,3,55,0,0
242099,-83.3333333333333,4,3,1,55,0,0
242404,-83.3333333333333,4,3,4,55,0,0
242708,-83.3333333333333,4,3,1,55,0,0
243013,-83.3333333333333,4,3,5,55,0,0
243317,-83.3333333333333,4,3,1,55,0,0
244384,285.714285714286,4,3,1,55,1,0
244669,300,4,3,1,55,1,0
245854,301.507537688442,4,3,1,55,1,0
250075,309.278350515464,4,3,1,55,1,0
250694,301.507537688442,4,3,1,55,1,0
254312,300,4,3,1,55,1,0
254462,-100,4,3,2,55,0,0
254612,-100,4,3,3,55,0,0
254912,-100,4,3,4,55,0,0
255212,-100,4,3,5,55,0,0
255515,301.507537688442,4,3,1,55,1,0
259133,297.029702970297,4,3,1,55,1,0
260324,304.568527918782,4,3,1,55,1,0
262760,303.030303030303,4,3,1,55,1,0
264578,297.029702970297,4,3,1,55,1,0
265172,300,4,3,1,55,1,0
265322,-83.3333333333333,4,3,1,55,0,0
265922,-83.3333333333333,4,3,3,55,0,0
266222,-83.3333333333333,4,3,1,55,0,0
266522,-83.3333333333333,4,3,4,55,0,0
266822,-83.3333333333333,4,3,1,55,0,0
267122,-83.3333333333333,4,3,5,55,0,0
267426,-83.3333333333333,4,3,1,55,0,0
267572,298.507462686567,4,3,1,55,1,0
268798,300,4,3,2,55,1,0
269098,-100,4,3,3,55,0,0
269398,-100,4,3,4,55,0,0
269698,-100,4,3,5,55,0,0
270298,-100,4,3,1,55,0,0
271948,-100,4,3,1,5,0,0

[Colours]
Combo1 : 51,204,204
Combo2 : 255,116,0
Combo3 : 255,150,69
Combo4 : 255,178,115
Combo5 : 0,153,153

[HitObjects]
256,192,619,12,0,3987,0:0:0:0:
256,192,4063,12,0,9956,0:0:0:0:
35,347,10110,6,0,B|72:346|117:325|117:325|128:358|128:358|196:315|253:388|346:342,1,341.774989569855,4|0,0:0|0:0,0:0:0:0:
358,338,12555,1,4,0:2:0:0:
360,340,14355,5,0,0:0:0:0:
454,298,14505,1,0,0:0:0:0:
374,244,14955,6,0,B|290:255|253:180|300:105|397:118|461:159|482:221,1,341.774989569855,4|0,0:0|0:0,0:0:0:0:
479,214,17355,1,4,0:2:0:0:
503,219,19760,6,0,B|488:270|425:266|397:232|403:183|440:165|440:165|386:145|307:220|213:169,1,406.875,4|0,0:0|0:0,0:0:0:0:
222,173,22184,1,4,0:1:0:0:
291,102,22335,1,4,0:1:0:0:
291,102,23396,5,2,0:0:0:0:
291,102,23693,1,2,0:0:0:0:
291,102,23990,1,2,0:0:0:0:
366,33,24287,1,10,0:0:0:0:
388,132,24590,5,2,0:0:0:0:
392,147,24665,1,0,0:0:0:0:
394,162,24740,1,0,0:0:0:0:
394,177,24816,1,0,0:0:0:0:
393,192,24891,2,0,L|386:250,3,52.5,8|0|0|0,0:0|0:0|0:0|0:0,0:0:0:0:
286,285,25193,2,0,L|244:253,3,52.5,2|0|0|0,0:0|0:0|0:0|0:0,0:0:0:0:
368,341,25494,5,8,0:0:0:0:
372,343,25569,1,0,0:0:0:0:
376,345,25645,1,0,0:0:0:0:
380,347,25720,1,0,0:0:0:0:
384,349,25796,5,2,0:0:0:0:
399,348,25871,1,0,0:0:0:0:
413,341,25946,1,0,0:0:0:0:
425,330,26022,1,0,0:0:0:0:
434,317,26097,2,0,L|465:255,3,52.5,8|0|0|0,0:0|0:0|0:0|0:0,0:0:0:0:
370,192,26399,6,0,L|376:251,1,52.5,2|0,0:0|0:0,0:0:0:0:
358,197,26549,2,0,L|364:256,1,52.5
459,121,26700,2,0,L|453:62,1,52.5,8|0,0:0|0:0,0:0:0:0:
471,116,26850,2,0,L|465:57,1,52.5
358,15,27002,6,0,P|352:46|356:79,3,52.5,2|0|0|0,0:0|0:0|0:0|0:0,0:0:0:0:
348,201,27303,2,0,B|331:213|331:213|301:224,3,52.5,8|0|0|0,0:0|0:0|0:0|0:0,0:0:0:0:
204,82,27605,2,0,P|232:96|256:118,3,52.5,2|0|0|0,0:0|0:0|0:0|0:0,0:0:0:0:
307,226,27906,5,8,0:0:0:0:
293,233,27981,1,0,0:0:0:0:
277,236,28057,1,0,0:0:0:0:
261,236,28132,1,0,0:0:0:0:
245,233,28208,1,2,0:0:0:0:
234,244,28283,1,0,0:0:0:0:
227,258,28358,1,0,0:0:0:0:
223,273,28434,1,0,0:0:0:0:
222,288,28509,2,0,L|226:351,3,52.5,8|0|0|0,0:0|0:0|0:0|0:0,0:0:0:0:
129,384,28811,6,0,L|122:322,1,52.5,2|0,0:0|0:0,0:0:0:0:
137,381,28961,2,0,L|130:319,1,52.5
27,273,29112,2,0,L|34:335,1,52.5,12|0,0:0|0:0,0:0:0:0:
19,276,29262,2,0,L|26:338,1,52.5
112,224,29414,6,0,P|91:201|66:183,3,52.5,4|0|0|0,0:2|0:0|0:0|0:0,0:0:0:0:
0,80,29715,2,0,B|0:105|0:105|10:143,3,52.5,8|0|0|0,0:0|0:0|0:0|0:0,0:0:0:0:
86,35,30017,2,0,P|65:12|40:-6,3,52.5,2|0|0|0,0:0|0:0|0:0|0:0,0:0:0:0:
89,122,30318,5,8,0:0:0:0:
94,122,30394,1,0,0:0:0:0:
99,121,30469,1,0,0:0:0:0:
104,120,30544,1,0,0:0:0:0:
109,118,30620,1,2,0:0:0:0:
121,127,30695,1,0,0:0:0:0:
129,140,30770,1,0,0:0:0:0:
134,155,30846,1,0,0:0:0:0:
134,170,30921,2,0,L|128:232,3,52.5,8|0|0|0,0:0|0:0|0:0|0:0,0:0:0:0:
42,274,31223,6,0,L|27:218,1,52.5,2|0,0:0|0:0,0:0:0:0:
33,281,31373,2,0,L|18:225,1,52.5
136,320,31524,2,0,L|192:305,1,52.5,8|0,0:0|0:0,0:0:0:0:
129,311,31674,2,0,L|185:296,1,52.5
295,363,31826,6,0,P|322:360|349:344,3,52.5,2|0|0|0,0:0|0:0|0:0|0:0,0:0:0:0:
390,276,32127,2,0,B|414:288|414:288|434:312,3,52.5,8|0|0|0,0:0|0:0|0:0|0:0,0:0:0:0:
286,227,32429,2,0,P|279:254|281:279,3,52.5,2|0|0|0,0:0|0:0|0:0|0:0,0:0:0:0:
199,148,32730,5,8,0:0:0:0:
191,134,32806,1,0,0:0:0:0:
186,118,32881,1,0,0:0:0:0:
184,102,32956,1,0,0:0:0:0:
186,86,33032,1,0,0:0:0:0:
73,21,33182,5,8,0:0:0:0:
90,40,33257,1,8,0:0:0:0:
101,63,33332,1,8,0:0:0:0:
105,89,33408,1,8,0:0:0:0:
101,115,33483,1,8,0:0:0:0:
90,138,33558,1,8,0:0:0:0:
72,158,33635,2,0,P|57:189|54:225,3,52.5
0,278,33936,2,0,P|19:306|48:327,3,52.5
113,372,34238,5,4,0:0:0:0:
127,367,34313,1,0,0:0:0:0:
142,364,34388,1,0,0:0:0:0:
157,362,34464,1,0,0:0:0:0:
172,362,34539,2,0,P|200:365|233:362,3,52.5,8|0|0|0,0:0|0:0|0:0|0:0,0:0:0:0:
294,314,34841,2,0,P|322:311|355:314,3,52.5,2|0|0|0,0:0|0:0|0:0|0:0,0:0:0:0:
429,372,35142,5,8,0:0:0:0:
426,367,35218,1,0,0:0:0:0:
423,362,35293,1,0,0:0:0:0:
420,357,35368,1,0,0:0:0:0:
417,352,35444,1,2,0:0:0:0:
422,337,35519,1,0,0:0:0:0:
431,324,35595,1,0,0:0:0:0:
443,315,35670,1,0,0:0:0:0:
458,310,35745,2,0,L|515:301,3,52.5,8|0|0|0,0:0|0:0|0:0|0:0,0:0:0:0:
419,229,36047,6,0,L|421:176,1,52.5,2|0,0:0|0:0,0:0:0:0:
429,231,36198,2,0,L|431:178,1,52.5
511,75,36348,2,0,L|508:127,1,52.5,8|0,0:0|0:0,0:0:0:0:
501,73,36499,2,0,L|498:125,1,52.5
416,44,36650,2,0,P|437:14|459:-3,3,52.5,2|0|0|0,0:0|0:0|0:0|0:0,0:0:0:0:
363,119,36951,2,0,B|348:139|348:139|327:156,3,52.5,8|0|0|0,0:0|0:0|0:0|0:0,0:0:0:0:
330,39,37253,2,0,P|313:18|292:4,3,52.5,2|0|0|0,0:0|0:0|0:0|0:0,0:0:0:0:
143,27,37554,5,8,0:0:0:0:
154,37,37630,1,0,0:0:0:0:
167,45,37705,1,0,0:0:0:0:
181,50,37780,1,0,0:0:0:0:
196,54,37856,1,2,0:0:0:0:
191,68,37931,1,0,0:0:0:0:
187,83,38007,1,0,0:0:0:0:
184,98,38082,1,0,0:0:0:0:
183,113,38157,2,0,P|179:139|182:175,3,52.5,8|0|0|0,0:0|0:0|0:0|0:0,0:0:0:0:
112,252,38459,6,0,L|99:192,1,52.5,2|0,0:0|0:0,0:0:0:0:
104,257,38610,2,0,L|91:197,1,52.5,2|0,0:0|0:0,0:0:0:0:
15,316,38760,2,0,L|28:376,1,52.5,12|0,0:2|0:0,0:0:0:0:
23,311,38911,2,0,L|36:371,1,52.5
144,356,39062,6,0,P|173:354|207:360,3,52.5,4|0|0|0,0:0|0:0|0:0|0:0,0:0:0:0:
245,275,39363,2,0,B|265:296|265:296|282:325,3,52.5,8|0|0|0,0:0|0:0|0:0|0:0,0:0:0:0:
368,337,39665,2,0,P|354:363|333:389,3,52.5,2|0|0|0,0:0|0:0|0:0|0:0,0:0:0:0:
476,307,39966,5,8,0:0:0:0:
472,310,40042,1,0,0:0:0:0:
468,314,40117,1,0,0:0:0:0:
465,317,40193,1,0,0:0:0:0:
461,320,40268,1,2,0:0:0:0:
453,306,40343,1,0,0:0:0:0:
451,289,40419,1,0,0:0:0:0:
454,273,40494,1,0,0:0:0:0:
461,258,40569,2,0,P|480:226|512:200,3,52.5,8|0|0|0,0:0|0:0|0:0|0:0,0:0:0:0:
489,123,40871,6,0,L|496:70,1,52.5,2|0,0:2|0:0,0:0:0:0:
480,125,41022,2,0,L|487:72,1,52.5,2|0,0:2|0:0,0:0:0:0:
398,18,41172,2,0,L|391:71,1,52.5,10|0,0:2|0:0,0:0:0:0:
407,16,41323,2,0,L|400:69,1,52.5,2|0,0:2|0:0,0:0:0:0:
329,198,41474,5,2,0:0:0:0:
323,188,41549,1,0,0:0:0:0:
319,178,41625,1,0,0:0:0:0:
316,167,41700,1,0,0:0:0:0:
314,156,41775,2,0,L|311:84,3,52.5,8|0|0|0,0:0|0:0|0:0|0:0,0:0:0:0:
264,13,42077,5,2,0:0:0:0:
257,18,42152,1,0,0:0:0:0:
250,22,42228,1,0,0:0:0:0:
242,24,42303,1,0,0:0:0:0:
234,27,42378,2,0,L|162:41,3,52.5,8|0|0|0,0:0|0:0|0:0|0:0,0:0:0:0:
78,126,42680,5,2,0:0:0:0:
83,124,42754,1,0,0:0:0:0:
88,123,42828,1,0,0:0:0:0:
93,122,42902,1,0,0:0:0:0:
98,121,42977,1,8,0:0:0:0:
132,104,43274,5,4,0:1:0:0:
154,226,43422,1,4,0:1:0:0:
154,234,43880,6,0,P|201:209|334:245,1,183.75,4|0,0:0|0:0,0:0:0:0:
410,318,44483,2,0,P|402:272|421:206,1,105,8|2,0:0|0:2,0:0:0:0:
467,141,44935,1,0,0:0:0:0:
470,134,45086,6,0,P|435:108|297:131,1,183.75,2|0,0:2|0:0,0:0:0:0:
231,198,45711,2,0,P|228:160|203:98,1,105,8|2,0:0|0:2,0:0:0:0:
141,0,46179,1,0,0:0:0:0:
140,7,46322,6,0,P|122:43|-6:59,1,183.75,2|0,0:2|0:0,0:0:0:0:
55,0,46898,2,0,P|77:55|56:112,1,105,8|2,0:0|0:2,0:0:0:0:
18,207,47352,1,0,0:0:0:0:
18,211,47504,6,0,P|58:188|191:217,1,183.75,2|0,0:2|0:0,0:0:0:0:
264,289,48110,2,0,P|263:243|373:171,1,183.75,12|0,0:0|0:0,0:0:0:0:
460,159,48698,2,0,B|474:138|501:119|501:119|452:67|403:87,1,157.5,4|0,0:2|0:0,0:0:0:0:
343,25,49313,2,0,P|372:4|447:2,1,105,10|2,0:2|0:2,0:0:0:0:
408,82,49774,1,0,0:0:0:0:
403,90,49924,6,0,P|351:111|254:27,1,183.75,2|0,0:2|0:0,0:0:0:0:
157,9,50524,2,0,P|174:66|157:119,1,105,8|2,0:0|0:2,0:0:0:0:
128,205,50974,1,0,0:0:0:0:
122,201,51131,6,0,P|92:175|96:59,1,157.5,2|0,0:2|0:0,0:0:0:0:
178,0,51725,2,0,P|180:45|232:85,1,105,8|2,0:0|0:2,0:0:0:0:
313,92,52177,1,0,0:0:0:0:
267,248,52328,6,0,L|262:158,1,84,12|0,0:0|0:0,0:0:0:0:
397,195,52629,2,0,L|402:105,1,84,12|0,0:0|0:0,0:0:0:0:
265,234,52931,1,12,0:2:0:0:
311,99,53081,1,8,0:2:0:0:
398,202,53232,1,12,0:2:0:0:
124,132,53519,5,0,0:0:0:0:
120,147,53594,1,0,0:0:0:0:
118,162,53669,1,0,0:0:0:0:
118,177,53745,1,0,0:0:0:0:
119,192,53820,2,0,L|125:244,3,52.5,8|0|0|0,0:0|0:0|0:0|0:0,0:0:0:0:
226,285,54122,2,0,L|268:253,3,52.5,2|0|0|0,0:0|0:0|0:0|0:0,0:0:0:0:
144,341,54423,5,8,0:0:0:0:
140,343,54498,1,0,0:0:0:0:
136,345,54574,1,0,0:0:0:0:
132,347,54649,1,0,0:0:0:0:
128,349,54725,1,2,0:0:0:0:
113,348,54800,1,0,0:0:0:0:
99,341,54875,1,0,0:0:0:0:
87,330,54951,1,0,0:0:0:0:
78,317,55026,2,0,L|54:270,3,52.5,8|0|0|0,0:0|0:0|0:0|0:0,0:0:0:0:
142,167,55328,6,0,L|136:219,3,52.5,2|0|0|0,0:0|0:0|0:0|0:0,0:0:0:0:
53,121,55629,2,0,L|58:68,3,52.5,8|0|0|0,0:0|0:0|0:0|0:0,0:0:0:0:
153,14,55931,6,0,P|159:40|158:66,3,52.5,2|0|0|0,0:0|0:0|0:0|0:0,0:0:0:0:
142,167,56232,2,0,B|159:179|159:179|189:190,3,52.5,8|0|0|0,0:0|0:0|0:0|0:0,0:0:0:0:
308,81,56534,2,0,P|284:93|263:109,3,52.5,2|0|0|0,0:0|0:0|0:0|0:0,0:0:0:0:
326,176,56835,5,8,0:0:0:0:
340,183,56910,1,0,0:0:0:0:
356,186,56986,1,0,0:0:0:0:
372,186,57061,1,0,0:0:0:0:
388,183,57137,1,2,0:0:0:0:
399,194,57212,1,0,0:0:0:0:
406,208,57287,1,0,0:0:0:0:
410,223,57363,1,0,0:0:0:0:
411,238,57438,2,0,L|407:290,3,52.5,8|0|0|0,0:0|0:0|0:0|0:0,0:0:0:0:
315,364,57740,6,0,L|320:311,3,52.5,2|0|0|0,0:0|0:0|0:0|0:0,0:0:0:0:
491,318,58041,2,0,L|485:370,3,52.5,12|0|0|0,0:0|0:0|0:0|0:0,0:0:0:0:
401,243,58343,6,0,P|418:224|438:208,3,52.5,4|0|0|0,0:2|0:0|0:0|0:0,0:0:0:0:
510,87,58644,2,0,B|510:112|510:112|503:138,3,52.5,8|0|0|0,0:0|0:0|0:0|0:0,0:0:0:0:
426,34,58946,2,0,P|443:15|463:0,3,52.5,2|0|0|0,0:0|0:0|0:0|0:0,0:0:0:0:
420,121,59247,5,8,0:0:0:0:
415,121,59323,1,0,0:0:0:0:
410,120,59398,1,0,0:0:0:0:
405,119,59473,1,0,0:0:0:0:
400,117,59549,1,2,0:0:0:0:
388,126,59624,1,0,0:0:0:0:
380,139,59699,1,0,0:0:0:0:
375,154,59775,1,0,0:0:0:0:
375,169,59850,2,0,L|380:221,3,52.5,8|0|0|0,0:0|0:0|0:0|0:0,0:0:0:0:
469,272,60152,2,0,L|482:221,3,52.5,2|0|0|0,0:0|0:0|0:0|0:0,0:0:0:0:
287,217,60453,6,0,L|273:267,3,52.5,8|0|0|0,0:0|0:0|0:0|0:0,0:0:0:0:
374,383,60755,2,0,P|384:358|385:332,3,52.5,2|0|0|0,0:0|0:0|0:0|0:0,0:0:0:0:
279,368,61056,2,0,B|258:354|258:354|231:350,3,52.5,8|0|0|0,0:0|0:0|0:0|0:0,0:0:0:0:
134,349,61358,2,0,P|135:323|145:299,3,52.5,2|0|0|0,0:0|0:0|0:0|0:0,0:0:0:0:
200,207,61646,5,10,0:2:0:0:
428,19,61959,5,0,0:0:0:0:
411,38,62034,1,0,0:0:0:0:
400,61,62110,1,0,0:0:0:0:
396,87,62185,1,0,0:0:0:0:
400,113,62261,2,0,P|414:146|432:168,3,52.5
503,195,62563,2,0,P|512:160|511:131,3,52.5
424,243,62865,2,0,P|414:277|415:306,3,52.5
400,384,63168,5,4,0:2:0:0:
386,379,63243,1,0,0:0:0:0:
371,376,63318,1,0,0:0:0:0:
356,374,63394,1,0,0:0:0:0:
340,374,63469,2,0,P|314:376|288:375,3,52.5,12|0|0|0,0:0|0:0|0:0|0:0,0:0:0:0:
217,313,63771,2,0,P|191:311|165:312,3,52.5,2|0|0|0,0:0|0:0|0:0|0:0,0:0:0:0:
80,371,64071,5,8,0:0:0:0:
83,366,64147,1,0,0:0:0:0:
86,361,64222,1,0,0:0:0:0:
89,356,64297,1,0,0:0:0:0:
92,351,64373,1,2,0:0:0:0:
87,336,64448,1,0,0:0:0:0:
78,323,64524,1,0,0:0:0:0:
66,314,64599,1,0,0:0:0:0:
51,309,64675,2,0,L|-1:300,3,52.5,8|0|0|0,0:0|0:0|0:0|0:0,0:0:0:0:
86,223,64977,6,0,L|84:170,3,52.5,2|0|0|0,0:0|0:0|0:0|0:0,0:0:0:0:
0,90,65278,2,0,L|3:142,3,52.5,8|0|0|0,0:0|0:0|0:0|0:0,0:0:0:0:
90,52,65580,2,0,P|76:29|57:11,3,52.5,2|0|0|0,0:0|0:0|0:0|0:0,0:0:0:0:
169,106,65881,2,0,B|161:130|161:130|160:157,3,52.5,8|0|0|0,0:0|0:0|0:0|0:0,0:0:0:0:
241,49,66183,2,0,P|258:28|280:14,3,52.5,2|0|0|0,0:0|0:0|0:0|0:0,0:0:0:0:
386,57,66483,5,8,0:0:0:0:
375,67,66559,1,0,0:0:0:0:
362,75,66634,1,0,0:0:0:0:
348,80,66709,1,0,0:0:0:0:
333,84,66785,1,2,0:0:0:0:
338,98,66860,1,0,0:0:0:0:
342,113,66934,1,0,0:0:0:0:
345,128,67008,1,0,0:0:0:0:
346,143,67083,2,0,P|349:168|348:195,3,52.5,8|0|0|0,0:0|0:0|0:0|0:0,0:0:0:0:
427,269,67380,6,0,L|438:217,3,52.5,2|0|0|0,0:0|0:0|0:0|0:0,0:0:0:0:
507,319,67677,2,0,L|495:370,3,52.5,12|0|0|0,0:0|0:0|0:0|0:0,0:0:0:0:
339,352,67974,6,0,P|313:350|287:354,3,52.5,4|0|0|0,0:2|0:0|0:0|0:0,0:0:0:0:
240,272,68275,2,0,B|220:293|220:293|208:313,3,52.5,8|0|0|0,0:0|0:0|0:0|0:0,0:0:0:0:
117,334,68577,2,0,P|129:357|144:378,3,52.5,2|0|0|0,0:0|0:0|0:0|0:0,0:0:0:0:
15,308,68878,5,8,0:0:0:0:
19,311,68953,1,0,0:0:0:0:
23,315,69029,1,0,0:0:0:0:
26,318,69104,1,0,0:0:0:0:
30,321,69180,1,2,0:0:0:0:
38,307,69255,1,0,0:0:0:0:
40,290,69330,1,0,0:0:0:0:
37,274,69406,1,0,0:0:0:0:
29,258,69481,2,0,P|17:235|0:216,3,52.5,8|0|0|0,0:0|0:0|0:0|0:0,0:0:0:0:
12,123,69783,6,0,L|5:70,3,52.5,2|0|0|0,0:0|0:0|0:0|0:0,0:0:0:0:
90,6,70084,2,0,L|97:59,3,52.5,8|0|0|0,0:0|0:0|0:0|0:0,0:0:0:0:
169,198,70386,5,2,0:0:0:0:
175,188,70461,1,0,0:0:0:0:
179,178,70536,1,0,0:0:0:0:
182,167,70612,1,0,0:0:0:0:
184,156,70687,2,0,L|186:103,3,52.5,8|0|0|0,0:0|0:0|0:0|0:0,0:0:0:0:
190,7,70989,5,2,0:0:0:0:
197,12,71064,1,0,0:0:0:0:
204,16,71139,1,0,0:0:0:0:
212,18,71215,1,0,0:0:0:0:
220,21,71290,2,0,L|271:31,3,52.5,10|0|0|0,0:0|0:0|0:0|0:0,0:0:0:0:
359,12,71592,5,2,0:2:0:0:
365,121,71761,1,8,0:0:0:0:
386,136,71836,1,8,0:0:0:0:
410,146,71911,1,8,0:0:0:0:
435,150,71986,1,8,0:0:0:0:
461,149,72061,1,8,0:0:0:0:
486,144,72136,1,8,0:0:0:0:
510,135,72211,5,0,0:0:0:0:
506,144,72287,1,0,0:0:0:0:
503,154,72363,1,0,0:0:0:0:
500,164,72439,1,0,0:0:0:0:
498,174,72515,2,0,P|492:212|495:234,3,52.5
454,320,72838,6,0,P|395:287|264:389,1,251.999992309571,4|0,0:1|0:0,0:0:0:0:
264,379,73270,2,0,P|293:318|235:208,1,188.999994232178,4|0,0:1|0:0,0:0:0:0:
246,204,73612,2,0,B|227:190|196:182|196:182|267:195|356:180,1,188.999994232178,4|0,0:1|0:0,0:0:0:0:
339,198,73916,1,4,0:1:0:0:
339,198,75239,6,0,B|311:171|266:157|266:157|348:180|411:123|511:175,1,314.999990386963,4|0,0:1|0:0,0:0:0:0:
493,173,75700,2,0,P|443:214|460:345,1,188.999994232178,4|0,0:1|0:0,0:0:0:0:
450,336,76008,2,0,P|393:302|268:338,1,188.999994232178,4|0,0:1|0:0,0:0:0:0:
275,334,76315,1,4,0:1:0:0:
275,334,77673,6,0,B|224:316|170:364|80:344|80:344|161:337|206:296,1,314.999990386963,4|0,0:1|0:0,0:0:0:0:
193,302,78120,2,0,P|115:251|21:301,1,188.999994232178,4|0,0:1|0:0,0:0:0:0:
28,289,78419,2,0,P|61:220|30:109,1,188.999994232178,4|0,0:1|0:0,0:0:0:0:
38,109,78752,1,4,0:1:0:0:
38,109,80067,6,0,P|108:91|249:256,1,314.999990386963,4|0,0:1|0:0,0:0:0:0:
255,257,80510,2,0,P|256:184|360:120,1,188.999994232178,4|0,0:1|0:0,0:0:0:0:
346,114,80805,2,0,B|380:70|360:26|360:26|297:14|268:51,1,188.999994232178,4|0,0:1|0:0,0:0:0:0:
275,52,81101,1,4,0:1:0:0:
477,239,81429,5,0,0:0:0:0:
469,331,81577,1,0,0:0:0:0:
364,312,81726,2,0,L|354:191,1,105,8|0,0:0|0:0,0:0:0:0:
440,139,82023,1,0,0:0:0:0:
443,147,82097,1,0,0:0:0:0:
446,154,82171,1,0,0:0:0:0:
346,114,82320,1,0,0:0:0:0:
422,39,82468,1,4,0:1:0:0:
256,192,92134,5,4,0:0:0:0:
256,192,92209,12,0,93264,0:0:0:0:
256,192,93340,5,4,0:0:0:0:
256,192,93415,12,0,94470,0:0:0:0:
256,192,94546,5,4,0:0:0:0:
256,192,94621,12,0,95676,0:0:0:0:
256,192,95752,5,4,0:0:0:0:
257,200,96349,2,0,L|333:191,2,70
236,284,96647,2,0,L|160:293,2,70
256,192,96946,5,4,0:0:0:0:
256,192,97021,12,0,98076,0:0:0:0:
256,192,98152,5,4,0:0:0:0:
256,192,98227,12,0,99282,0:0:0:0:
256,192,99358,5,4,0:0:0:0:
256,192,99433,12,0,100488,0:0:0:0:
256,192,100564,5,4,0:0:0:0:
256,192,100639,12,0,101694,0:0:0:0:
256,192,101770,5,4,0:2:0:0:
227,52,101920,1,8,0:0:0:0:
224,44,102071,1,8,0:0:0:0:
331,147,102222,6,0,P|352:204|323:297,1,136.499993751526,4|0,0:0|0:0,0:0:0:0:
245,367,102523,1,0,0:0:0:0:
234,372,102674,1,0,0:0:0:0:
333,285,102825,6,0,P|405:283|480:339,1,136.499993751526,4|0,0:1|0:0,0:0:0:0:
441,205,103126,1,0,0:0:0:0:
436,194,103277,1,0,0:0:0:0:
326,282,103428,6,0,P|300:227|323:129,1,136.499993751526,4|0,0:1|0:0,0:0:0:0:
392,42,103729,1,0,0:0:0:0:
397,36,103880,1,0,0:0:0:0:
224,105,104182,5,4,0:2:0:0:
224,105,104486,1,0,0:0:0:0:
224,105,104791,1,0,0:0:0:0:
224,105,105095,1,0,0:0:0:0:
224,105,105388,5,8,0:0:0:0:
223,110,105463,1,8,0:0:0:0:
222,115,105538,1,8,0:0:0:0:
221,120,105614,1,8,0:0:0:0:
220,125,105689,1,8,0:0:0:0:
316,105,105991,5,8,0:0:0:0:
317,100,106066,1,8,0:0:0:0:
318,95,106141,1,8,0:0:0:0:
319,90,106217,1,8,0:0:0:0:
320,85,106292,1,8,0:0:0:0:
320,85,106618,5,4,0:0:0:0:
333,77,106693,1,0,0:0:0:0:
348,74,106768,1,0,0:0:0:0:
363,75,106843,1,0,0:0:0:0:
378,78,106918,2,0,L|436:105,1,52.5,8|0,0:0|0:0,0:0:0:0:
381,89,107068,2,0,L|439:116,1,52.5
512,217,107218,6,0,P|491:203|455:192,3,52.5,2|0|0|0,0:0|0:0|0:0|0:0,0:0:0:0:
457,287,107518,2,0,P|434:298|406:323,3,52.5,8|0|0|0,0:0|0:0|0:0|0:0,0:0:0:0:
328,377,107818,6,0,L|330:314,3,52.5,2|0|0|0,0:0|0:0|0:0|0:0,0:0:0:0:
367,240,108118,2,0,L|306:237,1,52.5,8|0,0:0|0:0,0:0:0:0:
355,232,108268,2,0,L|294:229,1,52.5
215,279,108418,1,2,0:0:0:0:
206,266,108493,1,0,0:0:0:0:
200,251,108568,1,0,0:0:0:0:
197,235,108643,1,0,0:0:0:0:
197,219,108718,2,0,P|203:187|220:155,3,52.5,8|0|0|0,0:0|0:0|0:0|0:0,0:0:0:0:
254,35,109018,6,0,P|229:13|199:3,3,52.5,2|0|0|0,0:0|0:0|0:0|0:0,0:0:0:0:
92,52,109318,2,0,L|155:59,1,52.5,8|0,0:0|0:0,0:0:0:0:
95,61,109468,2,0,L|158:68,1,52.5
218,151,109618,2,0,L|166:145,3,52.5,2|0|0|0,0:0|0:0|0:0|0:0,0:0:0:0:
14,171,109918,5,8,0:0:0:0:
29,172,109993,1,0,0:0:0:0:
43,178,110068,1,0,0:0:0:0:
55,187,110143,1,0,0:0:0:0:
66,198,110218,6,0,L|106:241,1,52.5,2|0,0:0|0:0,0:0:0:0:
201,183,110368,2,0,L|161:140,1,52.5
63,207,110518,2,0,L|103:250,1,52.5,8|0,0:0|0:0,0:0:0:0:
191,188,110668,2,0,L|151:145,1,52.5
198,273,110818,2,0,P|231:274|264:264,3,52.5,2|0|0|0,0:0|0:0|0:0|0:0,0:0:0:0:
293,194,111118,2,0,P|310:165|318:132,3,52.5,12|0|0|0,0:0|0:0|0:0|0:0,0:0:0:0:
354,11,111418,5,4,0:2:0:0:
368,17,111493,1,0,0:0:0:0:
382,21,111568,1,0,0:0:0:0:
397,24,111643,1,0,0:0:0:0:
412,26,111718,6,0,P|442:25|472:18,1,52.5,8|0,0:0|0:0,0:0:0:0:
509,109,111868,2,0,P|479:110|449:117,1,52.5
391,185,112018,2,0,P|400:213|416:240,3,52.5,2|0|0|0,0:0|0:0|0:0|0:0,0:0:0:0:
491,283,112318,2,0,P|505:256|515:227,3,52.5,8|0|0|0,0:0|0:0|0:0|0:0,0:0:0:0:
417,334,112618,6,0,L|365:339,3,52.5,2|0|0|0,0:0|0:0|0:0|0:0,0:0:0:0:
263,341,112918,2,0,L|276:282,1,52.5,8|0,0:0|0:0,0:0:0:0:
271,345,113068,2,0,L|284:286,1,52.5
274,210,113218,1,2,0:0:0:0:
274,194,113293,1,0,0:0:0:0:
271,178,113368,1,0,0:0:0:0:
266,162,113443,1,0,0:0:0:0:
258,148,113518,2,0,P|239:120|229:86,3,52.5,8|0|0|0,0:0|0:0|0:0|0:0,0:0:0:0:
295,1,113818,6,0,L|317:54,3,52.5,2|0|0|0,0:0|0:0|0:0|0:0,0:0:0:0:
399,121,114118,2,0,L|399:60,1,52.5,8|0,0:0|0:0,0:0:0:0:
407,115,114268,2,0,L|407:54,1,52.5
512,7,114418,2,0,L|493:65,1,52.5,2|0,0:0|0:0,0:0:0:0:
501,9,114568,2,0,L|482:67,1,52.5
456,220,114718,1,8,0:0:0:0:
456,227,115026,5,4,0:0:0:0:
461,319,115175,1,0,0:0:0:0:
453,315,115249,1,0,0:0:0:0:
445,312,115324,1,0,0:0:0:0:
436,310,115398,1,0,0:0:0:0:
427,311,115473,1,0,0:0:0:0:
418,313,115547,1,0,0:0:0:0:
409,317,115622,2,0,P|380:317|346:325,3,52.5
272,368,115920,2,0,P|243:368|209:360,3,52.5
154,307,116218,5,4,0:2:0:0:
141,315,116293,1,0,0:0:0:0:
126,318,116369,1,0,0:0:0:0:
111,317,116445,1,0,0:0:0:0:
96,314,116521,2,0,L|38:287,1,52.5,8|0,0:0|0:0,0:0:0:0:
93,303,116672,2,0,L|35:276,1,52.5
0,166,116824,6,0,P|21:180|57:191,3,52.5,2|0|0|0,0:0|0:0|0:0|0:0,0:0:0:0:
58,97,117127,2,0,P|81:86|109:61,3,52.5,8|0|0|0,0:0|0:0|0:0|0:0,0:0:0:0:
191,12,117430,6,0,L|189:75,3,52.5,2|0|0|0,0:0|0:0|0:0|0:0,0:0:0:0:
155,158,117733,2,0,L|216:161,1,52.5,8|0,0:0|0:0,0:0:0:0:
163,166,117884,2,0,L|224:169,1,52.5
300,121,118036,1,2,0:0:0:0:
309,134,118111,1,0,0:0:0:0:
315,149,118187,1,0,0:0:0:0:
318,165,118263,1,0,0:0:0:0:
318,181,118339,2,0,P|312:213|295:245,3,52.5,8|0|0|0,0:0|0:0|0:0|0:0,0:0:0:0:
258,349,118642,6,0,P|283:371|313:381,3,52.5,2|0|0|0,0:0|0:0|0:0|0:0,0:0:0:0:
431,343,118945,2,0,L|368:336,1,52.5,8|0,0:0|0:0,0:0:0:0:
428,334,119096,2,0,L|365:327,1,52.5
303,231,119248,2,0,L|355:237,3,52.5,2|0|0|0,0:0|0:0|0:0|0:0,0:0:0:0:
493,214,119551,5,8,0:0:0:0:
478,213,119627,1,0,0:0:0:0:
464,207,119702,1,0,0:0:0:0:
452,198,119778,1,0,0:0:0:0:
442,188,119854,6,0,L|436:129,1,52.5,2|0,0:0|0:0,0:0:0:0:
333,91,120005,2,0,L|338:149,1,52.5
449,183,120157,2,0,L|443:124,1,52.5,8|0,0:0|0:0,0:0:0:0:
343,94,120308,2,0,L|348:152,1,52.5
355,237,120460,2,0,P|322:238|289:228,3,52.5,2|0|0|0,0:0|0:0|0:0|0:0,0:0:0:0:
215,176,120763,2,0,P|198:205|190:238,3,52.5,12|0|0|0,0:0|0:0|0:0|0:0,0:0:0:0:
156,349,121066,5,4,0:2:0:0:
142,343,121141,1,0,0:0:0:0:
128,339,121216,1,0,0:0:0:0:
113,336,121291,1,0,0:0:0:0:
98,334,121366,6,0,P|68:335|38:342,1,52.5,8|0,0:0|0:0,0:0:0:0:
0,255,121516,2,0,P|30:254|60:247,1,52.5
128,192,121666,2,0,P|119:164|103:137,3,52.5,2|0|0|0,0:0|0:0|0:0|0:0,0:0:0:0:
28,102,121966,2,0,P|14:129|4:158,3,52.5,8|0|0|0,0:0|0:0|0:0|0:0,0:0:0:0:
102,49,122266,6,0,L|154:44,3,52.5,2|0|0|0,0:0|0:0|0:0|0:0,0:0:0:0:
258,36,122566,2,0,L|245:95,1,52.5,8|0,0:0|0:0,0:0:0:0:
249,35,122716,2,0,L|236:94,1,52.5
208,170,122866,1,2,0:0:0:0:
208,186,122941,1,0,0:0:0:0:
211,202,123016,1,0,0:0:0:0:
216,218,123091,1,0,0:0:0:0:
224,232,123166,2,0,P|243:260|253:294,3,52.5,8|0|0|0,0:0|0:0|0:0|0:0,0:0:0:0:
203,384,123466,6,0,L|181:331,3,52.5,2|0|0|0,0:0|0:0|0:0|0:0,0:0:0:0:
103,272,123766,2,0,L|103:333,1,52.5,8|0,0:0|0:0,0:0:0:0:
95,276,123916,2,0,L|95:337,1,52.5
0,379,124066,2,0,L|0:318,1,52.5,2|0,0:0|0:0,0:0:0:0:
8,373,124216,2,0,L|8:312,1,52.5
5,177,124366,1,10,0:0:0:0:
17,167,124666,5,0,0:0:0:0:
0,68,124819,1,8,0:0:0:0:
24,58,124895,1,8,0:0:0:0:
50,55,124972,1,8,0:0:0:0:
76,57,125049,1,8,0:0:0:0:
101,65,125126,1,8,0:0:0:0:
124,78,125203,1,8,0:0:0:0:
143,96,125281,2,0,P|162:120|191:134,3,52.5
266,79,125589,2,0,P|247:55|218:41,3,52.5
251,204,125896,6,0,B|286:224|294:280|294:280|308:146|398:152|389:62,1,314.999990386963,4|0,0:0|0:0,0:0:0:0:
394,76,126341,2,0,P|435:115|396:230,1,188.999994232178,4|0,0:0|0:0,0:0:0:0:
396,234,126674,2,0,B|414:256|453:257|453:257|445:309|423:348|351:354,1,188.999994232178,4|0,0:0|0:0,0:0:0:0:
295,286,126974,1,4,0:0:0:0:
295,286,128310,6,0,P|335:245|302:57,1,262.5,4|0,0:0|0:0,0:0:0:0:
301,53,128773,2,0,B|280:37|252:28|252:28|321:45|408:29,1,188.999994232178,4|0,0:0|0:0,0:0:0:0:
391,33,129083,2,0,P|426:95|431:231,1,188.999994232178,4|0,0:0|0:0,0:0:0:0:
423,289,129392,1,4,0:0:0:0:
423,289,130700,6,0,B|358:299|295:273|295:273|267:345|163:358,1,262.5,4|0,0:0|0:0,0:0:0:0:
189,351,131161,2,0,P|221:281|171:168,1,188.999994232178,4|0,0:0|0:0,0:0:0:0:
180,173,131469,2,0,B|169:158|145:142|145:142|217:154|292:138,1,188.999994232178,4|0,0:0|0:0,0:0:0:0:
368,121,131769,1,4,0:0:0:0:
368,121,133130,6,0,P|313:152|132:19,1,314.999990386963,4|0,0:0|0:0,0:0:0:0:
129,19,133580,2,0,B|141:83|111:157|111:157|87:135|91:99,1,188.999994232178,4|0,0:0|0:0,0:0:0:0:
87,108,133880,2,0,B|71:93|65:65|65:65|69:146|45:226,1,188.999994232178,4|0,0:0|0:0,0:0:0:0:
36,281,134180,1,4,0:0:0:0:
231,252,134500,5,0,0:0:0:0:
133,268,134642,1,0,0:0:0:0:
158,365,134785,2,0,L|279:375,1,105
331,289,135071,1,0,0:0:0:0:
323,286,135142,1,0,0:0:0:0:
316,282,135214,1,0,0:0:0:0:
356,383,135364,1,0,0:0:0:0:
431,307,135530,1,4,0:1:0:0:
294,212,137495,6,0,B|232:202|159:217|159:217|195:204|215:185,1,188.999994232178,4|0,0:0|0:0,0:0:0:0:
256,124,137813,1,4,0:0:0:0:
266,131,140359,6,0,B|301:126|335:111|335:111|382:129|430:126|430:126|398:158|387:199|387:199|366:189|342:189,1,294,4|0,0:0|0:0,0:0:0:0:
343,192,142774,1,4,0:1:0:0:
479,200,142910,1,4,0:1:0:0:
479,200,144590,5,4,0:1:0:0:
338,189,144756,1,4,0:1:0:0:
371,324,145199,6,0,B|315:283|315:283|174:309,1,188.999994232178,4|0,0:0|0:0,0:0:0:0:
83,339,145799,2,0,B|108:312|108:312|139:207,1,125.999996154785,8|0,0:0|0:0,0:0:0:0:
134,219,146249,1,0,0:0:0:0:
62,100,146399,6,0,B|115:142|115:142|240:120,1,188.999994232178,2|0,0:2|0:0,0:0:0:0:
308,25,146999,2,0,B|303:61|303:61|330:158,1,125.999996154785,8|0,0:0|0:0,0:0:0:0:
330,157,147449,1,0,0:0:0:0:
406,251,147599,6,0,B|444:195|444:195|407:66,1,188.999994232178,2|0,0:2|0:0,0:0:0:0:
495,9,148199,2,0,B|493:61|493:61|514:132,1,125.999996154785,8|0,0:0|0:0,0:0:0:0:
512,141,148649,1,0,0:0:0:0:
406,251,148799,6,0,B|353:208|353:208|228:224,1,188.999994232178,2|0,0:2|0:0,0:0:0:0:
120,243,149399,2,0,B|147:199|147:199|151:103,1,125.999996154785,8|2,0:0|0:0,0:0:0:0:
149,118,149774,1,2,0:0:0:0:
148,111,149849,1,2,0:0:0:0:
148,104,149924,1,2,0:0:0:0:
148,97,149999,6,0,B|195:58|195:58|336:76,1,188.999994232178,4|0,0:0|0:0,0:0:0:0:
394,141,150599,2,0,B|418:95|418:95|419:16,1,125.999996154785,8|0,0:0|0:0,0:0:0:0:
418,14,151049,1,0,0:0:0:0:
507,108,151199,6,0,B|475:170|475:170|500:306,1,188.999994232178,2|0,0:2|0:0,0:0:0:0:
507,384,151799,2,0,B|469:364|469:364|384:378,1,125.999996154785,8|0,0:0|0:0,0:0:0:0:
385,382,152249,1,4,0:2:0:0:
445,280,152399,1,2,0:2:0:0:
382,375,152549,5,0,0:0:0:0:
363,230,152699,1,8,0:0:0:0:
447,286,152999,6,0,L|441:180,1,105,2|8,0:2|0:0,0:0:0:0:
364,242,153306,2,0,L|373:372,1,125.999996154785,2|8,0:2|0:0,0:0:0:0:
447,183,153614,5,12,0:0:0:0:
446,290,153767,1,0,0:0:0:0:
356,222,153921,1,12,0:0:0:0:
450,298,154075,1,0,0:0:0:0:
368,126,154229,1,12,0:2:0:0:
455,306,154383,1,0,0:0:0:0:
450,88,154537,1,12,0:0:0:0:
124,252,154816,5,4,0:0:0:0:
120,237,154891,1,0,0:0:0:0:
118,222,154966,1,0,0:0:0:0:
118,207,155042,1,0,0:0:0:0:
119,192,155117,2,0,L|125:140,3,52.5,8|0|0|0,0:0|0:0|0:0|0:0,0:0:0:0:
226,99,155419,2,0,L|268:131,3,52.5,2|0|0|0,0:0|0:0|0:0|0:0,0:0:0:0:
144,43,155720,5,8,0:0:0:0:
140,41,155795,1,0,0:0:0:0:
136,39,155871,1,0,0:0:0:0:
132,37,155946,1,0,0:0:0:0:
128,35,156022,5,2,0:0:0:0:
113,36,156097,1,0,0:0:0:0:
99,43,156172,1,0,0:0:0:0:
87,54,156248,1,0,0:0:0:0:
78,67,156323,2,0,L|54:114,3,52.5,8|0|0|0,0:0|0:0|0:0|0:0,0:0:0:0:
140,207,156625,6,0,L|134:155,3,52.5,2|0|0|0,0:0|0:0|0:0|0:0,0:0:0:0:
53,263,156926,2,0,L|58:316,3,52.5,8|0|0|0,0:0|0:0|0:0|0:0,0:0:0:0:
153,370,157228,6,0,P|159:344|158:318,3,52.5,2|0|0|0,0:0|0:0|0:0|0:0,0:0:0:0:
140,207,157529,2,0,B|157:195|157:195|187:184,3,52.5,8|0|0|0,0:0|0:0|0:0|0:0,0:0:0:0:
291,285,157831,2,0,P|267:273|246:257,3,52.5,2|0|0|0,0:0|0:0|0:0|0:0,0:0:0:0:
205,158,158132,5,8,0:0:0:0:
219,151,158207,1,0,0:0:0:0:
235,148,158283,1,0,0:0:0:0:
251,148,158358,1,0,0:0:0:0:
267,151,158434,1,2,0:0:0:0:
278,140,158509,1,0,0:0:0:0:
285,126,158584,1,0,0:0:0:0:
289,111,158660,1,0,0:0:0:0:
290,96,158735,2,0,L|286:44,3,52.5,8|0|0|0,0:0|0:0|0:0|0:0,0:0:0:0:
381,1,159037,6,0,L|386:54,3,52.5,2|0|0|0,0:0|0:0|0:0|0:0,0:0:0:0:
485,111,159349,2,0,L|479:59,3,52.5,12|0|0|0,0:0|0:0|0:0|0:0,0:0:0:0:
397,169,159650,6,0,P|414:188|434:204,3,52.5,4|0|0|0,0:2|0:0|0:0|0:0,0:0:0:0:
512,316,159952,2,0,B|512:291|512:291|505:265,3,52.5,8|0|0|0,0:0|0:0|0:0|0:0,0:0:0:0:
426,350,160253,2,0,P|443:369|463:384,3,52.5,2|0|0|0,0:0|0:0|0:0|0:0,0:0:0:0:
386,268,160555,5,8,0:0:0:0:
381,268,160630,1,0,0:0:0:0:
376,269,160705,1,0,0:0:0:0:
371,270,160781,1,0,0:0:0:0:
366,272,160856,1,2,0:0:0:0:
354,263,160931,1,0,0:0:0:0:
346,250,161007,1,0,0:0:0:0:
341,235,161082,1,0,0:0:0:0:
341,220,161158,2,0,L|346:168,3,52.5,8|0|0|0,0:0|0:0|0:0|0:0,0:0:0:0:
435,117,161459,6,0,L|448:168,3,52.5,2|0|0|0,0:0|0:0|0:0|0:0,0:0:0:0:
259,144,161761,2,0,L|245:94,3,52.5,8|0|0|0,0:0|0:0|0:0|0:0,0:0:0:0:
340,32,162062,2,0,P|350:57|351:83,3,52.5,2|0|0|0,0:0|0:0|0:0|0:0,0:0:0:0:
259,144,162364,2,0,B|286:148|286:148|307:162,3,52.5,8|0|0|0,0:0|0:0|0:0|0:0,0:0:0:0:
165,136,162661,2,0,P|166:162|176:186,3,52.5,2|0|0|0,0:0|0:0|0:0|0:0,0:0:0:0:
253,248,162958,5,12,0:0:0:0:
427,343,163237,1,0,0:0:0:0:
426,332,163313,1,0,0:0:0:0:
426,321,163389,1,0,0:0:0:0:
427,310,163465,1,0,0:0:0:0:
429,299,163541,2,0,P|441:270|443:236,3,52.5
470,151,163845,2,0,P|466:125|455:101,7,52.5
399,12,164454,5,4,0:0:0:0:
385,17,164530,1,0,0:0:0:0:
370,20,164606,1,0,0:0:0:0:
355,22,164682,1,0,0:0:0:0:
339,22,164758,2,0,P|313:20|287:21,3,52.5,8|0|0|0,0:0|0:0|0:0|0:0,0:0:0:0:
217,71,165062,2,0,P|191:73|165:72,3,52.5,2|0|0|0,0:0|0:0|0:0|0:0,0:0:0:0:
83,12,165366,5,8,0:0:0:0:
86,17,165442,1,0,0:0:0:0:
89,22,165518,1,0,0:0:0:0:
92,27,165595,1,0,0:0:0:0:
95,32,165671,1,2,0:0:0:0:
90,47,165747,1,0,0:0:0:0:
81,60,165823,1,0,0:0:0:0:
69,69,165899,1,0,0:0:0:0:
54,74,165975,2,0,L|2:83,3,52.5,8|0|0|0,0:0|0:0|0:0|0:0,0:0:0:0:
87,164,166279,6,0,L|85:217,3,52.5,2|0|0|0,0:0|0:0|0:0|0:0,0:0:0:0:
0,298,166583,2,0,L|3:246,3,52.5,8|0|0|0,0:0|0:0|0:0|0:0,0:0:0:0:
102,342,166884,2,0,P|88:365|69:383,3,52.5,2|0|0|0,0:0|0:0|0:0|0:0,0:0:0:0:
176,273,167186,2,0,B|168:249|168:249|167:222,3,52.5,8|0|0|0,0:0|0:0|0:0|0:0,0:0:0:0:
233,348,167487,2,0,P|250:369|272:383,3,52.5,2|0|0|0,0:0|0:0|0:0|0:0,0:0:0:0:
390,345,167789,5,8,0:0:0:0:
379,335,167864,1,0,0:0:0:0:
366,327,167939,1,0,0:0:0:0:
352,322,168015,1,0,0:0:0:0:
337,318,168090,1,2,0:0:0:0:
342,304,168165,1,0,0:0:0:0:
346,289,168241,1,0,0:0:0:0:
349,274,168316,1,0,0:0:0:0:
350,259,168392,2,0,P|353:234|352:207,3,52.5,8|0|0|0,0:0|0:0|0:0|0:0,0:0:0:0:
430,129,168693,6,0,L|441:181,3,52.5,2|0|0|0,0:0|0:0|0:0|0:0,0:0:0:0:
497,68,168995,2,0,L|485:17,3,52.5,12|0|0|0,0:2|0:0|0:0|0:0,0:0:0:0:
367,29,169296,6,0,P|342:30|315:27,3,52.5,6|0|0|0,0:0|0:0|0:0|0:0,0:0:0:0:
267,109,169598,2,0,B|247:88|247:88|235:68,3,52.5,8|0|0|0,0:0|0:0|0:0|0:0,0:0:0:0:
144,47,169899,2,0,P|156:24|171:3,3,52.5,2|0|0|0,0:0|0:0|0:0|0:0,0:0:0:0:
36,77,170201,5,8,0:0:0:0:
40,74,170276,1,0,0:0:0:0:
44,70,170351,1,0,0:0:0:0:
47,67,170427,1,0,0:0:0:0:
51,64,170502,1,2,0:0:0:0:
59,78,170577,1,0,0:0:0:0:
61,95,170653,1,0,0:0:0:0:
58,111,170728,1,0,0:0:0:0:
50,127,170804,2,0,P|38:150|21:169,3,52.5,8|0|0|0,0:0|0:0|0:0|0:0,0:0:0:0:
15,257,171105,6,0,L|8:310,3,52.5,2|0|0|0,0:0|0:0|0:0|0:0,0:0:0:0:
98,378,171407,2,0,L|105:325,3,52.5,8|0|0|0,0:0|0:0|0:0|0:0,0:0:0:0:
177,198,171708,5,2,0:0:0:0:
183,208,171782,1,0,0:0:0:0:
187,218,171857,1,0,0:0:0:0:
190,229,171931,1,0,0:0:0:0:
192,240,172006,2,0,L|195:292,3,52.5,8|0|0|0,0:0|0:0|0:0|0:0,0:0:0:0:
207,384,172305,5,2,0:0:0:0:
214,379,172379,1,0,0:0:0:0:
221,375,172454,1,0,0:0:0:0:
229,373,172528,1,0,0:0:0:0:
237,370,172603,2,0,L|288:360,3,52.5,8|0|0|0,0:0|0:0|0:0|0:0,0:0:0:0:
402,324,172912,5,4,0:0:0:0:
328,252,173063,1,0,0:0:0:0:
319,246,173139,1,0,0:0:0:0:
310,240,173215,5,0,0:0:0:0:
427,223,173366,1,0,0:0:0:0:
492,124,173518,2,0,L|499:12,1,105
364,61,173821,2,0,L|357:173,1,105
284,334,174124,6,0,B|240:306|240:306|207:211,1,136.499993751526,4|0,0:2|0:0,0:0:0:0:
122,130,174730,2,0,L|119:275,1,136.499993751526,10|0,0:2|0:0,0:0:0:0:
182,384,175184,1,0,0:0:0:0:
53,367,175336,6,0,B|44:324|44:324|-2:238,1,136.499993751526,2|0,0:2|0:0,0:0:0:0:
51,156,175942,2,0,L|125:292,1,136.499993751526,10|0,0:2|0:0,0:0:0:0:
183,384,176396,1,0,0:0:0:0:
311,308,176548,6,0,B|362:305|362:305|455:352,1,136.499993751526,2|0,0:2|0:0,0:0:0:0:
512,384,177002,1,0,0:0:0:0:
512,384,177147,1,0,0:0:0:0:
491,269,177547,6,0,P|463:219|508:11,1,267.750005106926,4|0,0:0|0:0,0:0:0:0:
506,12,178057,1,0,0:0:0:0:
380,28,178312,2,0,L|377:84,1,35,8|8,0:0|0:0,0:0:0:0:
370,157,178627,1,0,0:0:0:0:
351,301,178943,2,0,P|311:257|139:270,1,236.250009012223,4|0,0:2|0:0,0:0:0:0:
112,379,179575,6,0,B|111:327|111:327|81:240,1,136.499993751526,10|0,0:2|0:0,0:0:0:0:
6,163,180175,2,0,L|-1:310,1,136.499993751526,2|0,0:2|0:0,0:0:0:0:
114,159,180775,2,0,B|91:105|91:105|17:49,1,136.499993751526,10|0,0:2|0:0,0:0:0:0:
21,52,181225,1,0,0:0:0:0:
151,24,181375,6,0,P|201:45|305:14,1,157.500006008148,4|0,0:0|0:0,0:0:0:0:
295,131,181975,2,0,P|347:116|407:27,1,157.500006008148,4|0,0:0|0:0,0:0:0:0:
408,26,182575,1,2,0:2:0:0:
449,120,182875,1,0,0:0:0:0:
407,18,183025,1,0,0:0:0:0:
407,204,183175,6,0,B|394:262|394:262|429:371,1,157.500006008148,4|0,0:2|0:0,0:0:0:0:
492,301,183629,1,0,0:0:0:0:
333,354,183781,2,0,P|256:368|183:333,1,157.500006008148,4|0,0:0|0:0,0:0:0:0:
120,251,184387,6,0,B|102:298|102:298|104:390,1,136.499993751526,10|0,0:2|0:0,0:0:0:0:
0,318,184993,2,0,L|62:180,1,136.499993751526,2|0,0:2|0:0,0:0:0:0:
144,142,185599,2,0,B|106:102|106:102|0:82,1,136.499993751526,10|0,0:2|0:0,0:0:0:0:
19,87,186053,1,0,0:0:0:0:
108,23,186199,1,8,0:0:0:0:
116,20,186352,6,0,P|180:55|234:156,1,157.500006008148,4|0,0:0|0:0,0:0:0:0:
232,135,186811,2,0,P|255:83|437:52,1,236.250009012223,4|0,0:0|0:0,0:0:0:0:
424,48,187411,1,2,0:0:0:0:
505,180,187711,1,0,0:0:0:0:
506,169,187789,1,0,0:0:0:0:
507,156,187868,6,0,L|513:44,1,105,0|8,0:0|0:0,0:0:0:0:
417,138,188305,1,2,0:0:0:0:
411,226,188615,6,0,P|354:205|285:54,1,236.250009012223,4|0,0:0|0:0,0:0:0:0:
296,30,189215,2,0,P|317:82|228:226,1,236.250009012223,4|0,0:0|0:0,0:0:0:0:
226,228,189815,1,2,0:0:0:0:
227,104,190115,2,0,L|155:177,1,78.7500030040742,2|0,0:0|0:0,0:0:0:0:
89,214,190415,6,0,L|10:212,1,68.2499968757631,8|0,0:0|0:0,0:0:0:0:
87,123,190862,1,0,0:0:0:0:
87,123,191028,2,0,L|185:15,1,136.499993751526,2|0,0:0|0:0,0:0:0:0:
296,30,191484,6,0,L|244:87,1,68.2499968757631,0|8,0:0|0:0,0:0:0:0:
200,159,191925,2,0,L|123:189,1,68.2499968757631,2|0,0:0|0:0,0:0:0:0:
21,243,192226,2,0,P|61:241|141:317,1,136.499993751526,2|0,0:0|0:0,0:0:0:0:
169,375,192810,6,0,P|202:343|195:157,1,236.250009012223,12|0,0:2|0:0,0:0:0:0:
200,159,193428,2,0,P|219:214|381:257,1,236.250009012223,4|0,0:0|0:0,0:0:0:0:
479,253,194031,2,0,B|468:301|468:301|495:386,1,136.499993751526,10|0,0:2|0:0,0:0:0:0:
487,384,194482,1,0,0:0:0:0:
369,384,194632,2,0,L|383:240,1,136.499993751526,2|0,0:2|0:0,0:0:0:0:
493,166,195234,5,8,0:0:0:0:
383,235,195384,2,0,L|300:248,1,68.2499968757631,0|2,0:0|0:2,0:0:0:0:
186,253,195685,1,0,0:0:0:0:
186,253,195835,2,0,B|126:266|126:266|52:325,1,136.499993751526,2|0,0:2|0:0,0:0:0:0:
4,384,196291,5,12,0:2:0:0:
13,202,196444,2,0,L|182:168,1,157.500006008148,12|0,0:2|0:0,0:0:0:0:
177,170,196878,1,0,0:0:0:0:
96,103,197031,2,0,P|136:83|256:103,1,157.500006008148,2|0,0:2|0:0,0:0:0:0:
250,101,197481,1,0,0:0:0:0:
365,21,197634,5,12,0:2:0:0:
365,27,197935,5,4,0:2:0:0:
369,152,198239,6,0,P|401:110|505:95,1,157.500006008148,4|8,0:0|0:0,0:0:0:0:
469,230,198691,2,0,B|426:256|426:256|309:239,1,157.500006008148
217,219,199143,1,8,0:0:0:0:
373,152,199294,1,0,0:0:0:0:
210,225,199445,6,0,P|173:181|191:80,1,157.500006008148,0|8,0:0|0:0,0:0:0:0:
269,65,199897,1,0,0:0:0:0:
278,64,199972,1,0,0:0:0:0:
286,63,200048,2,0,L|289:147,1,78.7500030040742
265,284,200349,1,8,0:0:0:0:
365,239,200500,1,0,0:0:0:0:
260,291,200651,6,0,P|214:316|109:296,1,157.500006008148
45,205,201103,1,0,0:0:0:0:
165,224,201254,2,0,P|194:216|222:199,3,49.8749986681939,2|0|0|0,0:0|0:0|0:0|0:0,0:0:0:0:
272,143,201555,2,0,P|274:113|268:80,3,49.8749986681939,8|0|0|0,0:0|0:0|0:0|0:0,0:0:0:0:
240,16,201857,2,0,P|212:3|180:-2,3,49.8749986681939,2|0|0|0,0:0|0:0|0:0|0:0,0:0:0:0:
84,3,202158,5,0,0:0:0:0:
86,12,202233,1,0,0:0:0:0:
90,21,202309,1,0,0:0:0:0:
97,33,202384,1,0,0:0:0:0:
104,46,202460,6,0,L|134:96,1,49.8749986681939
74,182,202610,2,0,L|44:132,1,49.8749986681939
109,38,202761,2,0,L|141:92,1,49.8749986681939,12|0,0:2|0:0,0:0:0:0:
67,192,202911,2,0,L|35:138,1,49.8749986681939
167,200,203063,6,0,P|183:251|104:339,1,157.500006008148,4|8,0:0|0:0,0:0:0:0:
0,361,203515,2,0,B|33:322|33:322|54:213,1,157.500006008148
87,72,203967,1,8,0:0:0:0:
164,200,204118,1,0,0:0:0:0:
228,55,204269,6,0,L|210:105,2,52.5,2|0|0,0:0|0:0|0:0,0:0:0:0:
302,134,204563,2,0,L|307:186,2,52.5,2|0|0,0:0|0:0|0:0,0:0:0:0:
395,143,204857,1,0,0:0:0:0:
401,128,204930,1,0,0:0:0:0:
404,112,205004,1,0,0:0:0:0:
404,96,205077,1,0,0:0:0:0:
400,80,205151,1,0,0:0:0:0:
407,73,205224,1,0,0:0:0:0:
416,69,205298,1,0,0:0:0:0:
426,67,205371,1,0,0:0:0:0:
433,67,205445,6,0,P|464:122|443:219,1,157.500006008148,4|10,0:0|0:2,0:0:0:0:
349,308,205899,2,0,B|407:287|407:287|510:314,1,157.500006008148,2|2,0:2|0:2,0:0:0:0:
422,384,206355,2,0,P|374:365|352:286,1,118.125004506111,2|0,0:0|0:0,0:0:0:0:
350,190,206697,5,8,0:0:0:0:
270,364,206844,1,8,0:0:0:0:
349,308,206992,1,2,0:0:0:0:
257,278,207140,1,0,0:0:0:0:
250,273,207214,1,0,0:0:0:0:
243,269,207288,6,0,L|108:345,1,133.875002553463,4|0,0:0|0:0,0:0:0:0:
111,323,207583,2,0,L|221:259,1,118.125004506111,4|0,0:0|0:0,0:0:0:0:
316,195,207879,6,0,P|270:165|153:189,1,157.500006008148,4|8,0:2|0:0,0:0:0:0:
76,228,208333,2,0,B|91:170|91:170|62:69,1,157.500006008148,2|0,0:0|0:0,0:0:0:0:
0,0,208788,1,8,0:0:0:0:
64,76,208939,1,2,0:0:0:0:
10,2,209091,6,0,P|54:-13|161:8,1,157.500006008148,0|8,0:0|0:0,0:0:0:0:
231,68,209545,2,0,B|282:79|282:79|391:47,1,157.500006008148
476,1,210000,1,12,0:2:0:0:
481,90,210303,5,4,0:0:0:0:
472,103,210378,1,0,0:0:0:0:
465,117,210454,1,0,0:0:0:0:
461,132,210530,1,0,0:0:0:0:
460,148,210606,1,8,0:0:0:0:
460,164,210681,1,0,0:0:0:0:
463,179,210757,1,0,0:0:0:0:
469,194,210833,1,0,0:0:0:0:
477,207,210909,5,0,0:0:0:0:
485,221,210984,1,0,0:0:0:0:
488,236,211060,1,0,0:0:0:0:
485,252,211136,1,0,0:0:0:0:
477,265,211212,1,8,0:0:0:0:
465,275,211287,1,0,0:0:0:0:
451,281,211363,1,0,0:0:0:0:
435,280,211439,1,0,0:0:0:0:
421,275,211515,5,0,0:0:0:0:
409,265,211590,1,0,0:0:0:0:
401,251,211666,1,0,0:0:0:0:
399,235,211742,1,0,0:0:0:0:
401,219,211818,2,0,L|413:160,3,39.3750015020371,8|0|0|0,0:0|0:0|0:0|0:0,0:0:0:0:
435,67,212113,6,0,B|387:98|387:98|257:75,1,178.500003404617,4|0,0:1|0:0,0:0:0:0:
172,0,212575,2,0,B|190:53|190:53|131:182,1,178.500003404617,4|0,0:1|0:0,0:0:0:0:
139,172,213332,6,0,B|187:144|187:144|309:164,1,157.500006008148,4|0,0:1|0:0,0:0:0:0:
400,228,213786,2,0,B|361:258|361:258|238:236,1,157.500006008148,4|0,0:1|0:0,0:0:0:0:
155,184,214517,6,0,L|159:327,1,118.125004506111,4|0,0:0|0:0,0:0:0:0:
146,316,214841,2,0,L|143:190,1,118.125004506111,4|0,0:2|0:0,0:0:0:0:
152,181,215156,2,0,P|151:134|119:72,1,102.374995313645,4|0,0:0|0:0,0:0:0:0:
121,75,215456,2,0,P|88:39|80:-1,1,86.6250026435853,4|0,0:2|0:0,0:0:0:0:
175,10,215735,5,0,0:0:0:0:
236,66,215881,1,0,0:0:0:0:
297,122,216027,1,0,0:0:0:0:
358,179,216174,1,0,0:0:0:0:
419,236,216320,1,0,0:0:0:0:
191,377,216625,6,0,P|168:294|194:212,1,173.250005287171,4|0,0:0|0:0,0:0:0:0:
202,203,216925,1,4,0:1:0:0:
312,129,217848,6,0,B|304:119|270:102|270:102|332:117|393:107,1,173.250005287171,4|0,0:3|0:3,0:3:0:0:
393,101,218148,1,4,0:3:0:0:
393,91,219348,5,4,0:0:0:0:
393,87,219648,1,4,0:1:0:0:
393,83,219948,1,4,0:0:0:0:
392,79,220248,1,4,0:1:0:0:
478,121,220548,5,4,0:0:0:0:
478,128,220848,1,2,0:1:0:0:
478,139,221148,1,4,0:0:0:0:
478,154,221448,1,4,0:1:0:0:
480,246,221748,5,4,0:0:0:0:
480,252,222695,6,0,B|472:315|495:379|495:379|476:355|454:342,1,173.250005287171,4|0,0:0|0:0,0:0:0:0:
457,345,222987,1,4,0:1:0:0:
457,345,224187,6,0,L|420:298,3,52.5,4|0|0|0,0:1|0:0|0:0|0:0,0:0:0:0:
364,244,224516,2,0,L|313:212,3,45.6750003833199
248,179,224846,2,0,L|189:166,3,39.3750015020371
167,242,225176,1,0,0:0:0:0:
157,246,225258,1,0,0:0:0:0:
148,251,225340,1,0,0:0:0:0:
17,371,225670,6,0,P|-14:310|8:202,1,173.250005287171,4|0,0:0|0:0,0:0:0:0:
8,201,225987,1,4,0:0:0:0:
328,196,226590,5,4,0:2:0:0:
54,81,230967,6,0,L|56:40,2,35
43,182,231133,2,0,P|80:160|132:162,1,86.6250026435853
256,192,231434,5,4,0:0:0:0:
256,192,231507,12,0,232542,0:0:0:0:
256,192,232616,5,4,0:0:0:0:
256,192,232691,12,0,233741,0:0:0:0:
256,192,233816,5,4,0:0:0:0:
256,192,233890,12,0,234935,0:0:0:0:
256,192,235010,5,4,0:0:0:0:
339,202,235613,2,0,L|428:202,2,70
297,286,235914,2,0,L|208:286,2,70
256,192,236231,5,4,0:0:0:0:
256,192,236306,12,0,237361,0:0:0:0:
256,192,237437,5,4,0:0:0:0:
256,192,237512,12,0,238567,0:0:0:0:
256,192,238643,5,4,0:0:0:0:
256,192,238718,12,0,239773,0:0:0:0:
256,192,239849,5,4,0:0:0:0:
256,192,239923,12,0,240962,0:0:0:0:
256,192,241034,5,4,0:0:0:0:
227,52,241186,1,8,0:0:0:0:
224,44,241338,1,8,0:0:0:0:
343,158,241490,6,0,P|354:217|310:299,1,125.999996154785,4|0,0:0|0:0,0:0:0:0:
245,367,241795,1,0,0:0:0:0:
234,372,241947,1,0,0:0:0:0:
331,287,242099,6,0,P|403:285|465:326,1,125.999996154785,4|0,0:0|0:0,0:0:0:0:
441,205,242404,1,0,0:0:0:0:
436,194,242556,1,0,0:0:0:0:
326,282,242709,6,0,P|300:227|320:138,1,125.999996154785,4|0,0:1|0:0,0:0:0:0:
363,70,243013,1,0,0:0:0:0:
368,64,243165,1,0,0:0:0:0:
224,105,243470,5,4,0:1:0:0:
224,105,243775,1,0,0:0:0:0:
224,105,244079,1,0,0:0:0:0:
224,105,244384,1,0,0:0:0:0:
224,105,244669,5,8,0:0:0:0:
223,110,244744,1,8,0:0:0:0:
222,115,244819,1,8,0:0:0:0:
221,120,244894,1,8,0:0:0:0:
220,125,244969,1,8,0:0:0:0:
169,44,245269,5,8,0:0:0:0:
170,39,245344,1,8,0:0:0:0:
171,34,245419,1,8,0:0:0:0:
172,29,245494,1,8,0:0:0:0:
173,24,245569,1,8,0:0:0:0:
320,85,245854,5,4,0:0:0:0:
333,77,245929,1,0,0:0:0:0:
348,74,246004,1,0,0:0:0:0:
363,75,246080,1,0,0:0:0:0:
378,78,246155,2,0,L|436:105,1,52.5,8|0,0:0|0:0,0:0:0:0:
381,89,246306,2,0,L|439:116,1,52.5
512,211,246457,6,0,P|491:197|455:186,3,52.5,2|0|0|0,0:0|0:0|0:0|0:0,0:0:0:0:
458,278,246758,2,0,P|435:289|407:314,3,52.5,8|0|0|0,0:0|0:0|0:0|0:0,0:0:0:0:
326,384,247060,6,0,L|328:321,3,52.5,2|0|0|0,0:0|0:0|0:0|0:0,0:0:0:0:
359,241,247361,2,0,L|298:238,1,52.5,8|0,0:0|0:0,0:0:0:0:
347,233,247512,2,0,L|286:230,1,52.5
204,278,247663,1,2,0:0:0:0:
195,265,247738,1,0,0:0:0:0:
189,250,247813,1,0,0:0:0:0:
186,234,247889,1,0,0:0:0:0:
186,218,247964,2,0,P|192:186|209:154,3,52.5,8|0|0|0,0:0|0:0|0:0|0:0,0:0:0:0:
268,29,248266,6,0,P|243:7|213:-3,3,52.5,2|0|0|0,0:0|0:0|0:0|0:0,0:0:0:0:
134,67,248567,2,0,L|197:74,1,52.5,8|0,0:0|0:0,0:0:0:0:
137,76,248718,2,0,L|200:83,1,52.5
252,173,248869,2,0,L|200:167,3,52.5,2|0|0|0,0:0|0:0|0:0|0:0,0:0:0:0:
83,192,249170,5,8,0:0:0:0:
68,193,249245,1,0,0:0:0:0:
54,199,249321,1,0,0:0:0:0:
42,208,249396,1,0,0:0:0:0:
33,217,249472,6,0,L|35:275,1,52.5,2|0,0:0|0:0,0:0:0:0:
156,314,249622,2,0,L|158:255,1,52.5
44,221,249773,2,0,L|46:279,1,52.5,8|0,0:0|0:0,0:0:0:0:
145,308,249924,2,0,L|147:249,1,52.5
257,266,250075,2,0,P|290:267|323:257,3,52.5,2|0|0|0,0:0|0:0|0:0|0:0,0:0:0:0:
273,178,250384,2,0,P|290:149|298:116,3,52.5,12|0|0|0,0:2|0:0|0:0|0:0,0:0:0:0:
345,15,250694,5,4,0:0:0:0:
359,21,250769,1,0,0:0:0:0:
373,25,250844,1,0,0:0:0:0:
388,28,250920,1,0,0:0:0:0:
403,30,250995,6,0,P|433:29|463:22,1,52.5,8|0,0:0|0:0,0:0:0:0:
512,120,251146,2,0,P|482:121|452:128,1,52.5
384,186,251297,2,0,P|393:214|409:241,3,52.5,2|0|0|0,0:0|0:0|0:0|0:0,0:0:0:0:
491,265,251598,2,0,P|505:238|515:209,3,52.5,8|0|0|0,0:0|0:0|0:0|0:0,0:0:0:0:
414,331,251900,6,0,L|362:336,3,52.5,2|0|0|0,0:0|0:0|0:0|0:0,0:0:0:0:
251,347,252201,2,0,L|264:288,1,52.5,12|0,0:0|0:0,0:0:0:0:
260,350,252352,2,0,L|273:291,1,52.5
291,203,252503,1,2,0:0:0:0:
291,187,252578,1,0,0:0:0:0:
288,171,252653,1,0,0:0:0:0:
283,155,252729,1,0,0:0:0:0:
275,141,252804,2,0,P|256:113|246:79,3,52.5,8|0|0|0,0:0|0:0|0:0|0:0,0:0:0:0:
306,4,253106,6,0,L|328:57,3,52.5,2|0|0|0,0:0|0:0|0:0|0:0,0:0:0:0:
410,115,253407,2,0,L|410:54,1,52.5,8|0,0:0|0:0,0:0:0:0:
420,108,253558,2,0,L|420:47,1,52.5
512,8,253709,2,0,L|512:69,1,52.5,2|0,0:0|0:0,0:0:0:0:
504,14,253859,2,0,L|504:75,1,52.5
506,155,254010,1,12,0:0:0:0:
496,162,254312,5,4,0:2:0:0:
500,251,254462,1,0,0:0:0:0:
492,247,254537,1,0,0:0:0:0:
484,244,254612,1,0,0:0:0:0:
476,242,254687,1,0,0:0:0:0:
468,241,254762,1,0,0:0:0:0:
460,240,254837,1,0,0:0:0:0:
452,240,254912,2,0,P|423:240|389:248,3,52.5
329,297,255212,2,0,P|300:297|266:289,3,52.5
192,299,255512,5,4,0:0:0:0:
179,307,255590,1,0,0:0:0:0:
164,310,255665,1,0,0:0:0:0:
149,309,255741,1,0,0:0:0:0:
134,306,255816,2,0,L|76:279,1,52.5,8|0,0:0|0:0,0:0:0:0:
131,295,255967,2,0,L|73:268,1,52.5
0,173,256118,6,0,P|21:187|57:198,3,52.5,2|0|0|0,0:0|0:0|0:0|0:0,0:0:0:0:
53,104,256419,2,0,P|76:93|104:68,3,52.5,8|0|0|0,0:0|0:0|0:0|0:0,0:0:0:0:
184,11,256721,6,0,L|182:74,3,52.5,2|0|0|0,0:0|0:0|0:0|0:0,0:0:0:0:
140,161,257022,2,0,L|201:164,1,52.5,8|0,0:0|0:0,0:0:0:0:
152,169,257173,2,0,L|213:172,1,52.5
288,127,257324,1,2,0:0:0:0:
297,140,257399,1,0,0:0:0:0:
303,155,257474,1,0,0:0:0:0:
306,171,257550,1,0,0:0:0:0:
306,187,257625,2,0,P|300:219|283:251,3,52.5,8|0|0|0,0:0|0:0|0:0|0:0,0:0:0:0:
221,343,257927,6,0,P|246:365|276:375,3,52.5,2|0|0|0,0:0|0:0|0:0|0:0,0:0:0:0:
410,349,258228,2,0,L|347:342,1,52.5,8|0,0:0|0:0,0:0:0:0:
407,340,258379,2,0,L|344:333,1,52.5
289,245,258530,2,0,L|341:251,3,52.5,2|0|0|0,0:0|0:0|0:0|0:0,0:0:0:0:
447,253,258831,5,8,0:0:0:0:
439,240,258906,1,0,0:0:0:0:
436,225,258982,1,0,0:0:0:0:
436,210,259057,1,0,0:0:0:0:
439,194,259133,6,0,L|451:136,1,52.5,2|0,0:2|0:0,0:0:0:0:
351,97,259281,2,0,L|338:154,1,52.5,2|0,0:2|0:0,0:0:0:0:
449,192,259430,2,0,L|461:134,1,52.5,10|0,0:2|0:0,0:0:0:0:
360,101,259578,2,0,L|347:158,1,52.5,2|0,0:2|0:0,0:0:0:0:
438,61,259727,2,0,P|419:33|392:12,3,52.5,2|0|0|0,0:0|0:0|0:0|0:0,0:0:0:0:
318,3,260024,2,0,P|284:5|252:18,3,52.5,12|0|0|0,0:0|0:0|0:0|0:0,0:0:0:0:
211,167,260324,5,4,0:2:0:0:
197,161,260400,1,0,0:0:0:0:
183,157,260476,1,0,0:0:0:0:
168,154,260552,1,0,0:0:0:0:
153,152,260628,6,0,P|123:153|93:160,1,52.5,8|0,0:0|0:0,0:0:0:0:
0,264,260780,2,0,P|30:263|60:256,1,52.5
163,285,260933,2,0,P|154:257|138:230,3,52.5,2|0|0|0,0:0|0:0|0:0|0:0,0:0:0:0:
28,115,261237,2,0,P|14:142|4:171,3,52.5,8|0|0|0,0:0|0:0|0:0|0:0,0:0:0:0:
100,43,261542,6,0,L|152:38,3,52.5,2|0|0|0,0:0|0:0|0:0|0:0,0:0:0:0:
253,28,261846,2,0,L|240:87,1,52.5,8|0,0:0|0:0,0:0:0:0:
244,25,261999,2,0,L|231:84,1,52.5
208,170,262151,1,2,0:0:0:0:
208,186,262227,1,0,0:0:0:0:
211,202,262303,1,0,0:0:0:0:
216,218,262379,1,0,0:0:0:0:
224,232,262455,2,0,P|243:260|253:294,3,52.5,8|0|0|0,0:0|0:0|0:0|0:0,0:0:0:0:
207,384,262760,6,0,L|185:331,3,52.5,2|0|0|0,0:2|0:0|0:0|0:0,0:0:0:0:
102,276,263063,2,0,L|102:337,1,52.5,8|0,0:0|0:0,0:0:0:0:
94,282,263214,2,0,L|94:343,1,52.5
0,382,263366,2,0,L|0:321,1,52.5,2|0,0:2|0:0,0:0:0:0:
8,376,263517,2,0,L|8:315,1,52.5
16,229,263669,5,8,0:0:0:0:
21,220,263744,1,0,0:0:0:0:
28,212,263820,1,0,0:0:0:0:
36,206,263896,1,0,0:0:0:0:
45,200,263972,1,2,0:0:0:0:
48,190,264047,1,0,0:0:0:0:
48,179,264123,1,0,0:0:0:0:
46,168,264199,1,0,0:0:0:0:
42,157,264275,6,0,L|22:104,1,52.5,8|0,0:0|0:0,0:0:0:0:
77,12,264426,2,0,L|97:65,1,52.5
141,167,264578,1,0,0:0:0:0:
155,172,264652,1,0,0:0:0:0:
170,174,264726,1,0,0:0:0:0:
185,174,264800,1,0,0:0:0:0:
200,171,264875,1,12,0:0:0:0:
277,154,265172,5,0,0:0:0:0:
77,12,265322,1,8,0:0:0:0:
69,7,265472,1,8,0:0:0:0:
226,55,265622,6,0,P|300:59|359:26,1,125.999996154785,4|0,0:0|0:0,0:0:0:0:
421,4,265922,1,0,0:0:0:0:
429,1,266072,1,0,0:0:0:0:
381,134,266222,6,0,P|363:196|403:269,1,125.999996154785,4|0,0:0|0:0,0:0:0:0:
426,335,266522,1,0,0:0:0:0:
431,342,266672,1,0,0:0:0:0:
472,112,266822,6,0,P|456:47|407:7,1,125.999996154785,4|0,0:1|0:0,0:0:0:0:
282,16,267122,1,0,0:0:0:0:
273,11,267272,1,0,0:0:0:0:
309,313,267572,5,4,0:2:0:0:
309,307,267870,1,0,0:0:0:0:
309,301,268169,1,0,0:0:0:0:
309,295,268467,1,0,0:0:0:0:
313,205,268798,5,0,0:0:0:0:
288,195,268873,1,0,0:0:0:0:
261,192,268948,1,0,0:0:0:0:
235,197,269023,1,0,0:0:0:0:
212,210,269098,1,0,0:0:0:0:
193,219,269173,1,0,0:0:0:0:
172,224,269248,1,0,0:0:0:0:
151,223,269323,1,0,0:0:0:0:
130,219,269398,5,0,0:0:0:0:
129,234,269473,1,0,0:0:0:0:
128,249,269548,1,0,0:0:0:0:
127,264,269623,1,0,0:0:0:0:
135,276,269698,1,0,0:0:0:0:
135,286,269773,1,0,0:0:0:0:
136,296,269848,1,0,0:0:0:0:
137,306,269923,1,0,0:0:0:0:
138,316,269998,5,0,0:0:0:0:
38,261,270148,1,0,0:0:0:0:
248,357,270448,5,4,0:0:0:0:
134,100,270598,1,4,0:2:0:0:
256,192,270673,12,0,271948,0:0:0:0:
