osu file format v14

[General]
AudioFilename: audio.mp3
AudioLeadIn: 0
PreviewTime: 110959
Countdown: 0
SampleSet: Soft
StackLeniency: 0.5
Mode: 0
LetterboxInBreaks: 0
WidescreenStoryboard: 1

[Editor]
DistanceSpacing: 1
BeatDivisor: 4
GridSize: 4
TimelineZoom: 2.4

[Metadata]
Title:Trashed, Lost & Strungout
TitleUnicode:Trashed, Lost & Strungout
Artist:Children Of Bodom
ArtistUnicode:Children Of Bodom
Creator:FCL
Version:Hard
Source:
Tags:are you dead yet? melodic death metal cob wajinshu deppyforce Maakkeli mkl themefisto feb Makeli english
BeatmapID:1099072
BeatmapSetID:497378

[Difficulty]
HPDrainRate:5
CircleSize:3.8
OverallDifficulty:6
ApproachRate:8
SliderMultiplier:1.4
SliderTickRate:1

[Events]
//Background and Video events
0,0,"children_of_bodom_obraz_vesele_telefon_flamingo_1920x1080.jpg",0,0
//Break Periods
2,35032,35908
2,135300,144098
//Storyboard Layer 0 (Background)
//Storyboard Layer 1 (Fail)
//Storyboard Layer 2 (Pass)
//Storyboard Layer 3 (Foreground)
//Storyboard Layer 4 (Overlay)
//Storyboard Sound Samples

[TimingPoints]
55,317.460317460317,4,2,1,60,1,0
658,298.507462686567,4,2,1,60,1,0
658,-133.333333333333,4,2,1,60,0,0
956,289.855072463768,4,2,1,60,1,0
956,-133.333333333333,4,2,1,60,0,0
1535,306.122448979592,4,2,1,60,1,0
1841,304.568527918782,4,2,1,60,1,0
1841,-133.333333333333,4,2,1,60,0,0
3053,299.475917144996,4,2,1,60,1,0
3053,-133.333333333333,4,2,1,60,0,0
5149,-117.647058823529,4,2,1,60,0,0
5442,318.302387267905,4,2,1,60,1,0
5442,-117.647058823529,4,2,1,60,0,0
5601,-113.636363636364,4,2,1,60,0,0
5760,295.566502463054,4,2,1,60,1,0
6351,306.122448979592,4,2,1,60,1,0
6351,-117.647058823529,4,2,1,60,0,0
6657,291.26213592233,4,2,1,60,1,0
6657,-117.647058823529,4,2,1,60,0,0
7239,300,4,2,1,60,1,0
7239,-117.647058823529,4,2,1,60,0,0
7839,304.568527918781,4,2,1,60,1,0
7839,-117.647058823529,4,2,1,60,0,0
9050,297.766749379653,4,2,1,60,1,0
9050,-117.647058823529,4,2,1,60,0,0
10250,300,4,2,1,60,1,0
10250,-117.647058823529,4,2,1,60,0,0
12045,289.855072463768,4,1,1,60,1,0
12045,-117.647058823529,4,1,1,60,0,0
12638,300.751879699248,4,1,1,60,1,0
12638,-117.647058823529,4,1,1,60,0,0
13841,283.687943262411,4,1,1,60,1,0
13841,-117.647058823529,4,1,1,60,0,0
14408,301.507537688442,4,1,1,60,1,0
14408,-117.647058823529,4,1,1,60,0,0
14720,-100,4,1,1,60,0,0
15029,303.030303030303,4,1,1,60,1,0
15029,-117.647058823529,4,1,1,60,0,0
17451,300,4,1,1,60,1,0
17451,-117.647058823529,4,1,1,60,0,0
23601,293.398533007335,4,1,1,60,1,0
23601,-117.647058823529,4,1,1,60,0,0
24651,300,4,1,1,60,1,0
24651,-100,4,1,1,60,0,0
33051,297.029702970297,4,1,1,60,1,0
36370,288.461538461538,4,1,1,60,1,0
36658,300,4,2,1,60,1,0
36658,-153.846153846153,4,2,1,60,0,0
39058,300,4,1,1,60,1,0
39058,-117.647058823529,4,1,1,60,0,0
41458,-117.647058823529,4,1,1,60,0,0
42508,-100,4,1,1,60,0,0
42808,-117.647058823529,4,1,1,60,0,0
46252,295.566502463054,4,1,1,60,1,0
46252,-117.647058823529,4,1,1,60,0,0
47286,-100,4,1,1,60,0,0
47729,307.692307692308,4,1,1,60,1,0
48036,303.030303030303,4,1,1,60,1,0
48036,-117.647058823529,4,1,1,60,0,0
48642,306.122448979592,4,1,1,60,1,0
48642,-86.9565217391302,4,1,1,60,0,1
49101,291.26213592233,4,1,1,60,1,1
49101,-86.9565217391302,4,1,1,60,0,1
49537,309.278350515464,4,1,1,60,1,1
49537,-86.9565217391302,4,1,1,60,0,1
50000,-86.2068965517241,4,1,1,60,0,1
50155,303.030303030303,4,1,1,60,1,1
50155,-86.9565217391302,4,1,1,60,0,1
50912,-100,4,1,1,60,0,0
51059,298.507462686567,4,1,1,60,1,0
51059,-100,4,1,1,60,0,0
52253,-100,4,1,1,60,0,0
53453,296.296296296296,4,1,1,60,1,1
53453,-86.9565217391304,4,1,1,60,0,1
54333,300,4,1,1,60,1,1
54333,-86.9565217391304,4,1,1,60,0,1
54783,326.086956521739,4,1,1,60,1,1
54783,-83.3333333333333,4,1,1,60,0,1
54946,300,4,1,1,60,1,1
55246,304.568527918782,4,1,1,60,1,1
55246,-86.9565217391304,4,1,1,60,0,1
55851,298.507462686567,4,1,1,60,1,1
55851,-86.9565217391304,4,1,1,60,0,1
57039,300,4,1,1,60,1,0
57040,-117.647058823529,4,1,1,60,0,0
57339,315.78947368421,4,1,1,60,1,0
57812,304.568527918782,4,1,1,60,1,0
58256,300,4,1,1,60,1,0
58256,-117.647058823529,4,1,1,60,0,0
59156,289.855072463768,4,1,1,60,1,0
59156,-117.647058823529,4,1,1,60,0,0
59445,300,4,1,1,60,1,0
59445,-117.647058823529,4,1,1,60,0,0
60645,-117.647058823529,4,1,1,60,0,0
61695,-100,4,1,1,60,0,0
62145,-117.647058823529,4,1,1,60,0,0
63045,309.278350515464,4,1,1,60,1,0
63045,-117.647058823529,4,1,1,60,0,0
63354,300,4,1,1,60,1,0
63354,-117.647058823529,4,1,1,60,0,0
64254,300,4,1,1,60,1,0
64254,-117.647058823529,4,1,1,60,0,0
66498,272.727272727273,4,1,1,60,1,0
66770,288.461538461538,4,1,1,60,1,0
67058,315.78947368421,4,1,1,60,1,0
67215,317.460317460317,4,1,1,60,1,0
67849,294.117647058824,4,1,1,60,1,1
67849,-86.9565217391304,4,1,1,60,0,1
68143,306.122448979592,4,1,1,60,1,1
68296,288.461538461538,4,1,1,60,1,1
68296,-86.9565217391304,4,1,1,60,0,1
68728,314.13612565445,4,1,1,60,1,1
68728,-86.9565217391304,4,1,1,60,0,1
69199,309.278350515464,4,1,1,60,1,1
69199,-86.9565217391304,4,1,1,60,0,1
69353,312.5,4,1,1,60,1,1
69665,297.029702970297,4,1,1,60,1,1
69665,-86.9565217391304,4,1,1,60,0,1
69962,284.36018957346,4,1,1,60,1,1
69962,-86.9565217391304,4,1,1,60,0,1
70246,303.79746835443,4,1,1,60,1,0
70246,-100,4,1,1,60,0,0
71461,295.566502463054,4,1,1,60,1,0
72639,300,4,1,1,60,1,1
72639,-86.9565217391304,4,1,1,60,0,1
73839,305.732484076433,4,1,1,60,1,1
73839,-86.9565217391304,4,1,1,60,0,1
74450,297.029702970297,4,1,1,60,1,1
74450,-86.9565217391304,4,1,1,60,0,1
74747,298.507462686567,4,1,1,60,1,1
74747,-86.9565217391304,4,1,1,60,0,1
75045,299.550673989016,4,1,1,60,1,1
75045,-86.9565217391304,4,1,1,60,0,1
79837,310.880829015544,4,1,1,60,1,1
79837,-100,4,1,1,60,0,0
80147,301.507537688443,4,1,1,60,1,0
81051,301.507537688442,4,1,1,60,1,0
82257,295.566502463054,4,1,1,60,1,0
83439,303.030303030303,4,1,1,60,1,0
84651,299.850074962519,4,1,1,60,1,0
88239,300,4,1,1,60,1,0
89439,309.278350515464,4,1,1,60,1,1
89439,-100,4,1,1,60,0,1
89748,-98.0392156862745,4,1,1,60,0,1
90057,300,4,1,1,60,1,1
90657,299.850074962519,4,1,1,60,1,1
98003,297.176820208024,4,1,1,60,1,1
98894,-101.010101010101,4,1,1,60,0,1
99045,300,4,1,1,60,1,0
99345,-117.647058823529,4,1,1,60,0,0
101445,-117.647058823529,4,1,1,60,0,0
102489,291.26213592233,4,1,1,60,1,0
102489,-101.010101010101,4,1,1,60,0,0
102634,298.507462686567,4,1,1,60,1,0
102783,-117.647058823529,4,1,1,60,0,0
103684,309.278350515464,4,1,1,60,1,0
103684,-116.279069767442,4,1,1,60,0,0
103838,303.030303030303,4,1,1,60,1,0
104141,299.25187032419,4,1,1,60,1,0
104141,-117.647058823529,4,1,1,60,0,0
105936,301.507537688442,4,1,1,60,1,0
105936,-117.647058823529,4,1,1,60,0,0
106237,306.122448979592,4,1,1,60,1,0
106849,304.568527918782,4,1,1,60,1,0
107458,297.029702970297,4,1,1,60,1,0
108646,298.507462686567,4,1,1,60,1,0
108646,-86.9565217391302,4,1,1,60,0,0
110138,294.117647058824,4,1,1,60,1,0
110432,301.507537688442,4,1,1,60,1,0
110432,-86.9565217391302,4,1,1,60,0,0
111035,329.67032967033,4,1,1,60,1,1
111035,-95.2380952380952,4,1,1,60,0,1
111364,289.855072463768,4,1,1,60,1,1
111364,-95.2380952380952,4,1,1,60,0,1
111943,301.507537688442,4,1,1,60,1,1
112244,300,4,1,1,60,1,1
112244,-95.2380952380952,4,1,1,60,0,1
115844,303.030303030303,4,1,1,60,1,1
115844,-95.2380952380952,4,1,1,60,0,1
117056,300,4,1,1,60,1,1
117056,-95.2380952380952,4,1,1,60,0,1
124850,298.507462686567,4,1,1,60,1,1
124850,-95.2380952380952,4,1,1,60,0,1
125447,300,4,1,1,60,1,1
125447,-95.2380952380952,4,1,1,60,0,1
128146,297.029702970297,4,1,1,60,1,1
128146,-95.2380952380952,4,1,1,60,0,1
129037,297.029702970297,4,1,1,60,1,1
129037,-95.2380952380952,4,1,1,60,0,1
130231,307.692307692308,4,2,1,60,1,0
130231,-133.333333333333,4,2,1,60,0,0
132078,-133.333333333333,4,2,1,60,0,0
132691,295.566502463054,4,2,1,60,1,0
132691,-133.333333333333,4,2,1,60,0,0
133577,304.568527918782,4,2,1,60,1,0
133577,-133.333333333333,4,2,1,60,0,0
133881,304.568527918782,4,2,1,60,1,0
134490,305.343511450382,4,2,1,60,1,0
135100,312.5,4,3,1,60,1,0
135725,307.534597642235,4,3,1,60,1,0
136340,301.507537688442,4,3,1,60,1,0
136943,304.568527918782,4,3,1,60,1,0
137552,319.148936170213,4,3,1,60,1,0
138190,295.566502463054,4,3,1,60,1,0
138781,301.507537688442,4,3,1,60,1,0
139993,309.278350515464,4,3,1,60,1,0
141230,304.568527918782,4,3,1,60,1,0
142448,298.507462686567,4,3,1,60,1,0
143045,306.122448979592,4,3,1,60,1,0
143657,298.507462686567,4,3,1,60,1,0
144254,317.460317460317,4,3,1,60,1,0
144569,279.069767441861,4,3,1,60,1,0
144848,312.5,4,3,1,60,1,0
144848,-166.666666666667,4,3,1,60,0,0
145470,304.568527918782,4,3,1,60,1,0
145470,-166.666666666667,4,3,1,60,0,0
146079,307.692307692308,4,3,1,60,1,0
146079,-166.666666666667,4,3,1,60,0,0
147309,306.122448979592,4,3,1,60,1,0
147309,-166.666666666667,4,3,1,60,0,0
148533,300,4,3,1,60,1,0
148533,-166.666666666667,4,3,1,60,0,0
149133,294.117647058824,4,3,1,60,1,0
149427,310.880829015544,4,3,1,60,1,0
149427,-166.666666666667,4,3,1,60,0,0
149737,310.880829015544,4,3,1,60,1,0
149737,-166.666666666667,4,3,1,60,0,0
150358,304.568527918782,4,3,1,60,1,0
150358,-166.666666666667,4,3,1,60,0,0
151576,303.030303030303,4,3,1,60,1,0
151576,-166.666666666667,4,3,1,60,0,0
152182,314.13612565445,4,3,1,60,1,0
152339,303.030303030303,4,1,1,60,1,0
152642,312.5,4,1,1,60,1,0
152798,289.855072463768,4,1,1,60,1,0
153092,303.030303030303,4,1,1,60,1,0
154001,298.507462686567,4,1,1,60,1,0
154598,324.324324324324,4,1,1,60,1,0
154922,297.029702970297,4,1,1,60,1,0
155516,300,4,1,1,60,1,0
155816,300,4,1,1,60,1,0
157913,303.030303030303,4,1,1,60,1,0
158216,303.030303030303,4,1,1,60,1,0
159424,298.507462686567,4,1,1,60,1,0
160319,312.5,4,1,1,60,1,0
160631,300,4,1,1,60,1,0
161231,291.26213592233,4,1,1,60,1,0
161522,303.030303030303,4,1,1,60,1,0
161825,300,4,1,1,60,1,0
162125,291.26213592233,4,1,1,60,1,0
162707,294.117647058824,4,1,1,60,1,0
163005,302.267002518892,4,1,1,60,1,0
164236,295.566502463054,4,1,1,60,1,1
165566,-101.010101010101,4,1,1,60,0,1
166009,303.030303030303,4,1,1,60,1,1
166615,301.507537688442,4,1,1,60,1,1
169027,297.029702970297,4,1,1,60,1,1
170215,300,4,1,1,60,1,1
171115,310.880829015544,4,1,1,60,1,1
171425,298.507462686567,4,1,1,60,1,1
172616,298.06259314456,4,1,1,60,1,1
173808,301.507537688442,4,1,1,60,1,1
177722,296.296296296297,4,1,1,60,1,1
178314,303.030303030303,4,1,1,60,1,1
178617,303.030303030303,4,1,1,60,1,1
179829,297.029702970297,4,1,1,60,1,1
180429,291.26213592233,4,1,1,60,1,1
181005,303.030303030303,4,1,1,60,1,1
181005,-86.9565217391304,4,1,1,60,0,1
181308,317.460317460317,4,1,1,60,1,1
181466,-82.5,4,1,1,60,0,1
181625,287.081339712919,4,1,1,60,1,1
181912,300,4,1,1,60,1,1
181912,-100,4,1,1,60,0,1
182212,300,4,1,1,60,1,1
183409,312.5,4,1,1,60,1,0
183409,-86.9565217391304,4,1,1,60,0,1
183873,285.714285714286,4,1,1,60,1,1
183873,-86.9565217391304,4,1,1,60,0,1
184301,300,4,1,1,60,1,1
184301,-86.9565217391304,4,1,1,60,0,1
184751,-89.2857142857143,4,1,1,60,0,1
184901,314.13612565445,4,1,1,60,1,1
185215,301.507537688442,4,1,1,60,1,1
185215,-86.9565217391304,4,1,1,60,0,1
185818,298.507462686567,4,1,1,60,1,0
187012,292.682926829268,4,1,1,60,1,0
187158,309.278350515464,4,1,1,60,1,0
187312,294.117647058824,4,1,1,60,1,0
187606,300,4,1,1,60,1,0
188206,298.507462686567,4,1,1,60,1,1
188206,-86.9565217391304,4,1,1,60,0,1
188803,294.117647058824,4,1,1,60,1,1
189097,309.278350515464,4,1,1,60,1,1
189097,-86.9565217391304,4,1,1,60,0,1
190014,298.507462686567,4,1,1,60,1,1
190014,-86.9565217391304,4,1,1,60,0,1
190611,298.507462686567,4,1,1,60,1,0
190611,-100,4,1,1,60,0,0
191208,300,4,1,1,60,1,0
191808,300,4,1,1,60,1,0
192415,292.682926829268,4,1,1,60,1,0
192707,288.461538461538,4,1,1,60,1,0
192995,306.122448979592,4,1,1,60,1,1
192995,-86.9565217391304,4,1,1,60,0,1
193454,312.5,4,1,1,60,1,1
193454,-86.9565217391304,4,1,1,60,0,1
193922,300,4,1,1,60,1,1
193922,-86.9565217391304,4,1,1,60,0,1
194222,300,4,1,1,60,1,1
194222,-86.9565217391304,4,1,1,60,0,1
195431,295.566502463054,4,1,1,60,1,0
197499,285.714285714286,4,1,1,60,1,0
197784,304.568527918782,4,1,1,60,1,1
197784,-86.9565217391304,4,1,1,60,0,1
198088,329.67032967033,4,1,1,60,1,1
198252,295.566502463054,4,1,1,60,1,1
198252,-86.9565217391304,4,1,1,60,0,1
198547,306.122448979592,4,1,1,60,1,1
198853,307.692307692308,4,1,1,60,1,1
198853,-86.9565217391304,4,1,1,60,0,1
199160,287.081339712919,4,1,1,60,1,1
199447,304.568527918782,4,1,1,60,1,1
199447,-86.9565217391304,4,1,1,60,0,1
200208,304.568527918782,4,1,1,60,1,1
200208,-86.9565217391304,4,1,1,60,0,1
201426,298.507462686567,4,1,1,60,1,1
201426,-86.9565217391304,4,1,1,60,0,1
203814,297.029702970297,4,1,1,60,1,1
203814,-86.9565217391304,4,1,1,60,0,1
205002,300,4,1,1,60,1,1
205002,-86.9565217391304,4,1,1,60,0,1
207402,303.030303030303,4,1,1,30,1,0
207402,-100,4,1,1,30,0,0
208008,-100,4,1,1,40,0,0
208614,301.507537688442,4,1,1,50,1,0
209217,-100,4,1,1,60,0,0
209840,295.566502463054,4,1,1,60,1,1
209840,-95.2380952380952,4,1,1,60,0,1
212056,-96.1538461538461,4,1,1,60,0,1
212204,300,4,1,1,60,1,1
212204,-95.2380952380952,4,1,1,60,0,1
213411,301.507537688442,4,1,1,60,1,1
213411,-95.2380952380952,4,1,1,60,0,1
214617,300,4,1,1,60,1,1
214617,-95.2380952380952,4,1,1,60,0,1
219424,301.507537688442,4,1,1,60,1,1
219424,-95.2380952380952,4,1,1,60,0,1
220630,295.566502463054,4,1,1,60,1,1
220630,-95.2380952380952,4,1,1,60,0,1
221516,303.030303030303,4,1,1,60,1,1
221667,-94.3396226415094,4,1,1,60,0,1
221819,297.029702970297,4,1,1,60,1,1
221819,-95.2380952380952,4,1,1,60,0,1
223007,301.507537688442,4,1,1,60,1,1
223007,-95.2380952380952,4,1,1,60,0,1
223911,288.461538461538,4,1,1,60,1,1
224199,314.13612565445,4,1,1,60,1,1
224199,-95.2380952380952,4,1,1,60,0,1
224513,294.117647058824,4,1,1,60,1,1
224513,-95.2380952380952,4,1,1,60,0,1
225101,312.5,4,1,1,60,1,1
225413,301.507537688442,4,1,1,60,1,1
225413,-95.2380952380952,4,1,1,60,0,1
226468,-93.4579439252336,4,1,1,60,0,1
226613,300,4,1,1,60,1,1
226613,-95.2380952380952,4,1,1,60,0,1
227813,301.507537688442,4,1,1,60,1,1
227813,-95.2380952380952,4,1,1,60,0,1
229026,298.507462686567,4,1,1,60,1,1
229026,-95.2380952380952,4,1,1,60,0,1
233503,307.692307692308,4,1,1,60,1,1
233810,298.507462686567,4,1,1,60,1,1
233810,-95.2380952380952,4,1,1,60,0,1
235004,302.267002518892,4,1,1,60,1,1
235004,-95.2380952380952,4,1,1,60,0,1
236213,295.566502463054,4,1,1,60,1,0
236213,-95.2380952380952,4,1,1,60,0,0
236802,295.566502463054,4,1,1,60,1,0
236802,-95.2380952380952,4,1,1,60,0,0
237688,303.951367781155,4,1,1,60,1,0
237688,-95.2380952380952,4,1,1,60,0,0
238295,289.855072463768,4,1,1,60,1,0
238295,-133.333333333333,4,1,1,60,0,0

[Colours]
Combo1 : 103,103,192
Combo2 : 248,102,39
Combo3 : 252,200,20
Combo4 : 57,152,208

[HitObjects]
93,152,55,5,4,1:0:0:0:
93,152,372,1,4,1:0:0:0:
93,152,658,6,0,L|86:198,4,26.2500010013581,4|0|0|0|0,1:0|2:0|2:0|2:0|1:0,0:0:0:0:
222,193,1245,2,0,L|215:239,4,26.2500010013581,0|0|0|0|0,1:0|2:0|2:0|2:0|1:0,0:0:0:0:
351,235,1841,2,0,L|344:281,4,26.2500010013581,0|0|0|0|0,1:0|2:0|2:0|2:0|1:0,0:0:0:0:
369,158,2297,1,0,1:0:0:0:
425,212,2450,2,0,L|474:207,4,26.2500010013581,0|0|0|0|0,1:0|2:0|2:0|2:0|1:0,0:0:0:0:
351,235,2906,1,0,1:0:0:0:
369,158,3053,6,0,L|375:116,4,26.2500010013581,0|0|0|0|0,1:0|2:0|2:0|2:0|1:0,0:0:0:0:
238,118,3651,2,0,L|244:76,4,26.2500010013581,0|0|0|0|0,1:0|2:0|2:0|2:0|1:0,0:0:0:0:
106,80,4250,2,0,L|112:38,4,26.2500010013581,0|0|0|0|0,1:0|2:0|2:0|2:0|1:0,0:0:0:0:
95,158,4700,1,0,1:0:0:0:
170,134,4849,2,0,L|203:160,3,26.2500010013581,0|0|2|0,1:0|2:0|2:0|2:0,0:0:0:0:
190,150,5149,6,0,L|266:147,1,59.5000011348724,2|0,1:2|2:0,0:0:0:0:
333,117,5442,5,4,1:0:0:0:
333,117,5601,2,0,L|327:244,1,119.000002269745,2|0,2:0|2:0,0:0:0:0:
322,325,6055,1,0,1:0:0:0:
177,220,6351,2,0,P|129:213|94:218,1,59.5000011348724,0|0,1:0|2:0,0:0:0:0:
57,148,6657,6,0,L|50:73,1,59.5000011348724,0|0,1:0|2:0,0:0:0:0:
147,118,6948,2,0,L|159:43,1,59.5000011348724,0|0,1:0|2:0,0:0:0:0:
259,22,7239,2,0,P|263:51|260:80,1,59.5000011348724,0|0,1:0|2:0,0:0:0:0:
386,47,7539,2,0,P|381:76|384:105,1,59.5000011348724,0|0,1:0|2:0,0:0:0:0:
434,194,7839,5,4,1:0:0:0:
434,194,7991,2,0,L|428:312,1,119.000002269745,2|0,2:0|2:0,0:0:0:0:
353,363,8448,1,0,1:0:0:0:
243,221,8752,2,0,P|240:181|251:144,1,59.5000011348724,0|0,1:0|2:0,0:0:0:0:
306,81,9050,6,0,L|375:80,1,59.5000011348725,6|0,1:3|2:0,0:0:0:0:
418,181,9347,2,0,L|349:180,1,59.5000011348725,0|0,1:0|2:0,0:0:0:0:
277,248,9645,2,0,P|285:280|279:324,1,59.5000011348725,4|2,1:3|2:3,0:0:0:0:
188,348,9943,2,0,P|187:318|194:289,1,59.5000011348725,4|2,1:3|2:3,0:0:0:0:
168,190,10250,5,4,1:0:0:0:
168,190,10400,2,0,L|176:68,1,119.000002269745,2|0,2:0|2:0,0:0:0:0:
247,16,10850,1,0,1:0:0:0:
297,187,11150,2,0,P|339:197|376:194,1,59.5000011348725,0|0,1:0|2:0,0:0:0:0:
443,237,11450,6,0,L|446:312,1,59.5000011348725,0|0,1:0|2:0,0:0:0:0:
368,368,11750,2,0,P|321:371|286:357,1,59.5000011348725,0|0,1:0|2:0,0:0:0:0:
232,288,12045,6,0,L|237:235,4,29.7500005674362,8|8|8|8|8,1:3|1:3|1:3|1:3|1:3,0:0:0:0:
160,341,12479,1,0,1:0:0:0:
160,341,12638,6,0,L|75:337,1,59.5000011348725,4|0,1:2|1:0,0:0:0:0:
127,252,12938,2,0,L|67:254,1,59.5000011348725,4|0,1:2|1:0,0:0:0:0:
17,179,13239,2,0,P|10:148|15:100,1,59.5000011348725,4|0,1:2|1:0,0:0:0:0:
98,105,13540,2,0,P|105:74|100:26,1,59.5000011348725,4|0,1:2|1:0,0:0:0:0:
192,27,13841,6,0,P|200:-5|200:-23,4,29.7500005674362,8|8|8|0|0,1:0|1:0|1:0|1:0|1:0,0:0:0:0:
199,116,14266,1,8,1:0:0:0:
199,116,14337,1,0,1:0:0:0:
199,116,14408,2,0,L|202:167,3,29.7500005674362,0|0|0|0,1:0|1:0|1:0|1:0,0:0:0:0:
221,164,14709,1,0,1:0:0:0:
346,211,15029,5,12,1:0:0:0:
346,211,15104,1,0,1:0:0:0:
346,211,15180,2,0,B|387:226|387:226|472:208,1,119.000002269745,2|2,1:2|1:2,0:0:0:0:
480,123,15635,1,8,1:0:0:0:
301,113,15938,2,0,P|292:160|298:194,1,59.5000011348725,10|0,1:2|1:2,0:0:0:0:
283,260,16241,6,0,L|206:260,1,59.5000011348725,10|0,1:2|1:2,0:0:0:0:
154,316,16544,2,0,L|94:316,1,59.5000011348725,10|0,1:2|1:0,0:0:0:0:
34,229,16847,2,0,P|26:184|30:151,1,59.5000011348725,10|0,1:2|1:0,0:0:0:0:
102,123,17150,2,0,P|110:78|106:45,1,59.5000011348725,10|0,1:2|1:0,0:0:0:0:
187,19,17451,5,10,1:2:0:0:
187,19,17526,1,0,1:0:0:0:
187,19,17601,2,0,L|319:22,1,119.000002269745,2|2,1:2|1:2,0:0:0:0:
380,70,18051,1,8,1:0:0:0:
240,181,18351,2,0,L|247:262,1,59.5000011348725,10|0,1:2|1:2,0:0:0:0:
301,320,18651,6,0,P|334:311|372:312,1,59.5000011348725,10|0,1:2|1:0,0:0:0:0:
435,356,18951,2,0,L|501:349,1,59.5000011348725,10|0,1:2|1:0,0:0:0:0:
511,262,19251,1,10,1:2:0:0:
511,262,19401,1,2,1:2:0:0:
448,198,19551,2,0,L|443:132,1,59.5000011348725,10|2,1:2|1:2,0:0:0:0:
386,69,19851,5,12,1:0:0:0:
386,69,19926,1,0,0:0:0:0:
386,69,20001,2,0,B|338:55|338:55|244:74,1,119.000002269745,2|2,1:2|1:2,0:0:0:0:
185,95,20451,1,8,1:0:0:0:
118,260,20751,2,0,L|123:337,1,59.5000011348725,10|0,1:2|1:2,0:0:0:0:
215,358,21051,6,0,P|247:344|294:340,1,59.5000011348725,10|0,1:2|1:0,0:0:0:0:
358,359,21351,2,0,P|381:332|421:309,1,59.5000011348725,10|0,1:2|1:0,0:0:0:0:
429,220,21651,2,0,L|433:139,1,59.5000011348725,10|0,1:2|1:0,0:0:0:0:
370,94,21951,2,0,L|374:13,1,59.5000011348725,10|0,1:2|1:0,0:0:0:0:
286,9,22251,5,12,1:0:0:0:
286,9,22326,1,0,0:0:0:0:
286,9,22401,2,0,L|294:134,1,119.000002269745,2|2,1:2|1:2,0:0:0:0:
255,208,22851,1,8,1:0:0:0:
87,146,23151,2,0,P|87:175|95:204,1,59.5000011348725,10|0,1:2|1:0,0:0:0:0:
151,274,23451,5,12,1:0:0:0:
99,346,23601,1,8,1:3:0:0:
99,346,23747,2,0,L|52:341,3,29.7500005674362,8|8|8|8,1:3|1:3|1:3|1:3,0:0:0:0:
55,306,24041,2,0,L|14:281,3,29.7500005674362,8|8|8|8,1:3|1:3|1:3|1:3,0:0:0:0:
28,251,24334,2,0,L|1:211,3,29.7500005674362,8|8|8|8,1:3|1:3|1:3|1:3,0:0:0:0:
22,174,24651,6,0,P|17:137|26:77,2,70,6|0|8,1:0|1:0|1:0,0:0:0:0:
105,136,25101,2,0,L|183:132,1,70,2|0,1:0|1:0,0:0:0:0:
247,76,25401,1,0,1:0:0:0:
255,166,25551,2,0,L|249:264,1,70,10|0,1:0|1:0,0:0:0:0:
223,322,25851,1,2,1:0:0:0:
223,322,26001,1,0,1:0:0:0:
309,295,26151,1,8,1:0:0:0:
328,315,26451,6,0,L|407:313,1,70,2|0,1:0|1:2,0:0:0:0:
492,266,26751,2,0,P|500:227|492:175,1,70,10|0,1:0|1:0,0:0:0:0:
433,114,27051,6,0,L|438:31,2,70,6|0|8,1:0|1:0|1:0,0:0:0:0:
384,191,27501,2,0,P|337:199|296:186,1,70,2|0,1:0|1:0,0:0:0:0:
236,149,27801,1,0,1:0:0:0:
191,228,27951,2,0,L|103:222,1,70,10|0,1:0|1:0,0:0:0:0:
55,286,28251,1,2,1:0:0:0:
55,286,28401,1,0,1:0:0:0:
19,202,28551,2,0,P|15:166|30:109,1,70,8|0,1:0|1:0,0:0:0:0:
97,60,28851,6,0,L|186:57,1,70,2|0,1:0|1:0,0:0:0:0:
245,126,29151,1,10,1:0:0:0:
245,126,29301,1,0,1:0:0:0:
312,45,29451,6,0,L|412:42,2,70,6|0|8,1:0|1:0|1:0,0:0:0:0:
353,126,29901,2,0,P|360:169|345:217,1,70,2|0,1:0|1:0,0:0:0:0:
313,276,30201,1,0,1:0:0:0:
235,228,30351,2,0,L|142:222,1,70,10|0,1:0|1:0,0:0:0:0:
87,271,30651,1,2,1:0:0:0:
87,271,30801,1,0,1:0:0:0:
47,188,30951,1,8,1:0:0:0:
68,163,31251,6,0,L|73:89,1,70,2|0,1:0|1:0,0:0:0:0:
165,43,31551,2,0,P|175:85|168:133,1,70,10|0,1:0|1:0,0:0:0:0:
140,211,31851,6,0,L|136:288,2,70,6|0|8,1:0|1:0|1:0,0:0:0:0:
218,257,32301,2,0,P|261:264|313:249,1,70,2|0,1:0|1:0,0:0:0:0:
369,221,32601,1,0,1:0:0:0:
329,138,32751,2,0,L|333:62,1,70,10|0,1:0|1:0,0:0:0:0:
412,23,33051,5,12,1:3:0:0:
459,97,33199,1,8,1:3:0:0:
459,97,33348,2,0,L|452:149,3,35,12|0|0|0,1:3|1:0|1:0|1:0,0:0:0:0:
473,173,33645,2,0,L|466:225,3,35,4|0|0|0,1:3|1:0|1:0|1:0,0:0:0:0:
488,249,33942,2,0,L|481:301,3,35,4|0|0|0,1:3|1:0|1:0|1:0,0:0:0:0:
502,333,34239,5,2,1:0:0:0:
415,359,34387,2,0,B|290:380|356:311|179:360,1,210,2|0,2:0|2:0,0:0:0:0:
209,352,36658,6,0,L|205:289,2,45.4999979171754,2|0|0,2:0|2:0|2:0,0:0:0:0:
134,330,37108,2,0,L|130:267,2,45.4999979171754,2|0|0,2:0|2:0|2:0,0:0:0:0:
57,317,37558,2,0,L|53:254,1,45.4999979171754,2|0,2:0|2:0,0:0:0:0:
19,202,37858,6,0,L|15:140,1,45.4999979171754,2|0,2:0|2:0,0:0:0:0:
78,111,38158,2,0,L|80:65,1,45.4999979171754,2|0,2:0|2:0,0:0:0:0:
147,25,38458,2,0,P|178:22|208:28,1,45.4999979171754,2|0,2:0|2:0,0:0:0:0:
240,83,38758,2,0,P|269:93|294:111,1,45.4999979171754,2|0,2:0|2:0,0:0:0:0:
346,176,39058,6,0,L|353:256,1,59.5000011348725,4|0,1:0|1:0,0:0:0:0:
363,323,39358,1,8,1:0:0:0:
188,362,39658,2,0,P|177:328|184:281,1,59.5000011348725,0|0,1:0|1:0,0:0:0:0:
227,230,39958,2,0,L|221:158,1,59.5000011348725,10|0,1:2|1:2,0:0:0:0:
160,105,40258,5,2,1:2:0:0:
160,105,40408,1,0,1:0:0:0:
223,42,40558,2,0,P|261:36|297:37,2,59.5000011348725,10|0|2,1:2|1:2|1:2,0:0:0:0:
142,3,41008,1,0,1:0:0:0:
80,67,41158,1,10,1:0:0:0:
66,88,41458,6,0,L|61:170,1,59.5000011348725,0|2,1:0|1:2,0:0:0:0:
136,198,41758,2,0,L|131:280,1,59.5000011348725,8|0,1:0|1:0,0:0:0:0:
218,284,42058,2,0,L|213:366,1,59.5000011348725,2|0,1:2|1:0,0:0:0:0:
302,329,42358,1,8,1:0:0:0:
373,371,42508,6,0,P|386:326|321:244,1,140,6|0,1:0|1:0,0:0:0:0:
273,190,42958,2,0,L|270:118,1,59.5000011348725,8|0,1:0|1:0,0:0:0:0:
325,60,43258,2,0,P|360:53|392:54,1,59.5000011348725,2|2,1:2|1:3,0:0:0:0:
460,97,43558,1,10,1:2:0:0:
391,189,43708,6,0,L|272:190,1,119.000002269745,4|0,1:0|1:0,0:0:0:0:
192,232,44158,1,8,1:0:0:0:
39,139,44458,2,0,P|30:105|38:64,1,59.5000011348725,0|0,1:0|1:0,0:0:0:0:
94,16,44758,1,10,1:2:0:0:
136,94,44908,2,0,L|272:86,1,119.000002269745,0|0,1:2|1:0,0:0:0:0:
328,138,45358,2,0,P|372:141|403:128,1,59.5000011348725,10|0,1:2|1:0,0:0:0:0:
444,69,45658,1,2,1:2:0:0:
444,69,45808,1,0,1:0:0:0:
489,145,45958,1,10,1:0:0:0:
471,175,46252,6,0,L|475:237,1,59.5000011348725,2|2,1:2|1:2,0:0:0:0:
452,321,46547,2,0,P|413:328|383:316,1,59.5000011348725,8|0,1:0|1:0,0:0:0:0:
331,259,46843,2,0,P|302:253|273:260,1,59.5000011348725,2|0,1:2|1:0,0:0:0:0:
203,316,47138,1,8,1:0:0:0:
125,245,47286,6,0,B|110:192|110:192|143:89,1,140,6|0,1:0|1:0,0:0:0:0:
171,29,47729,1,8,1:0:0:0:
279,170,48036,2,0,L|328:165,3,29.7500005674362,12|8|8|8,1:3|1:3|1:3|1:3,0:0:0:0:
335,138,48339,2,0,L|364:141,3,29.7500005674362,12|8|8|8,1:3|1:3|1:3|1:3,0:0:0:0:
408,111,48642,6,0,P|424:168|405:278,1,161.000003070831,6|8,1:0|1:0,0:0:0:0:
301,321,49101,2,0,B|261:331|224:309|224:309|198:322|198:322|173:308|135:320,1,161.000003070831,6|0,1:0|1:0,0:0:0:0:
52,241,49537,2,0,P|34:162|50:84,1,161.000003070831,14|0,1:0|1:0,0:0:0:0:
158,30,50000,2,0,B|197:55|197:55|343:40,1,161.000003070831,6|0,1:0|1:0,0:0:0:0:
423,88,50458,2,0,P|431:130|421:173,1,80.5000015354157,6|0,1:0|1:0,0:0:0:0:
330,213,50761,2,0,P|322:255|332:298,1,80.5000015354157,8|0,1:0|1:0,0:0:0:0:
406,340,51059,5,4,1:0:0:0:
406,340,51208,1,0,1:0:0:0:
479,286,51357,2,0,L|484:186,1,70,8|0,1:0|1:0,0:0:0:0:
440,134,51656,1,2,1:2:0:0:
440,134,51805,1,0,1:0:0:0:
366,187,51954,2,0,L|266:182,1,70,8|0,1:0|1:0,0:0:0:0:
197,237,52253,6,0,P|150:238|110:211,1,70,2|0,1:2|1:0,0:0:0:0:
115,318,52551,2,0,P|71:299|47:257,1,70,10|0,1:2|1:0,0:0:0:0:
51,190,52850,2,0,L|54:108,1,70,2|0,1:2|1:0,0:0:0:0:
105,45,53148,1,10,1:2:0:0:
105,45,53297,1,2,1:3:0:0:
193,126,53453,6,0,P|250:139|346:94,1,161.000003070831,6|8,1:0|1:0,0:0:0:0:
456,136,53897,2,0,P|483:167|395:186,1,161.000003070831,6|0,1:0|1:0,0:0:0:0:
336,307,54333,2,0,P|279:320|183:275,1,161.000003070831,14|0,1:0|1:0,0:0:0:0:
90,209,54783,2,0,P|84:127|71:40,1,161.000003070831,6|0,1:0|1:0,0:0:0:0:
191,25,55246,2,0,P|237:19|293:29,1,80.5000015354157,6|0,1:0|1:0,0:0:0:0:
353,112,55550,2,0,P|399:118|455:108,1,80.5000015354157,8|0,1:0|1:0,0:0:0:0:
505,217,55851,6,0,L|507:313,1,80.5000015354157,8|0,1:0|1:0,0:0:0:0:
390,263,56149,2,0,L|388:343,1,80.5000015354157,8|0,1:0|1:0,0:0:0:0:
283,283,56448,2,0,P|289:326|288:373,1,80.5000015354157,10|0,1:2|1:0,0:0:0:0:
188,295,56746,2,0,P|182:338|183:385,1,80.5000015354157,10|0,1:2|1:0,0:0:0:0:
99,341,57039,5,2,1:2:0:0:
99,341,57812,1,2,2:3:0:0:
16,275,57964,1,2,1:2:0:0:
135,116,58256,6,0,L|204:109,1,59.5000011348725,4|0,1:0|1:0,0:0:0:0:
283,100,58556,1,10,1:2:0:0:
407,228,58856,2,0,P|415:275|405:308,1,59.5000011348725,0|0,1:0|1:0,0:0:0:0:
351,351,59156,2,0,L|271:353,1,59.5000011348725,10|0,1:2|1:0,0:0:0:0:
215,305,59445,5,2,1:2:0:0:
215,305,59595,1,0,1:0:0:0:
279,243,59745,2,0,P|288:200|276:165,2,59.5000011348725,10|0|2,1:2|1:0|1:2,0:0:0:0:
191,224,60195,1,0,1:0:0:0:
117,274,60345,1,10,1:0:0:0:
90,257,60645,6,0,L|85:179,1,59.5000011348725,2|0,1:2|1:0,0:0:0:0:
147,131,60945,2,0,L|150:71,1,59.5000011348725,8|0,1:0|1:0,0:0:0:0:
225,22,61245,2,0,P|270:17|306:23,1,59.5000011348725,2|0,1:2|1:0,0:0:0:0:
366,52,61545,1,10,1:2:0:0:
283,116,61695,6,0,P|349:157|428:134,1,140,6|0,1:0|1:0,0:0:0:0:
489,112,62145,2,0,L|485:184,1,59.5000011348725,8|0,1:0|1:0,0:0:0:0:
419,231,62445,2,0,L|423:303,1,59.5000011348725,2|2,1:2|1:3,0:0:0:0:
357,352,62745,1,10,1:2:0:0:
301,281,62895,5,4,1:0:0:0:
301,281,63045,2,0,L|219:277,1,59.5000011348725,0|0,0:0|1:0,0:0:0:0:
296,201,63354,1,10,1:2:0:0:
179,116,63654,2,0,L|177:37,1,59.5000011348725,0|0,1:0|1:0,0:0:0:0:
89,36,63954,2,0,P|74:81|72:117,1,59.5000011348725,10|0,1:2|1:0,0:0:0:0:
88,180,64254,5,2,1:2:0:0:
88,180,64404,1,0,1:0:0:0:
22,240,64554,2,0,L|28:323,1,59.5000011348725,10|0,1:2|1:0,0:0:0:0:
97,353,64854,1,2,1:2:0:0:
97,353,65004,1,0,1:0:0:0:
148,280,65154,1,2,1:0:0:0:
172,305,65454,6,0,L|255:302,1,59.5000011348725,2|0,1:2|1:0,0:0:0:0:
320,296,65754,1,10,1:2:0:0:
386,355,65904,2,0,P|407:316|381:230,1,119.000002269745,2|2,1:2|1:2,0:0:0:0:
333,178,66354,1,8,1:0:0:0:
390,109,66498,5,6,1:0:0:0:
180,47,66770,1,0,1:0:0:0:
180,47,66914,2,0,L|186:140,1,70,8|0,1:0|1:0,0:0:0:0:
136,204,67215,2,0,L|130:252,3,35,12|8|8|8,1:3|1:3|1:3|1:3,0:0:0:0:
97,262,67532,2,0,L|91:310,3,35,12|8|8|8,1:3|1:3|1:3|1:3,0:0:0:0:
62,345,67849,6,0,L|229:342,1,161.000003070831,6|8,1:0|1:0,0:0:0:0:
292,241,68296,2,0,L|125:238,1,161.000003070831,6|0,1:0|1:0,0:0:0:0:
73,131,68728,2,0,P|118:116|245:126,1,161.000003070831,14|0,1:0|1:0,0:0:0:0:
325,45,69199,2,0,P|280:30|153:40,1,161.000003070831,6|0,1:0|1:0,0:0:0:0:
73,131,69665,2,0,L|81:228,1,80.5000015354157,6|0,1:0|1:0,0:0:0:0:
187,164,69962,2,0,L|179:261,1,80.5000015354157,8|0,1:0|1:0,0:0:0:0:
228,322,70246,5,4,1:0:0:0:
228,322,70397,1,0,1:0:0:0:
300,267,70549,2,0,L|385:261,1,70,8|0,1:0|1:0,0:0:0:0:
434,197,70853,1,2,1:2:0:0:
434,197,71005,1,0,1:0:0:0:
362,142,71157,2,0,L|277:136,1,70,8|0,1:0|1:0,0:0:0:0:
204,194,71461,6,0,P|174:174|149:124,1,70,2|0,1:2|1:0,0:0:0:0:
146,41,71756,2,0,P|126:69|97:88,1,70,10|0,1:2|1:0,0:0:0:0:
23,164,72052,2,0,L|24:243,1,70,2|0,1:2|1:0,0:0:0:0:
84,320,72347,1,10,1:2:0:0:
84,320,72495,1,2,1:3:0:0:
177,253,72639,6,0,L|348:244,1,161.000003070831,6|8,1:0|1:0,0:0:0:0:
439,177,73089,2,0,P|456:146|368:119,1,161.000003070831,6|0,1:0|1:0,0:0:0:0:
277,192,73539,2,0,P|263:266|339:331,1,161.000003070831,14|0,1:0|1:0,0:0:0:0:
428,280,73991,2,0,P|420:202|355:161,1,161.000003070831,6|0,1:0|1:0,0:0:0:0:
251,96,74450,2,0,P|246:60|248:6,1,80.5000015354157,6|0,1:0|1:0,0:0:0:0:
150,58,74747,2,0,P|151:98|145:138,1,80.5000015354157,8|0,1:0|1:0,0:0:0:0:
65,228,75045,6,0,L|67:317,1,80.5000015354157,12|0,1:0|1:0,0:0:0:0:
183,341,75344,2,0,L|184:260,1,80.5000015354157,8|0,1:0|1:0,0:0:0:0:
291,201,75644,2,0,P|297:253|294:290,1,80.5000015354157,8|0,1:0|1:0,0:0:0:0:
404,333,75943,2,0,P|402:292|408:253,1,80.5000015354157,8|0,1:0|1:0,0:0:0:0:
507,169,76243,6,0,L|503:82,1,80.5000015354157,8|0,1:0|1:0,0:0:0:0:
407,175,76542,2,0,L|403:88,1,80.5000015354157,8|0,1:0|1:0,0:0:0:0:
290,31,76842,2,0,P|245:24|192:39,1,80.5000015354157,8|0,1:0|1:0,0:0:0:0:
164,150,77141,2,0,P|203:157|242:150,1,80.5000015354157,8|0,1:0|1:0,0:0:0:0:
382,102,77441,6,0,L|386:148,3,40.2500007677078,8|0|0|0,1:0|1:0|1:0|1:0,0:0:0:0:
407,175,77740,2,0,L|403:221,3,40.2500007677078,8|0|0|0,1:0|1:0|1:0|1:0,0:0:0:0:
425,262,78040,6,0,P|378:255|348:258,3,40.2500007677078,8|0|0|0,1:0|1:0|1:0|1:0,0:0:0:0:
368,292,78340,2,0,P|322:305|296:320,3,40.2500007677078,8|0|0|0,1:0|1:0|1:0|1:0,0:0:0:0:
292,340,78639,6,0,L|191:333,1,80.5000015354157,8|0,1:0|1:0,0:0:0:0:
115,376,78939,2,0,L|34:381,1,80.5000015354157,8|0,1:0|1:0,0:0:0:0:
19,261,79238,5,8,1:0:0:0:
93,187,79388,1,8,1:0:0:0:
93,187,79538,2,0,L|101:124,3,40.2500007677078,8|8|8|8,1:0|1:3|1:3|1:3,0:0:0:0:
129,130,79837,6,0,L|124:54,2,70,6|0|8,1:0|1:0|1:0,0:0:0:0:
210,171,80297,2,0,P|252:178|308:169,1,70,2|0,1:0|1:0,0:0:0:0:
365,147,80599,1,0,1:0:0:0:
420,219,80750,2,0,L|426:298,1,70,10|0,1:0|1:0,0:0:0:0:
362,354,81051,1,2,1:0:0:0:
362,354,81201,1,0,1:0:0:0:
297,289,81352,1,8,1:0:0:0:
272,304,81654,6,0,L|181:297,1,70,2|0,1:0|1:0,0:0:0:0:
162,216,81955,2,0,L|92:221,1,70,10|0,1:0|1:0,0:0:0:0:
22,299,82257,6,0,P|12:344|16:374,2,70,2|0|8,1:0|1:0|1:0,0:0:0:0:
17,207,82700,2,0,L|22:129,1,70,2|0,1:0|1:0,0:0:0:0:
67,58,82995,1,0,1:0:0:0:
122,130,83143,2,0,P|188:141|221:137,1,70,10|2,1:0|1:3,0:0:0:0:
249,71,83439,2,0,L|333:77,1,70,2|0,1:0|1:0,0:0:0:0:
387,135,83742,1,8,1:0:0:0:
387,135,83893,1,0,1:0:0:0:
304,174,84045,6,0,P|293:221|296:270,1,70,2|0,1:0|0:0,0:0:0:0:
384,239,84348,2,0,P|395:286|392:335,1,70,8|0,1:0|1:0,0:0:0:0:
307,363,84651,6,0,L|216:356,1,70,6|0,1:0|1:0,0:0:0:0:
170,296,84950,1,8,1:0:0:0:
96,349,85100,2,0,P|57:355|14:342,2,70,2|0|0,1:0|1:0|1:0,0:0:0:0:
170,296,85550,2,0,L|178:218,1,70,10|2,1:0|1:3,0:0:0:0:
143,141,85850,1,2,1:0:0:0:
143,141,86000,1,0,1:0:0:0:
209,78,86150,1,8,1:0:0:0:
236,59,86450,6,0,L|239:144,1,70,2|0,1:0|1:0,0:0:0:0:
314,178,86749,2,0,L|317:263,1,70,10|0,1:0|1:0,0:0:0:0:
381,334,87049,6,0,P|417:326|465:328,2,70,6|0|8,1:0|1:0|1:0,0:0:0:0:
290,322,87499,2,0,P|254:330|206:328,2,70,2|0|0,1:0|1:0|1:0,0:0:0:0:
355,259,87949,2,0,L|362:167,1,70,10|0,1:0|1:0,0:0:0:0:
321,106,88239,6,0,P|295:91|275:84,4,35,14|8|8|8|12,1:3|1:3|1:3|1:3|1:3,0:0:0:0:
404,68,88689,2,0,P|430:53|450:46,4,35,10|8|12|8|8,1:3|1:3|1:3|1:3|1:3,0:0:0:0:
397,158,89139,2,0,P|404:173|413:188,3,35,14|8|8|8,1:3|1:3|1:3|1:3,0:0:0:0:
457,203,89439,6,0,L|453:291,1,70,6|0,1:0|0:0,0:0:0:0:
380,348,89748,2,2,B|331:304|269:323|269:323|210:286|210:286|166:315|166:315|117:287|57:304,1,350,10|0,1:0|0:0,0:0:0:0:
29,202,90657,6,0,L|26:159,3,35,2|0|0|0,1:0|1:0|1:0|1:0,0:0:0:0:
44,125,90956,2,0,L|132:119,1,70,8|0,1:0|1:0,0:0:0:0:
118,29,91256,2,0,L|200:60,1,70,0|0,1:0|1:0,0:0:0:0:
266,92,91556,1,12,1:0:0:0:
220,170,91706,1,0,1:0:0:0:
220,170,91856,6,0,L|224:246,1,70,0|0,1:0|1:0,0:0:0:0:
230,256,92081,1,0,1:0:0:0:
235,272,92156,2,0,L|231:348,1,70,10|0,1:0|0:0,0:0:0:0:
330,379,92456,2,0,P|374:352|392:251,1,140,2|10,1:0|1:2,0:0:0:0:
363,170,92905,6,0,L|531:164,1,140,6|0,1:0|1:0,0:0:0:0:
508,60,93355,2,0,P|470:54|421:57,1,70,8|0,1:0|1:0,0:0:0:0:
343,98,93655,2,0,P|305:104|256:101,1,70,6|2,1:3|1:3,0:0:0:0:
176,64,93955,1,10,1:2:0:0:
176,64,94105,6,0,L|173:219,1,140,6|0,1:0|1:0,0:0:0:0:
225,295,94555,2,0,P|272:289|308:254,1,70,8|0,1:0|1:0,0:0:0:0:
364,351,94854,2,0,P|392:313|393:263,1,70,6|2,1:3|1:3,0:0:0:0:
502,291,95154,2,0,P|495:244|461:208,1,70,10|0,1:0|1:0,0:0:0:0:
397,166,95454,6,0,L|405:71,1,70,2|0,1:3|1:0,0:0:0:0:
330,20,95754,1,10,1:0:0:0:
330,20,95904,1,0,1:0:0:0:
234,62,96054,2,0,L|239:131,1,70,6|2,1:3|1:3,0:0:0:0:
181,218,96354,2,0,L|186:287,1,70,10|0,1:0|1:0,0:0:0:0:
278,339,96654,6,0,L|326:332,3,35,6|0|0|0,1:0|1:0|1:0|1:0,0:0:0:0:
334,293,96953,2,0,L|380:306,3,35,8|0|0|0,1:0|1:0|1:0|1:0,0:0:0:0:
410,287,97253,2,0,L|413:209,1,70,2|2,1:0|1:0,0:0:0:0:
443,131,97553,1,8,1:0:0:0:
443,131,97703,6,0,P|391:143|292:92,1,140,6|8,1:0|1:0,0:0:0:0:
210,141,98151,2,0,L|215:229,1,70,8|8,1:0|1:0,0:0:0:0:
129,272,98448,2,0,L|134:360,1,70,8|8,1:0|1:0,0:0:0:0:
235,364,98745,1,8,1:0:0:0:
299,281,98894,6,0,B|345:258|345:258|463:274,1,140,6|0,1:0|1:0,0:0:0:0:
494,204,99345,1,10,1:2:0:0:
372,73,99645,2,0,L|290:65,1,59.5000011348725,0|0,1:0|1:0,0:0:0:0:
238,117,99945,2,0,P|183:121|156:109,1,59.5000011348725,10|0,1:2|1:0,0:0:0:0:
96,153,100245,1,2,1:2:0:0:
96,153,100395,1,0,1:0:0:0:
161,213,100545,2,0,L|157:284,2,59.5000011348725,10|0|2,1:2|1:0|1:2,0:0:0:0:
231,157,100995,1,0,1:0:0:0:
281,230,101145,1,10,1:0:0:0:
301,204,101445,6,0,L|379:198,1,59.5000011348725,2|2,1:2|1:3,0:0:0:0:
441,238,101745,2,0,P|454:203|457:157,1,59.5000011348725,10|0,1:2|1:0,0:0:0:0:
416,101,102045,2,0,L|419:33,1,59.5000011348725,2|0,1:2|1:0,0:0:0:0:
332,15,102345,1,10,1:2:0:0:
284,108,102489,6,0,P|248:130|139:109,1,140,6|0,1:0|1:0,0:0:0:0:
70,153,102932,2,0,L|65:224,1,59.5000011348725,8|0,1:0|1:0,0:0:0:0:
146,252,103231,2,0,L|151:323,1,59.5000011348725,2|2,1:2|1:3,0:0:0:0:
225,359,103529,1,10,1:2:0:0:
292,286,103684,6,0,B|325:269|325:269|422:273,1,119.000002269745,4|0,1:0|1:0,0:0:0:0:
496,281,104141,1,10,1:2:0:0:
404,127,104440,2,0,P|397:98|403:57,1,59.5000011348725,2|0,1:2|1:0,0:0:0:0:
320,26,104739,1,8,1:0:0:0:
320,26,104889,1,0,1:0:0:0:
269,99,105038,2,0,L|183:106,1,59.5000011348725,2|0,1:2|0:0,0:0:0:0:
152,172,105338,2,0,P|139:218|139:244,1,59.5000011348725,8|0,1:0|1:0,0:0:0:0:
218,268,105637,2,0,P|241:309|259:328,1,59.5000011348725,2|0,1:2|1:0,0:0:0:0:
335,342,105936,2,0,L|372:335,3,29.7500005674362,12|12|12|12,1:3|1:3|1:3|1:3,0:0:0:0:
398,307,106237,6,0,P|398:255|386:218,1,70,8|0,1:0|1:0,0:0:0:0:
295,200,106543,2,0,P|295:148|307:111,1,70,8|0,1:0|1:0,0:0:0:0:
221,60,106849,2,0,L|130:55,1,70,10|0,1:2|1:0,0:0:0:0:
203,146,107153,2,0,L|133:149,1,70,10|0,1:2|1:0,0:0:0:0:
29,240,107458,6,0,P|79:249|121:236,1,70,8|0,1:0|1:0,0:0:0:0:
139,357,107755,2,0,P|180:328|201:289,1,70,8|0,1:0|1:0,0:0:0:0:
287,215,108052,2,0,P|296:253|296:300,1,70,10|0,1:2|1:0,0:0:0:0:
415,176,108349,2,0,P|406:214|406:261,1,70,10|0,1:2|1:0,0:0:0:0:
457,353,108646,6,0,L|510:333,3,40.2500007677078,10|0|0|0,1:2|1:0|1:0|1:0,0:0:0:0:
489,298,108944,2,0,L|512:246,3,40.2500007677078,10|0|0|0,1:2|1:0|1:0|1:0,0:0:0:0:
479,215,109243,6,0,L|486:111,1,80.5000015354157,10|0,1:2|1:0,0:0:0:0:
432,43,109541,2,0,L|351:48,1,80.5000015354157,10|0,1:2|1:0,0:0:0:0:
271,141,109840,6,0,P|264:115|269:77,4,40.2500007677078,8|8|8|8|8,1:0|1:0|1:0|1:0|1:0,0:0:0:0:
312,240,110285,1,8,1:0:0:0:
401,294,110432,2,0,L|454:289,3,40.2500007677078,8|8|8|8,1:0|1:0|1:0|1:0,0:0:0:0:
471,247,110733,2,0,L|524:242,3,40.2500007677078,8|8|8|8,1:0|1:0|1:0|1:0,0:0:0:0:
505,188,111035,6,0,L|346:182,1,146.999995513916,6|8,1:0|1:0,0:0:0:0:
280,260,111508,1,0,1:0:0:0:
193,192,111653,2,0,P|184:144|187:98,1,73.4999977569581,2|0,1:0|1:0,0:0:0:0:
258,37,111943,1,8,1:0:0:0:
258,37,112093,1,0,1:0:0:0:
359,109,112244,6,0,L|268:115,1,73.4999977569581,2|0,1:0|1:0,0:0:0:0:
180,80,112544,2,0,L|89:86,1,73.4999977569581,10|0,1:0|1:0,0:0:0:0:
66,187,112844,1,2,1:0:0:0:
153,226,112994,1,0,1:0:0:0:
178,317,113144,1,8,1:2:0:0:
178,317,113294,6,0,B|217:292|217:292|345:297,1,146.999995513916,4|0,1:0|1:0,0:0:0:0:
426,275,113744,2,0,P|436:225|421:171,1,73.4999977569581,8|0,1:0|1:0,0:0:0:0:
402,102,114044,1,2,1:0:0:0:
402,102,114194,1,0,1:0:0:0:
340,193,114344,2,0,L|251:198,1,73.4999977569581,8|0,1:0|1:0,0:0:0:0:
167,277,114644,6,0,P|112:249|86:217,1,73.4999977569581,2|0,1:0|1:0,0:0:0:0:
158,144,114944,2,0,P|138:85|143:44,1,73.4999977569581,10|0,1:0|1:0,0:0:0:0:
227,10,115244,2,0,L|300:8,1,73.4999977569581,2|0,1:0|1:0,0:0:0:0:
375,89,115544,1,8,1:0:0:0:
345,195,115694,1,2,1:0:0:0:
424,271,115844,6,0,P|455:229|439:129,1,146.999995513916,4|8,1:0|1:0,0:0:0:0:
366,62,116298,1,0,1:0:0:0:
291,142,116450,2,0,B|239:157|239:157|131:138,1,146.999995513916,2|8,1:0|1:0,0:0:0:0:
147,140,116904,1,0,1:0:0:0:
43,178,117056,2,0,L|48:257,1,73.4999977569581,2|0,1:0|1:0,0:0:0:0:
157,247,117356,2,0,L|152:326,1,73.4999977569581,10|0,1:0|1:0,0:0:0:0:
246,377,117656,1,2,1:0:0:0:
308,286,117806,1,0,1:0:0:0:
257,188,117956,1,8,1:0:0:0:
257,188,118106,6,0,P|299:171|416:218,1,146.999995513916,6|0,1:0|1:0,0:0:0:0:
461,283,118556,2,0,P|412:288|359:268,1,73.4999977569581,10|0,1:0|1:0,0:0:0:0:
290,233,118856,2,0,L|199:241,1,73.4999977569581,2|0,1:0|1:0,0:0:0:0:
157,152,119156,2,0,L|83:145,1,73.4999977569581,8|0,1:0|1:0,0:0:0:0:
166,72,119456,2,0,P|215:92|235:137,1,73.4999977569581,2|0,1:0|1:0,0:0:0:0:
288,199,119756,2,0,P|323:225|433:188,1,146.999995513916,10|2,1:0|1:0,0:0:0:0:
418,206,120206,1,0,1:0:0:0:
479,114,120356,2,0,L|467:41,1,73.4999977569581,8|0,1:0|0:0,0:0:0:0:
340,47,120656,6,0,B|300:69|300:69|185:55,1,146.999995513916,4|8,1:0|1:0,0:0:0:0:
96,97,121106,1,0,1:0:0:0:
180,167,121256,2,0,P|194:211|188:253,2,73.4999977569581,2|0|8,1:0|1:0|1:0,0:0:0:0:
81,218,121706,1,0,1:0:0:0:
134,314,121856,2,0,L|221:311,1,73.4999977569581,2|0,1:0|1:0,0:0:0:0:
285,233,122156,2,0,L|365:267,1,73.4999977569581,10|0,1:0|1:0,0:0:0:0:
413,353,122456,1,2,1:0:0:0:
468,257,122606,1,0,1:0:0:0:
406,165,122756,1,8,1:0:0:0:
406,165,122906,6,0,P|406:109|486:54,1,146.999995513916,4|0,1:0|1:0,0:0:0:0:
374,1,123356,2,0,P|320:7|277:33,1,73.4999977569581,8|0,1:0|1:0,0:0:0:0:
249,111,123656,2,0,L|78:103,1,146.999995513916,2|8,1:0|1:0,0:0:0:0:
15,171,124106,1,0,1:0:0:0:
15,171,124256,2,0,P|5:212|15:248,1,73.4999977569581,2|0,1:0|1:0,0:0:0:0:
100,307,124556,2,0,L|198:303,1,73.4999977569581,10|0,1:0|1:0,0:0:0:0:
265,243,124850,2,0,P|307:234|347:252,2,73.4999977569581,2|0|8,1:0|1:0|1:0,0:0:0:0:
338,325,125297,1,0,1:0:0:0:
338,325,125447,6,0,P|390:303|404:193,1,146.999995513916,4|8,1:0|1:0,0:0:0:0:
376,117,125897,1,0,1:0:0:0:
286,183,126047,2,0,L|199:169,1,73.4999977569581,2|0,1:0|1:0,0:0:0:0:
162,270,126347,2,0,L|89:281,1,73.4999977569581,8|0,1:0|1:0,0:0:0:0:
18,196,126647,2,0,B|0:146|0:146|22:35,1,146.999995513916,2|10,1:0|1:0,0:0:0:0:
18,53,127097,1,0,1:0:0:0:
114,107,127247,2,0,L|199:104,1,73.4999977569581,2|0,1:0|1:0,0:0:0:0:
281,44,127547,1,8,1:0:0:0:
253,150,127697,6,0,P|239:204|263:309,1,146.999995513916,6|0,1:0|1:0,0:0:0:0:
337,365,128146,2,0,L|443:358,1,73.4999977569581,8|0,1:0|1:0,0:0:0:0:
491,285,128443,1,2,1:0:0:0:
377,95,128740,2,0,L|296:93,1,73.4999977569581,8|0,1:0|1:0,0:0:0:0:
234,159,129037,6,0,L|170:149,3,36.749998878479,8|8|8|8,1:0|1:0|1:0|1:3,0:0:0:0:
161,184,129334,2,0,L|107:147,3,36.749998878479,12|8|8|8,1:3|1:3|1:3|1:3,0:0:0:0:
115,197,129631,6,0,L|33:201,1,73.4999977569581,12|8,1:3|1:3,0:0:0:0:
11,109,129928,2,0,L|93:105,1,73.4999977569581,12|12,1:3|1:3,0:0:0:0:
156,75,130231,6,0,L|221:71,2,52.5000020027161,4|0|0,1:0|1:0|1:0,0:0:0:0:
149,153,130692,2,0,L|206:175,2,52.5000020027161,2|0|0,1:3|1:0|1:0,0:0:0:0:
101,216,131154,2,0,L|143:260,2,52.5000020027161,2|0|0,1:3|1:0|1:0,0:0:0:0:
30,251,131615,2,0,L|49:308,2,52.5000020027161,2|0|0,1:3|1:0|1:0,0:0:0:0:
7,175,132077,2,0,L|14:108,1,52.5000020027161,2|0,2:3|2:0,0:0:0:0:
84,89,132384,2,0,L|96:37,1,52.5000020027161,2|0,2:3|2:0,0:0:0:0:
175,38,132692,6,0,P|219:65|317:36,1,157.500006008148,2|0,2:0|1:0,0:0:0:0:
486,200,133577,2,0,P|415:169|345:200,1,157.500006008148,8|12,1:3|1:3,0:0:0:0:
152,336,134490,2,0,P|126:299|158:203,1,140,8|8,1:0|1:0,0:0:0:0:
259,153,135100,1,4,1:0:0:0:
79,189,144848,6,0,L|74:130,2,41.9999987182618,4|0|0,1:0|3:0|3:0,0:0:0:0:
166,178,145316,1,0,3:0:0:0:
166,178,145470,2,0,L|162:219,1,41.9999987182618,8|0,1:0|3:0,0:0:0:0:
245,185,145774,2,0,L|242:143,1,41.9999987182618,0|0,3:0|3:0,0:0:0:0:
243,63,146079,2,0,L|331:58,1,83.9999974365235,2|0,1:3|3:0,0:0:0:0:
402,226,146694,2,0,L|318:230,1,83.9999974365235,8|0,1:0|3:0,0:0:0:0:
193,316,147309,6,0,P|158:302|141:286,2,41.9999987182618,2|0|0,1:3|3:0|3:0,0:0:0:0:
256,274,147768,2,0,P|291:260|308:244,2,41.9999987182618,0|8|0,3:0|1:0|3:0,0:0:0:0:
190,235,148227,2,0,L|183:178,1,41.9999987182618,0|0,3:0|3:0,0:0:0:0:
141,130,148533,2,0,P|174:118|228:131,2,83.9999974365235,2|0|8,1:3|3:0|1:0,0:0:0:0:
28,248,149427,2,0,L|26:284,3,20.9999993591309,8|8|8|8,3:0|3:0|3:0|3:0,0:0:0:0:
42,288,149737,6,0,L|95:286,2,41.9999987182618,4|0|0,1:0|3:0|3:0,0:0:0:0:
55,362,150203,1,0,3:0:0:0:
55,362,150358,2,0,L|103:382,1,41.9999987182618,8|0,1:0|3:0,0:0:0:0:
147,326,150662,2,0,P|158:300|160:279,1,41.9999987182618,0|0,3:0|3:0,0:0:0:0:
124,219,150967,2,0,P|116:181|126:121,1,83.9999974365235,2|0,1:3|3:0,0:0:0:0:
262,85,151576,2,0,P|266:126|258:167,1,83.9999974365235,8|0,1:0|3:0,0:0:0:0:
203,308,152182,5,8,1:0:0:0:
319,284,152339,1,0,1:0:0:0:
193,322,152642,5,8,1:0:0:0:
296,364,152798,1,0,1:0:0:0:
179,339,153092,6,0,L|173:287,4,35,8|8|8|8|8,1:0|1:3|1:3|1:3|1:3,0:0:0:0:
78,309,153546,2,0,L|84:257,4,35,8|8|8|8|8,1:0|1:3|1:3|1:3|1:3,0:0:0:0:
24,203,154001,6,0,L|116:193,1,70,8|8,1:0|1:0,0:0:0:0:
147,105,154299,2,0,L|216:112,1,70,8|8,1:0|1:0,0:0:0:0:
284,188,154598,6,0,P|336:197|379:181,2,70,6|0|8,1:0|1:0|1:0,0:0:0:0:
215,247,155070,2,0,L|221:328,1,70,2|0,1:0|1:0,0:0:0:0:
290,373,155367,1,0,1:0:0:0:
361,316,155516,2,0,L|437:310,1,70,10|0,1:0|1:0,0:0:0:0:
487,239,155816,1,2,1:0:0:0:
487,239,155966,1,0,1:0:0:0:
424,173,156116,1,8,1:0:0:0:
400,198,156416,6,0,L|315:194,1,70,2|0,1:0|1:0,0:0:0:0:
263,257,156716,2,0,L|193:260,1,70,10|0,1:0|1:0,0:0:0:0:
92,197,157016,6,0,P|78:151|86:104,2,70,6|0|8,1:0|1:0|1:0,0:0:0:0:
78,287,157466,2,0,P|92:333|84:380,1,70,2|0,1:0|1:0,0:0:0:0:
179,376,157766,1,0,1:0:0:0:
246,315,157913,2,0,L|323:312,1,70,10|0,1:0|1:0,0:0:0:0:
379,247,158216,1,2,1:0:0:0:
379,247,158367,1,0,1:0:0:0:
458,290,158519,2,0,P|474:252|459:200,1,70,8|0,1:0|1:0,0:0:0:0:
420,131,158822,6,0,L|325:125,1,70,2|2,1:0|1:3,0:0:0:0:
263,185,159125,2,0,L|179:139,1,70,10|2,1:0|1:2,0:0:0:0:
97,136,159424,6,0,B|88:173|88:173|100:231,1,70,6|0,1:0|1:0,0:0:0:0:
119,291,159722,1,8,1:0:0:0:
202,255,159871,2,0,B|233:248|233:248|270:257,2,70,2|0|0,1:0|1:0|1:0,0:0:0:0:
253,330,160319,2,0,P|310:323|336:293,1,70,10|0,1:0|1:0,0:0:0:0:
359,235,160631,1,2,1:0:0:0:
359,235,160781,1,0,1:0:0:0:
318,153,160931,1,8,1:0:0:0:
300,134,161231,6,0,L|215:130,1,70,2|0,1:0|1:0,0:0:0:0:
159,188,161522,2,0,P|122:191|76:169,1,70,10|0,1:0|1:0,0:0:0:0:
38,92,161825,6,0,L|31:17,2,70,6|0|8,1:0|1:0|1:0,0:0:0:0:
127,106,162270,2,0,L|133:36,2,70,2|0|0,1:0|1:0|1:0,0:0:0:0:
215,129,162707,2,0,P|223:84|241:44,1,70,10|0,1:0|1:0,0:0:0:0:
319,35,163005,5,10,1:3:0:0:
319,35,163156,2,0,L|372:31,4,35,8|8|8|8|8,1:0|1:0|1:0|1:3|1:0,0:0:0:0:
363,114,163609,2,0,P|375:138|383:165,3,35,8|8|8|8,1:0|1:3|1:0|1:0,0:0:0:0:
366,179,163911,2,0,P|366:205|362:233,3,35,4|4|4|4,1:3|1:3|1:3|1:3,0:0:0:0:
353,246,164236,6,2,P|304:268|150:189,1,210,14|0,1:0|1:0,1:0:0:0:
230,152,164827,2,2,P|252:201|173:355,1,210,10|0,1:0|1:0,0:0:0:0:
110,351,165418,1,10,1:0:0:0:
110,351,165566,2,2,B|89:304|117:255|117:255|96:207|96:207|159:160|173:81|132:4,1,350,2|0,1:0|1:0,0:0:0:0:
66,79,166463,1,0,1:0:0:0:
66,79,166615,6,0,L|63:132,3,35,12|0|0|0,1:0|1:0|1:0|1:0,0:0:0:0:
83,143,166916,2,0,L|80:196,3,35,8|0|0|0,1:0|1:0|1:0|1:0,0:0:0:0:
55,216,167218,6,0,L|57:306,1,70,8|0,1:0|1:0,0:0:0:0:
152,328,167519,2,0,L|153:258,1,70,8|0,1:0|1:0,0:0:0:0:
134,154,167821,6,0,P|179:137|227:137,1,70,8|2,1:0|1:3,0:0:0:0:
207,44,168122,2,0,P|250:63|284:97,1,70,8|0,1:0|1:0,0:0:0:0:
337,18,168424,2,0,P|354:62|353:110,1,70,8|0,1:0|1:0,0:0:0:0:
398,165,168725,1,8,1:0:0:0:
476,118,168876,1,0,1:0:0:0:
476,118,169027,6,0,L|479:262,1,140,14|10,1:0|1:0,0:0:0:0:
451,338,169472,2,0,L|307:335,1,140,2|0,1:0|1:0,0:0:0:0:
318,343,169843,1,0,1:0:0:0:
318,343,169918,2,0,P|332:301|296:197,1,140,10|10,1:0|1:0,0:0:0:0:
254,138,170365,2,0,B|200:123|200:123|100:149,1,140,2|0,1:0|0:0,0:0:0:0:
90,230,170815,2,0,L|233:224,1,140,10|8,1:0|1:0,0:0:0:0:
160,137,171270,1,0,1:0:0:0:
160,137,171425,6,0,L|165:75,2,46.6666666666667,14|0|0,1:0|1:0|1:0,0:0:0:0:
120,194,171723,2,0,L|123:240,2,46.6666666666667,8|0|0,1:0|1:0|1:0,0:0:0:0:
69,160,172022,2,0,P|43:165|-2:163,2,46.6666666666667,8|0|0,1:0|1:0|1:0,0:0:0:0:
87,102,172320,2,0,P|61:95|21:74,2,46.6666666666667,8|0|0,1:0|1:0|1:0,0:0:0:0:
136,65,172616,5,8,1:0:0:0:
136,65,172715,2,0,L|215:58,1,46.6666666666667,2|0,1:3|1:0,0:0:0:0:
232,95,172914,1,8,1:0:0:0:
232,95,173013,2,0,L|311:102,1,46.6666666666667,2|0,1:3|1:0,0:0:0:0:
323,139,173212,6,0,P|375:128|415:36,1,140,10|8,1:0|1:0,0:0:0:0:
485,225,173808,6,0,L|406:228,1,70,12|2,1:0|1:2,0:0:0:0:
340,279,174109,1,8,1:0:0:0:
294,200,174260,1,2,1:2:0:0:
216,247,174411,2,0,L|214:330,1,70,8|2,1:0|1:3,0:0:0:0:
111,348,174712,2,0,L|109:278,1,70,8|2,1:0|1:3,0:0:0:0:
49,208,175014,6,0,L|45:147,3,35,8|0|0|0,1:0|1:0|1:0|1:0,0:0:0:0:
78,139,175315,2,0,L|74:78,3,35,8|0|0|0,1:0|1:0|1:0|1:0,0:0:0:0:
48,66,175617,6,0,L|135:59,1,70,8|0,1:0|1:0,0:0:0:0:
192,7,175918,2,0,L|279:0,1,70,8|4,1:0|1:3,0:0:0:0:
306,81,176220,6,0,L|389:74,2,46.6666666666667,8|0|0,1:0|1:0|1:0,0:0:0:0:
276,133,176521,2,0,L|193:126,2,46.6666666666667,8|0|0,1:0|1:0|1:0,0:0:0:0:
321,173,176823,2,0,P|331:201|333:231,2,46.6666666666667,8|0|0,1:0|1:0|1:0,0:0:0:0:
271,208,177124,2,0,P|268:237|257:265,2,46.6666666666667,8|0|0,1:0|1:0|1:0,0:0:0:0:
210,203,177426,2,0,P|169:208|144:222,2,46.6666666666667,8|0|0,1:0|1:0|1:0,0:0:0:0:
137,264,177722,2,0,P|101:285|85:309,2,46.6666666666667,8|0|0,1:0|1:0|1:0,0:0:0:0:
111,349,178018,5,8,1:0:0:0:
111,349,178117,2,0,L|192:347,1,46.6666666666667,0|0,1:0|1:0,0:0:0:0:
213,372,178314,1,8,1:0:0:0:
213,372,178415,2,0,L|294:370,1,46.6666666666667,0|0,1:0|1:0,0:0:0:0:
314,344,178617,6,0,P|347:291|324:203,1,140,8|8,1:0|1:0,0:0:0:0:
216,173,179071,1,0,1:0:0:0:
291,122,179223,2,0,L|348:117,2,35,8|0|0,1:0|1:0|1:0,0:0:0:0:
215,71,179526,2,0,L|158:66,2,35,8|0|0,1:0|1:0|1:0,0:0:0:0:
295,28,179829,6,0,L|393:23,1,70,10|0,1:0|1:0,0:0:0:0:
465,103,180126,2,0,L|395:99,1,70,10|0,1:0|1:0,0:0:0:0:
333,166,180429,2,0,P|325:195|330:240,2,46.6666666666667,10|0|0,1:0|1:0|1:0,0:0:0:0:
400,205,180720,2,0,P|408:234|403:279,2,46.6666666666667,10|0|0,1:0|1:0|1:0,0:0:0:0:
455,150,181005,6,0,P|480:225|464:319,1,161.000003070831,12|8,1:0|1:0,0:0:0:0:
376,351,181466,2,0,B|314:321|314:321|197:340,1,161.000003070831,4|0,1:0|1:0,0:0:0:0:
135,309,181912,2,0,P|126:271|135:214,1,70,4|0,1:0|1:0,0:0:0:0:
195,152,182212,5,12,1:3:0:0:
195,152,182362,1,8,1:3:0:0:
268,206,182512,2,0,L|355:202,1,70,12|8,1:3|1:3,0:0:0:0:
418,245,182812,2,0,P|430:208|428:164,1,70,12|8,1:3|1:3,0:0:0:0:
396,92,183112,1,12,1:3:0:0:
305,98,183262,1,8,1:3:0:0:
243,13,183409,6,0,P|152:44|107:107,1,161.000003070831,6|8,1:0|1:0,0:0:0:0:
193,183,183873,2,0,P|207:216|113:316,1,161.000003070831,6|0,1:0|1:0,0:0:0:0:
53,236,184301,2,0,B|90:211|90:211|225:219,1,161.000003070831,14|0,1:0|1:0,0:0:0:0:
313,273,184751,2,0,P|354:233|292:176,1,161.000003070831,6|0,1:0|1:0,0:0:0:0:
239,285,185215,2,0,L|234:380,1,80.5000015354157,14|0,1:0|1:0,0:0:0:0:
134,296,185516,2,0,L|129:215,1,80.5000015354157,8|0,1:0|1:0,0:0:0:0:
197,134,185818,6,0,L|292:127,1,70,4|0,1:0|1:0,0:0:0:0:
328,61,186116,1,8,1:0:0:0:
328,61,186265,1,0,1:0:0:0:
357,151,186415,2,0,P|363:186|339:242,1,70,2|0,1:2|1:0,0:0:0:0:
304,295,186713,1,8,1:0:0:0:
380,344,186862,1,0,1:0:0:0:
429,267,187012,6,0,L|434:197,1,70,2|0,1:2|1:0,0:0:0:0:
499,114,187312,2,0,P|505:74|484:23,1,70,10|0,1:2|1:0,0:0:0:0:
396,16,187606,2,0,P|388:50|395:84,1,70,2|0,1:2|1:0,0:0:0:0:
439,179,187906,1,8,1:2:0:0:
439,179,188056,1,0,1:2:0:0:
347,237,188206,6,0,L|172:245,1,161.000003070831,6|8,1:0|1:0,0:0:0:0:
84,179,188653,2,0,P|57:143|138:136,1,161.000003070831,6|0,1:0|1:0,0:0:0:0:
248,164,189097,2,0,P|279:127|243:20,1,161.000003070831,14|0,1:0|1:0,0:0:0:0:
133,53,189560,2,0,P|99:123|137:190,1,161.000003070831,6|0,1:0|1:0,0:0:0:0:
241,253,190014,2,0,P|259:300|261:342,1,80.5000015354157,6|0,1:0|1:0,0:0:0:0:
145,362,190312,2,0,P|150:322|165:285,1,80.5000015354157,8|0,1:0|1:0,0:0:0:0:
204,177,190611,6,0,L|199:89,1,70,4|0,1:0|1:0,0:0:0:0:
252,26,190909,1,8,1:0:0:0:
252,26,191058,1,0,1:0:0:0:
313,93,191208,2,0,P|349:102|402:90,1,70,2|0,1:2|1:0,0:0:0:0:
460,53,191508,1,8,1:0:0:0:
460,144,191658,1,0,1:0:0:0:
414,230,191808,6,0,L|332:235,1,70,2|0,1:2|1:0,0:0:0:0:
253,287,192108,2,0,P|232:253|223:216,1,70,10|0,1:2|1:0,0:0:0:0:
125,262,192415,2,0,P|120:222|127:184,1,70,2|0,1:2|1:0,0:0:0:0:
19,185,192707,2,0,P|31:147|54:116,1,70,10|2,1:2|1:3,0:0:0:0:
153,86,192995,6,0,L|246:80,2,80.5000015354157,4|8|8,1:0|1:0|1:0,0:0:0:0:
94,191,193454,2,0,P|97:234|188:223,1,161.000003070831,6|8,1:0|1:0,0:0:0:0:
288,154,193922,2,0,P|312:197|309:259,1,80.5000015354157,4|8,1:0|1:0,0:0:0:0:
259,335,194222,5,0,1:0:0:0:
259,335,194372,2,0,P|310:317|426:340,1,161.000003070831,6|8,1:0|1:0,0:0:0:0:
507,256,194822,2,0,L|513:162,1,80.5000015354157,4|0,1:0|1:0,0:0:0:0:
394,148,195122,2,0,L|388:54,1,80.5000015354157,8|8,1:0|1:0,0:0:0:0:
286,39,195431,6,0,P|241:35|195:39,1,70,4|0,1:0|1:0,0:0:0:0:
137,82,195726,1,8,1:0:0:0:
137,82,195874,1,0,1:0:0:0:
213,131,196022,2,0,L|220:206,1,70,2|0,1:2|1:0,0:0:0:0:
170,278,196317,1,8,1:0:0:0:
250,321,196465,1,0,1:0:0:0:
300,230,196613,6,0,P|343:227|388:227,1,70,2|0,1:2|1:0,0:0:0:0:
333,128,196908,2,0,P|375:136|418:147,1,70,10|0,1:2|1:0,0:0:0:0:
398,37,197204,2,0,P|436:55|475:78,1,70,2|0,1:2|1:0,0:0:0:0:
487,173,197499,1,10,1:2:0:0:
401,142,197641,1,2,1:2:0:0:
416,242,197784,6,0,L|426:306,4,40.2500007677078,12|8|8|8|8,1:0|1:0|1:0|1:0|1:0,0:0:0:0:
302,282,198252,2,0,L|284:344,4,40.2500007677078,12|8|8|8|8,1:0|1:0|1:0|1:0|1:0,0:0:0:0:
182,263,198700,1,12,1:0:0:0:
182,263,198776,1,0,1:0:0:0:
182,263,198853,2,0,L|139:311,2,40.2500007677078,8|8|8,1:0|1:0|1:0,0:0:0:0:
123,184,199160,5,12,1:0:0:0:
97,97,199303,2,0,P|123:70|174:39,1,70,8|8,1:0|1:0,0:0:0:0:
253,68,199599,6,0,L|313:51,3,40.2500007677078,4|4|4|4,1:3|1:3|1:3|1:3,0:0:0:0:
341,79,199903,2,0,L|401:62,3,40.2500007677078,4|4|4|4,1:3|1:3|1:3|1:3,0:0:0:0:
429,87,200208,6,0,P|436:129|430:191,1,80.5000015354157,8|0,1:0|1:0,0:0:0:0:
342,215,200512,2,0,P|335:257|341:319,1,80.5000015354157,8|0,1:0|1:0,0:0:0:0:
251,356,200817,2,0,L|154:360,1,80.5000015354157,10|0,1:2|1:0,0:0:0:0:
209,243,201121,2,0,L|112:239,1,80.5000015354157,10|0,1:2|1:0,0:0:0:0:
84,337,201426,6,0,P|42:300|26:243,1,80.5000015354157,8|0,1:0|1:0,0:0:0:0:
18,174,201724,2,0,P|38:120|86:87,1,80.5000015354157,8|0,1:0|1:0,0:0:0:0:
148,58,202023,2,0,B|191:68|191:68|239:99,1,80.5000015354157,10|0,1:2|1:0,0:0:0:0:
304,151,202321,2,0,B|323:190|323:190|331:247,1,80.5000015354157,10|4,1:2|1:3,0:0:0:0:
342,277,202545,1,4,1:3:0:0:
342,277,202620,6,0,L|447:273,1,80.5000015354157,12|0,1:0|1:0,0:0:0:0:
384,154,202918,2,0,L|279:149,1,80.5000015354157,8|0,1:0|1:0,0:0:0:0:
168,227,203217,2,0,P|160:266|165:320,1,80.5000015354157,8|0,1:0|1:0,0:0:0:0:
274,350,203515,2,0,P|276:309|267:270,1,80.5000015354157,8|0,1:0|1:0,0:0:0:0:
351,165,203814,5,10,1:2:0:0:
351,165,203962,1,2,1:3:0:0:
423,261,204111,2,0,L|518:253,1,80.5000015354157,10|2,1:2|1:3,0:0:0:0:
393,335,204408,6,0,P|357:303|351:241,1,80.5000015354157,10|2,1:2|1:2,0:0:0:0:
226,286,204705,2,0,P|223:237|262:189,1,80.5000015354157,10|2,1:2|1:2,0:0:0:0:
330,133,205002,6,0,L|392:129,3,40.2500007677078,12|0|0|0,1:0|1:0|1:0|1:0,0:0:0:0:
404,108,205302,2,0,L|461:130,3,40.2500007677078,8|0|0|0,1:0|1:0|1:0|1:0,0:0:0:0:
481,156,205602,6,0,P|493:206|486:258,1,80.5000015354157,8|0,1:0|1:0,0:0:0:0:
391,202,205902,2,0,P|379:252|386:304,1,80.5000015354157,8|0,1:0|1:0,0:0:0:0:
329,373,206202,6,0,L|226:380,1,80.5000015354157,8|0,1:0|1:0,0:0:0:0:
172,306,206502,2,0,L|91:300,1,80.5000015354157,8|0,1:0|1:0,0:0:0:0:
84,195,206802,6,0,P|103:186|147:185,3,40.2500007677078,8|0|0|0,1:0|1:0|1:0|1:0,0:0:0:0:
145,148,207102,2,0,P|167:147|207:165,3,40.2500007677078,8|0|0|0,1:0|1:0|1:0|1:0,0:0:0:0:
221,179,207402,6,0,L|293:173,1,70,4|8,1:0|1:3,0:0:0:0:
342,116,207705,2,0,L|411:121,1,70,12|8,1:3|1:3,0:0:0:0:
475,186,208008,2,0,P|482:226|470:271,1,70,12|8,1:3|1:3,0:0:0:0:
402,275,208311,2,0,P|378:308|338:331,1,70,12|8,1:3|1:3,0:0:0:0:
268,297,208614,6,0,L|177:291,1,70,12|8,1:3|1:3,0:0:0:0:
155,211,208915,2,0,L|64:205,1,70,12|8,1:3|1:3,0:0:0:0:
44,109,209217,2,0,P|79:101|136:104,1,70,12|8,1:3|1:3,0:0:0:0:
199,41,209518,2,0,P|234:49|291:46,1,70,12|8,1:3|1:3,0:0:0:0:
365,100,209840,6,0,L|368:277,1,146.999995513916,6|8,1:0|1:0,0:0:0:0:
291,327,210283,1,0,1:0:0:0:
205,257,210431,2,0,L|103:263,2,73.4999977569581,2|0|8,1:0|1:0|1:0,0:0:0:0:
291,188,210874,1,0,1:0:0:0:
291,327,211022,6,0,P|241:331|196:302,1,73.4999977569581,2|0,1:0|1:0,0:0:0:0:
131,261,211317,2,0,P|125:215|114:172,1,73.4999977569581,10|0,1:0|1:0,0:0:0:0:
126,93,211613,1,2,1:0:0:0:
211,49,211761,1,0,1:0:0:0:
298,85,211908,1,8,1:0:0:0:
392,27,212056,6,0,B|415:71|415:71|395:182,1,146.999995513916,4|0,1:0|1:0,0:0:0:0:
310,235,212504,2,0,P|306:271|314:328,1,73.4999977569581,8|0,1:0|1:0,0:0:0:0:
408,356,212804,2,0,L|234:350,1,146.999995513916,2|8,1:0|1:0,0:0:0:0:
207,253,213254,1,0,1:0:0:0:
125,326,213411,2,0,P|92:303|73:246,1,73.4999977569581,2|0,1:0|1:0,0:0:0:0:
154,195,213712,2,0,P|146:155|173:101,1,73.4999977569581,10|0,1:0|1:0,0:0:0:0:
242,54,214014,1,2,1:0:0:0:
312,138,214164,2,0,L|406:132,2,73.4999977569581,0|8|2,1:0|1:0|1:0,0:0:0:0:
244,224,214617,6,0,L|425:212,1,146.999995513916,6|8,1:0|1:0,0:0:0:0:
477,283,215067,1,0,1:0:0:0:
403,365,215217,2,0,P|390:326|394:268,1,73.4999977569581,2|0,1:0|1:0,0:0:0:0:
419,187,215517,1,8,1:0:0:0:
214,104,215817,2,0,L|223:186,1,73.4999977569581,2|0,1:0|1:0,0:0:0:0:
307,248,216117,2,0,P|279:288|239:302,1,73.4999977569581,10|0,1:0|1:0,0:0:0:0:
148,277,216417,1,2,1:0:0:0:
148,277,216567,1,0,1:0:0:0:
166,370,216717,1,8,1:0:0:0:
72,311,216867,6,0,P|68:252|137:192,1,146.999995513916,4|0,1:0|1:0,0:0:0:0:
219,256,217317,2,0,L|301:251,1,73.4999977569581,8|0,1:0|1:0,0:0:0:0:
364,168,217617,2,0,P|401:186|431:215,1,73.4999977569581,2|0,1:0|1:0,0:0:0:0:
406,316,217917,1,10,1:0:0:0:
406,316,218067,1,0,1:0:0:0:
303,355,218217,2,0,P|251:362|163:280,2,146.999995513916,2|10|2,1:0|1:0|1:0,0:0:0:0:
268,250,218967,1,0,1:0:0:0:
320,152,219117,1,8,1:0:0:0:
320,152,219424,6,0,P|269:157|222:146,2,73.4999977569581,4|0|8,1:0|0:0|1:0,0:0:0:0:
411,89,219876,1,0,1:0:0:0:
455,190,220027,2,0,L|458:290,1,73.4999977569581,2|0,1:0|1:0,0:0:0:0:
360,316,220328,2,0,L|362:242,1,73.4999977569581,8|0,1:0|1:0,0:0:0:0:
260,286,220630,2,0,P|194:305|103:293,1,146.999995513916,2|10,1:0|1:0,0:0:0:0:
43,214,221073,1,0,1:0:0:0:
138,159,221221,2,0,L|145:73,2,73.4999977569581,2|0|8,1:0|1:0|1:0,0:0:0:0:
226,211,221667,6,0,B|282:199|306:220|306:220|326:209|326:209|357:218|394:206,1,146.999995513916,6|0,1:0|1:0,0:0:0:0:
471,177,222116,2,0,L|467:250,1,73.4999977569581,10|0,1:0|1:0,0:0:0:0:
401,338,222413,2,0,P|341:355|317:351,1,73.4999977569581,2|0,1:0|1:0,0:0:0:0:
253,275,222710,1,8,1:0:0:0:
253,275,222858,1,0,1:0:0:0:
171,348,223007,2,0,L|83:352,1,73.4999977569581,2|0,1:0|1:0,0:0:0:0:
47,252,223308,1,10,1:0:0:0:
222,119,223610,2,0,L|225:204,1,73.4999977569581,2|0,1:0|1:0,0:0:0:0:
268,294,223911,1,8,1:0:0:0:
359,232,224055,1,4,1:0:0:0:
437,322,224199,6,0,B|390:342|390:342|293:329,1,146.999995513916,0|8,0:0|1:0,0:0:0:0:
191,288,224660,1,0,1:0:0:0:
85,321,224807,2,0,P|67:251|118:168,1,146.999995513916,2|8,1:0|1:0,0:0:0:0:
194,133,225257,1,0,1:0:0:0:
264,218,225413,2,0,P|324:214|359:189,1,73.4999977569581,2|0,1:0|1:0,0:0:0:0:
385,306,225714,2,0,P|437:277|458:239,1,73.4999977569581,10|0,1:0|1:0,0:0:0:0:
480,162,226016,1,2,1:0:0:0:
480,162,226166,1,0,1:0:0:0:
412,74,226317,1,8,1:0:0:0:
331,149,226468,6,0,P|272:162|212:91,1,146.999995513916,4|0,1:0|1:0,0:0:0:0:
108,73,226913,2,0,L|114:166,1,73.4999977569581,10|0,1:0|1:0,0:0:0:0:
56,242,227213,2,0,L|221:246,1,146.999995513916,2|8,1:0|1:0,0:0:0:0:
296,303,227663,1,0,1:0:0:0:
266,196,227813,6,0,L|270:137,3,36.749998878479,4|0|0|0,1:3|1:0|1:0|1:0,0:0:0:0:
298,122,228114,2,0,L|302:63,3,36.749998878479,4|0|0|0,1:3|1:0|1:0|1:0,0:0:0:0:
324,43,228416,6,0,L|427:39,1,73.4999977569581,8|4,1:0|1:3,0:0:0:0:
451,136,228717,2,0,L|348:132,1,73.4999977569581,8|4,1:0|1:3,0:0:0:0:
273,171,229026,6,0,B|219:183|219:183|101:153,1,146.999995513916,12|8,1:0|1:0,0:0:0:0:
38,131,229473,1,0,1:0:0:0:
38,131,229623,2,0,P|34:167|47:218,1,73.4999977569581,8|0,1:0|1:0,0:0:0:0:
127,242,229921,2,0,P|149:270|194:297,1,73.4999977569581,8|0,1:0|1:0,0:0:0:0:
269,258,230220,6,0,P|322:253|357:255,1,73.4999977569581,8|0,1:0|1:0,0:0:0:0:
322,160,230518,2,0,P|375:165|410:163,1,73.4999977569581,8|0,1:0|1:0,0:0:0:0:
475,112,230817,2,0,L|481:30,2,73.4999977569581,8|0|12,1:0|1:0|1:0,0:0:0:0:
449,301,231414,6,0,B|354:312|354:312|277:281,1,146.999995513916,8|8,1:0|1:0,0:0:0:0:
228,235,231861,1,0,1:0:0:0:
228,235,232011,2,0,L|222:149,1,73.4999977569581,8|0,1:0|1:0,0:0:0:0:
301,107,232309,2,0,L|307:21,1,73.4999977569581,8|0,1:0|1:0,0:0:0:0:
207,58,232608,6,0,P|162:68|118:56,1,73.4999977569581,8|0,1:0|1:0,0:0:0:0:
114,156,232906,2,0,P|75:131|52:91,1,73.4999977569581,8|0,1:0|1:0,0:0:0:0:
6,189,233205,1,8,1:0:0:0:
6,189,233354,1,0,1:0:0:0:
62,266,233503,1,12,1:0:0:0:
62,266,233810,6,0,L|236:258,1,146.999995513916,8|8,1:0|1:0,0:0:0:0:
289,309,234257,1,0,1:0:0:0:
345,232,234407,2,0,P|350:199|331:134,1,73.4999977569581,8|0,1:0|1:0,0:0:0:0:
252,128,234705,2,0,P|247:95|266:30,1,73.4999977569581,8|0,1:0|1:0,0:0:0:0:
355,30,235004,6,0,L|458:26,2,73.4999977569581,8|0|8,1:0|1:0|1:0,0:0:0:0:
407,109,235457,1,0,1:0:0:0:
407,109,235608,2,0,P|419:148|412:208,1,73.4999977569581,8|0,1:0|1:0,0:0:0:0:
395,273,235910,1,12,1:0:0:0:
209,318,236213,6,0,L|148:312,4,36.749998878479,8|8|8|8|8,1:0|1:0|1:0|1:0|1:0,0:0:0:0:
380,232,236802,2,0,L|441:226,4,36.749998878479,8|8|8|8|8,1:0|1:0|1:0|1:0|1:0,0:0:0:0:
364,120,237245,6,0,L|359:167,2,36.749998878479,8|8|8,1:0|1:0|1:3,0:0:0:0:
418,41,237540,2,0,L|423:-6,2,36.749998878479,8|8|8,1:0|1:0|1:3,0:0:0:0:
322,36,237839,2,0,L|317:-11,2,36.749998878479,8|8|8,1:0|1:0|1:3,0:0:0:0:
234,74,238143,1,8,1:3:0:0:
234,74,238219,1,8,1:3:0:0:
234,74,238295,6,0,B|212:121|230:169|230:169|217:183|217:183|247:227|227:291,1,210.000008010865,0|0,1:0|2:0,0:0:0:0:
