osu file format v14

[General]
AudioFilename: audio.mp3
AudioLeadIn: 0
PreviewTime: 110959
Countdown: 0
SampleSet: Normal
StackLeniency: 0.5
Mode: 0
LetterboxInBreaks: 0
WidescreenStoryboard: 0

[Editor]
Bookmarks: 48642,53453,72639,105038,164214
DistanceSpacing: 1
BeatDivisor: 4
GridSize: 4
TimelineZoom: 2.3

[Metadata]
Title:Trashed, Lost & Strungout
TitleUnicode:Trashed, Lost & Strungout
Artist:Children Of Bodom
ArtistUnicode:Children Of Bodom
Creator:FCL
Version:Extreme
Source:
Tags:are you dead yet? melodic death metal cob wajinshu deppyforce Maakkeli mkl themefisto feb Makeli english
BeatmapID:1058707
BeatmapSetID:497378

[Difficulty]
HPDrainRate:5.3
CircleSize:4.3
OverallDifficulty:9.2
ApproachRate:9.6
SliderMultiplier:1.9
SliderTickRate:1

[Events]
//Background and Video events
0,0,"children_of_bodom_obraz_vesele_telefon_flamingo_1920x1080.jpg",0,0
//Break Periods
//Storyboard Layer 0 (Background)
//Storyboard Layer 1 (Fail)
//Storyboard Layer 2 (Pass)
//Storyboard Layer 3 (Foreground)
//Storyboard Layer 4 (Overlay)
//Storyboard Sound Samples

[TimingPoints]
55,317.460317460317,4,2,1,60,1,0
658,298.507462686567,4,2,1,60,1,0
807,-133.333333333333,4,2,1,60,0,0
956,289.855072463768,4,2,1,60,1,0
1390,-133.333333333333,4,2,1,60,0,0
1535,306.122448979592,4,2,1,60,1,0
1841,304.568527918782,4,2,1,60,1,0
1993,-133.333333333333,4,2,1,60,0,0
3053,299.475917144996,4,2,1,60,1,0
3202,-133.333333333333,4,2,1,60,0,0
5442,318.302387267905,4,2,1,60,1,0
5601,-113.636363636364,4,2,1,60,0,0
5760,295.566502463054,4,2,1,60,1,0
6351,306.122448979592,4,2,1,60,1,0
6351,-117.647058823529,4,2,1,60,0,0
6657,291.26213592233,4,2,1,60,1,0
6948,-117.647058823529,4,2,1,60,0,0
7239,300,4,2,1,60,1,0
7539,-117.647058823529,4,2,1,60,0,0
7839,304.568527918781,4,2,1,60,1,0
7991,-117.647058823529,4,2,1,60,0,0
9050,297.766749379653,4,2,1,60,1,0
9347,-117.647058823529,4,2,1,60,0,0
10250,300,4,2,1,60,1,0
10400,-117.647058823529,4,2,1,60,0,0
12045,289.855072463768,4,1,1,60,1,0
12334,-117.647058823529,4,1,1,60,0,0
12638,300.751879699248,4,1,1,60,1,0
13841,283.687943262411,4,1,1,60,1,0
14266,-117.647058823529,4,1,1,60,0,0
14408,301.507537688442,4,1,1,60,1,0
15029,303.030303030303,4,1,1,60,1,0
15180,-117.647058823529,4,1,1,60,0,0
17451,300,4,1,1,60,1,0
17601,-117.647058823529,4,1,1,60,0,0
23601,293.398533007335,4,1,1,60,1,0
24481,-117.647058823529,4,1,1,60,0,0
24651,300,4,1,1,60,1,0
33051,297.029702970297,4,1,1,60,1,0
36370,288.461538461538,4,1,1,60,1,0
36658,300,4,2,1,60,1,0
36658,-153.846153846153,4,2,1,60,0,0
39058,300,4,1,1,60,1,0
39958,-117.647058823529,4,1,1,60,0,0
41158,-100,4,1,1,60,0,0
41758,-117.647058823529,4,1,1,60,0,0
42508,-100,4,1,1,60,0,0
42958,-117.647058823529,4,1,1,60,0,0
45958,-200,4,1,1,60,0,0
46252,295.566502463054,4,1,1,60,1,0
46547,-117.647058823529,4,1,1,60,0,0
47286,-100,4,1,1,60,0,0
47729,307.692307692308,4,1,1,60,1,0
47729,-117.647058823529,4,1,1,60,0,0
48036,303.030303030303,4,1,1,60,1,0
48642,306.122448979592,4,1,1,60,1,1
48642,-86.9565217391302,4,1,1,60,0,1
49101,291.26213592233,4,1,1,60,1,1
49101,-86.9565217391302,4,1,1,60,0,1
49537,309.278350515464,4,1,1,60,1,1
49537,-86.9565217391302,4,1,1,60,0,1
50000,-86.2068965517241,4,1,1,60,0,1
50155,303.030303030303,4,1,1,60,1,1
50458,-86.9565217391302,4,1,1,60,0,1
51059,298.507462686567,4,1,1,60,1,1
51656,-100,4,1,1,60,0,0
53453,296.296296296296,4,1,1,60,1,1
53453,-86.9565217391304,4,1,1,60,0,1
54333,300,4,1,1,60,1,1
54333,-86.9565217391304,4,1,1,60,0,1
54783,326.086956521739,4,1,1,60,1,1
54783,-83.3333333333333,4,1,1,60,0,1
54946,300,4,1,1,60,1,1
55246,304.568527918782,4,1,1,60,1,1
55851,298.507462686567,4,1,1,60,1,0
57039,300,4,1,1,60,1,0
57039,-117.647058823529,4,1,1,60,0,0
57339,315.78947368421,4,1,1,60,1,0
57812,304.568527918782,4,1,1,60,1,0
58256,300,4,1,1,60,1,0
59156,289.855072463768,4,1,1,60,1,0
59156,-117.647058823529,4,1,1,60,0,0
59445,300,4,1,1,60,1,0
59895,-117.647058823529,4,1,1,60,0,0
60345,-100,4,1,1,60,0,0
60645,-117.647058823529,4,1,1,60,0,0
61695,-100,4,1,1,60,0,0
62145,-117.647058823529,4,1,1,60,0,0
62895,-119.047619047619,4,1,1,60,0,0
63045,309.278350515464,4,1,1,60,1,0
63354,300,4,1,1,60,1,0
63954,-117.647058823529,4,1,1,60,0,0
64254,300,4,1,1,60,1,0
64254,-117.647058823529,4,1,1,60,0,0
65154,-200,4,1,1,60,0,0
65454,-117.647058823529,4,1,1,60,0,0
66498,272.727272727273,4,1,1,60,1,0
66770,288.461538461538,4,1,1,60,1,0
67058,315.78947368421,4,1,1,60,1,0
67215,317.460317460317,4,1,1,60,1,0
67849,294.117647058824,4,1,1,60,1,1
67849,-86.9565217391304,4,1,1,60,0,1
68143,306.122448979592,4,1,1,60,1,1
68296,288.461538461538,4,1,1,60,1,1
68296,-86.9565217391304,4,1,1,60,0,1
68728,314.13612565445,4,1,1,60,1,1
68728,-86.9565217391304,4,1,1,60,0,1
69199,309.278350515464,4,1,1,60,1,1
69199,-86.9565217391304,4,1,1,60,0,1
69353,312.5,4,1,1,60,1,1
69665,297.029702970297,4,1,1,60,1,1
69665,-86.9565217391304,4,1,1,60,0,1
69962,284.36018957346,4,1,1,60,1,1
70246,303.79746835443,4,1,1,60,1,0
71461,295.566502463054,4,1,1,60,1,0
72639,300,4,1,1,60,1,1
72639,-86.9565217391304,4,1,1,60,0,1
73839,305.732484076433,4,1,1,60,1,1
73991,-86.9565217391304,4,1,1,60,0,1
74450,297.029702970297,4,1,1,60,1,1
74747,298.507462686567,4,1,1,60,1,1
75045,299.550673989016,4,1,1,60,1,1
79837,310.880829015544,4,1,1,60,1,0
80147,301.507537688443,4,1,1,60,1,0
81051,301.507537688442,4,1,1,60,1,0
82257,295.566502463054,4,1,1,60,1,0
83439,303.030303030303,4,1,1,60,1,0
84651,299.850074962519,4,1,1,60,1,0
88239,300,4,1,1,60,1,0
89439,309.278350515464,4,1,1,60,1,1
89902,-98.0392156862745,4,1,1,60,0,1
90057,300,4,1,1,60,1,1
90657,299.850074962519,4,1,1,60,1,1
98003,297.176820208024,4,1,1,60,1,1
98894,-101.010101010101,4,1,1,60,0,0
99045,300,4,1,1,60,1,0
99945,-117.647058823529,4,1,1,60,0,0
101145,-200,4,1,1,60,0,0
101445,-117.647058823529,4,1,1,60,0,0
102489,291.26213592233,4,1,1,60,1,0
102489,-101.010101010101,4,1,1,60,0,0
102634,298.507462686567,4,1,1,60,1,0
103684,309.278350515464,4,1,1,60,1,0
103684,-99.009900990099,4,1,1,60,0,0
103838,303.030303030303,4,1,1,60,1,0
104141,299.25187032419,4,1,1,60,1,0
105936,301.507537688442,4,1,1,60,1,0
106237,306.122448979592,4,1,1,60,1,0
106849,304.568527918782,4,1,1,60,1,0
107458,297.029702970297,4,1,1,60,1,0
108646,298.507462686567,4,1,1,60,1,0
110138,294.117647058824,4,1,1,60,1,0
110138,-80,4,1,1,60,0,0
110432,301.507537688442,4,1,1,60,1,0
111035,329.67032967033,4,1,1,60,1,1
111035,-95.2380952380952,4,1,1,60,0,1
111364,289.855072463768,4,1,1,60,1,1
111653,-95.2380952380952,4,1,1,60,0,1
111943,301.507537688442,4,1,1,60,1,1
112244,300,4,1,1,60,1,1
112244,-95.2380952380952,4,1,1,60,0,1
115844,303.030303030303,4,1,1,60,1,1
115844,-95.2380952380952,4,1,1,60,0,1
117056,300,4,1,1,60,1,1
117056,-95.2380952380952,4,1,1,60,0,1
124850,298.507462686567,4,1,1,60,1,1
125447,300,4,1,1,60,1,1
125447,-95.2380952380952,4,1,1,60,0,1
128146,297.029702970297,4,1,1,60,1,1
128740,-95.2380952380952,4,1,1,60,0,1
129037,297.029702970297,4,1,1,60,1,0
130231,307.692307692308,4,2,1,60,1,0
132077,-133.333333333333,4,2,1,60,0,0
132691,295.566502463054,4,2,1,60,1,0
133577,304.568527918782,4,2,1,60,1,0
133881,304.568527918782,4,2,1,60,1,0
134490,305.343511450382,4,2,1,60,1,0
134490,-133.333333333333,4,2,1,60,0,0
135100,312.5,4,3,1,60,1,0
135100,-133.333333333333,4,3,1,60,0,0
135725,307.534597642235,4,3,1,60,1,0
135725,-133.333333333333,4,3,1,60,0,0
136340,301.507537688442,4,3,1,60,1,0
136943,304.568527918782,4,3,1,60,1,0
136943,-133.333333333333,4,3,1,60,0,0
137552,319.148936170213,4,3,1,60,1,0
137552,-133.333333333333,4,3,1,60,0,0
138190,295.566502463054,4,3,1,60,1,0
138190,-133.333333333333,4,3,1,60,0,0
138781,301.507537688442,4,3,1,60,1,0
139993,309.278350515464,4,3,1,60,1,0
139993,-133.333333333333,4,3,1,60,0,0
141230,304.568527918782,4,3,1,60,1,0
142448,298.507462686567,4,3,1,60,1,0
142448,-133.333333333333,4,3,1,60,0,0
142895,-133.333333333333,4,3,1,60,0,0
143045,306.122448979592,4,3,1,60,1,0
143657,298.507462686567,4,3,1,60,1,0
143657,-133.333333333333,4,3,1,60,0,0
143955,-105.263157894737,4,3,1,60,0,0
144254,317.460317460317,4,3,1,60,1,0
144254,-86.9565217391306,4,3,1,60,0,0
144569,279.069767441861,4,3,1,60,1,0
144848,312.5,4,3,1,60,1,0
144848,-166.666666666667,4,3,1,60,0,0
145470,304.568527918782,4,3,1,60,1,0
145470,-166.666666666667,4,3,1,60,0,0
146079,307.692307692308,4,3,1,60,1,0
146079,-166.666666666667,4,3,1,60,0,0
147309,306.122448979592,4,3,1,60,1,0
147309,-166.666666666667,4,3,1,60,0,0
148533,300,4,3,1,60,1,0
148533,-166.666666666667,4,3,1,60,0,0
149133,294.117647058824,4,3,1,60,1,0
149427,310.880829015544,4,3,1,60,1,0
149737,310.880829015544,4,3,1,60,1,0
149737,-166.666666666667,4,3,1,60,0,0
150358,304.568527918782,4,3,1,60,1,0
150358,-166.666666666667,4,3,1,60,0,0
151576,303.030303030303,4,3,1,60,1,0
151576,-166.666666666667,4,3,1,60,0,0
152182,314.13612565445,4,3,1,60,1,0
152339,303.030303030303,4,1,1,60,1,0
152642,312.5,4,1,1,60,1,0
152798,289.855072463768,4,1,1,60,1,0
153092,303.030303030303,4,1,1,60,1,0
154001,298.507462686567,4,1,1,60,1,0
154598,324.324324324324,4,1,1,60,1,0
154922,297.029702970297,4,1,1,60,1,0
155516,300,4,1,1,60,1,0
155816,300,4,1,1,60,1,0
157913,303.030303030303,4,1,1,60,1,0
158216,303.030303030303,4,1,1,60,1,0
159424,298.507462686567,4,1,1,60,1,0
160319,312.5,4,1,1,60,1,0
160631,300,4,1,1,60,1,0
161231,291.26213592233,4,1,1,60,1,0
161522,303.030303030303,4,1,1,60,1,0
161825,300,4,1,1,60,1,0
162125,291.26213592233,4,1,1,60,1,0
162707,294.117647058824,4,1,1,60,1,0
163005,302.267002518892,4,1,1,60,1,0
164214,-100,4,1,1,60,0,1
164236,295.566502463054,4,1,1,60,1,1
165566,-101.010101010101,4,1,1,60,0,1
166009,303.030303030303,4,1,1,60,1,1
166615,301.507537688442,4,1,1,60,1,1
169027,297.029702970297,4,1,1,60,1,1
170215,300,4,1,1,60,1,1
171115,310.880829015544,4,1,1,60,1,1
171425,298.507462686567,4,1,1,60,1,1
172616,298.06259314456,4,1,1,60,1,1
173808,301.507537688442,4,1,1,60,1,1
177722,296.296296296297,4,1,1,60,1,1
178314,303.030303030303,4,1,1,60,1,1
178617,303.030303030303,4,1,1,60,1,1
179829,297.029702970297,4,1,1,60,1,1
180429,291.26213592233,4,1,1,60,1,1
181005,303.030303030303,4,1,1,60,1,1
181005,-86.9565217391304,4,1,1,60,0,1
181308,317.460317460317,4,1,1,60,1,1
181466,-72.992700729927,4,1,1,60,0,1
181625,287.081339712919,4,1,1,60,1,1
181912,300,4,1,1,60,1,1
181912,-68.9655172413793,4,1,1,60,0,1
182212,300,4,1,1,60,1,0
183409,312.5,4,1,1,60,1,1
183409,-86.9565217391304,4,1,1,60,0,1
183873,285.714285714286,4,1,1,60,1,1
183873,-86.9565217391304,4,1,1,60,0,1
184301,300,4,1,1,60,1,1
184301,-86.9565217391304,4,1,1,60,0,1
184751,-89.2857142857143,4,1,1,60,0,1
184901,314.13612565445,4,1,1,60,1,1
185215,301.507537688442,4,1,1,60,1,1
185215,-86.9565217391304,4,1,1,60,0,1
185818,298.507462686567,4,1,1,60,1,0
187012,292.682926829268,4,1,1,60,1,0
187158,309.278350515464,4,1,1,60,1,0
187312,294.117647058824,4,1,1,60,1,0
187606,300,4,1,1,60,1,0
188206,298.507462686567,4,1,1,60,1,1
188206,-86.9565217391304,4,1,1,60,0,1
188803,294.117647058824,4,1,1,60,1,1
189097,309.278350515464,4,1,1,60,1,1
189097,-86.9565217391304,4,1,1,60,0,1
190014,298.507462686567,4,1,1,60,1,1
190611,298.507462686567,4,1,1,60,1,0
191208,300,4,1,1,60,1,0
191808,300,4,1,1,60,1,0
192415,292.682926829268,4,1,1,60,1,0
192707,288.461538461538,4,1,1,60,1,0
192995,306.122448979592,4,1,1,60,1,1
193454,312.5,4,1,1,60,1,1
193922,300,4,1,1,60,1,1
194222,300,4,1,1,60,1,1
194822,-86.9565217391304,4,1,1,60,0,1
195431,295.566502463054,4,1,1,60,1,0
197499,285.714285714286,4,1,1,60,1,0
197784,304.568527918782,4,1,1,60,1,1
198088,329.67032967033,4,1,1,60,1,1
198088,-86.9565217391304,4,1,1,60,0,1
198252,295.566502463054,4,1,1,60,1,1
198547,306.122448979592,4,1,1,60,1,1
198547,-86.9565217391304,4,1,1,60,0,1
198853,307.692307692308,4,1,1,60,1,1
199160,287.081339712919,4,1,1,60,1,1
199160,-86.9565217391304,4,1,1,60,0,1
199447,304.568527918782,4,1,1,60,1,1
200208,304.568527918782,4,1,1,60,1,1
201426,298.507462686567,4,1,1,60,1,1
203814,297.029702970297,4,1,1,60,1,1
205002,300,4,1,1,60,1,1
207402,303.030303030303,4,1,1,30,1,0
208008,-100,4,1,1,40,0,0
208614,301.507537688442,4,1,1,50,1,0
209217,-100,4,1,1,60,0,0
209840,295.566502463054,4,1,1,60,1,1
209840,-95.2380952380952,4,1,1,60,0,1
212056,-96.1538461538461,4,1,1,60,0,1
212204,300,4,1,1,60,1,1
212504,-95.2380952380952,4,1,1,60,0,1
213411,301.507537688442,4,1,1,60,1,1
213411,-95.2380952380952,4,1,1,60,0,1
214617,300,4,1,1,60,1,1
214617,-95.2380952380952,4,1,1,60,0,1
219424,301.507537688442,4,1,1,60,1,1
219424,-95.2380952380952,4,1,1,60,0,1
220630,295.566502463054,4,1,1,60,1,1
220630,-95.2380952380952,4,1,1,60,0,1
221516,303.030303030303,4,1,1,60,1,1
221667,-94.3396226415094,4,1,1,60,0,1
221819,297.029702970297,4,1,1,60,1,1
222116,-95.2380952380952,4,1,1,60,0,1
223007,301.507537688442,4,1,1,60,1,1
223007,-95.2380952380952,4,1,1,60,0,1
223911,288.461538461538,4,1,1,60,1,1
224055,-99.009900990099,4,1,1,60,0,1
224199,314.13612565445,4,1,1,60,1,1
224513,294.117647058824,4,1,1,60,1,1
224807,-95.2380952380952,4,1,1,60,0,1
225101,312.5,4,1,1,60,1,1
225101,-95.2380952380952,4,1,1,60,0,1
225413,301.507537688442,4,1,1,60,1,1
225714,-95.2380952380952,4,1,1,60,0,1
226468,-93.4579439252336,4,1,1,60,0,1
226613,300,4,1,1,60,1,1
227213,-95.2380952380952,4,1,1,60,0,1
227813,301.507537688442,4,1,1,60,1,0
229026,298.507462686567,4,1,1,60,1,0
233503,307.692307692308,4,1,1,60,1,0
233810,298.507462686567,4,1,1,60,1,0
235004,302.267002518892,4,1,1,60,1,0
236213,295.566502463054,4,1,1,60,1,0
236802,295.566502463054,4,1,1,60,1,0
237540,-95.2380952380952,4,1,1,60,0,0
237688,303.951367781155,4,1,1,60,1,0
238295,289.855072463768,4,1,1,60,1,0
238295,-95.2380952380952,4,1,1,60,0,0

[Colours]
Combo1 : 103,103,192
Combo2 : 248,102,39
Combo3 : 252,200,20
Combo4 : 57,152,208

[HitObjects]
147,209,55,5,4,1:0:0:0:
156,192,372,5,4,1:0:0:0:
167,177,658,5,4,1:0:0:0:
177,162,732,1,0,2:0:0:0:
187,147,807,2,0,L|189:99,2,35.6250000000001,0|0|0,2:0|2:0|1:0,2:0:0:0:
193,182,1245,5,0,1:0:0:0:
204,168,1318,1,0,2:0:0:0:
216,154,1390,2,0,L|222:106,2,35.8708125000001,0|0|0,2:0|2:0|1:0,2:0:0:0:
217,188,1841,5,0,1:0:0:0:
229,175,1917,1,0,2:0:0:0:
242,162,1993,2,0,L|252:115,2,35.6250000000001,0|0|0,2:0|2:0|1:0,2:0:0:0:
222,296,2297,1,0,1:0:0:0:
304,205,2450,1,0,1:0:0:0:
321,204,2526,1,0,2:0:0:0:
339,203,2602,1,0,2:0:0:0:
357,202,2678,1,0,2:0:0:0:
375,202,2754,1,0,1:0:0:0:
249,127,2906,1,0,1:0:0:0:
216,227,3053,5,0,1:0:0:0:
221,243,3127,1,0,2:0:0:0:
224,261,3202,2,0,P|224:281|220:316,2,35.6250000000001,0|0|0,2:0|2:0|1:0,2:0:0:0:
196,244,3651,5,0,1:0:0:0:
199,260,3726,1,0,2:0:0:0:
201,278,3801,2,0,P|200:298|193:332,2,35.6250000000001,0|0|0,2:0|2:0|1:0,2:0:0:0:
167,258,4250,5,0,1:0:0:0:
168,274,4325,1,0,2:0:0:0:
169,292,4400,2,0,P|166:312|156:346,2,35.6250000000001,0|0|0,2:0|2:0|1:0,2:0:0:0:
196,188,4700,1,0,1:0:0:0:
89,264,4849,1,0,1:0:0:0:
71,269,4924,1,0,2:0:0:0:
54,270,4999,2,0,P|28:268|8:261,1,35.6250000000001,2|0,2:0|2:0,2:0:0:0:
44,185,5149,2,0,L|142:179,1,71.2500000000002,2|0,1:2|2:0,2:0:0:0:
308,268,5442,5,4,1:0:0:0:
308,268,5601,2,0,B|281:221|281:221|297:85,1,160.974713333334,2|0,2:0|2:0,2:0:0:0:
414,35,6055,1,0,1:0:0:0:
428,49,6129,1,0,2:0:0:0:
438,66,6203,1,0,2:0:0:0:
444,85,6277,1,0,2:0:0:0:
444,105,6351,2,0,L|452:196,1,80.7500000000003,0|0,1:0|2:0,2:0:0:0:
343,310,6657,5,0,1:0:0:0:
343,310,6802,1,0,2:0:0:0:
377,180,6948,2,0,L|370:99,1,80.7500000000003,0|0,1:0|2:0,2:0:0:0:
332,281,7239,1,0,1:0:0:0:
332,281,7389,1,0,2:0:0:0:
295,72,7539,2,0,L|302:153,1,80.7500000000003,0|0,1:0|2:0,2:0:0:0:
354,298,7839,5,4,1:0:0:0:
210,259,7991,2,0,P|162:200|60:189,1,161.500000000001,2|0,2:0|2:0,2:0:0:0:
192,124,8448,1,0,1:0:0:0:
190,103,8524,1,0,2:0:0:0:
189,83,8600,1,0,2:0:0:0:
188,63,8676,1,0,2:0:0:0:
187,43,8752,2,0,P|232:53|283:42,1,80.7500000000003,0|0,1:0|2:0,2:0:0:0:
428,118,9050,5,6,1:3:0:0:
428,118,9198,1,0,2:0:0:0:
271,129,9347,2,0,P|218:121|163:131,1,80.7500000000003,0|0,1:0|2:0,2:0:0:0:
354,196,9645,1,4,1:3:0:0:
339,93,9794,1,2,2:3:0:0:
260,220,9943,1,4,1:3:0:0:
447,186,10092,1,2,2:3:0:0:
394,40,10250,5,4,1:0:0:0:
209,167,10400,2,0,P|189:213|248:295,1,161.500000000001,2|0,2:0|2:0,2:0:0:0:
410,231,10850,1,0,1:0:0:0:
428,222,10925,1,0,2:0:0:0:
448,219,11000,1,0,2:0:0:0:
468,221,11075,1,0,2:0:0:0:
486,228,11150,2,0,L|492:315,1,80.7500000000003,0|0,1:0|2:0,2:0:0:0:
326,363,11450,5,0,1:0:0:0:
326,363,11600,1,0,2:0:0:0:
266,184,11750,2,0,L|275:97,1,80.7500000000003,0|0,1:0|2:0,2:0:0:0:
172,220,12045,5,8,1:3:0:0:
151,221,12117,1,8,1:3:0:0:
131,223,12189,1,8,1:3:0:0:
111,225,12262,1,8,1:3:0:0:
91,227,12334,2,0,P|76:202|63:161,1,40.3750000000001,8|0,1:3|1:0,1:0:0:0:
106,100,12479,5,0,1:0:0:0:
113,90,12552,1,0,1:0:0:0:
120,79,12638,5,4,1:2:0:0:
138,105,12713,1,0,1:0:0:0:
165,123,12788,1,0,1:0:0:0:
197,128,12863,1,0,1:0:0:0:
228,121,12938,1,4,1:2:0:0:
254,102,13013,1,0,1:0:0:0:
271,75,13089,1,0,1:0:0:0:
290,49,13164,1,0,1:0:0:0:
316,31,13239,1,4,1:2:0:0:
348,26,13314,1,0,1:0:0:0:
380,28,13389,1,0,1:0:0:0:
408,42,13465,1,0,1:0:0:0:
430,66,13540,1,4,1:2:0:0:
442,96,13615,1,0,1:0:0:0:
446,127,13690,1,0,1:0:0:0:
437,158,13765,1,0,1:0:0:0:
416,182,13841,5,8,1:0:0:0:
387,155,13911,1,8,1:0:0:0:
349,141,13982,1,8,1:0:0:0:
309,144,14053,1,0,1:0:0:0:
274,163,14124,1,0,1:0:0:0:
277,174,14195,1,8,1:0:0:0:
280,185,14266,6,0,L|276:248,1,40.3750000000001,8|0,1:0|1:0,1:0:0:0:
229,322,14408,1,0,1:0:0:0:
246,311,14483,1,0,1:0:0:0:
264,303,14558,1,0,1:0:0:0:
284,298,14634,1,0,1:0:0:0:
304,297,14709,5,0,1:0:0:0:
304,297,15029,5,12,1:0:0:0:
304,297,15104,1,0,1:0:0:0:
304,297,15180,2,0,L|292:191,1,80.7500000000003,2|8,1:2|1:0,1:0:0:0:
326,184,15407,1,0,1:0:0:0:
321,164,15483,1,2,1:2:0:0:
316,144,15559,1,0,1:0:0:0:
311,125,15635,1,8,1:0:0:0:
306,105,15710,1,0,1:0:0:0:
301,86,15786,2,0,L|286:24,1,40.3750000000001,0|0,1:0|1:0,1:0:0:0:
185,151,15938,6,0,P|181:191|187:213,1,40.3750000000001,10|0,1:2|1:0,1:0:0:0:
120,80,16089,2,0,P|120:59|115:40,1,40.3750000000001,0|0,1:2|1:0,1:0:0:0:
38,197,16241,5,10,1:2:0:0:
41,208,16316,1,0,1:0:0:0:
45,219,16392,1,0,1:2:0:0:
49,230,16468,1,0,1:0:0:0:
53,241,16544,2,0,L|46:342,1,80.7500000000003,10|0,1:2|1:0,1:0:0:0:
66,355,16771,1,0,1:0:0:0:
77,351,16847,6,0,P|114:345|124:344,1,40.3750000000001,10|0,1:2|1:0,1:0:0:0:
216,234,16998,2,0,P|222:197|223:187,1,40.3750000000001,0|0,1:0|1:0,1:0:0:0:
258,340,17150,6,0,L|327:337,1,40.3750000000001,10|0,1:2|1:0,1:0:0:0:
136,245,17301,2,0,L|133:176,1,40.3750000000001,0|0,1:0|1:0,1:0:0:0:
189,93,17451,5,10,1:2:0:0:
189,93,17526,1,0,1:0:0:0:
189,93,17601,2,0,L|299:80,1,80.7500000000003,2|8,1:2|1:0,1:0:0:0:
300,112,17826,1,0,1:0:0:0:
315,98,17901,1,2,1:2:0:0:
332,89,17976,1,0,1:0:0:0:
352,84,18051,1,8,1:0:0:0:
372,84,18126,1,0,1:0:0:0:
392,88,18201,2,0,P|417:94|448:114,1,40.3750000000001,0|0,1:0|1:0,1:0:0:0:
503,211,18351,6,0,L|451:214,1,40.3750000000001,10|0,1:2|1:0,1:0:0:0:
347,325,18501,2,0,L|306:322,1,40.3750000000001,0|0,1:2|1:0,1:0:0:0:
219,243,18651,5,10,1:2:0:0:
214,231,18726,1,0,1:0:0:0:
211,219,18801,1,0,1:0:0:0:
210,206,18876,1,0,1:0:0:0:
210,193,18951,2,0,P|248:197|297:180,1,80.7500000000003,10|0,1:2|1:0,1:0:0:0:
315,150,19176,1,0,1:0:0:0:
315,150,19251,6,0,L|320:91,1,40.3750000000001,10|0,1:2|1:0,1:0:0:0:
397,259,19401,2,0,L|400:299,1,40.3750000000001,2|0,1:2|1:0,1:0:0:0:
290,127,19551,6,0,L|295:68,1,40.3750000000001,10|0,1:2|1:0,1:0:0:0:
427,275,19701,2,0,L|430:315,1,40.3750000000001,2|0,1:2|1:0,1:0:0:0:
416,136,19851,6,0,L|528:144,2,80.7500000000003,12|2|8,1:0|1:2|1:0,1:0:0:0:
378,160,20226,1,0,1:0:0:0:
359,167,20301,1,2,1:2:0:0:
339,171,20376,1,0,1:0:0:0:
319,169,20451,1,8,1:0:0:0:
300,164,20526,1,0,1:0:0:0:
282,153,20601,1,0,1:0:0:0:
267,140,20676,1,0,1:0:0:0:
256,123,20751,6,0,L|261:71,1,40.3750000000001,10|0,1:2|1:0,1:0:0:0:
122,187,20901,2,0,L|117:134,1,40.3750000000001,0|0,1:2|1:0,1:0:0:0:
43,279,21051,6,0,P|83:273|140:280,1,80.7500000000003,10|0,1:2|1:0,1:0:0:0:
154,302,21276,1,0,1:0:0:0:
154,302,21351,2,0,L|253:298,1,80.7500000000003,10|0,1:2|1:0,1:0:0:0:
256,270,21576,1,0,1:0:0:0:
267,271,21651,1,10,1:2:0:0:
279,273,21726,1,0,1:0:0:0:
291,275,21801,1,0,1:0:0:0:
303,276,21876,1,0,1:0:0:0:
316,275,21951,6,0,P|346:270|379:275,1,40.3750000000001,10|0,1:2|1:0,1:0:0:0:
348,132,22101,2,0,P|377:140|405:158,1,40.3750000000001,0|0,1:0|1:0,1:0:0:0:
268,67,22251,6,0,L|161:63,2,80.7500000000003,12|2|8,1:0|1:2|1:0,1:0:0:0:
266,111,22626,1,0,1:0:0:0:
246,114,22701,1,2,1:2:0:0:
226,118,22776,1,0,1:0:0:0:
206,122,22851,1,8,1:0:0:0:
186,126,22926,1,0,1:0:0:0:
166,130,23001,1,0,1:0:0:0:
147,134,23076,1,0,1:0:0:0:
127,139,23151,6,0,L|119:200,1,40.3750000000001,10|0,1:2|1:0,1:0:0:0:
253,273,23301,2,0,L|261:334,1,40.3750000000001,0|0,1:0|1:0,1:0:0:0:
114,379,23451,5,12,1:0:0:0:
325,351,23601,1,8,1:3:0:0:
339,322,23674,1,8,1:3:0:0:
346,290,23747,1,8,1:3:0:0:
345,258,23821,1,8,1:3:0:0:
335,227,23894,1,8,1:3:0:0:
318,200,23967,1,8,1:3:0:0:
295,178,24041,1,8,1:3:0:0:
270,146,24114,1,8,1:3:0:0:
261,107,24187,1,8,1:3:0:0:
269,68,24261,1,8,1:3:0:0:
292,36,24334,5,8,1:3:0:0:
299,45,24407,1,8,1:3:0:0:
306,54,24481,2,8,L|383:52,1,40.3750000000001,8|8,1:3|1:3,1:3:0:0:
406,159,24651,6,0,P|452:166|525:149,2,95,6|0|8,1:0|1:0|1:0,1:0:0:0:
252,223,25101,2,0,L|119:213,1,95,2|0,1:0|1:0,1:0:0:0:
311,286,25401,1,0,1:0:0:0:
162,129,25551,6,0,P|153:91|165:29,1,95,10|0,1:0|1:0,1:0:0:0:
134,286,25851,2,0,L|27:294,1,95,2|0,1:0|1:0,1:0:0:0:
235,333,26151,1,8,1:0:0:0:
235,333,26451,5,2,1:0:0:0:
159,208,26601,1,0,1:2:0:0:
239,355,26751,1,10,1:0:0:0:
285,171,26901,1,0,1:0:0:0:
346,344,27051,6,0,P|402:351|457:320,1,95,6|0,1:0|1:0,1:0:0:0:
508,135,27351,1,8,1:0:0:0:
372,322,27501,2,0,P|425:304|462:253,1,95,2|0,1:0|1:0,1:0:0:0:
511,112,27801,1,0,1:0:0:0:
368,220,27951,6,0,L|362:112,1,95,10|0,1:0|1:0,1:0:0:0:
207,276,28251,2,0,L|201:370,1,95,2|0,1:0|1:0,1:0:0:0:
153,185,28551,1,8,1:0:0:0:
153,185,28701,1,0,1:0:0:0:
287,250,28851,5,2,1:0:0:0:
126,296,29001,1,0,1:0:0:0:
318,358,29151,1,10,1:0:0:0:
127,271,29301,1,0,1:0:0:0:
333,193,29451,6,0,L|339:96,2,95,6|0|8,1:0|1:0|1:0,1:0:0:0:
237,359,29901,2,0,P|179:349|104:362,1,95,2|0,1:0|1:0,1:0:0:0:
27,212,30201,1,0,1:0:0:0:
204,260,30351,6,0,L|195:149,1,95,10|0,1:0|1:0,1:0:0:0:
368,319,30651,2,0,L|377:208,1,95,2|0,1:0|1:0,1:0:0:0:
500,127,30951,1,8,1:0:0:0:
500,127,31251,5,2,1:0:0:0:
319,103,31401,1,0,1:0:0:0:
375,224,31551,1,10,1:0:0:0:
404,38,31701,1,0,1:0:0:0:
478,233,31851,6,0,P|486:300|481:348,1,95,6|0,1:0|1:0,1:0:0:0:
297,365,32151,1,8,1:0:0:0:
458,211,32301,2,0,P|436:275|412:316,1,95,2|0,1:0|1:0,1:0:0:0:
285,375,32601,1,0,1:0:0:0:
346,178,32751,2,0,L|352:59,1,95,10|0,1:0|1:0,1:0:0:0:
215,191,33051,5,12,1:3:0:0:
213,205,33125,1,8,1:3:0:0:
212,219,33199,1,8,1:3:0:0:
211,233,33273,1,8,1:3:0:0:
210,247,33348,5,12,1:3:0:0:
240,235,33422,1,0,1:0:0:0:
273,233,33496,1,0,1:0:0:0:
306,241,33570,1,0,1:0:0:0:
333,259,33645,1,4,1:3:0:0:
355,284,33719,1,0,1:0:0:0:
378,308,33793,1,0,1:0:0:0:
409,320,33867,1,0,1:0:0:0:
442,320,33942,1,4,1:3:0:0:
472,307,34016,1,0,1:0:0:0:
495,283,34090,1,0,1:0:0:0:
507,252,34164,1,0,1:0:0:0:
485,217,34239,5,2,1:0:0:0:
265,308,34387,2,0,B|230:306|201:323|201:323|191:315|191:315|122:338|122:338|111:327|111:327|33:345|0:300|3:253,1,285,2|0,2:0|2:0,2:0:0:0:
242,219,36370,5,0,2:0:0:0:
243,209,36442,1,0,2:0:0:0:
244,199,36514,1,0,2:0:0:0:
245,189,36586,1,0,2:0:0:0:
246,181,36658,6,0,L|239:113,2,61.7500000000003,2|0|0,2:0|2:0|2:0,2:0:0:0:
338,254,37108,2,0,L|331:322,2,61.7500000000003,2|0|0,2:0|2:0|2:0,2:0:0:0:
223,284,37558,2,0,P|177:279|139:284,1,61.7500000000003,2|0,2:0|2:0,2:0:0:0:
83,207,37858,5,2,2:0:0:0:
83,207,38008,1,0,2:0:0:0:
168,102,38158,1,2,2:0:0:0:
168,102,38308,1,0,2:0:0:0:
219,211,38458,1,2,2:0:0:0:
219,211,38608,1,0,2:0:0:0:
83,207,38758,1,2,2:0:0:0:
83,207,38908,1,0,2:0:0:0:
276,146,39058,5,4,1:0:0:0:
151,169,39208,1,0,1:0:0:0:
289,126,39358,1,8,1:0:0:0:
289,126,39658,1,0,1:0:0:0:
289,126,39808,1,0,1:0:0:0:
203,244,39958,2,0,L|199:339,1,80.7500000000003,10|0,1:2|1:2,1:0:0:0:
171,167,40258,1,2,1:2:0:0:
261,188,40408,1,0,1:0:0:0:
85,150,40558,2,0,P|79:189|84:229,1,80.7500000000003,10|0,1:2|1:2,1:0:0:0:
199,324,40858,1,2,1:2:0:0:
118,354,41008,1,0,1:0:0:0:
261,188,41158,6,2,B|292:187|292:187|316:195|316:195|341:185|341:185|409:183,1,142.5,10|0,1:0|2:0,1:0:0:0:
400,183,41458,5,0,1:0:0:0:
345,92,41608,1,2,1:2:0:0:
391,263,41758,2,0,L|497:258,1,80.7500000000003,8|0,1:0|1:0,1:0:0:0:
339,346,42058,1,2,1:2:0:0:
339,346,42208,1,0,1:0:0:0:
261,188,42358,1,8,1:0:0:0:
472,73,42508,6,0,B|481:143|481:143|464:187|464:187|474:281,1,190,6|0,1:0|1:0,1:0:0:0:
255,372,42958,2,0,P|248:332|258:277,1,80.7500000000003,8|0,1:0|1:0,1:0:0:0:
193,117,43258,1,2,1:2:0:0:
258,51,43408,1,2,1:3:0:0:
192,239,43558,1,10,1:2:0:0:
282,167,43708,6,0,P|319:185|443:135,1,161.500000000001,4|0,1:0|1:0,1:0:0:0:
495,37,44158,1,8,1:0:0:0:
495,37,44458,1,0,1:0:0:0:
388,75,44608,1,0,1:0:0:0:
504,164,44758,1,10,1:2:0:0:
310,14,44908,2,0,P|305:54|308:94,1,80.7500000000003,0|2,1:2|1:2,1:0:0:0:
434,225,45208,1,0,1:0:0:0:
367,299,45358,2,0,L|268:296,1,80.7500000000003,10|0,1:2|1:0,1:0:0:0:
187,380,45658,1,2,1:2:0:0:
267,220,45808,1,0,1:0:0:0:
148,238,45958,6,2,B|152:164,1,71.25,10|0,1:0|2:0,1:0:0:0:
146,131,46252,5,2,1:2:0:0:
92,307,46399,1,2,1:2:0:0:
244,188,46547,2,0,P|290:178|348:181,1,80.7500000000003,8|0,1:0|1:0,1:0:0:0:
434,30,46843,1,2,1:2:0:0:
404,187,46990,1,0,1:0:0:0:
197,42,47138,1,8,1:0:0:0:
254,331,47286,6,2,B|276:276|254:232|254:232|232:185|262:129,1,190,6|0,1:0|1:0,1:0:0:0:
404,187,47729,2,0,P|364:198|298:180,1,80.7500000000003,8|0,1:0|1:0,1:0:0:0:
150,46,48036,1,12,1:3:0:0:
153,78,48111,1,8,1:3:0:0:
156,110,48187,1,8,1:3:0:0:
159,142,48263,1,8,1:3:0:0:
186,176,48339,1,12,1:3:0:0:
182,208,48414,1,8,1:3:0:0:
179,240,48490,1,8,1:3:0:0:
176,272,48566,1,8,1:3:0:0:
131,320,48642,6,0,B|177:302|177:302|216:314|216:314|241:295|241:295|284:322|361:289,1,218.500000000001,6|8,1:0|1:0,1:0:0:0:
279,146,49101,2,0,B|292:182|276:215|276:215|286:244|286:244|235:299|296:371,1,218.500000000001,6|0,1:0|1:0,1:0:0:0:
103,142,49537,2,0,B|163:157|223:97|223:97|194:134|214:198,1,218.500000000001,14|0,1:0|1:0,1:0:0:0:
56,79,50000,2,0,B|2:137|51:201|51:201|36:221|36:221|58:248|32:301,1,218.500000000001,6|0,1:0|1:0,1:0:0:0:
209,108,50458,2,0,P|156:123|90:149,2,109.25,6|0|8,1:0|1:0|1:0,1:0:0:0:
162,286,50912,1,0,1:0:0:0:
372,205,51059,6,0,L|486:200,1,95,4|0,1:0|1:0,1:0:0:0:
293,149,51357,1,8,1:0:0:0:
332,282,51506,1,0,1:0:0:0:
216,132,51656,6,0,L|102:127,1,95,2|0,1:2|1:0,1:0:0:0:
295,76,51954,1,8,1:0:0:0:
256,209,52103,1,0,1:0:0:0:
412,102,52253,6,0,L|419:5,1,95,2|0,1:2|1:0,1:0:0:0:
388,341,52551,2,0,P|375:281|341:212,1,95,10|0,1:2|1:0,1:0:0:0:
173,355,52850,1,2,1:2:0:0:
64,230,52999,1,0,1:0:0:0:
92,381,53148,1,10,1:2:0:0:
172,133,53297,1,2,1:3:0:0:
425,290,53453,6,0,B|390:297|390:297|364:286|364:286|341:309|305:317|305:317|274:292|206:298,1,218.5,6|8,1:0|1:0,1:0:0:0:
51,129,53897,2,2,B|82:125|111:99|111:99|129:134|129:134|164:92|164:92|183:127|255:121,1,218.5,6|0,1:0|1:0,1:0:0:0:
425,290,54333,2,0,B|401:248|414:211|414:211|398:186|398:186|407:165|407:165|383:127|395:61,1,218.5,14|0,1:0|1:0,1:0:0:0:
51,129,54783,2,0,B|40:170|40:170|47:194|47:194|31:218|31:218|88:280|34:369,1,219.1992,6|0,1:0|1:0,1:0:0:0:
283,352,55246,1,6,1:0:0:0:
174,384,55398,1,0,1:0:0:0:
209,279,55550,1,8,1:0:0:0:
293,355,55702,1,0,1:0:0:0:
343,157,55851,5,8,1:0:0:0:
117,195,56000,1,0,1:0:0:0:
387,218,56149,5,8,1:0:0:0:
100,173,56298,1,0,1:0:0:0:
252,324,56448,5,10,1:2:0:0:
204,101,56597,1,0,1:0:0:0:
249,357,56746,5,10,1:2:0:0:
268,65,56895,1,0,1:0:0:0:
479,341,57039,6,0,B|460:330|460:330|425:341|425:341|400:328|400:328|364:346|316:325,1,161.500000000001,2|0,1:2|2:0,2:0:0:0:
328,330,57812,1,2,2:3:0:0:
255,300,57964,2,0,P|285:264|391:281,1,142.5,2|0,1:2|2:0,2:0:0:0:
400,251,58256,5,4,1:0:0:0:
450,63,58406,1,0,1:0:0:0:
383,174,58556,1,10,1:2:0:0:
383,174,58856,1,0,1:0:0:0:
436,340,59006,1,0,1:0:0:0:
286,174,59156,2,0,L|194:168,1,80.7500000000003,10|0,1:2|1:0,1:0:0:0:
102,253,59445,1,2,1:2:0:0:
102,253,59595,1,0,1:0:0:0:
154,99,59745,1,10,1:2:0:0:
103,326,59895,2,0,L|183:320,1,80.7500000000003,0|2,1:0|1:2,1:0:0:0:
364,381,60195,1,0,1:0:0:0:
361,234,60345,6,2,B|371:210|356:186|356:186|372:162|372:162|358:142|358:142|368:122|351:79,1,142.5,10|0,1:0|2:0,1:0:0:0:
335,38,60645,6,0,P|299:68|290:121,1,80.7500000000003,2|0,1:2|1:0,1:0:0:0:
247,282,60945,1,8,1:0:0:0:
247,282,61095,1,0,1:0:0:0:
361,234,61245,1,2,1:2:0:0:
187,173,61395,1,0,1:0:0:0:
369,314,61545,1,10,1:2:0:0:
446,174,61695,6,0,B|437:212|437:212|452:237|452:237|439:272|439:272|470:316|429:380,1,190,6|0,1:0|1:0,1:0:0:0:
250,360,62145,2,0,P|241:322|248:275,1,80.7500000000003,8|0,1:0|1:0,1:0:0:0:
366,366,62445,1,2,1:2:0:0:
165,306,62595,1,2,1:3:0:0:
314,155,62745,1,10,1:2:0:0:
7,233,62895,6,0,B|62:254|62:254|195:224,1,162.032000000001,4|0,1:0|1:0,1:0:0:0:
399,166,63354,1,10,1:2:0:0:
399,166,63654,1,0,1:0:0:0:
345,315,63804,1,0,1:0:0:0:
327,117,63954,2,0,L|332:25,1,80.7500000000003,10|0,1:2|1:0,1:0:0:0:
245,202,64254,2,0,P|186:182|135:189,1,80.7500000000003,2|0,1:2|1:0,1:0:0:0:
279,306,64554,1,10,1:2:0:0:
117,242,64704,1,0,1:0:0:0:
327,117,64854,1,2,1:2:0:0:
327,117,65004,1,0,1:0:0:0:
188,346,65154,6,2,L|116:339,1,71.25,2|0,1:0|2:0,1:0:0:0:
76,305,65454,6,0,B|65:268|65:268|83:206,2,80.7500000000003,2|0|10,1:2|1:0|1:2,1:0:0:0:
166,129,65904,2,0,P|213:118|246:123,1,80.7500000000003,2|0,1:2|1:0,1:0:0:0:
391,283,66204,1,2,1:2:0:0:
433,48,66354,1,8,1:0:0:0:
323,204,66498,6,0,B|250:200|250:200|214:218|214:218|129:211,1,190,6|0,1:0|1:0,1:0:0:0:
234,329,66914,1,8,1:0:0:0:
180,146,67058,1,0,1:0:0:0:
368,272,67215,5,12,1:3:0:0:
391,242,67294,1,8,1:3:0:0:
400,206,67373,1,8,1:3:0:0:
391,169,67453,1,8,1:3:0:0:
348,139,67532,1,12,1:3:0:0:
383,125,67611,1,8,1:3:0:0:
408,98,67691,1,8,1:3:0:0:
419,62,67770,1,8,1:3:0:0:
389,16,67849,6,0,B|356:46|310:40|310:40|283:68|283:68|246:63|246:63|226:91|167:85,1,218.5,6|8,1:0|1:0,1:0:0:0:
67,154,68296,2,0,B|93:155|115:170|115:170|148:153|148:153|222:202|289:105,1,218.5,6|0,1:0|1:0,1:0:0:0:
510,99,68728,2,0,B|463:98|463:98|434:128|434:128|330:122|331:234,1,218.5,14|0,1:0|1:0,1:0:0:0:
473,319,69199,2,0,B|480:284|461:238|461:238|470:221|470:221|444:201|444:201|425:165|435:102,1,219.206483333333,6|0,1:0|1:0,1:0:0:0:
211,39,69665,2,0,P|205:101|227:166,2,109.25,6|0|8,1:0|1:0|1:0,1:0:0:0:
200,240,70104,1,0,1:0:0:0:
389,163,70246,6,0,B|399:122|399:122|388:46,1,95,4|0,1:0|1:0,1:0:0:0:
420,257,70549,1,8,1:0:0:0:
312,198,70701,1,0,1:0:0:0:
193,271,70853,6,0,B|203:312|203:312|192:388,1,95,2|0,1:2|1:0,1:0:0:0:
224,177,71157,1,8,1:0:0:0:
116,236,71309,1,0,1:0:0:0:
326,303,71461,6,0,L|434:295,1,95,2|0,1:2|1:0,1:0:0:0:
504,147,71756,1,10,1:2:0:0:
465,362,71904,1,0,1:0:0:0:
395,106,72052,1,2,1:2:0:0:
395,106,72199,1,0,1:0:0:0:
268,193,72347,1,10,1:2:0:0:
504,147,72495,1,2,1:3:0:0:
335,376,72639,6,0,B|310:327|335:283|335:283|316:254|316:254|354:216|336:159,1,218.5,6|8,1:0|1:0,1:0:0:0:
62,25,73089,2,2,B|83:59|54:97|54:97|87:113|87:113|71:145|71:145|109:170|85:249,1,218.5,6|0,1:0|1:0,1:0:0:0:
410,231,73539,2,0,B|449:170|403:110|403:110|387:64|419:6,1,218.500004167557,14|0,1:0|1:0,1:0:0:0:
216,373,73991,2,0,B|191:335|191:335|145:313|145:313|139:278|139:278|88:197,1,218.5,6|0,1:0|1:0,1:0:0:0:
2,38,74450,1,6,1:0:0:0:
33,160,74598,1,0,1:0:0:0:
216,23,74747,1,8,1:0:0:0:
183,168,74896,1,0,1:0:0:0:
130,69,75045,5,12,1:0:0:0:
157,263,75194,1,0,1:0:0:0:
242,122,75344,5,8,1:0:0:0:
215,316,75494,1,0,1:0:0:0:
346,76,75644,5,8,1:0:0:0:
381,325,75793,1,0,1:0:0:0:
473,80,75943,5,8,1:0:0:0:
448,361,76093,1,0,1:0:0:0:
99,305,76243,5,8,1:0:0:0:
409,255,76392,1,0,1:0:0:0:
267,93,76542,5,8,1:0:0:0:
308,361,76692,1,0,1:0:0:0:
119,171,76842,5,8,1:0:0:0:
422,124,76992,1,0,1:0:0:0:
341,367,77141,5,8,1:0:0:0:
298,81,77291,1,0,1:0:0:0:
206,156,77441,5,8,1:0:0:0:
189,177,77516,1,0,1:0:0:0:
167,193,77591,1,0,1:0:0:0:
141,201,77666,1,0,1:0:0:0:
114,198,77740,1,8,1:0:0:0:
89,188,77815,1,0,1:0:0:0:
69,170,77890,1,0,1:0:0:0:
55,146,77965,1,0,1:0:0:0:
51,119,78040,5,8,1:0:0:0:
78,146,78115,1,0,1:0:0:0:
92,181,78190,1,0,1:0:0:0:
91,219,78265,1,0,1:0:0:0:
75,254,78340,1,8,1:0:0:0:
60,288,78414,1,0,1:0:0:0:
63,326,78489,1,0,1:0:0:0:
84,357,78564,1,0,1:0:0:0:
118,375,78639,5,8,1:0:0:0:
172,375,78714,1,0,1:0:0:0:
221,352,78789,1,0,1:0:0:0:
250,305,78864,1,0,1:0:0:0:
254,250,78939,5,8,1:0:0:0:
269,256,79014,1,0,1:0:0:0:
284,261,79088,1,0,1:0:0:0:
299,267,79163,1,0,1:0:0:0:
314,271,79238,1,8,1:0:0:0:
329,275,79313,1,0,1:0:0:0:
344,280,79388,5,8,1:0:0:0:
326,228,79463,1,8,1:0:0:0:
335,175,79538,5,8,1:0:0:0:
350,183,79613,1,8,1:3:0:0:
365,188,79688,1,8,1:3:0:0:
381,190,79762,1,8,1:3:0:0:
419,166,79837,6,0,L|430:60,1,95,6|0,1:0|1:0,1:0:0:0:
454,262,80147,1,8,1:0:0:0:
318,107,80297,2,0,L|329:1,1,95,2|0,1:0|1:0,1:0:0:0:
317,264,80599,1,0,1:0:0:0:
227,130,80750,2,0,P|187:101|126:71,1,95,10|0,1:0|1:0,1:0:0:0:
50,174,81051,1,2,1:0:0:0:
50,174,81201,1,0,1:0:0:0:
222,268,81352,6,0,L|325:263,1,95,8|0,1:0|1:0,1:0:0:0:
466,250,81654,1,2,1:0:0:0:
263,188,81804,1,0,1:0:0:0:
431,174,81955,1,10,1:0:0:0:
295,363,82106,1,0,1:0:0:0:
137,225,82257,6,0,P|79:211|6:225,1,95,2|0,1:0|1:0,1:0:0:0:
185,322,82552,1,8,1:0:0:0:
148,144,82700,2,0,P|95:115|21:110,1,95,2|0,1:0|1:0,1:0:0:0:
211,83,82995,1,0,1:0:0:0:
294,222,83143,5,10,1:0:0:0:
370,54,83291,1,2,1:3:0:0:
381,158,83439,1,2,1:0:0:0:
381,158,83590,1,0,1:0:0:0:
312,307,83742,2,0,L|198:294,1,95,8|0,1:0|1:0,1:0:0:0:
82,190,84045,6,2,B|106:197|157:180|157:180|168:196|168:196|202:178|202:178|235:195|292:178,1,190,2|8,1:0|1:0,1:0:0:0:
365,44,84499,1,0,1:0:0:0:
449,197,84651,6,0,L|457:313,1,95,6|0,1:0|1:0,1:0:0:0:
443,112,84950,1,8,1:0:0:0:
383,336,85100,2,0,L|376:241,1,95,2|0,1:0|1:0,1:0:0:0:
365,44,85400,1,0,1:0:0:0:
278,225,85550,6,0,P|233:252|191:298,1,95,10|2,1:0|1:3,1:0:0:0:
68,353,85850,1,2,1:0:0:0:
68,353,86000,1,0,1:0:0:0:
138,168,86150,2,0,L|134:52,1,95,8|0,1:0|1:0,1:0:0:0:
253,195,86450,5,2,1:0:0:0:
88,224,86600,1,0,1:0:0:0:
275,178,86749,1,10,1:0:0:0:
74,327,86899,1,0,1:0:0:0:
184,144,87049,6,0,B|193:110|193:110|181:27,1,95,6|0,1:0|1:0,1:0:0:0:
88,224,87349,1,8,1:0:0:0:
275,178,87499,2,0,B|305:160|305:160|355:93,1,95,2|0,1:0|1:0,1:0:0:0:
193,225,87799,1,0,1:0:0:0:
328,290,87949,2,0,L|428:281,1,95,10|0,1:0|1:0,1:0:0:0:
214,347,88239,5,14,1:3:0:0:
193,320,88314,1,8,1:3:0:0:
183,289,88389,1,8,1:3:0:0:
183,256,88464,1,8,1:3:0:0:
193,225,88539,5,12,1:3:0:0:
207,200,88614,1,8,1:3:0:0:
210,172,88689,1,10,1:3:0:0:
202,145,88764,1,8,1:3:0:0:
184,123,88839,5,12,1:3:0:0:
165,110,88914,1,8,1:3:0:0:
142,103,88989,1,8,1:3:0:0:
118,105,89064,1,8,1:3:0:0:
96,114,89139,5,14,1:3:0:0:
81,124,89214,1,8,1:3:0:0:
67,137,89289,1,8,1:3:0:0:
57,153,89364,1,8,1:3:0:0:
49,171,89439,6,0,B|101:164|101:164|117:172|117:172|148:155|221:166,1,142.5,6|0,1:0|2:0,1:0:0:0:
248,193,89748,1,8,1:0:0:0:
173,280,89902,2,2,B|202:323|268:318|292:281|292:281|307:327|392:347|428:331|455:268|446:244|394:224|394:224|361:249,1,426.24676,2|0,1:0|2:0,1:0:0:0:
233,235,90657,6,0,L|229:163,1,47.5,2|0,1:0|1:0,1:0:0:0:
310,28,90806,1,0,1:0:0:0:
310,28,90881,1,0,1:0:0:0:
310,28,90956,2,0,L|182:22,1,95,8|0,1:0|1:0,1:0:0:0:
65,106,91256,2,0,P|111:117|190:92,1,95,0|0,1:0|1:0,1:0:0:0:
277,163,91556,1,12,1:0:0:0:
144,218,91706,5,0,1:0:0:0:
144,218,91781,1,0,1:0:0:0:
144,218,91856,1,0,1:0:0:0:
144,218,91931,1,0,1:0:0:0:
144,218,92006,2,0,L|147:277,1,47.5,0|0,1:0|1:0,1:0:0:0:
201,350,92156,2,0,P|237:306|231:217,1,142.5,10|0,1:0|1:0,1:0:0:0:
277,163,92456,6,0,L|281:94,1,47.5,2|0,1:0|1:0,1:0:0:0:
276,4,92606,1,2,1:3:0:0:
276,4,92680,1,0,1:0:0:0:
276,4,92755,2,0,P|320:0|353:8,1,47.5,10|0,1:2|1:0,1:0:0:0:
424,0,92905,6,0,B|429:62|429:62|450:94|450:94|441:126|441:126|454:191,1,190,6|0,1:0|1:0,1:0:0:0:
428,203,93280,1,0,1:0:0:0:
424,216,93355,1,8,1:0:0:0:
423,231,93430,1,0,1:0:0:0:
425,245,93505,1,0,1:0:0:0:
392,242,93580,1,0,1:0:0:0:
359,237,93655,5,6,1:3:0:0:
367,258,93730,1,0,1:0:0:0:
371,282,93805,1,2,1:3:0:0:
370,305,93880,1,0,1:0:0:0:
363,328,93955,1,10,1:2:0:0:
367,342,94030,1,0,1:0:0:0:
370,355,94105,6,0,B|326:343|326:343|286:361|286:361|257:346|210:355|210:355|250:316,1,190,6|0,1:0|1:0,1:0:0:0:
233,326,94480,1,0,1:0:0:0:
231,311,94555,1,8,1:0:0:0:
232,288,94630,1,0,1:0:0:0:
234,264,94704,1,0,1:0:0:0:
235,240,94779,1,0,1:0:0:0:
237,216,94854,5,6,1:3:0:0:
257,235,94929,1,0,1:0:0:0:
282,248,95004,1,2,1:3:0:0:
310,251,95079,1,0,1:0:0:0:
338,245,95154,1,10,1:0:0:0:
364,234,95229,1,0,1:0:0:0:
393,230,95304,1,0,1:0:0:0:
421,232,95379,1,0,1:0:0:0:
448,241,95454,5,2,1:3:0:0:
430,213,95529,1,0,1:0:0:0:
424,181,95604,1,0,1:0:0:0:
431,148,95679,1,0,1:0:0:0:
449,121,95754,1,10,1:0:0:0:
419,107,95829,1,0,1:0:0:0:
398,81,95904,1,0,1:0:0:0:
392,49,95979,1,0,1:0:0:0:
401,17,96054,5,6,1:3:0:0:
421,49,96129,1,0,1:0:0:0:
425,87,96204,1,2,1:3:0:0:
413,122,96279,1,0,1:0:0:0:
384,154,96354,1,10,1:0:0:0:
358,174,96429,1,0,1:0:0:0:
341,208,96504,1,0,1:0:0:0:
337,245,96579,1,0,1:0:0:0:
347,282,96654,5,6,1:0:0:0:
305,271,96728,1,0,1:0:0:0:
267,299,96803,1,0,1:0:0:0:
229,277,96878,1,0,1:0:0:0:
181,282,96953,1,8,1:0:0:0:
151,250,97028,1,0,1:0:0:0:
104,244,97103,1,0,1:0:0:0:
91,203,97178,1,0,1:0:0:0:
100,131,97253,5,2,1:0:0:0:
96,120,97328,1,0,1:0:0:0:
68,53,97403,1,2,1:0:0:0:
78,49,97478,1,0,1:0:0:0:
149,70,97553,2,0,L|234:74,1,47.5,8|0,1:0|1:0,1:0:0:0:
256,177,97703,6,0,B|314:164|314:164|324:169|324:169|351:153|351:153|409:168,1,142.5,6|0,1:0|2:0,1:0:0:0:
428,108,98003,2,0,L|436:55,1,47.5,8|0,1:0|1:0,1:0:0:0:
316,257,98151,2,0,L|323:303,1,47.5,8|0,1:0|1:0,1:0:0:0:
441,100,98300,6,0,L|452:36,1,47.5,8|0,1:0|1:0,1:0:0:0:
305,271,98448,2,0,L|312:328,1,47.5,8|0,1:0|1:0,1:0:0:0:
457,91,98597,6,0,L|474:15,1,47.5,8|0,1:0|1:0,1:0:0:0:
292,287,98745,2,0,L|297:357,1,47.5,8|0,1:0|1:0,1:0:0:0:
490,187,98894,6,0,B|414:194|432:214|400:223|400:223|372:181|299:188,1,190.6329565,6|0,1:0|1:0,1:0:0:0:
252,20,99345,1,10,1:2:0:0:
252,20,99645,1,0,1:0:0:0:
395,36,99795,1,0,1:0:0:0:
490,187,99945,2,0,L|485:288,1,80.7500000000003,10|0,1:2|1:0,1:0:0:0:
332,351,100245,1,2,1:2:0:0:
332,351,100395,1,0,1:0:0:0:
490,187,100545,2,0,P|496:140|483:77,1,80.7500000000003,10|0,1:2|1:0,1:0:0:0:
321,71,100845,1,2,1:2:0:0:
452,40,100995,1,0,1:0:0:0:
333,166,101145,6,2,L|259:171,1,71.25,10|0,1:0|2:0,1:0:0:0:
192,183,101445,6,0,P|204:212|264:237,1,80.7500000000003,2|2,1:2|1:3,1:0:0:0:
419,274,101745,1,10,1:2:0:0:
321,138,101895,1,0,1:0:0:0:
361,331,102045,1,2,1:2:0:0:
504,211,102195,1,0,1:0:0:0:
321,317,102345,1,10,1:2:0:0:
231,168,102489,6,0,B|221:115|221:115|184:87|184:87|165:53|179:-1,1,190,6|0,1:0|1:0,1:0:0:0:
141,206,102932,2,0,P|151:242|145:326,1,95,8|0,1:0|1:0,1:0:0:0:
151,299,103231,1,2,1:2:0:0:
305,204,103380,1,2,1:3:0:0:
67,167,103529,1,10,1:2:0:0:
252,289,103684,6,0,L|453:277,1,189.379523333333,4|0,1:0|1:0,1:0:0:0:
466,87,104141,1,10,1:2:0:0:
498,195,104290,1,0,1:0:0:0:
325,99,104440,2,0,B|209:89,1,95,2|0,1:2|1:0,1:0:0:0:
57,73,104739,1,8,1:0:0:0:
121,203,104889,1,0,1:0:0:0:
227,22,105038,6,0,B|372:13,1,142.5,2|0,1:2|2:0,2:0:0:0:
433,52,105338,2,0,P|442:90|429:165,1,95,8|0,1:0|1:0,1:0:0:0:
497,293,105637,1,2,1:2:0:0:
366,216,105786,1,0,1:0:0:0:
274,363,105936,5,12,1:3:0:0:
233,365,106011,1,12,1:3:0:0:
193,368,106086,1,12,1:3:0:0:
153,371,106162,1,12,1:3:0:0:
116,342,106237,5,8,1:0:0:0:
153,132,106390,1,0,1:0:0:0:
242,282,106543,5,8,1:0:0:0:
200,74,106696,1,0,1:0:0:0:
53,208,106849,5,10,1:2:0:0:
266,165,107001,1,0,1:0:0:0:
121,249,107153,5,10,1:2:0:0:
332,307,107305,1,0,1:0:0:0:
120,56,107458,5,8,1:0:0:0:
157,316,107606,1,0,1:0:0:0:
247,32,107755,5,8,1:0:0:0:
248,292,107903,1,0,1:0:0:0:
382,49,108052,5,10,1:2:0:0:
332,307,108200,1,0,1:0:0:0:
499,92,108349,5,10,1:2:0:0:
407,337,108497,1,0,1:0:0:0:
308,62,108646,5,10,1:2:0:0:
285,47,108720,1,0,1:0:0:0:
258,40,108795,1,0,1:0:0:0:
231,42,108869,1,0,1:0:0:0:
206,52,108944,1,10,1:2:0:0:
185,70,109019,1,0,1:0:0:0:
172,93,109093,1,0,1:0:0:0:
163,119,109168,1,0,1:0:0:0:
160,146,109243,5,10,1:2:0:0:
189,122,109317,1,0,1:0:0:0:
226,110,109392,1,0,1:0:0:0:
264,110,109466,1,0,1:0:0:0:
299,125,109541,1,10,1:2:0:0:
332,142,109616,1,0,1:0:0:0:
370,150,109690,1,0,1:0:0:0:
408,146,109765,1,0,1:0:0:0:
443,132,109840,5,8,1:0:0:0:
436,186,109914,1,8,1:0:0:0:
429,241,109989,1,8,1:0:0:0:
422,295,110063,1,8,1:0:0:0:
416,349,110138,2,0,L|338:358,1,59.375,8|0,1:0|2:0,1:0:0:0:
207,286,110285,2,0,L|143:279,1,59.375,8|0,1:0|2:0,1:0:0:0:
47,352,110432,5,8,1:0:0:0:
23,303,110507,1,8,1:0:0:0:
25,249,110582,1,8,1:0:0:0:
51,201,110658,1,8,1:0:0:0:
98,173,110733,1,8,1:0:0:0:
139,139,110808,1,8,1:0:0:0:
156,87,110884,1,8,1:0:0:0:
142,35,110959,1,8,1:0:0:0:
70,91,111035,6,0,B|149:83|149:83|178:95|178:95|283:84,1,199.499993911743,6|8,1:0|1:0,1:0:0:0:
363,195,111508,1,0,1:0:0:0:
269,326,111653,2,0,L|145:342,1,99.7500000000001,2|0,1:0|1:0,1:0:0:0:
28,353,111943,1,8,1:0:0:0:
16,205,112093,1,0,1:0:0:0:
266,85,112244,2,0,P|244:142|228:209,1,99.75,2|0,1:0|1:0,1:0:0:0:
28,353,112544,2,0,L|141:347,1,99.7500000000001,10|0,1:0|1:0,1:0:0:0:
280,100,112844,1,2,1:0:0:0:
311,358,112994,1,0,1:0:0:0:
266,85,113144,1,8,1:2:0:0:
395,297,113294,6,0,B|441:254|506:273|506:273|461:228|454:164,1,199.5,4|0,1:0|1:0,1:0:0:0:
357,51,113744,1,8,1:0:0:0:
305,228,113894,1,0,1:0:0:0:
198,58,114044,2,0,L|88:53,1,99.7500000000001,2|0,1:0|1:0,1:0:0:0:
219,267,114344,1,8,1:0:0:0:
280,96,114494,1,0,1:0:0:0:
116,200,114644,2,0,P|72:222|21:266,1,99.7500000000001,2|0,1:0|1:0,1:0:0:0:
304,244,114944,2,0,L|312:376,1,99.7500000000001,10|0,1:0|1:0,1:0:0:0:
372,157,115244,5,2,1:0:0:0:
213,198,115394,1,0,1:0:0:0:
384,270,115544,1,8,1:0:0:0:
339,61,115694,1,2,1:0:0:0:
232,272,115844,6,0,P|176:266|174:133,1,199.5,4|8,1:0|1:0,1:0:0:0:
157,145,116298,1,0,1:0:0:0:
306,57,116450,2,0,B|318:123|318:123|314:139|314:139|321:151|321:151|346:268,1,199.5,2|8,1:0|1:0,1:0:0:0:
383,326,116904,1,0,1:0:0:0:
475,166,117056,2,0,P|481:115|465:51,1,99.7500000000001,2|0,1:0|1:0,1:0:0:0:
259,16,117356,1,10,1:0:0:0:
259,16,117506,1,0,1:0:0:0:
401,42,117656,1,2,1:0:0:0:
177,142,117806,1,0,1:0:0:0:
397,187,117956,1,8,1:0:0:0:
227,266,118106,6,0,B|149:257|149:257|110:233|110:233|19:224,1,199.5,6|0,1:0|1:0,1:0:0:0:
177,341,118556,1,10,1:0:0:0:
150,166,118706,1,0,1:0:0:0:
301,74,118856,2,0,L|409:68,1,99.7500000000001,2|0,1:0|1:0,1:0:0:0:
280,328,119156,2,0,B|266:295|266:295|278:197,1,99.7500000000001,8|0,1:0|1:0,1:0:0:0:
400,68,119456,5,2,1:0:0:0:
400,68,119606,1,0,1:0:0:0:
460,293,119756,1,10,1:0:0:0:
460,293,119906,1,0,1:0:0:0:
233,125,120056,2,0,L|133:119,1,99.7500000000001,2|0,1:0|1:0,1:0:0:0:
191,329,120356,2,0,P|252:306|256:199,1,149.625,8|0,1:0|2:0,1:0:0:0:
7,248,120656,6,0,B|129:200|82:283|225:245,1,199.5,4|8,1:0|1:0,1:0:0:0:
305,21,121106,1,0,1:0:0:0:
176,79,121256,2,0,P|166:130|163:201,1,99.7500000000001,2|0,1:0|1:0,1:0:0:0:
361,353,121556,2,0,P|357:303|347:254,1,99.7500000000001,8|0,1:0|1:0,1:0:0:0:
427,65,121856,1,2,1:0:0:0:
330,151,122006,1,0,1:0:0:0:
205,10,122156,2,0,L|73:5,1,99.7500000000001,10|0,1:0|1:0,1:0:0:0:
43,231,122456,1,2,1:0:0:0:
216,193,122606,1,0,1:0:0:0:
18,238,122756,1,8,1:0:0:0:
293,335,122906,6,0,B|326:344|360:312|360:312|334:224|234:285,1,199.5,4|0,1:0|1:0,1:0:0:0:
60,244,123356,1,8,1:0:0:0:
186,349,123506,1,0,1:0:0:0:
276,143,123656,2,0,L|282:33,1,99.7500000000001,2|0,1:0|1:0,1:0:0:0:
324,219,123956,1,8,1:0:0:0:
199,166,124106,1,0,1:0:0:0:
409,68,124256,2,0,L|510:64,1,99.7500000000001,2|0,1:0|1:0,1:0:0:0:
468,280,124556,1,10,1:0:0:0:
468,280,124706,1,0,1:0:0:0:
409,68,124850,5,2,1:0:0:0:
380,232,124999,1,0,1:0:0:0:
292,40,125148,1,8,1:0:0:0:
399,248,125297,1,0,1:0:0:0:
225,78,125447,6,0,B|198:70|172:72|172:72|164:63|164:63|95:39|30:119,1,199.5,4|8,1:0|1:0,1:0:0:0:
11,246,125897,1,0,1:0:0:0:
131,359,126047,2,0,P|185:348|267:359,1,99.7500000000001,2|0,1:0|1:0,1:0:0:0:
399,248,126347,1,8,1:0:0:0:
261,197,126497,1,0,1:0:0:0:
453,131,126647,2,0,L|460:15,1,99.7500000000001,2|0,1:0|1:0,1:0:0:0:
162,99,126947,2,0,L|168:198,1,99.7500000000001,10|0,1:0|1:0,1:0:0:0:
306,362,127247,1,2,1:0:0:0:
342,187,127397,1,0,1:0:0:0:
481,367,127547,1,8,1:0:0:0:
208,263,127697,6,0,B|161:283|117:256|117:256|90:269|90:269|65:234|7:229,1,199.5,6|0,1:0|1:0,1:0:0:0:
250,362,128146,1,8,1:0:0:0:
250,362,128294,1,0,1:0:0:0:
163,163,128443,1,2,1:0:0:0:
86,318,128591,1,0,1:0:0:0:
292,211,128740,2,0,B|321:194|321:194|409:202,1,99.7500000000001,8|0,1:0|1:0,1:0:0:0:
252,23,129037,5,8,1:0:0:0:
256,73,129111,1,8,1:0:0:0:
260,123,129185,1,8,1:0:0:0:
247,114,129259,1,8,1:3:0:0:
235,104,129334,5,12,1:3:0:0:
215,132,129408,1,8,1:3:0:0:
205,166,129482,1,8,1:3:0:0:
206,201,129556,1,8,1:3:0:0:
216,234,129631,1,12,1:3:0:0:
187,251,129705,1,8,1:3:0:0:
167,280,129779,1,8,1:3:0:0:
161,314,129853,1,8,1:3:0:0:
171,347,129928,5,12,1:3:0:0:
193,308,130002,1,12,1:3:0:0:
193,263,130076,1,12,1:3:0:0:
171,223,130150,1,12,1:3:0:0:
184,174,130231,5,4,1:0:0:0:
269,132,130384,1,0,1:0:0:0:
354,173,130538,1,0,1:0:0:0:
186,169,130692,5,2,1:3:0:0:
274,135,130846,1,0,1:0:0:0:
355,183,131000,1,0,1:0:0:0:
189,165,131154,5,2,1:3:0:0:
280,138,131307,1,0,1:0:0:0:
356,194,131461,1,0,1:0:0:0:
192,161,131615,5,2,1:3:0:0:
285,143,131769,1,0,1:0:0:0:
356,204,131923,1,0,1:0:0:0:
278,305,132077,6,0,L|274:220,1,71.2500000000002,2|0,2:3|2:0,2:0:0:0:
255,315,132384,2,0,L|258:243,1,71.2500000000002,2|0,2:3|2:0,2:0:0:0:
71,105,132691,5,2,2:0:0:0:
166,56,132838,1,0,2:0:0:0:
160,163,132986,1,0,2:0:0:0:
79,89,133134,5,0,1:0:0:0:
178,48,133282,1,0,2:0:0:0:
162,154,133429,1,0,2:0:0:0:
88,74,133577,5,8,1:3:0:0:
190,42,133729,1,0,2:0:0:0:
166,146,133881,1,0,1:0:0:0:
99,60,134033,5,12,1:3:0:0:
204,37,134185,1,0,1:0:0:0:
170,139,134337,1,0,1:0:0:0:
307,55,134490,6,0,L|409:48,1,71.2500000000002,8|0,1:0|1:0,1:0:0:0:
294,200,134795,2,0,L|396:207,1,71.2500000000002,8|0,1:0|1:0,1:0:0:0:
162,263,135100,6,0,P|143:215|150:164,2,71.2500000000002,4|0|0,1:0|3:0|3:0,3:0:0:0:
236,321,135568,1,0,3:0:0:0:
348,142,135725,2,0,L|266:140,1,71.2500000000002,8|0,1:0|3:0,3:0:0:0:
194,51,136032,1,0,3:0:0:0:
194,51,136186,1,0,3:0:0:0:
253,214,136340,5,2,1:3:0:0:
253,214,136490,1,0,3:0:0:0:
313,27,136641,1,0,3:0:0:0:
313,27,136792,1,0,3:0:0:0:
390,151,136943,2,0,L|485:147,1,71.2500000000002,8|0,1:0|3:0,3:0:0:0:
507,331,137247,2,0,L|412:327,1,71.2500000000002,0|0,3:0|3:0,3:0:0:0:
243,290,137552,6,0,P|229:326|235:378,2,71.2500000000002,2|0|0,1:3|3:0|3:0,3:0:0:0:
366,198,138030,1,0,3:0:0:0:
246,143,138190,2,0,L|241:53,1,71.2500000000002,8|0,1:0|3:0,3:0:0:0:
365,26,138485,1,0,3:0:0:0:
365,26,138633,1,0,3:0:0:0:
203,7,138781,5,2,1:3:0:0:
203,7,138931,1,0,3:0:0:0:
184,166,139082,1,4,3:0:0:0:
184,166,139233,1,0,3:0:0:0:
165,322,139384,1,8,1:0:0:0:
165,322,139534,1,0,3:0:0:0:
307,358,139685,6,2,B|298:320|314:298|314:298|302:275|302:275|316:247|305:193,1,142.5,2|0,3:2|3:0,3:2:0:0:
379,204,139993,6,0,L|467:209,2,71.2500000000002,4|0|0,1:0|3:0|3:0,3:0:0:0:
233,115,140456,2,0,P|225:69|233:26,1,71.2500000000002,0|8,3:0|1:0,3:0:0:0:
171,207,140766,1,0,3:0:0:0:
265,329,140920,1,0,3:0:0:0:
265,329,141075,1,0,3:0:0:0:
359,168,141230,5,2,1:3:0:0:
359,168,141382,1,0,3:0:0:0:
153,132,141534,1,0,3:0:0:0:
153,132,141686,1,0,3:0:0:0:
278,275,141839,1,8,1:0:0:0:
247,189,141991,1,0,3:0:0:0:
110,337,142143,1,0,3:0:0:0:
202,351,142295,1,0,3:0:0:0:
69,224,142448,6,0,L|60:123,1,71.2500027179719,2|0,1:3|3:0,3:0:0:0:
151,39,142746,1,0,3:0:0:0:
163,206,142895,2,0,L|169:293,1,71.7273750000002,0|8,3:0|1:0,3:0:0:0:
230,139,143198,1,0,3:0:0:0:
65,62,143351,1,0,3:0:0:0:
65,62,143504,1,0,3:0:0:0:
246,27,143657,6,2,B|263:26|286:20|286:20|313:27|313:27|340:19|370:22,1,106.875,2|0,3:2|3:2,3:2:0:0:
461,71,143955,2,2,B|440:70|415:58|415:58|385:100|326:91,1,135.375,2|0,3:2|2:0,3:2:0:0:
296,156,144254,2,2,B|366:175|426:142|426:142|374:186|390:249,1,217.123454167557,10|8,3:2|3:0,3:2:0:0:
375,254,144638,1,8,3:0:0:0:
381,296,144708,1,8,3:0:0:0:
403,333,144778,1,8,3:0:0:0:
436,359,144848,6,0,L|361:353,1,56.9999999999999,4|0,1:0|3:0,3:0:0:0:
260,290,145160,2,0,L|317:296,1,56.9999999999999,0|0,3:0|3:0,3:0:0:0:
200,229,145470,2,0,L|125:222,1,56.9999999999999,8|0,1:0|3:0,3:0:0:0:
28,154,145774,2,0,L|85:160,1,56.9999999999999,0|0,3:0|3:0,3:0:0:0:
257,96,146079,6,0,L|263:33,1,56.9999999999999,2|0,1:3|3:0,3:0:0:0:
272,111,146386,2,0,L|278:48,1,56.9999999999999,0|0,3:0|3:0,3:0:0:0:
316,183,146694,1,8,1:0:0:0:
316,183,146848,1,0,3:0:0:0:
193,135,147002,1,0,3:0:0:0:
193,135,147155,1,0,3:0:0:0:
369,66,147309,6,0,L|443:63,1,56.9999999999999,2|0,1:3|3:0,3:0:0:0:
307,120,147615,2,0,L|233:117,1,56.9999999999999,0|0,3:0|3:0,3:0:0:0:
370,166,147921,2,0,L|444:163,1,56.9999999999999,8|0,1:0|3:0,3:0:0:0:
310,217,148227,2,0,L|236:214,1,56.9999999999999,0|0,3:0|3:0,3:0:0:0:
94,306,148533,6,0,P|88:280|93:235,1,56.9999999999999,2|0,1:3|3:0,3:0:0:0:
108,243,148833,2,0,P|106:271|112:299,1,56.9999999999999,0|0,3:0|3:0,3:0:0:0:
238,339,149133,1,8,1:0:0:0:
238,339,149280,1,0,3:0:0:0:
299,217,149427,1,8,3:0:0:0:
301,197,149504,1,8,3:0:0:0:
303,177,149582,1,8,3:0:0:0:
305,157,149660,1,8,3:0:0:0:
307,137,149737,6,0,L|321:206,1,56.9999999999999,4|0,1:0|3:0,3:0:0:0:
371,305,150047,2,0,L|382:250,1,56.9999999999999,0|0,3:0|3:0,3:0:0:0:
229,310,150358,2,0,L|285:300,1,56.9999999999999,8|0,1:0|3:0,3:0:0:0:
172,374,150662,2,0,L|103:360,1,56.9999999999999,0|0,3:0|3:0,3:0:0:0:
51,227,150967,6,0,L|56:155,1,56.9999999999999,2|0,1:3|3:0,3:0:0:0:
68,248,151271,2,0,L|73:176,1,56.9999999999999,0|0,3:0|3:0,3:0:0:0:
261,45,151576,6,0,L|265:102,1,56.9999999999999,8|0,1:0|3:0,3:0:0:0:
244,66,151879,2,0,L|248:123,1,56.9999999999999,0|0,3:0|3:0,3:0:0:0:
268,309,152182,5,8,1:0:0:0:
347,92,152339,1,0,1:0:0:0:
243,325,152642,5,8,1:0:0:0:
457,111,152798,1,0,1:0:0:0:
219,340,153092,5,8,1:0:0:0:
243,325,153167,1,8,1:3:0:0:
270,317,153243,1,8,1:3:0:0:
299,317,153319,1,8,1:3:0:0:
327,323,153395,1,8,1:3:0:0:
352,336,153470,1,8,1:3:0:0:
373,355,153546,5,8,1:0:0:0:
354,326,153622,1,8,1:3:0:0:
344,293,153698,1,8,1:3:0:0:
343,259,153773,1,8,1:3:0:0:
351,226,153849,1,8,1:3:0:0:
367,196,153925,1,8,1:3:0:0:
390,171,154001,5,8,1:0:0:0:
239,282,154150,1,8,1:0:0:0:
441,264,154299,1,8,1:0:0:0:
192,178,154448,1,8,1:0:0:0:
374,75,154598,6,0,L|476:72,1,95,6|0,1:0|1:0,1:0:0:0:
288,24,154922,1,8,1:0:0:0:
406,151,155070,2,0,L|508:148,1,95,2|0,1:0|1:0,1:0:0:0:
354,263,155367,1,0,1:0:0:0:
205,151,155516,2,0,P|193:108|201:40,1,95,10|0,1:0|1:0,1:0:0:0:
88,237,155816,2,0,L|194:230,1,95,2|0,1:0|1:0,1:0:0:0:
385,214,156116,1,8,1:0:0:0:
385,214,156416,5,2,1:0:0:0:
285,117,156566,1,0,1:0:0:0:
321,295,156716,1,10,1:0:0:0:
455,174,156866,1,0,1:0:0:0:
261,235,157016,6,0,P|219:240|152:211,1,95,6|0,1:0|1:0,1:0:0:0:
356,173,157316,1,8,1:0:0:0:
146,311,157466,2,0,P|110:286|77:222,1,95,2|0,1:0|1:0,1:0:0:0:
103,62,157766,1,0,1:0:0:0:
22,287,157913,2,0,L|29:390,1,95,10|0,1:0|1:0,1:0:0:0:
254,363,158216,2,0,L|260:268,1,95,2|0,1:0|1:0,1:0:0:0:
348,148,158519,1,8,1:0:0:0:
348,148,158670,1,0,1:0:0:0:
197,82,158822,5,2,1:0:0:0:
352,42,158973,1,2,1:3:0:0:
177,71,159125,1,10,1:0:0:0:
373,169,159276,1,2,1:2:0:0:
205,246,159424,6,0,B|176:255|176:255|88:247,1,95,6|0,1:0|1:0,1:0:0:0:
268,331,159722,1,8,1:0:0:0:
180,164,159871,2,0,B|171:135|171:135|179:47,1,95,2|0,1:0|1:0,1:0:0:0:
296,14,160170,1,0,1:0:0:0:
373,169,160319,2,0,L|480:165,1,95,10|0,1:0|1:0,1:0:0:0:
268,331,160631,2,0,P|274:280|263:212,1,95,2|0,1:0|1:0,1:0:0:0:
308,36,160931,1,8,1:0:0:0:
308,36,161231,5,2,1:0:0:0:
180,80,161376,1,0,1:0:0:0:
351,121,161522,1,10,1:0:0:0:
168,186,161673,1,0,1:0:0:0:
379,200,161825,6,0,P|416:165|421:96,1,95,6|0,1:0|1:0,1:0:0:0:
440,289,162125,1,8,1:0:0:0:
351,121,162270,2,0,P|313:86|308:17,1,95,2|0,1:0|1:0,1:0:0:0:
253,243,162561,1,0,1:0:0:0:
435,194,162707,2,0,B|441:317,1,95,10|0,1:0|1:0,1:0:0:0:
294,369,163005,5,10,1:3:0:0:
289,355,163080,1,8,1:3:0:0:
284,341,163156,1,8,1:0:0:0:
238,353,163231,1,8,1:0:0:0:
192,342,163307,1,8,1:0:0:0:
190,327,163382,1,8,1:3:0:0:
188,312,163458,1,8,1:0:0:0:
140,315,163533,1,8,1:0:0:0:
93,327,163609,5,8,1:0:0:0:
129,296,163685,1,8,1:3:0:0:
145,252,163760,1,8,1:0:0:0:
138,206,163836,1,8,1:0:0:0:
110,169,163911,1,4,1:3:0:0:
88,132,163987,1,4,1:3:0:0:
89,94,164062,1,4,1:3:0:0:
102,63,164138,1,4,1:3:0:0:
176,113,164236,6,2,B|232:80|279:102|279:102|359:93|359:93|323:154|323:154|430:174|414:253,1,380,14|8,1:0|1:0,1:0:0:0:
416,234,164901,1,0,2:0:0:0:
413,248,164974,1,0,1:0:0:0:
410,262,165048,1,0,2:0:0:0:
405,275,165122,1,8,1:0:0:0:
399,288,165196,1,0,2:0:0:0:
390,299,165270,1,0,1:0:0:0:
379,309,165344,1,0,2:0:0:0:
334,242,165418,6,0,P|298:236|271:240,1,47.5,10|0,1:0|2:0,1:0:0:0:
208,309,165566,2,2,B|161:294|115:316|115:316|54:292|54:292|39:222|39:222|71:168|71:168|25:119|44:49|44:49|59:77|120:84,1,475,2|0,1:0|1:0,1:0:0:0:
257,146,166463,1,0,1:0:0:0:
276,131,166539,1,0,1:0:0:0:
294,116,166615,5,12,1:0:0:0:
281,130,166690,1,0,1:0:0:0:
274,147,166765,1,0,1:0:0:0:
271,166,166841,1,0,1:0:0:0:
274,185,166916,1,8,1:0:0:0:
279,208,166991,1,0,1:0:0:0:
280,231,167067,1,0,1:0:0:0:
273,254,167142,1,0,1:0:0:0:
259,272,167218,1,8,1:0:0:0:
235,295,167293,1,0,1:0:0:0:
204,306,167368,1,0,1:0:0:0:
172,302,167444,1,0,1:0:0:0:
144,284,167519,1,8,1:0:0:0:
115,247,167594,1,0,1:0:0:0:
114,200,167670,1,0,1:0:0:0:
141,162,167745,1,0,1:0:0:0:
185,147,167821,5,8,1:0:0:0:
190,194,167896,1,0,1:0:0:0:
196,241,167971,1,2,1:3:0:0:
202,288,168047,1,0,1:0:0:0:
208,335,168122,1,8,1:0:0:0:
219,289,168197,1,0,1:0:0:0:
230,243,168273,1,0,1:0:0:0:
241,196,168348,1,0,1:0:0:0:
251,150,168424,1,8,1:0:0:0:
274,191,168499,1,0,1:0:0:0:
313,218,168574,1,0,1:0:0:0:
360,224,168650,1,0,1:0:0:0:
402,202,168725,5,8,1:0:0:0:
440,161,168800,1,0,1:0:0:0:
453,106,168876,1,0,1:0:0:0:
435,52,168951,1,0,1:0:0:0:
384,8,169027,6,2,B|365:7|345:22|345:22|328:14|328:14|283:39|214:28,1,142.5,14|2,1:0|1:0,1:0:0:0:
173,71,169324,2,0,L|163:143,1,47.5,10|0,1:0|2:0,1:0:0:0:
143,258,169472,2,2,B|197:228|250:255|250:255|272:243|272:243|301:243|345:267,1,190,2|0,1:0|1:0,1:0:0:0:
419,326,169843,1,0,1:0:0:0:
419,326,169918,2,2,P|440:277|414:180,1,142.5,10|0,1:0|1:0,1:0:0:0:
352,121,170215,6,0,P|346:92|353:49,1,47.5,10|0,1:0|2:0,1:0:0:0:
245,33,170365,2,2,B|207:55|164:55|131:28|131:28|86:42|86:42|70:76|70:76|96:148,1,237.5,2|0,1:0|1:0,1:0:0:0:
156,224,170815,2,2,B|206:196|206:196|238:213|238:213|269:191|269:191|359:196,1,190,10|8,1:0|1:0,1:0:0:0:
447,271,171270,1,0,1:0:0:0:
461,251,171348,1,0,1:0:0:0:
475,232,171425,6,0,L|482:148,2,63.3333333333333,14|0|0,1:0|1:0|1:0,1:0:0:0:
329,299,171723,2,0,L|334:362,2,63.3333333333333,8|0|0,1:0|1:0|1:0,1:0:0:0:
235,208,172022,5,8,1:0:0:0:
237,163,172121,1,0,1:0:0:0:
239,119,172221,1,0,1:0:0:0:
310,86,172320,5,8,1:0:0:0:
300,55,172420,1,0,1:0:0:0:
289,25,172519,1,0,1:0:0:0:
211,34,172616,5,8,1:0:0:0:
184,62,172715,2,0,L|90:60,1,63.3333333333333,2|0,1:3|1:0,1:0:0:0:
39,160,172914,1,8,1:0:0:0:
56,178,173013,2,0,L|150:176,1,63.3333333333333,2|0,1:3|1:0,1:0:0:0:
245,279,173212,6,2,B|286:286|319:260|319:260|350:285|350:285|371:264|371:264|398:277|418:268,1,190,10|8,1:0|1:0,1:0:0:0:
470,101,173659,1,0,1:0:0:0:
312,193,173808,5,12,1:0:0:0:
290,60,173958,1,2,1:2:0:0:
335,209,174109,5,8,1:0:0:0:
385,0,174260,1,2,1:2:0:0:
219,254,174411,5,8,1:0:0:0:
434,233,174561,1,2,1:3:0:0:
197,280,174712,5,8,1:0:0:0:
510,298,174863,1,2,1:3:0:0:
284,351,175014,5,8,1:0:0:0:
260,327,175089,1,0,1:0:0:0:
250,295,175164,1,0,1:0:0:0:
248,261,175240,1,0,1:0:0:0:
264,230,175315,1,8,1:0:0:0:
290,210,175390,1,0,1:0:0:0:
322,200,175466,1,0,1:0:0:0:
355,202,175541,1,0,1:0:0:0:
394,218,175617,5,8,1:0:0:0:
434,233,175692,1,0,1:0:0:0:
474,221,175767,1,0,1:0:0:0:
499,187,175843,1,0,1:0:0:0:
500,145,175918,1,8,1:0:0:0:
483,97,175993,1,0,1:0:0:0:
440,68,176069,1,4,1:3:0:0:
389,71,176144,1,4,1:3:0:0:
349,104,176220,6,0,L|357:25,2,63.3333333333333,8|0|0,1:0|1:0|1:0,1:0:0:0:
273,221,176521,2,0,L|278:284,2,63.3333333333333,8|0|0,1:0|1:0|1:0,1:0:0:0:
175,63,176823,2,0,L|180:0,2,63.3333333333333,8|0|0,1:0|1:0|1:0,1:0:0:0:
94,270,177124,2,0,L|99:333,2,63.3333333333333,8|0|0,1:0|1:0|1:0,1:0:0:0:
250,135,177426,5,8,1:0:0:0:
300,132,177526,1,0,1:0:0:0:
351,129,177627,1,0,1:0:0:0:
402,197,177722,5,8,1:0:0:0:
357,193,177820,1,0,1:0:0:0:
313,189,177919,1,0,1:0:0:0:
282,252,178018,5,8,1:0:0:0:
320,248,178117,1,0,1:0:0:0:
357,244,178215,1,0,1:0:0:0:
355,279,178314,5,8,1:0:0:0:
323,276,178415,1,0,1:0:0:0:
291,272,178516,1,0,1:0:0:0:
321,300,178617,6,0,L|330:190,1,95,8|0,1:0|1:0,1:0:0:0:
291,126,178844,1,0,1:0:0:0:
291,126,178920,1,8,1:0:0:0:
274,82,178995,1,0,1:0:0:0:
293,40,179071,1,0,1:0:0:0:
336,23,179147,1,0,1:0:0:0:
379,42,179223,5,8,1:0:0:0:
419,82,179298,1,0,1:0:0:0:
419,139,179374,1,0,1:0:0:0:
386,186,179450,1,0,1:0:0:0:
328,205,179526,1,8,1:0:0:0:
332,218,179601,1,0,1:0:0:0:
335,231,179677,2,0,L|332:290,1,47.5,0|0,1:0|1:0,1:0:0:0:
192,353,179829,5,10,1:0:0:0:
137,361,179903,1,0,1:0:0:0:
91,330,179977,1,0,1:0:0:0:
77,276,180051,1,0,1:0:0:0:
102,225,180126,1,10,1:0:0:0:
98,216,180200,1,0,1:0:0:0:
93,207,180274,2,0,L|100:123,1,47.5,0|0,1:0|1:0,1:0:0:0:
254,27,180429,5,10,1:0:0:0:
238,123,180526,2,0,L|247:233,1,63.3333333333333
358,204,180720,5,10,1:0:0:0:
373,276,180817,2,0,L|364:386,1,63.3333333333333
182,306,181005,6,0,B|236:328|280:295|280:295|304:316|336:315|336:315|357:283|394:263,1,218.500004167557,12|8,1:0|1:0,1:0:0:0:
199,78,181466,2,0,B|191:127|224:146|224:146|214:171|214:171|233:194|237:230|237:230|275:210|335:230,1,247.819933693238,4|0,1:0|1:0,1:0:0:0:
41,31,181912,2,0,B|70:47|76:74|76:74|89:80|89:80|81:117|130:142,1,137.75,4|0,1:0|1:0,3:0:0:0:
253,76,182212,5,12,1:3:0:0:
141,209,182362,1,8,1:3:0:0:
137,29,182512,1,12,1:3:0:0:
304,135,182662,1,8,1:3:0:0:
117,134,182812,1,12,1:3:0:0:
230,7,182962,1,8,1:3:0:0:
192,258,183112,1,12,1:3:0:0:
0,116,183262,1,8,1:3:0:0:
271,354,183409,6,0,B|310:324|310:324|355:331|355:331|382:314|431:313|431:313|428:282|373:260,1,218.5,6|8,1:0|1:0,1:0:0:0:
465,34,183873,2,0,B|481:78|481:78|465:116|465:116|491:153|491:153|460:193|475:257,1,218.5,6|0,1:0|1:0,1:0:0:0:
246,266,184301,2,0,B|195:246|144:271|144:271|104:255|92:213|92:213|116:157,1,218.5,14|0,1:0|1:0,1:0:0:0:
316,29,184751,2,0,B|270:45|270:45|240:29|240:29|199:37|153:19|153:19|187:80,1,217.790666666667,6|0,1:0|1:0,1:0:0:0:
286,242,185215,2,0,P|345:255|422:239,2,109.25,14|0|8,1:0|1:0|1:0,1:0:0:0:
151,341,185667,1,0,1:0:0:0:
55,186,185818,6,0,L|59:67,1,95,4|0,1:0|1:0,1:0:0:0:
54,293,186116,1,8,1:0:0:0:
129,189,186265,1,0,1:0:0:0:
258,340,186415,6,0,L|377:336,1,95,2|0,1:2|1:0,1:0:0:0:
151,341,186713,1,8,1:0:0:0:
255,266,186862,1,0,1:0:0:0:
52,199,187012,6,0,P|46:254|58:306,1,95,2|0,1:2|1:0,1:0:0:0:
161,110,187312,2,0,L|268:105,1,95,10|0,1:2|1:0,1:0:0:0:
491,234,187606,1,2,1:2:0:0:
398,274,187756,1,0,1:0:0:0:
469,129,187906,1,8,1:2:0:0:
412,365,188056,1,0,1:2:0:0:
270,209,188206,6,0,B|227:180|173:211|173:211|137:198|137:198|95:224|28:187,1,218.5,6|8,1:0|1:0,1:0:0:0:
168,346,188653,2,2,B|225:366|259:337|259:337|293:345|293:345|320:325|320:325|353:346|403:338,1,217.768025,6|0,1:0|1:0,1:0:0:0:
405,46,189097,2,0,B|335:27|335:27|306:50|306:50|260:29|177:49,1,218.5,14|0,1:0|1:0,1:0:0:0:
40,258,189560,2,0,B|90:242|141:268|141:268|181:248|218:262|218:262|207:283|175:290,1,218.5,6|0,1:0|1:0,1:0:0:0:
60,375,190014,1,6,1:0:0:0:
28,228,190163,1,0,1:0:0:0:
63,384,190312,1,8,1:0:0:0:
23,213,190461,1,0,1:0:0:0:
194,331,190611,6,0,P|237:338|300:317,1,95,4|0,1:0|1:0,1:0:0:0:
439,195,190909,1,8,1:0:0:0:
421,296,191058,1,0,1:0:0:0:
309,175,191208,6,0,P|266:182|203:161,1,95,2|0,1:2|1:0,1:0:0:0:
64,39,191508,1,8,1:0:0:0:
82,140,191658,1,0,1:0:0:0:
254,16,191808,5,2,1:2:0:0:
254,16,191958,1,0,1:0:0:0:
176,223,192108,2,0,L|270:215,1,95,10|0,1:2|1:0,1:0:0:0:
458,308,192415,1,2,1:2:0:0:
406,146,192561,1,0,1:0:0:0:
343,360,192707,2,0,P|362:305|365:258,1,95,10|2,1:2|1:3,1:0:0:0:
210,213,192995,5,4,1:0:0:0:
286,57,193148,1,8,1:0:0:0:
213,324,193301,1,8,1:0:0:0:
296,247,193454,1,6,1:0:0:0:
57,129,193610,5,8,1:0:0:0:
357,100,193766,1,8,1:0:0:0:
271,174,193922,1,4,1:0:0:0:
463,148,194072,1,8,1:0:0:0:
192,74,194222,1,0,1:0:0:0:
306,16,194372,1,6,1:0:0:0:
228,282,194522,5,8,1:0:0:0:
112,148,194672,1,8,1:0:0:0:
349,113,194822,2,0,P|360:71|419:-6,1,109.25,4|0,1:0|1:0,1:0:0:0:
301,193,195122,1,8,1:0:0:0:
456,105,195272,1,8,1:0:0:0:
192,74,195431,6,0,L|98:70,1,95,4|0,1:0|1:0,1:0:0:0:
228,153,195726,1,8,1:0:0:0:
339,99,195874,1,0,1:0:0:0:
232,263,196022,6,0,L|326:259,1,95,2|0,1:2|1:0,1:0:0:0:
196,342,196317,1,8,1:0:0:0:
85,288,196465,1,0,1:0:0:0:
204,164,196613,6,0,P|215:121|205:57,1,95,2|0,1:2|1:0,1:0:0:0:
326,258,196908,2,0,P|282:263|203:290,1,95,10|0,1:2|1:0,1:0:0:0:
64,311,197204,1,2,1:2:0:0:
232,260,197352,1,0,1:0:0:0:
32,189,197499,1,10,1:2:0:0:
260,348,197641,1,2,1:2:0:0:
384,200,197784,5,12,1:0:0:0:
403,157,197860,1,8,1:0:0:0:
403,109,197936,1,8,1:0:0:0:
383,66,198012,1,8,1:0:0:0:
348,35,198088,2,0,L|281:28,1,54.625,8|0,1:0|1:0,1:0:0:0:
160,122,198252,5,12,1:0:0:0:
145,166,198325,1,8,1:0:0:0:
155,212,198399,1,8,1:0:0:0:
187,246,198473,1,8,1:0:0:0:
232,260,198547,2,0,P|250:230|259:188,1,54.625,8|0,1:0|1:0,1:0:0:0:
99,290,198700,2,0,P|95:324|101:364,1,54.625,12|0,1:0|1:0,1:0:0:0:
255,373,198853,5,8,1:0:0:0:
302,367,198929,1,8,1:0:0:0:
349,361,199006,1,8,1:0:0:0:
396,355,199083,1,8,1:0:0:0:
443,350,199160,2,0,L|453:273,1,54.625,12|0,1:0|1:0,1:0:0:0:
435,154,199303,5,8,1:0:0:0:
406,117,199375,1,8,1:0:0:0:
360,114,199447,1,8,1:0:0:0:
326,145,199523,1,8,1:0:0:0:
325,191,199599,5,4,1:3:0:0:
342,157,199675,1,4,1:3:0:0:
339,118,199751,1,4,1:3:0:0:
316,87,199827,1,4,1:3:0:0:
282,68,199903,1,4,1:3:0:0:
232,64,199979,1,4,1:3:0:0:
182,62,200056,1,4,1:3:0:0:
132,60,200132,1,4,1:3:0:0:
86,35,200208,5,8,1:0:0:0:
135,272,200360,1,0,1:0:0:0:
66,58,200512,5,8,1:0:0:0:
213,261,200664,1,0,1:0:0:0:
266,113,200817,5,10,1:2:0:0:
61,208,200969,1,0,1:0:0:0:
285,134,201121,5,10,1:2:0:0:
8,160,201273,1,0,1:0:0:0:
280,316,201426,5,8,1:0:0:0:
308,51,201575,1,0,1:0:0:0:
190,330,201724,5,8,1:0:0:0:
226,18,201873,1,0,1:0:0:0:
397,205,202023,5,10,1:2:0:0:
96,231,202172,1,0,1:0:0:0:
422,128,202321,5,10,1:2:0:0:
60,155,202470,1,4,1:3:0:0:
47,101,202545,1,4,1:3:0:0:
35,47,202620,5,12,1:0:0:0:
95,286,202769,1,0,1:0:0:0:
209,95,202918,5,8,1:0:0:0:
176,330,203067,1,0,1:0:0:0:
383,208,203217,5,8,1:0:0:0:
114,233,203366,1,0,1:0:0:0:
456,319,203515,5,8,1:0:0:0:
187,294,203664,1,0,1:0:0:0:
266,96,203814,5,10,1:2:0:0:
299,368,203962,1,2,1:3:0:0:
263,86,204111,1,10,1:2:0:0:
301,378,204259,1,2,1:3:0:0:
447,266,204408,5,10,1:2:0:0:
88,219,204556,1,2,1:2:0:0:
475,269,204705,1,10,1:2:0:0:
61,216,204853,1,2,1:2:0:0:
374,108,205002,5,12,1:0:0:0:
393,88,205077,1,0,1:0:0:0:
419,81,205152,1,0,1:0:0:0:
446,88,205227,1,0,1:0:0:0:
465,108,205302,1,8,1:0:0:0:
472,134,205377,1,0,1:0:0:0:
465,160,205452,1,0,1:0:0:0:
446,180,205527,1,0,1:0:0:0:
419,187,205602,5,8,1:0:0:0:
381,181,205677,1,0,1:0:0:0:
351,157,205752,1,0,1:0:0:0:
337,122,205827,1,0,1:0:0:0:
342,85,205902,1,8,1:0:0:0:
338,47,205977,1,0,1:0:0:0:
316,17,206052,1,0,1:0:0:0:
282,1,206127,1,0,1:0:0:0:
244,4,206202,5,8,1:0:0:0:
201,27,206277,1,0,1:0:0:0:
173,67,206352,1,0,1:0:0:0:
167,115,206427,1,0,1:0:0:0:
183,162,206502,1,8,1:0:0:0:
205,205,206577,1,0,1:0:0:0:
205,253,206652,1,0,1:0:0:0:
182,296,206727,1,0,1:0:0:0:
142,324,206802,5,8,1:0:0:0:
172,273,206877,1,0,1:0:0:0:
224,244,206952,1,0,1:0:0:0:
284,246,207027,1,0,1:0:0:0:
334,277,207102,1,8,1:0:0:0:
382,312,207177,1,0,1:0:0:0:
441,312,207252,1,0,1:0:0:0:
489,278,207327,1,0,1:0:0:0:
507,221,207402,5,4,1:0:0:0:
425,147,207553,1,8,1:3:0:0:
441,312,207705,1,12,1:3:0:0:
504,144,207856,1,8,1:3:0:0:
334,277,208008,1,12,1:3:0:0:
306,70,208159,1,8,1:3:0:0:
473,249,208311,1,12,1:3:0:0:
162,289,208462,1,8,1:3:0:0:
378,110,208614,1,12,1:3:0:0:
291,363,208764,1,8,1:3:0:0:
217,79,208915,1,12,1:3:0:0:
324,274,209066,1,8,1:3:0:0:
0,116,209217,1,12,1:3:0:0:
310,48,209367,1,8,1:3:0:0:
34,358,209518,1,12,1:3:0:0:
145,18,209669,1,8,1:3:0:0:
425,301,209840,6,0,B|378:289|341:318|341:318|313:307|313:307|274:336|203:329,1,199.5,6|8,1:0|1:0,1:0:0:0:
90,220,210283,1,0,1:0:0:0:
255,149,210431,2,0,P|264:99|246:22,1,99.7500000000001,2|0,1:0|1:0,1:0:0:0:
362,232,210726,1,8,1:0:0:0:
430,115,210874,1,0,1:0:0:0:
261,261,211022,2,0,L|161:255,1,99.7500000000001,2|0,1:0|1:0,1:0:0:0:
257,50,211317,2,0,L|157:56,1,99.7500000000001,10|0,1:0|1:0,1:0:0:0:
53,206,211613,1,2,1:0:0:0:
192,370,211761,1,0,1:0:0:0:
70,191,211908,1,8,1:0:0:0:
255,145,212056,6,0,B|316:116|344:129|344:129|368:117|368:117|403:127|453:127,1,199.5,4|0,1:0|1:0,1:0:0:0:
264,235,212504,2,0,P|257:274|268:345,1,99.7500000000001,8|0,1:0|1:0,1:0:0:0:
103,199,212804,1,2,1:0:0:0:
244,219,212954,1,0,1:0:0:0:
36,264,213104,1,8,1:0:0:0:
201,101,213254,1,0,1:0:0:0:
164,337,213411,2,0,L|288:332,1,99.75,2|0,1:0|1:0,1:0:0:0:
405,129,213712,2,0,L|305:124,1,99.75,10|0,1:0|1:0,1:0:0:0:
112,211,214014,5,2,1:0:0:0:
80,23,214164,1,0,1:0:0:0:
174,251,214315,1,8,1:0:0:0:
278,38,214466,1,2,1:0:0:0:
364,325,214617,6,0,B|371:245|371:245|343:208|343:208|356:113,1,199.5,6|8,1:0|1:0,1:0:0:0:
352,135,215067,1,0,1:0:0:0:
183,25,215217,2,0,P|163:81|168:144,1,99.7500000000001,2|0,1:0|1:0,1:0:0:0:
237,287,215517,1,8,1:0:0:0:
237,287,215667,1,0,1:0:0:0:
352,135,215817,2,0,B|383:123|383:123|465:120,1,99.7500000000001,2|0,1:0|1:0,1:0:0:0:
275,377,216117,2,0,B|257:343|257:343|263:263,1,99.7500000000001,10|0,1:0|1:0,1:0:0:0:
291,42,216417,1,2,1:0:0:0:
313,212,216567,1,0,1:0:0:0:
152,84,216717,1,8,1:0:0:0:
407,108,216867,6,0,B|441:121|483:81|483:81|454:133|454:198,1,199.5,4|0,1:0|1:0,1:0:0:0:
276,326,217317,1,8,1:0:0:0:
440,202,217467,1,0,1:0:0:0:
225,149,217617,2,0,L|217:38,1,99.7500000000001,2|0,1:0|1:0,1:0:0:0:
87,262,217917,2,0,B|117:245|117:245|206:257,1,99.7500000000001,10|0,1:0|1:0,1:0:0:0:
381,281,218217,1,2,1:0:0:0:
381,281,218367,1,0,1:0:0:0:
306,49,218517,1,10,1:0:0:0:
306,49,218667,1,0,1:0:0:0:
257,248,218817,5,2,1:0:0:0:
435,202,218967,1,0,1:0:0:0:
226,120,219117,1,8,1:0:0:0:
278,334,219267,1,0,1:0:0:0:
494,103,219424,6,0,B|372:88|414:167|286:147,1,199.5,4|8,1:0|1:0,1:0:0:0:
227,49,219876,1,0,1:0:0:0:
134,214,220027,2,0,P|143:265|129:332,2,99.75,2|0|8,1:0|1:0|1:0,1:0:0:0:
74,58,220479,1,0,1:0:0:0:
230,205,220630,2,0,L|337:200,1,99.7500000000001,2|0,1:0|1:0,1:0:0:0:
510,343,220925,2,0,L|403:338,1,99.7500000000001,10|0,1:0|1:0,1:0:0:0:
195,330,221221,1,2,1:0:0:0:
284,119,221368,1,0,1:0:0:0:
337,384,221516,1,8,1:0:0:0:
149,193,221667,6,2,B|132:146|151:118|151:118|130:91|130:91|159:67|159:67|134:42|143:4,1,199.5,6|0,1:0|1:0,1:0:0:0:
108,284,222116,2,0,P|159:275|208:249,1,99.7500000000001,10|0,1:0|1:0,1:0:0:0:
377,99,222413,2,0,L|371:206,1,99.7500000000001,2|0,1:0|1:0,1:0:0:0:
460,343,222710,1,8,1:0:0:0:
460,343,222858,1,0,1:0:0:0:
301,259,223007,2,0,B|190:252,1,99.75,2|0,1:0|1:0,1:0:0:0:
11,339,223308,2,0,P|45:293|37:222,1,99.75,10|0,1:0|1:0,1:0:0:0:
24,53,223610,5,2,1:0:0:0:
211,97,223760,1,0,1:0:0:0:
26,142,223911,1,8,1:0:0:0:
240,200,224055,6,0,B|276:201|309:171|309:171|318:181|318:181|382:158|450:196,1,200.830506666667,4|0,1:0|1:0,1:0:0:0:
475,351,224513,1,8,1:0:0:0:
502,149,224660,1,0,1:0:0:0:
322,326,224807,2,0,L|200:317,1,99.75,2|0,1:0|1:0,1:0:0:0:
85,88,225101,2,0,B|104:125|104:125|90:218,1,99.7500000000001,8|0,1:0|1:0,1:0:0:0:
58,370,225413,1,2,1:0:0:0:
14,215,225563,1,0,1:0:0:0:
157,75,225714,2,0,P|234:83|288:57,1,99.75,10|0,1:0|1:0,1:0:0:0:
495,157,226016,5,2,1:0:0:0:
436,306,226166,1,0,1:0:0:0:
399,97,226317,1,8,1:0:0:0:
420,327,226468,6,0,B|347:336|347:336|299:314|299:314|191:322,1,199.5,4|0,1:0|1:0,1:0:0:0:
59,215,226913,1,10,1:0:0:0:
59,215,227063,1,0,1:0:0:0:
271,126,227213,2,0,P|277:71|265:2,1,99.7500000000001,2|0,1:0|1:0,1:0:0:0:
458,170,227513,2,0,P|452:219|458:268,1,99.7500000000001,8|0,1:0|1:0,1:0:0:0:
330,374,227813,5,4,1:3:0:0:
308,361,227888,1,0,1:0:0:0:
284,354,227963,1,0,1:0:0:0:
259,354,228039,1,0,1:0:0:0:
235,361,228114,1,4,1:3:0:0:
223,339,228189,1,0,1:0:0:0:
205,323,228265,1,0,1:0:0:0:
181,314,228340,1,0,1:0:0:0:
157,313,228416,5,8,1:0:0:0:
160,278,228491,1,4,1:3:0:0:
163,243,228566,1,4,1:3:0:0:
167,209,228642,1,4,1:3:0:0:
202,183,228717,5,8,1:0:0:0:
198,148,228792,1,4,1:3:0:0:
195,113,228868,1,4,1:3:0:0:
192,78,228943,1,4,1:3:0:0:
189,43,229026,5,12,1:0:0:0:
205,12,229100,1,0,1:0:0:0:
235,0,229175,1,0,1:0:0:0:
269,0,229249,1,0,1:0:0:0:
297,16,229324,1,8,1:0:0:0:
310,48,229399,1,0,1:0:0:0:
305,82,229473,1,0,1:0:0:0:
282,108,229548,1,0,1:0:0:0:
248,114,229623,1,8,1:0:0:0:
214,105,229697,1,0,1:0:0:0:
179,110,229772,1,0,1:0:0:0:
149,127,229846,1,0,1:0:0:0:
127,153,229921,1,8,1:0:0:0:
116,186,229996,1,0,1:0:0:0:
117,221,230070,1,0,1:0:0:0:
131,252,230145,1,0,1:0:0:0:
158,275,230220,5,8,1:0:0:0:
202,271,230294,1,0,1:0:0:0:
247,268,230369,1,0,1:0:0:0:
292,264,230443,1,0,1:0:0:0:
337,261,230518,1,8,1:0:0:0:
298,238,230593,1,0,1:0:0:0:
254,236,230667,1,0,1:0:0:0:
214,255,230742,1,0,1:0:0:0:
188,291,230817,5,8,1:0:0:0:
153,263,230891,1,0,1:0:0:0:
134,223,230966,1,0,1:0:0:0:
136,178,231040,1,0,1:0:0:0:
157,139,231115,1,12,1:0:0:0:
152,125,231190,1,0,1:0:0:0:
146,110,231264,1,0,1:0:0:0:
140,95,231339,1,0,1:0:0:0:
134,81,231414,5,8,1:0:0:0:
162,101,231488,1,0,1:0:0:0:
195,109,231563,1,0,1:0:0:0:
230,104,231637,1,0,1:0:0:0:
260,87,231712,1,8,1:0:0:0:
290,70,231787,1,0,1:0:0:0:
324,65,231861,1,0,1:0:0:0:
358,74,231936,1,0,1:0:0:0:
385,95,232011,1,8,1:0:0:0:
403,125,232085,1,0,1:0:0:0:
408,159,232160,1,0,1:0:0:0:
397,192,232234,1,0,1:0:0:0:
372,217,232309,1,8,1:0:0:0:
339,229,232384,1,0,1:0:0:0:
304,226,232458,1,0,1:0:0:0:
271,212,232533,1,0,1:0:0:0:
246,187,232608,5,8,1:0:0:0:
289,177,232682,1,0,1:0:0:0:
333,183,232757,1,0,1:0:0:0:
372,205,232831,1,0,1:0:0:0:
401,239,232906,1,8,1:0:0:0:
407,194,232981,1,0,1:0:0:0:
413,150,233055,1,0,1:0:0:0:
418,105,233130,1,0,1:0:0:0:
424,61,233205,5,8,1:0:0:0:
383,79,233279,1,0,1:0:0:0:
339,84,233354,1,0,1:0:0:0:
295,78,233428,1,0,1:0:0:0:
254,59,233503,1,12,1:0:0:0:
252,73,233579,1,0,1:0:0:0:
249,87,233656,1,0,1:0:0:0:
245,101,233733,1,0,1:0:0:0:
241,115,233810,5,8,1:0:0:0:
210,97,233884,1,0,1:0:0:0:
177,86,233959,1,0,1:0:0:0:
143,83,234033,1,0,1:0:0:0:
108,86,234108,1,8,1:0:0:0:
123,118,234183,1,0,1:0:0:0:
128,152,234257,1,0,1:0:0:0:
122,186,234332,1,0,1:0:0:0:
106,217,234407,1,8,1:0:0:0:
84,244,234481,1,0,1:0:0:0:
74,277,234556,1,0,1:0:0:0:
77,312,234630,1,0,1:0:0:0:
93,342,234705,1,8,1:0:0:0:
118,367,234780,1,0,1:0:0:0:
150,381,234854,1,0,1:0:0:0:
185,382,234929,1,0,1:0:0:0:
217,370,235004,5,8,1:0:0:0:
214,326,235079,1,0,1:0:0:0:
210,281,235155,1,0,1:0:0:0:
207,236,235230,1,0,1:0:0:0:
203,191,235306,1,8,1:0:0:0:
231,226,235381,1,0,1:0:0:0:
272,244,235457,1,0,1:0:0:0:
316,243,235532,1,0,1:0:0:0:
355,222,235608,5,8,1:0:0:0:
305,221,235684,1,0,1:0:0:0:
260,241,235759,1,0,1:0:0:0:
227,278,235835,1,0,1:0:0:0:
214,326,235910,1,12,1:0:0:0:
116,107,236213,5,8,1:0:0:0:
166,111,236286,1,8,1:0:0:0:
216,116,236360,1,8,1:0:0:0:
265,121,236434,1,8,1:0:0:0:
315,126,236508,1,8,1:0:0:0:
306,259,236802,5,8,1:0:0:0:
322,211,236875,1,8,1:0:0:0:
361,181,236949,1,8,1:0:0:0:
390,140,237023,1,8,1:0:0:0:
377,92,237097,1,8,1:0:0:0:
331,72,237171,1,8,1:0:0:0:
287,96,237245,1,8,1:0:0:0:
278,145,237319,1,8,1:0:0:0:
305,181,237393,5,8,1:3:0:0:
304,195,237467,1,8,1:3:0:0:
303,209,237540,2,8,L|307:279,1,49.875,8|8,1:0|1:0,1:0:0:0:
205,384,237688,5,8,1:3:0:0:
197,370,237763,1,8,1:3:0:0:
191,356,237839,1,8,1:0:0:0:
194,307,237915,1,8,1:0:0:0:
198,257,237991,5,8,1:3:0:0:
183,260,238067,1,8,1:3:0:0:
168,264,238143,1,8,1:3:0:0:
153,268,238219,1,8,1:3:0:0:
139,274,238295,6,0,B|125:201|125:201|110:186|110:186|95:97|95:97|50:78|50:78|86:18|150:7|215:43,1,399,0|0,1:0|2:0,1:0:0:0:
